osu file format v14

[General]
AudioFilename: audio.mp3
AudioLeadIn: 0
PreviewTime: 52267
Countdown: 1
SampleSet: Soft
StackLeniency: 0.5
Mode: 0
LetterboxInBreaks: 0
WidescreenStoryboard: 0

[Editor]
DistanceSpacing: 1.2
BeatDivisor: 4
GridSize: 4
TimelineZoom: 3.499999

[Metadata]
Title:Kai
TitleUnicode:解
Artist:CustomiZ
ArtistUnicode:カスタマイZ
Creator:MisakiAN
Version:Kings Pride
Source:K RETURN OF KINGS
Tags:K Project S2 Op
BeatmapID:1262429
BeatmapSetID:597109

[Difficulty]
HPDrainRate:6.6
CircleSize:4
OverallDifficulty:9
ApproachRate:9.5
SliderMultiplier:2
SliderTickRate:1

[Events]
//Background and Video events
0,0,"BG.jpg",0,0
Video,0,"optc.flv"
//Break Periods
2,27649,34561
2,37739,42197
2,44422,51061
//Storyboard Layer 0 (Background)
//Storyboard Layer 1 (Fail)
//Storyboard Layer 2 (Pass)
//Storyboard Layer 3 (Foreground)
//Storyboard Sound Samples

[TimingPoints]
177,272.727272727273,4,2,1,100,1,0
177,-153.846153846153,4,2,1,100,0,0
7677,-71.4285714285714,4,2,1,100,0,0
8904,-100,4,2,1,100,0,0
17631,-133.333333333333,4,2,1,100,0,0
25404,-90.9090909090909,4,2,1,100,0,0
26358,-111.111111111111,4,2,1,100,0,0
33858,-83.3333333333333,4,2,1,100,0,0
35086,-181.818181818181,4,2,1,100,0,0
52540,-100,4,2,1,100,0,1
60040,-71.4285714285714,4,2,1,100,0,1
61199,-100,4,2,1,100,0,0
61267,-100,4,2,1,100,0,1
68767,-71.4285714285714,4,2,1,100,0,1
69722,-133.333333333333,4,2,1,100,0,1
69995,-200,4,2,1,100,0,0
70267,-100,4,2,1,100,0,1
77495,-71.4285714285714,4,2,1,100,0,1
78654,-100,4,2,1,100,0,0
78722,-100,4,2,1,100,0,1
87449,-100,4,2,1,100,0,0

[Colours]
Combo1 : 240,240,240
Combo2 : 56,56,56
Combo3 : 86,86,88
Combo4 : 124,124,124
Combo5 : 172,172,172
SliderBorder : 255,255,255
SliderTrackOverride : 0,0,0

[HitObjects]
156,228,177,6,0,P|196:268|228:288,1,64.9999970245363,4|0,0:0|0:0,0:0:0:0:
280,228,449,1,0,0:0:0:0:
168,148,586,2,0,P|100:156|64:208,1,129.999994049073
72,332,995,1,0,0:0:0:0:
156,228,1131,1,0,0:0:0:0:
200,332,1267,1,0,0:0:0:0:
80,128,1404,6,0,B|112:96|112:96|200:100,1,129.999994049073
272,276,1813,2,0,P|260:192|264:124,1,129.999994049073
344,80,2222,1,0,0:0:0:0:
424,248,2358,6,0,P|356:268|344:268,1,64.9999970245363
196,212,2631,1,0,0:0:0:0:
344,80,2767,2,0,P|408:128|424:200,1,129.999994049073
364,268,3177,2,0,B|298:253|306:297|210:273,1,129.999994049073
60,196,3586,2,0,B|129:214|121:170|187:185,1,129.999994049073
364,268,3995,2,0,P|388:188|352:132,1,129.999994049073
232,48,4404,1,0,0:0:0:0:
240,56,4472,1,0,0:0:0:0:
240,56,4540,6,0,L|148:48,1,64.9999970245363,4|0,0:0|0:0,0:0:0:0:
84,116,4813,1,0,0:0:0:0:
192,196,4949,2,0,L|340:212,1,129.999994049073
404,128,5358,1,0,0:0:0:0:
416,248,5495,1,0,0:0:0:0:
464,160,5631,1,0,0:0:0:0:
480,312,5767,2,0,P|416:344|344:308,1,129.999994049073
248,128,6177,2,0,P|184:120|132:160,1,129.999994049073
100,280,6586,1,0,0:0:0:0:
100,280,6722,6,0,P|164:292|196:280,1,64.9999970245363
272,216,6995,1,0,0:0:0:0:
184,48,7131,2,0,P|92:96|72:156,1,129.999994049073
56,216,7540,1,0,0:0:0:0:
184,152,7677,6,0,P|256:156|192:252,1,209.999993591309,12|0,0:0|0:0,0:0:0:0:
216,200,7949,2,0,P|320:184|408:232,1,209.999993591309,12|0,0:0|0:0,0:0:0:0:
400,296,8222,2,0,B|344:252|344:252|336:96,1,209.999993591309,12|0,0:0|0:0,0:0:0:0:
288,88,8495,2,8,L|448:64,1,139.999995727539,8|0,0:0|0:0,0:0:0:0:
256,16,8767,1,8,0:0:0:0:
216,200,8904,6,0,B|284:268|284:336|284:336|324:292,1,200,4|8,0:0|0:0,0:0:0:0:
380,224,9313,1,0,0:0:0:0:
312,136,9449,2,0,P|252:84|220:72,1,100
84,24,9722,2,0,L|100:132,1,100,8|0,0:0|0:0,0:0:0:0:
208,268,9995,2,0,L|188:148,1,100
233,76,10267,2,0,P|297:88|337:84,1,100,8|8,0:0|0:0,0:0:0:0:
444,36,10540,2,0,P|396:64|404:192,1,200,0|8,0:0|0:0,0:0:0:0:
468,124,10949,1,0,0:0:0:0:
352,264,11086,6,0,P|284:288|216:280,1,100,4|0,0:0|0:0,0:0:0:0:
80,224,11358,2,0,P|164:196|196:200,1,100,8|0,0:0|0:0,0:0:0:0:
360,264,11631,1,0,0:0:0:0:
296,176,11767,1,0,0:0:0:0:
204,340,11904,2,0,L|184:216,1,100,8|0,0:0|0:0,0:0:0:0:
56,84,12177,2,0,P|100:108|164:112,1,100
376,100,12449,2,0,P|312:80|264:80,1,100,8|8,0:0|0:0,0:0:0:0:
112,216,12722,2,0,B|176:240|176:240|292:164,1,200,0|8,0:0|0:0,0:0:0:0:
376,100,13131,1,0,0:0:0:0:
472,268,13267,6,0,B|412:264|412:264|348:292|348:292|268:280,1,200,4|8,0:0|0:0,0:0:0:0:
152,300,13677,1,0,0:0:0:0:
188,168,13813,2,0,P|256:164|312:172,1,100
472,268,14086,2,0,P|392:280|344:268,1,100,8|0,0:0|0:0,0:0:0:0:
287,167,14358,1,0,0:0:0:0:
220,340,14495,1,0,0:0:0:0:
112,280,14631,2,0,P|104:208|104:172,1,100,8|8,0:0|0:0,0:0:0:0:
220,56,14904,2,0,P|272:112|172:112,1,200,0|8,0:0|0:0,0:0:0:0:
140,52,15313,1,0,0:0:0:0:
328,40,15449,6,0,P|344:76|260:228,1,200,4|8,0:0|0:0,0:0:0:0:
180,264,15858,1,0,0:0:0:0:
88,100,15995,2,0,P|152:88|200:100,1,100
388,212,16267,2,0,L|272:216,1,100,8|0,0:0|0:0,0:0:0:0:
176,268,16540,1,0,0:0:0:0:
104,144,16677,1,0,0:0:0:0:
44,280,16813,2,8,P|84:332|156:336,1,100,8|0,0:0|0:0,0:0:0:0:
328,304,17086,6,0,L|204:284,1,100,2|2,0:0|0:0,0:0:0:0:
212,148,17358,1,0,0:0:0:0:
124,256,17495,1,0,0:0:0:0:
328,304,17631,6,0,B|360:208|364:132|364:132|364:124,1,150.000005722046,4|0,0:0|0:0,0:0:0:0:
300,64,18040,1,0,0:0:0:0:
287,76,18177,2,0,B|219:96|159:96|159:96|171:60,1,150.000005722046,8|0,0:0|0:0,0:0:0:0:
232,2,18586,1,0,0:0:0:0:
289,150,18722,2,0,P|263:196|161:213,1,150.000005722046
95,161,19131,1,0,0:0:0:0:
165,77,19267,2,0,L|268:71,1,75.0000028610231,8|0,0:0|0:0,0:0:0:0:
328,36,19540,1,0,0:0:0:0:
396,104,19677,1,0,0:0:0:0:
324,200,19813,6,0,B|268:212|208:220|208:220|216:180,1,150.000005722046,2|0,0:0|0:0,0:0:0:0:
248,100,20222,1,0,0:0:0:0:
324,200,20358,2,0,P|328:260|256:336,1,150.000005722046,8|0,0:0|0:0,0:0:0:0:
192,288,20767,2,0,P|120:268|40:284,1,150.000005722046,0|8,0:0|0:0,0:0:0:0:
56,368,21177,5,0,0:0:0:0:
0,224,21313,1,0,0:0:0:0:
120,144,21449,1,8,0:0:0:0:
192,284,21586,2,0,P|292:276|356:252,1,150.000005722046
416,88,21995,6,0,P|364:76|264:96,1,150.000005722046,8|0,0:3|0:0,0:0:0:0:
200,152,22404,1,0,0:0:0:0:
200,152,22540,2,0,P|152:104|68:120,1,150.000005722046,8|0,0:0|0:0,0:0:0:0:
32,208,22949,1,0,0:0:0:0:
164,252,23086,2,0,P|220:248|260:236,1,75.0000028610231,0|8,0:0|0:0,0:0:0:0:
288,172,23358,1,0,0:0:0:0:
376,184,23495,2,0,L|396:272,1,75.0000028610231,0|8,0:0|0:0,0:0:0:0:
340,324,23767,1,0,0:0:0:0:
248,352,23904,2,0,L|160:352,1,75.0000028610231
72,248,24177,6,0,B|56:140|72:80,1,150.000005722046,8|0,0:3|0:0,0:0:0:0:
168,48,24586,1,0,0:0:0:0:
236,108,24722,2,0,L|160:132,1,75.0000028610231,8|0,0:0|0:0,0:0:0:0:
64,168,24995,1,0,0:0:0:0:
172,284,25131,6,0,P|240:280|312:288,1,112.500004291535
324,300,25404,2,0,L|336:120,1,165.000005035401
316,96,25677,2,0,P|256:80|144:124,1,165.000005035401
128,80,25949,2,0,P|196:36|252:36,1,110.000003356934,0|8,0:0|0:0,0:0:0:0:
348,20,26222,1,8,0:0:0:0:
432,176,26358,6,0,P|436:232|432:296,1,89.9999972534181,4|0,0:0|0:0,0:0:0:0:
368,344,26631,1,0,0:0:0:0:
312,188,26767,1,0,0:0:0:0:
224,344,26904,1,8,0:0:0:0:
232,136,27040,1,8,0:0:0:0:
104,284,27177,1,8,0:0:0:0:
232,226,27313,2,0,L|232:106,1,89.9999972534181,8|0,0:0|0:0,0:0:0:0:
160,292,35086,6,0,L|288:276,1,110.000003356934,4|0,0:0|0:0,0:0:0:0:
368,204,35496,1,2,0:0:0:0:
344,320,35632,1,2,0:0:0:0:
248,180,35767,1,2,0:0:0:0:
240,360,35904,1,2,0:0:0:0:
104,192,36040,1,2,0:0:0:0:
252,224,36177,2,0,P|248:140|260:108,1,110.000003356934,2|2,0:0|0:0,0:0:0:0:
388,32,36586,2,0,P|400:84|384:152,1,110.000003356934,2|2,0:0|0:0,0:0:0:0:
340,224,36995,2,0,L|272:232,1,55.0000016784668,2|2,0:0|0:0,0:0:0:0:
36,84,37267,6,2,B|68:64|68:64|160:60,1,110.000003356934,4|2,0:0|0:0,0:0:0:0:
112,88,42722,5,8,0:0:0:0:
136,280,42858,1,8,0:0:0:0:
332,184,42995,1,0,0:0:0:0:
344,184,43267,5,8,0:0:0:0:
264,0,43404,1,8,0:0:0:0:
88,96,43540,1,0,0:0:0:0:
88,96,43813,6,0,P|152:104|168:104,1,55.0000016784668,4|2,0:0|0:0,0:0:0:0:
268,64,44086,2,0,P|220:56|188:60,1,55.0000016784668,2|2,0:0|0:0,0:0:0:0:
352,200,51586,5,8,0:0:0:0:
184,72,51722,1,8,0:0:0:0:
184,288,51858,1,8,0:0:0:0:
356,52,51995,1,8,0:0:0:0:
476,200,52404,1,0,0:0:0:0:
408,288,52540,6,0,B|300:224|308:332|200:264,1,200,4|8,0:0|0:0,0:0:0:0:
136,164,52949,1,0,0:0:0:0:
265,131,53086,2,0,P|385:111|393:115,1,100,2|2,0:0|0:0,0:0:0:0:
217,274,53358,2,0,P|133:302|89:294,1,100,8|0,0:0|0:0,0:0:0:0:
20,208,53631,5,2,0:0:0:0:
144,208,53767,1,2,0:0:0:0:
36,324,53904,2,0,P|12:260|16:200,1,100,8|0,0:0|0:0,0:0:0:0:
80,96,54177,1,2,0:0:0:0:
80,196,54313,1,2,0:0:0:0:
12,40,54449,2,0,P|76:24|132:28,1,100,8|2,0:0|0:0,0:0:0:0:
196,48,54654,1,2,0:0:0:0:
204,52,54722,6,0,B|220:144|216:216|216:216|268:164,1,200,6|8,0:0|0:0,0:0:0:0:
304,112,55131,1,0,0:0:0:0:
383,184,55267,2,0,P|347:232|291:272,1,100,2|2,0:0|0:0,0:0:0:0:
144,300,55540,2,0,P|116:232|120:200,1,100,8|0,0:0|0:0,0:0:0:0:
212,120,55813,5,2,0:0:0:0:
192,228,55949,1,2,0:0:0:0:
40,168,56086,2,0,L|36:64,1,100,8|0,0:0|0:0,0:0:0:0:
172,28,56358,1,2,0:0:0:0:
128,120,56495,1,2,0:0:0:0:
388,92,56631,2,0,L|212:124,1,150,8|0,0:0|0:0,0:0:0:0:
176,204,56904,6,0,L|304:184,1,100,4|0,0:0|0:0,0:0:0:0:
456,156,57177,1,8,0:0:0:0:
324,292,57313,2,0,P|252:312|228:312,1,100,0|2,0:0|0:0,0:0:0:0:
79,262,57586,1,2,0:0:0:0:
152,120,57722,2,0,L|264:104,1,100,8|0,0:0|0:0,0:0:0:0:
227,311,57995,6,0,P|143:339|83:235,1,200,0|8,0:0|0:0,0:0:0:0:
100,72,58404,2,0,P|220:52|252:136,1,200
96,192,58813,2,0,P|40:184|0:144,1,100,8|0,0:0|0:0,0:0:0:0:
172,112,59086,6,0,B|256:100|256:100|404:108,1,200,4|8,0:0|0:0,0:0:0:0:
479,178,59495,1,0,0:0:0:0:
276,208,59631,1,0,0:0:0:0:
412,318,59767,1,8,0:0:0:0:
370,106,59904,1,8,0:0:0:0:
320,285,60040,6,0,P|225:337|190:264,1,209.999993591309,8|0,0:0|0:0,0:0:0:0:
255,276,60313,2,0,B|254:232|324:181|371:232|381:264|381:264|378:178,1,209.999993591309,8|0,0:0|0:0,0:0:0:0:
383,165,60586,2,0,P|347:85|248:133,1,209.999993591309,8|0,0:0|0:0,0:0:0:0:
315,148,60858,2,0,L|419:12,1,139.999995727539,8|8,0:0|0:0,0:0:0:0:
324,0,61131,1,8,0:0:0:0:
384,265,61267,6,0,B|268:321|268:321|164:318,1,200,4|8,0:0|0:0,0:0:0:0:
124,252,61677,1,0,0:0:0:0:
180,180,61813,2,0,P|248:168|316:196,1,100,2|2,0:0|0:0,0:0:0:0:
68,320,62086,2,0,P|44:264|52:180,1,100,8|0,0:0|0:0,0:0:0:0:
124,132,62358,5,2,0:0:0:0:
124,252,62495,1,2,0:0:0:0:
32,56,62631,2,0,P|112:40|160:44,1,100,8|0,0:0|0:0,0:0:0:0:
244,48,62904,1,2,0:0:0:0:
180,148,63040,1,2,0:0:0:0:
356,152,63177,1,8,0:0:0:0:
264,24,63313,1,2,0:0:0:0:
264,24,63381,1,2,0:0:0:0:
264,24,63449,6,0,P|256:112|264:232,1,200,6|8,0:0|0:0,0:0:0:0:
316,304,63858,1,0,0:0:0:0:
444,216,63995,2,0,P|376:212|328:220,1,100,2|2,0:0|0:0,0:0:0:0:
196,348,64267,2,0,L|176:212,1,100,8|0,0:0|0:0,0:0:0:0:
171,102,64540,5,2,0:0:0:0:
85,226,64677,1,2,0:0:0:0:
99,28,64813,2,0,L|235:21,1,100,8|0,0:0|0:0,0:0:0:0:
344,36,65086,1,2,0:0:0:0:
246,136,65222,1,2,0:0:0:0:
436,23,65358,2,0,P|456:87|459:207,1,150,8|0,0:0|0:0,0:0:0:0:
445,251,65631,6,0,B|385:278|295:267|295:267|341:240,1,200,4|8,0:0|0:0,0:0:0:0:
408,164,66040,1,0,0:0:0:0:
304,340,66177,2,2,L|176:344,1,100
36,216,66449,2,0,L|156:212,1,100,8|0,0:0|0:0,0:0:0:0:
276,144,66722,1,2,0:0:0:0:
216,264,66858,1,2,0:0:0:0:
384,264,66995,5,8,0:0:0:0:
152,128,67131,1,8,0:0:0:0:
300,124,67267,1,2,0:0:0:0:
208,280,67404,1,2,0:0:0:0:
396,176,67540,2,0,L|494:132,1,100,8|0,0:0|0:0,0:0:0:0:
280,64,67813,6,0,B|176:112|168:152|168:152|248:136,1,200,4|8,0:0|0:0,0:0:0:0:
344,120,68222,1,0,0:0:0:0:
404,332,68358,1,8,0:0:0:0:
480,240,68495,1,0,0:0:0:0:
268,256,68631,1,8,0:0:0:0:
348,28,68767,6,4,P|468:68|452:116,1,209.999993591309,8|0,0:0|0:0,0:0:0:0:
412,144,69040,2,0,B|284:128|256:176|256:176|356:212,1,209.999993591309,8|0,0:0|0:0,0:0:0:0:
356,196,69313,2,0,P|312:272|140:200,1,279.999991455078,8|8,0:0|0:0,0:0:0:0:
60,96,69722,1,2,0:0:0:0:
60,96,69995,2,0,L|140:96,1,75
188,44,70267,6,0,B|276:32|352:48|352:48|288:72,1,200,4|2,0:0|0:0,0:0:0:0:
240,132,70677,1,2,0:0:0:0:
372,304,70813,2,0,P|396:244|392:180,1,100,8|0,0:0|0:0,0:0:0:0:
352,48,71086,5,2,0:0:0:0:
240,132,71222,1,2,0:0:0:0:
109,14,71358,2,0,P|61:82|69:138,1,100,8|0,0:0|0:0,0:0:0:0:
200,212,71631,1,2,0:0:0:0:
156,96,71767,1,2,0:0:0:0:
316,232,71904,2,0,L|460:216,1,100,8|2,0:0|0:0,0:0:0:0:
448,216,72108,1,2,0:0:0:0:
448,216,72177,6,0,B|492:68|444:64|444:64|400:80,1,200,6|8,0:0|0:0,0:0:0:0:
320,140,72586,1,0,0:0:0:0:
240,64,72722,2,0,L|136:60,1,100,2|2,0:0|0:0,0:0:0:0:
32,240,72995,2,0,P|92:168|80:128,1,100,8|0,0:0|0:0,0:0:0:0:
40,40,73267,5,2,0:0:0:0:
0,152,73404,1,2,0:0:0:0:
160,268,73540,2,0,L|292:260,1,100,8|0,0:0|0:0,0:0:0:0:
396,252,73813,1,2,0:0:0:0:
284,352,73949,1,2,0:0:0:0:
256,104,74086,2,0,P|364:88|400:128,1,150,8|0,0:0|0:0,0:0:0:0:
472,180,74358,6,0,L|336:184,1,100,4|0,0:0|0:0,0:0:0:0:
104,48,74631,2,0,L|212:40,1,100,8|0,0:0|0:0,0:0:0:0:
320,148,74904,1,2,0:0:0:0:
248,228,75040,1,2,0:0:0:0:
292,36,75177,2,8,L|420:24,1,100,8|0,0:0|0:0,0:0:0:0:
504,204,75449,6,0,P|436:216|384:208,1,100,2|2,0:0|0:0,0:0:0:0:
292,36,75722,2,0,P|340:68|356:132,1,100,8|8,0:0|0:0,0:0:0:0:
312,256,75995,1,2,0:0:0:0:
264,128,76131,1,2,0:0:0:0:
436,304,76267,2,0,P|364:332|312:332,1,100,8|0,0:0|0:0,0:0:0:0:
140,236,76540,6,0,B|72:240|8:260|8:260|80:272,1,200,4|8,0:0|0:0,0:0:0:0:
228,348,76949,1,0,0:0:0:0:
288,160,77086,1,8,0:0:0:0:
140,236,77222,1,0,0:0:0:0:
312,312,77358,1,0,0:0:0:0:
135,99,77495,6,0,P|230:47|265:120,1,209.999993591309,8|0,0:0|0:0,0:0:0:0:
200,108,77768,2,0,B|201:152|131:203|84:152|74:120|74:120|77:206,1,209.999993591309,8|0,0:0|0:0,0:0:0:0:
72,219,78041,2,0,P|108:299|207:251,1,209.999993591309,8|0,0:0|0:0,0:0:0:0:
140,236,78313,2,0,L|36:372,1,139.999995727539,8|8,0:0|0:0,0:0:0:0:
223,376,78586,1,8,0:0:0:0:
