osu file format v14

[General]
AudioFilename: audio.mp3
AudioLeadIn: 0
PreviewTime: 52864
Countdown: 0
SampleSet: Normal
StackLeniency: 0.7
Mode: 0
LetterboxInBreaks: 0
WidescreenStoryboard: 0

[Editor]
Bookmarks: 49050,56678,63731,78412
DistanceSpacing: 1
BeatDivisor: 4
GridSize: 4
TimelineZoom: 2.5

[Metadata]
Title:COOLEST
TitleUnicode:COOLEST
Artist:CustomiZ
ArtistUnicode:カスタマイZ
Creator:TaMul
Version:Normal
Source:坂本ですが?
Tags:Left HabiHolic Sakamoto Desu Ga? op opening tv size
BeatmapID:1112742
BeatmapSetID:483166

[Difficulty]
HPDrainRate:4
CircleSize:3.5
OverallDifficulty:4
ApproachRate:5
SliderMultiplier:0.98
SliderTickRate:2

[Events]
//Background and Video events
Video,0,"video.avi"
0,0,"bg.jpg",0,0
//Break Periods
//Storyboard Layer 0 (Background)
//Storyboard Layer 1 (Fail)
//Storyboard Layer 2 (Pass)
//Storyboard Layer 3 (Foreground)
//Storyboard Sound Samples

[TimingPoints]
-114,319.148936170213,4,1,1,75,1,0
3396,-100,4,1,3,75,0,0
3715,-100,4,1,1,75,0,0
5151,-100,4,1,4,75,0,0
5790,-100,4,1,2,75,0,0
5949,-100,4,1,7,75,0,0
6109,-100,4,1,5,75,0,0
6268,-100,4,1,1,75,0,0
9300,-100,4,1,2,75,0,0
9939,-100,4,1,1,75,0,0
10417,-100,4,1,3,75,0,0
11056,-100,4,1,7,75,0,0
11375,-100,4,1,2,75,0,0
11694,-100,4,1,4,75,0,0
12013,-100,4,1,8,75,0,0
12173,-100,4,1,8,75,0,0
12332,-100,4,1,4,75,0,0
12651,-100,4,1,15,75,0,0
12811,-100,4,1,4,75,0,0
13449,-100,4,1,8,75,0,0
13609,-100,4,1,4,75,0,0
16481,-100,4,3,10,75,0,0
16800,-100,4,1,4,75,0,0
17279,-100,4,1,8,75,0,0
17439,-100,4,1,4,75,0,0
18556,-100,4,1,8,75,0,0
18715,-100,4,1,4,75,0,0
19034,-100,4,1,9,75,0,0
21588,-100,4,1,1,75,0,0
22386,-100,4,1,8,75,0,0
22545,-100,4,1,4,75,0,0
23662,-100,4,1,8,75,0,0
23822,-100,4,1,4,75,0,0
24939,-100,4,1,8,75,0,0
25098,-100,4,1,4,75,0,0
26375,-100,4,1,2,75,0,0
27332,-100,4,1,1,75,0,0
27492,-100,4,1,8,75,0,0
27651,-100,4,1,2,75,0,0
27971,-100,4,1,1,75,0,0
28290,-100,4,1,3,75,0,0
28928,-100,4,1,4,75,0,0
29247,-100,4,1,1,75,0,0
29726,-100,4,1,5,75,0,0
30205,-100,4,1,4,75,0,0
30364,-100,4,1,2,75,0,0
30843,-100,4,1,4,75,0,0
31322,-100,4,3,0,75,0,0
31800,-100,4,1,1,75,0,0
31960,-100,4,1,8,75,0,0
32120,-100,4,1,4,75,0,0
33237,-100,4,1,5,75,0,0
33396,-100,4,1,4,75,0,0
34832,-100,4,1,8,75,0,0
34992,-100,4,1,4,75,0,0
35790,-100,4,1,5,75,0,0
35949,-100,4,1,4,75,0,0
36109,-100,4,1,8,75,0,0
36268,-100,4,1,3,75,0,0
36907,-100,4,1,1,75,0,0
37066,-100,4,1,8,75,0,0
37226,-100,4,1,4,75,0,0
38343,-100,4,1,5,75,0,0
38503,-100,4,1,4,75,0,0
39620,-100,4,1,8,75,0,0
39779,-100,4,1,4,75,0,0
40737,-100,4,1,1,75,0,0
41694,-100,4,1,7,75,0,0
42013,-100,4,1,4,75,0,0
42811,-100,4,1,8,75,0,0
42971,-100,4,1,4,75,0,0
43449,-100,4,1,8,75,0,0
43609,-100,4,1,4,75,0,0
44088,-100,4,1,8,75,0,0
44247,-100,4,1,4,75,0,0
47120,-100,4,1,1,75,0,0
47758,-100,4,1,2,75,0,0
48396,-100,4,1,1,75,0,0
49034,-100,4,1,2,75,0,0
49673,-100,4,1,1,75,0,0
50949,-100,4,1,3,75,0,0
53503,-100,4,1,1,75,0,1
53822,-100,4,1,5,75,0,1
53981,-100,4,1,4,75,0,1
54300,-100,4,1,8,75,0,1
54460,-100,4,1,4,75,0,1
54939,-100,4,1,8,75,0,1
55098,-100,4,1,5,75,0,1
55258,-100,4,1,4,75,0,1
56215,-100,4,1,8,75,0,1
56375,-100,4,1,1,75,0,1
56854,-100,4,1,8,75,0,1
57013,-100,4,1,2,75,0,1
57332,-100,4,1,4,75,0,1
58609,-100,4,1,1,75,0,1
58928,-100,4,1,5,75,0,1
59088,-100,4,1,4,75,0,1
61003,-100,4,1,8,75,0,1
61162,-100,4,1,4,75,0,1
61481,-100,4,1,1,75,0,1
61641,-100,4,1,8,75,0,1
61800,-100,4,1,4,75,0,1
62120,-100,4,1,2,75,0,1
63396,-100,4,1,2,75,0,0
63715,-100,4,1,1,75,0,1
64034,-100,4,1,5,75,0,1
64194,-100,4,1,4,75,0,1
64513,-100,4,1,8,75,0,1
64673,-100,4,1,4,75,0,1
66428,-100,4,1,8,75,0,1
66588,-100,4,1,1,75,0,1
67066,-100,4,1,8,75,0,1
67226,-100,4,1,2,75,0,1
68503,-100,4,1,4,75,0,0
68822,-100,4,1,1,75,0,1
69141,-100,4,1,5,75,0,1
69300,-100,4,1,1,75,0,1
69779,-100,4,1,4,75,0,1
71534,-100,4,1,8,75,0,1
71694,-100,4,1,1,75,0,1
72013,-100,4,1,4,75,0,1
72173,-100,4,1,8,75,0,1
72332,-100,4,1,2,75,0,1
72651,-100,4,3,0,75,0,1
73609,-100,4,1,7,75,0,1
73928,-100,4,1,1,75,0,1
74247,-100,4,1,5,75,0,1
74407,-100,4,1,4,75,0,1
76481,-100,4,1,1,75,0,1
76800,-100,4,1,5,75,0,1
76960,-100,4,1,4,75,0,1
79354,-100,4,1,5,75,0,1
79513,-100,4,1,4,75,0,1
81109,-100,4,1,8,75,0,1
81268,-100,4,1,7,75,0,1
81588,-100,4,1,1,75,0,0
83024,-100,4,1,5,75,0,0
83343,-100,4,1,4,75,0,0
83822,-100,4,1,7,75,0,0
84141,-100,4,1,2,75,0,0
84300,-100,4,1,5,75,0,0
84460,-100,4,1,4,75,0,0
84620,-100,4,1,1,75,0,0
85258,-100,4,1,1,75,0,0
86854,-100,4,1,8,75,0,0
87173,-100,4,1,2,75,0,0

[Colours]
Combo1 : 128,0,255
Combo2 : 255,128,128
Combo3 : 128,128,192
Combo4 : 255,128,64

[HitObjects]
132,116,1162,5,6,0:0:0:0:
132,116,3396,6,0,B|180:128|180:108|240:116,1,98,6|6,0:0|0:0,0:0:0:0:
50,79,4992,5,8,0:0:0:0:
50,79,5151,2,0,P|44:127|63:171,1,98,6|6,0:0|0:0,0:0:0:0:
56,268,5790,2,0,P|28:264|0:268,2,49,8|12|8,0:0|0:0|0:0,0:0:0:0:
104,280,6268,5,6,0:0:0:0:
196,312,6588,2,0,P|240:304|296:316,2,98,10|10|10,0:0|0:0|0:0,0:0:0:0:
216,216,7545,2,0,P|212:156|224:112,1,98,10|10,0:0|0:0,0:0:0:0:
316,136,8183,2,0,P|320:196|308:240,1,98,10|10,0:0|0:0,0:0:0:0:
404,196,8822,6,0,P|400:128|372:52,2,147,6|6|2,0:0|0:0|0:0,0:0:0:0:
396,244,9939,2,0,P|384:292|388:344,1,98,6|2,0:0|0:0,0:0:0:0:
412,380,10417,2,0,P|452:352|500:344,1,98,6|6,0:0|0:0,0:0:0:0:
496,244,11056,1,12,0:0:0:0:
404,196,11375,5,2,0:0:0:0:
308,188,11694,2,0,P|248:216|168:220,1,147,12|0,0:0|0:0,0:0:0:0:
120,208,12332,2,0,P|68:196|36:200,1,49,8|2,0:0|0:0,0:0:0:0:
104,104,12811,2,0,P|112:80|112:56,1,49,2|8,0:0|0:0,0:0:0:0:
208,44,13290,2,0,P|200:100|208:156,1,98,2|12,0:0|0:0,0:0:0:0:
232,236,13928,5,2,0:0:0:0:
232,332,14247,2,0,L|332:324,1,98,8|2,0:0|0:0,0:0:0:0:
380,320,14726,1,0,0:0:0:0:
428,316,14886,2,0,P|408:296|392:272,1,49,8|2,0:0|0:0,0:0:0:0:
396,180,15364,2,0,L|340:184,2,49,2|8|0,0:0|0:0|0:0,0:0:0:0:
444,176,15843,2,0,P|456:224|488:264,2,98,2|8|14,0:0|0:0|0:0,0:0:0:0:
464,72,16800,5,8,0:0:0:0:
372,40,17120,2,0,B|320:52|320:32|264:44,1,98,2|8,0:0|0:0,0:0:0:0:
228,60,17598,1,2,0:0:0:0:
140,100,17917,2,0,P|132:68|136:44,2,49,2|8|0,0:0|0:0|0:0,0:0:0:0:
156,148,18396,2,0,P|172:192|168:252,1,98,2|8,0:0|0:0,0:0:0:0:
76,264,19034,6,0,P|60:220|64:160,2,98,2|8|2,0:0|0:0|0:0,0:0:0:0:
144,336,19992,1,8,0:0:0:0:
240,320,20311,2,0,P|292:296|344:296,1,98,2|8,0:0|0:0,0:0:0:0:
428,312,20949,2,0,L|428:256,1,49,2|8,0:0|0:0,0:0:0:0:
452,220,21268,2,0,L|437:165,1,49,8|8,0:0|0:0,0:0:0:0:
452,124,21588,6,0,P|420:84|408:32,1,98,6|8,0:0|0:0,0:0:0:0:
312,64,22226,2,0,P|256:84|204:80,1,98,2|8,0:0|0:0,0:0:0:0:
168,76,22705,1,2,0:0:0:0:
76,112,23024,2,0,P|68:84|76:52,2,49,2|8|0,0:0|0:0|0:0,0:0:0:0:
100,156,23503,2,0,P|116:208|112:268,1,98,2|8,0:0|0:0,0:0:0:0:
212,232,24141,6,0,P|264:220|308:228,1,98,2|8,0:0|0:0,0:0:0:0:
280,324,24779,2,0,P|231:331|184:319,1,98,2|8,0:0|0:0,0:0:0:0:
140,300,25258,2,0,P|68:288|20:304,1,98,2|2,0:0|0:0,0:0:0:0:
56,244,25737,2,0,P|64:224|68:196,2,49,8|0|2,0:0|0:0|0:0,0:0:0:0:
0,160,26375,5,4,0:0:0:0:
64,88,26694,2,0,B|112:96|112:96|168:92,1,98,2|12,0:0|0:0,0:0:0:0:
256,64,27332,2,0,L|256:176,2,98,6|12|6,0:0|0:0|0:0,0:0:0:0:
350,92,28290,2,0,B|400:96|400:96|448:88,2,98,12|12|2,0:0|0:0|0:0,0:0:0:0:
256,64,29247,6,0,P|200:56|104:156,1,196,6|8,0:0|0:0,0:0:0:0:
116,244,30205,1,2,0:0:0:0:
116,244,30364,1,6,0:0:0:0:
188,312,30683,1,2,0:0:0:0:
232,336,30843,6,0,P|280:336|296:332,1,49,8|8,0:0|0:0,0:0:0:0:
328,328,31162,2,0,P|360:316|380:316,1,49,8|8,0:0|0:0,0:0:0:0:
424,324,31481,1,4,0:0:0:0:
416,228,31800,6,0,L|404:80,1,147,6|2,0:0|0:0,0:0:0:0:
400,32,32439,1,8,0:0:0:0:
312,72,32758,1,2,0:0:0:0:
312,72,32917,2,0,P|248:92|156:92,1,147,2|2,0:0|0:0,0:0:0:0:
76,68,33715,1,8,0:0:0:0:
96,164,34034,1,2,0:0:0:0:
64,256,34354,5,2,0:0:0:0:
64,256,34513,2,0,B|112:272|160:244|160:244|188:252|200:288,1,147,2|8,0:0|0:0,0:0:0:0:
256,352,35311,1,2,0:0:0:0:
348,324,35630,2,0,P|408:316|460:332,2,98,2|2|4,0:0|0:0|0:0,0:0:0:0:
304,132,36907,6,0,P|388:116|456:124,1,147,6|2,0:0|0:0,0:0:0:0:
496,136,37545,1,8,0:0:0:0:
324,228,38183,2,0,P|240:244|172:236,1,147,2|2,0:0|0:0,0:0:0:0:
132,224,38822,1,8,0:0:0:0:
100,132,39141,1,2,0:0:0:0:
132,40,39460,6,0,P|180:32|232:40,1,98,2|0,0:0|0:0,0:0:0:0:
320,76,40098,2,0,P|364:112|416:112,1,98,8|2,0:0|0:0,0:0:0:0:
488,64,40737,5,6,0:0:0:0:
404,12,41056,1,6,0:0:0:0:
320,76,41375,2,0,P|288:128|284:168,1,98,6|14,0:0|0:0,0:0:0:0:
300,260,42013,6,0,P|308:308|304:360,1,98,2|8,0:0|0:0,0:0:0:0:
207,357,42651,2,0,P|203:308|212:260,1,98,2|8,0:0|0:0,0:0:0:0:
116,272,43290,2,0,B|68:284|68:284|16:280,1,98,2|8,0:0|0:0,0:0:0:0:
20,184,43928,2,0,B|68:172|68:172|120:176,1,98,2|8,0:0|0:0,0:0:0:0:
212,160,44566,5,2,0:0:0:0:
308,184,44886,1,8,0:0:0:0:
396,144,45205,1,2,0:0:0:0:
424,52,45524,2,0,P|420:32|424:0,2,49,8|2|8,0:0|0:0|0:0,0:0:0:0:
396,144,46162,5,8,0:0:0:0:
432,236,46481,1,8,0:0:0:0:
504,304,46800,2,0,P|512:328|512:352,2,49,8|2|6,0:0|0:0|0:0,0:0:0:0:
308,304,47758,5,12,0:0:0:0:
212,288,48077,2,0,P|184:288|152:300,1,49,2|0,0:0|0:0,0:0:0:0:
120,320,48396,2,0,L|128:172,1,147,6|2,0:0|0:0,0:0:0:0:
132,124,49034,1,12,0:0:0:0:
228,148,49354,1,2,0:0:0:0:
208,52,49673,5,6,0:0:0:0:
112,28,49992,1,2,0:0:0:0:
44,100,50311,2,0,P|48:164|40:196,1,98,8|2,0:0|0:0,0:0:0:0:
256,192,50949,12,12,52226,0:0:0:0:
88,284,53183,5,8,0:0:0:0:
180,244,53503,2,0,P|128:192|48:192,2,147,6|2|8,0:0|0:0|0:0,0:0:0:0:
240,324,54779,2,0,P|304:352|384:312,1,147,2|2,0:0|0:0,0:0:0:0:
400,232,55577,2,0,P|392:200|392:172,1,49,2|8,0:0|0:0,0:0:0:0:
396,136,55896,1,0,0:0:0:0:
404,88,56056,6,0,P|344:96|296:92,1,98,2|12,0:0|0:0,0:0:0:0:
208,80,56694,2,0,P|159:78|110:85,1,98,2|12,0:0|0:0,0:0:0:0:
140,180,57332,2,0,P|188:181|237:174,2,98,2|2|2,0:0|0:0|0:0,0:0:0:0:
44,164,58290,1,8,0:0:0:0:
16,72,58609,6,0,P|64:24|144:4,1,147,6|2,0:0|0:0,0:0:0:0:
236,16,59407,1,2,0:0:0:0:
236,16,59566,2,0,P|292:36|336:32,1,98,8|2,0:0|0:0,0:0:0:0:
424,12,60205,1,8,0:0:0:0:
424,12,60364,2,0,L|416:120,1,98,2|2,0:0|0:0,0:0:0:0:
416,160,60843,6,0,L|424:216,2,49,8|0|2,0:0|0:0|0:0,0:0:0:0:
320,164,61481,2,0,L|326:212,2,49,12|0|2,0:0|0:0|0:0,0:0:0:0:
220,168,62120,2,0,L|236:272,1,98,12|2,0:0|0:0,0:0:0:0:
296,340,62758,1,2,0:0:0:0:
388,304,63077,1,2,0:0:0:0:
484,308,63396,1,8,0:0:0:0:
468,212,63715,6,0,B|460:136|460:136|472:56,2,147,6|2|8,0:0|0:0|0:0,0:0:0:0:
372,188,64992,2,0,L|316:184,1,49,2|2,0:0|0:0,0:0:0:0:
276,188,65311,2,0,L|224:200,1,49,8|2,0:0|0:0,0:0:0:0:
132,188,65790,2,0,P|136:216|132:240,2,49,2|8|0,0:0|0:0|0:0,0:0:0:0:
124,140,66268,6,0,P|120:80|132:28,1,98,2|12,0:0|0:0,0:0:0:0:
224,56,66907,2,0,P|280:72|324:68,1,98,2|12,0:0|0:0,0:0:0:0:
412,44,67545,1,2,0:0:0:0:
496,96,67864,1,2,0:0:0:0:
496,192,68183,2,0,P|476:244|476:288,1,98,8|2,0:0|0:0,0:0:0:0:
396,340,68822,6,0,P|360:296|268:280,1,147,4|2,0:0|0:0,0:0:0:0:
180,308,69620,1,2,0:0:0:0:
180,308,69779,2,0,P|128:332|72:332,1,98,8|2,0:0|0:0,0:0:0:0:
68,240,70417,1,8,0:0:0:0:
68,240,70577,2,0,P|120:216|176:216,1,98,2|2,0:0|0:0,0:0:0:0:
208,220,71056,1,8,0:0:0:0:
300,188,71375,6,0,L|292:88,1,98,2|12,0:0|0:0,0:0:0:0:
388,84,72013,2,0,L|395:181,1,98,2|12,0:0|0:0,0:0:0:0:
492,176,72651,2,0,L|484:78,2,98,8|4|4,1:3|0:0|0:0,0:0:0:0:
448,264,73609,1,12,0:0:0:0:
496,348,73928,6,0,P|448:364|352:260,1,196,6|2,0:0|0:0,0:0:0:0:
372,180,74886,1,8,0:0:0:0:
280,212,75205,2,0,P|224:248|180:256,1,98,2|8,0:0|0:0,0:0:0:0:
144,256,75683,1,0,0:0:0:0:
96,248,75843,2,0,P|72:244|32:252,2,49,2|2|8,0:0|0:0|0:0,0:0:0:0:
132,340,76481,6,0,P|204:344|320:296,1,196,6|2,0:0|0:0,0:0:0:0:
352,208,77439,1,8,0:0:0:0:
304,124,77758,6,0,P|288:96|296:24,1,98,2|8,0:0|0:0,0:0:0:0:
384,64,78396,2,0,P|428:68|480:56,1,98,2|2,0:0|0:0,0:0:0:0:
476,152,79034,6,0,P|448:184|416:348,1,196,2|2,0:0|0:0,0:0:0:0:
320,296,79992,1,8,0:0:0:0:
224,320,80311,2,0,P|188:344|128:352,1,98,8|2,0:0|0:0,0:0:0:0:
60,292,80949,2,0,P|57:248|80:192,1,98,2|12,0:0|0:0,0:0:0:0:
156,140,81588,1,6,0:0:0:0:
500,328,82864,6,0,L|506:376,2,49,8|8|8,0:0|0:0|0:0,0:0:0:0:
496,280,83343,2,0,B|496:232|496:232|484:176,1,98,2|0,0:0|0:0,0:0:0:0:
472,136,83822,1,4,0:0:0:0:
376,160,84141,5,2,0:0:0:0:
328,148,84300,2,0,P|288:140|260:144,1,49,8|8,0:0|0:0,0:0:0:0:
232,148,84620,1,2,0:0:0:0:
212,244,84939,2,0,L|220:300,1,49,2|8,0:0|0:0,0:0:0:0:
228,340,85258,6,0,P|272:332|332:340,1,98,2|2,0:0|0:0,0:0:0:0:
372,352,85737,2,0,P|412:360|436:360,1,49,2|2,0:0|0:0,0:0:0:0:
468,360,86056,1,8,0:0:0:0:
484,264,86375,1,8,0:0:0:0:
412,196,86694,6,0,P|344:176|272:216,1,147,8|6,0:0|0:0,0:0:0:0:
