osu file format v14

[General]
AudioFilename: audio.mp3
AudioLeadIn: 0
PreviewTime: 52864
Countdown: 0
SampleSet: Normal
StackLeniency: 0.4
Mode: 0
LetterboxInBreaks: 0
WidescreenStoryboard: 0

[Editor]
Bookmarks: 19018,34018,43752,76465
DistanceSpacing: 1
BeatDivisor: 4
GridSize: 4
TimelineZoom: 2.1

[Metadata]
Title:COOLEST
TitleUnicode:COOLEST
Artist:CustomiZ
ArtistUnicode:カスタマイZ
Creator:TaMul
Version:Extra
Source:坂本ですが?
Tags:Left HabiHolic Sakamoto Desu Ga? op opening tv size
BeatmapID:1112116
BeatmapSetID:483166

[Difficulty]
HPDrainRate:7
CircleSize:4
OverallDifficulty:8.5
ApproachRate:9.3
SliderMultiplier:2.08
SliderTickRate:2

[Events]
//Background and Video events
Video,0,"video.avi"
0,0,"bg.jpg",0,0
//Break Periods
//Storyboard Layer 0 (Background)
//Storyboard Layer 1 (Fail)
//Storyboard Layer 2 (Pass)
//Storyboard Layer 3 (Foreground)
//Storyboard Sound Samples

[TimingPoints]
-114,319.148936170213,4,1,1,25,1,0
683,-100,4,1,1,35,0,0
843,-100,4,1,1,55,0,0
1003,-100,4,1,1,65,0,0
3077,-142.857142857143,4,1,1,65,0,0
3396,-200,4,1,2,65,0,0
3715,-100,4,1,1,65,0,0
5151,-100,4,1,4,65,0,0
5630,-100,4,1,1,65,0,0
5949,-100,4,1,7,65,0,0
6109,-100,4,1,5,65,0,0
6268,-200,4,1,1,65,0,0
6348,-200,4,1,1,5,0,0
6588,-100,4,1,1,30,0,0
6667,-100,4,1,1,15,0,0
6907,-100,4,1,1,40,0,0
6987,-100,4,1,1,20,0,0
7226,-100,4,1,1,50,0,0
7306,-100,4,1,1,25,0,0
7545,-100,4,1,1,60,0,0
7625,-100,4,1,1,30,0,0
7864,-100,4,1,1,70,0,0
7944,-100,4,1,1,35,0,0
8183,-100,4,1,1,80,0,0
8263,-100,4,1,1,40,0,0
8503,-100,4,1,1,90,0,0
8822,-100,4,1,1,90,0,0
9300,-100,4,1,2,65,0,0
9460,-100,4,3,0,65,0,0
9779,-100,4,1,2,65,0,0
9939,-100,4,1,1,65,0,0
10098,-100,4,1,1,65,0,0
10417,-100,4,1,3,65,0,0
10737,-200,4,1,3,65,0,0
11056,-166.666666666667,4,1,7,65,0,0
11375,-100,4,1,1,75,0,0
11534,-100,4,1,4,75,0,0
12651,-100,4,1,15,75,0,0
12811,-100,4,1,4,75,0,0
16481,-100,4,3,10,75,0,0
16641,-100,4,1,4,75,0,0
17758,-100,4,1,15,75,0,0
17917,-100,4,1,4,75,0,0
19034,-100,4,1,9,80,0,0
19673,-100,4,1,9,85,0,0
20311,-100,4,1,17,85,0,0
20391,-100,4,1,9,85,0,0
20949,-100,4,1,4,80,0,0
21588,-100,4,1,1,75,0,0
21747,-100,4,1,4,75,0,0
22864,-100,4,1,15,75,0,0
23024,-100,4,1,4,75,0,0
24939,-100,4,1,8,75,0,0
25018,-100,4,1,4,75,0,0
25417,-100,4,1,15,75,0,0
25577,-100,4,1,4,75,0,0
26375,-100,4,1,2,75,0,0
27332,-100,4,1,1,75,0,0
27651,-100,4,1,2,75,0,0
27971,-100,4,1,1,75,0,0
28290,-100,4,1,3,75,0,0
28768,-100,4,1,1,55,0,0
29008,-100,4,1,1,75,0,0
29886,-100,4,3,0,75,0,0
30364,-100,4,1,3,75,0,0
30444,-100,4,1,4,75,0,0
31162,-100,4,3,0,75,0,0
31641,-100,4,1,4,75,0,0
31800,-100,4,1,1,75,0,0
31960,-100,4,1,8,75,0,0
32120,-100,4,1,4,75,0,0
32598,-100,4,1,8,75,0,0
32678,-100,4,1,4,75,0,0
36268,-100,4,1,3,75,0,0
36907,-100,4,1,1,75,0,0
37226,-100,4,1,4,75,0,0
40737,-100,4,1,1,75,0,0
41056,-71.4285714285714,4,1,1,75,0,0
41375,-62.5,4,1,1,75,0,0
41694,-100,4,1,7,75,0,0
42013,-100,4,1,1,75,0,0
42173,-100,4,1,4,75,0,0
46003,-100,4,1,1,75,0,0
46162,-100,4,1,4,75,0,0
46322,-100,4,1,1,75,0,0
46561,-100,4,1,1,35,0,0
46800,-100,4,1,1,75,0,0
46880,-100,4,1,1,45,0,0
47120,-100,4,1,1,75,0,0
47758,-100,4,1,2,75,0,0
48396,-100,4,1,1,75,0,0
49034,-100,4,1,2,75,0,0
49673,-100,4,1,1,75,0,0
50311,-100,4,3,0,75,0,0
50630,-200,4,3,0,75,0,0
50790,-100,4,1,3,85,0,0
52944,-100,4,1,3,35,0,0
53183,-100,4,1,3,85,0,0
53263,-100,4,1,3,35,0,0
53503,-100,4,1,1,75,0,1
53822,-100,4,1,4,75,0,1
54141,-100,4,1,15,75,0,1
54300,-100,4,1,4,75,0,1
55417,-100,4,1,15,75,0,1
55577,-100,4,1,4,75,0,1
56375,-100,4,1,1,75,0,1
57013,-100,4,1,2,75,0,1
57253,-100,4,1,4,75,0,1
58609,-100,4,1,1,75,0,1
58928,-100,4,1,4,75,0,1
59247,-100,4,1,15,75,0,1
59407,-100,4,1,4,75,0,1
60524,-100,4,1,15,75,0,1
60683,-100,4,1,4,75,0,1
61481,-100,4,1,1,75,0,1
62120,-100,4,1,2,75,0,1
62598,-100,4,1,4,75,0,1
62758,-100,4,1,1,75,0,1
62917,-100,4,1,4,75,0,1
63077,-100,4,1,1,75,0,1
63237,-100,4,1,4,75,0,1
63396,-100,4,1,1,75,0,0
63556,-100,4,1,4,75,0,0
63715,-100,4,1,1,75,0,1
64034,-100,4,1,4,75,0,1
64354,-100,4,1,15,75,0,1
64513,-100,4,1,4,75,0,1
65630,-100,4,1,15,75,0,1
65790,-100,4,1,4,75,0,1
66588,-100,4,1,1,75,0,1
67226,-100,4,1,2,75,0,1
67545,-100,4,1,1,75,0,1
68503,-100,4,3,0,75,0,0
68822,-100,4,1,1,75,0,1
69141,-100,4,1,3,75,0,1
69300,-100,4,1,4,75,0,1
69460,-100,4,1,15,75,0,1
69620,-100,4,1,4,75,0,1
70737,-100,4,1,15,75,0,1
70896,-100,4,1,4,75,0,1
71694,-142.857142857143,4,1,1,75,0,1
72013,-100,4,1,1,75,0,1
72332,-100,4,1,2,75,0,1
72492,-100,4,1,1,75,0,1
72651,-100,4,3,0,75,0,1
73290,-100,4,1,1,75,0,1
73609,-100,4,1,7,75,0,1
73928,-100,4,1,1,75,0,1
74247,-100,4,1,4,75,0,1
76481,-100,4,1,1,75,0,1
76641,-100,4,1,4,75,0,1
76800,-142.857142857143,4,1,4,75,0,1
77120,-100,4,1,1,75,0,1
77279,-100,4,1,4,75,0,1
77439,-142.857142857143,4,1,4,75,0,1
77758,-100,4,1,1,75,0,1
79354,-100,4,1,4,75,0,1
81588,-200,4,1,1,75,0,0
81907,-166.666666666667,4,1,1,55,0,0
82226,-142.857142857143,4,1,1,55,0,0
82545,-100,4,1,1,55,0,0
82864,-100,4,1,1,65,0,0
83822,-100,4,1,7,75,0,0
84141,-100,4,1,2,75,0,0
84620,-100,4,1,1,75,0,0
85258,-100,4,1,1,75,0,0
86694,-100,4,3,0,75,0,0
87013,-100,4,1,1,75,0,0

[Colours]
Combo1 : 128,0,255
Combo2 : 255,128,128
Combo3 : 128,128,192
Combo4 : 255,128,64

[HitObjects]
68,64,524,6,0,P|56:104|56:124,1,52,8|8,0:0|0:0,0:0:0:0:
55,241,683,2,0,P|64:216|67:191,1,52,8|8,0:0|0:0,0:0:0:0:
4,320,843,5,8,0:0:0:0:
55,315,922,1,8,0:0:0:0:
107,318,1003,1,8,0:0:0:0:
158,328,1082,1,8,0:0:0:0:
208,344,1162,6,0,B|256:336|256:336|312:344,1,104,6|0,0:0|2:0,0:0:0:0:
448,328,1481,1,2,2:0:0:0:
448,328,1641,2,0,B|436:224|436:224|448:104,1,208,2|0,2:0|2:0,0:0:0:0:
256,76,2120,1,0,2:0:0:0:
256,76,2279,2,0,B|212:104|152:88|152:88|104:56|44:68,1,208,2|2,2:0|2:0,0:0:0:0:
56,224,2758,1,0,2:0:0:0:
196,0,2917,1,2,2:0:0:0:
252,320,3077,6,0,P|240:264|254:196,1,109.199996667481,2|0,2:0|2:0,0:0:0:0:
250,65,3396,6,0,B|256:60|256:60|264:96|256:130,1,78,6|0,0:0|2:0,0:0:0:0:
247,213,3715,6,0,P|298:208|350:215,1,104,4|0,0:0|2:0,0:0:0:0:
152,260,4034,1,2,2:0:0:0:
152,260,4194,2,0,B|100:272|52:248|52:248|76:188|40:140,1,208,2|2,2:0|2:0,0:0:0:0:
32,328,4673,1,0,2:0:0:0:
148,352,4832,1,2,2:0:0:0:
256,305,4992,5,8,0:0:0:0:
188,112,5151,1,6,0:0:0:0:
188,112,5471,2,0,B|220:148|280:152|280:152|328:104|384:124,1,208,6|8,0:0|0:0,0:0:0:0:
356,220,5949,1,12,0:0:0:0:
284,32,6109,1,8,0:0:0:0:
248,228,6268,6,0,B|256:264|256:264|256:308,1,78,6|0,0:0|0:0,0:0:0:0:
252,356,6588,5,10,0:0:0:0:
276,347,6667,1,8,0:0:0:0:
301,341,6747,1,8,0:0:0:0:
327,338,6827,1,8,0:0:0:0:
353,337,6907,5,10,0:0:0:0:
378,344,6986,1,8,0:0:0:0:
404,344,7066,1,8,0:0:0:0:
429,337,7146,1,8,0:0:0:0:
451,324,7226,5,10,0:0:0:0:
470,306,7305,1,8,0:0:0:0:
482,283,7385,1,8,0:0:0:0:
488,258,7465,1,8,0:0:0:0:
488,232,7545,5,10,0:0:0:0:
462,206,7624,1,8,0:0:0:0:
446,174,7704,1,8,0:0:0:0:
441,138,7784,1,8,0:0:0:0:
447,102,7864,5,10,0:0:0:0:
441,61,7943,1,8,0:0:0:0:
417,28,8023,1,8,0:0:0:0:
381,8,8103,1,8,0:0:0:0:
340,8,8183,5,10,0:0:0:0:
298,38,8262,1,8,0:0:0:0:
250,58,8342,1,8,0:0:0:0:
198,64,8422,1,8,0:0:0:0:
147,56,8503,6,0,L|152:108,1,52,10|8,0:0|0:0,0:0:0:0:
40,160,8662,2,0,L|35:108,1,52,8|8,0:0|0:0,0:0:0:0:
136,200,8822,1,6,0:0:0:0:
60,332,8981,5,8,0:0:0:0:
91,314,9060,1,8,0:0:0:0:
126,305,9140,1,8,0:0:0:0:
163,305,9220,1,8,0:0:0:0:
198,315,9300,1,6,0:0:0:0:
452,332,9460,5,8,0:0:0:0:
420,314,9540,1,8,0:0:0:0:
385,305,9620,1,4,0:0:0:0:
348,305,9699,1,4,0:0:0:0:
313,315,9779,2,0,L|320:256,1,52,8|8,0:0|0:0,0:0:0:0:
392,208,9939,6,0,P|376:156|384:92,1,104,6|8,0:0|0:0,0:0:0:0:
396,76,10178,5,8,0:0:0:0:
344,80,10258,1,8,0:0:0:0:
294,67,10337,1,0,0:0:0:0:
248,44,10417,6,0,P|189:52|161:137,1,156,6|0,0:0|2:0,0:0:0:0:
116,196,10737,6,0,P|136:208|176:208,1,52,6|0,0:0|2:0,0:0:0:0:
216,376,11056,6,0,P|208:328|176:292,1,93.5999971435548,12|0,0:0|2:0,0:0:0:0:
156,296,11375,6,0,P|236:240|212:144,1,208,6|12,0:0|0:0,0:0:0:0:
56,348,11854,1,0,0:0:0:0:
164,210,12013,1,4,0:0:0:0:
216,376,12173,1,2,0:0:0:0:
272,272,12332,1,12,0:0:0:0:
424,384,12492,6,0,P|464:344|500:240,1,156,2|0,0:0|2:0,0:0:0:0:
375,295,12811,2,0,P|390:344|424:384,1,104,2|12,0:0|0:0,0:0:0:0:
384,208,13130,1,0,0:0:0:0:
276,348,13290,2,0,P|216:336|160:348,1,104,6|2,0:0|0:0,0:0:0:0:
160,68,13609,2,0,B|220:100|280:84|280:84|248:60,1,156,12|0,0:0|2:0,0:0:0:0:
64,20,13928,6,0,B|40:64|64:120|64:120|68:176|28:216,1,208,6|12,0:0|0:0,0:0:0:0:
44,320,14407,1,0,0:0:0:0:
212,260,14566,1,6,0:0:0:0:
29,214,14726,1,2,0:0:0:0:
144,344,14886,1,12,0:0:0:0:
168,80,15045,6,0,P|148:132|136:192,1,104,2|4,0:0|0:0,0:0:0:0:
373,177,15364,2,0,P|361:127|343:79,1,104,2|12,0:0|0:0,0:0:0:0:
256,24,15683,1,0,0:0:0:0:
320,264,15843,5,6,0:0:0:0:
428,88,16003,1,2,0:0:0:0:
232,164,16162,2,0,B|120:196|120:196|136:148,1,156,12|0,0:0|2:0,0:0:0:0:
144,272,16481,6,0,P|144:336|136:380,1,104,14|0,0:0|0:0,0:0:0:0:
132,158,16800,2,0,P|132:94|140:50,1,104,12|0,0:0|0:0,0:0:0:0:
144,272,17120,1,6,0:0:0:0:
252,84,17279,1,2,0:0:0:0:
28,116,17439,1,12,0:0:0:0:
232,164,17598,2,0,B|272:168|308:148|308:148|304:156|304:156|336:140|376:152,1,156,2|0,0:0|2:0,0:0:0:0:
344,228,17917,5,2,0:0:0:0:
312,64,18077,1,12,0:0:0:0:
344,228,18237,1,0,0:0:0:0:
460,0,18396,2,0,P|444:64|452:112,1,104,6|2,0:0|0:0,0:0:0:0:
312,64,18715,2,0,P|276:8|184:8,1,156,12|0,0:0|2:0,0:0:0:0:
211,175,19034,6,0,P|232:127|232:76,1,104,6|0,0:0|0:0,0:0:0:0:
128,56,19354,1,12,0:0:0:0:
84,148,19513,1,0,0:0:0:0:
124,352,19673,5,6,0:0:0:0:
316,268,19832,1,2,0:0:0:0:
496,376,19992,1,12,0:0:0:0:
257,341,20151,6,0,P|320:360|396:316,1,156,2|0,0:0|2:0,0:0:0:0:
309,164,20471,2,0,L|316:268,1,104,2|12,0:0|0:0,0:0:0:0:
324,40,20790,1,0,0:0:0:0:
228,264,20949,5,2,0:0:0:0:
408,268,21109,1,10,0:0:0:0:
212,116,21268,1,10,0:0:0:0:
432,132,21428,1,10,0:0:0:0:
432,132,21508,1,10,0:0:0:0:
432,132,21588,6,0,P|372:112|224:112,1,208,6|12,0:0|0:0,0:0:0:0:
512,136,22066,1,0,0:0:0:0:
352,12,22226,1,6,0:0:0:0:
344,216,22386,2,0,P|332:272|328:324,1,104,0|12,0:0|0:0,0:0:0:0:
196,0,22705,6,0,B|100:0|32:32|32:32|44:52|52:88,1,208,2|2,0:0|0:0,0:0:0:0:
76,200,23104,1,0,0:0:0:0:
76,200,23183,2,0,P|76:148|61:98,1,104,12|0,0:0|0:0,0:0:0:0:
20,288,23503,5,6,0:0:0:0:
169,82,23662,1,2,0:0:0:0:
284,259,23822,2,0,B|228:264|172:296|172:296|208:312,1,156,12|0,0:0|2:0,0:0:0:0:
184,184,24141,6,0,P|185:132|170:83,1,104,6|0,0:0|0:0,0:0:0:0:
24,268,24460,1,12,0:0:0:0:
280,176,24620,1,0,0:0:0:0:
15,77,24779,2,0,P|92:70|169:82,1,156,6|0,0:0|2:0,0:0:0:0:
308,136,25098,5,12,0:0:0:0:
7,7,25258,2,0,P|144:4|219:23,1,208,2|2,0:0|0:0,0:0:0:0:
328,88,25737,1,12,0:0:0:0:
460,88,25896,1,0,0:0:0:0:
472,192,26056,1,6,0:0:0:0:
451,222,26135,1,2,0:0:0:0:
439,256,26215,1,2,0:0:0:0:
434,292,26295,1,2,0:0:0:0:
438,328,26375,6,0,B|312:312|312:312|332:284,1,156,12|0,0:0|2:0,0:0:0:0:
256,384,26694,5,2,0:0:0:0:
160,200,26854,1,2,0:0:0:0:
225,0,27013,2,0,P|253:36|273:104,1,104,12|0,0:0|0:0,0:0:0:0:
172,312,27332,5,6,0:0:0:0:
144,80,27492,1,2,0:0:0:0:
372,40,27651,2,0,P|380:104|372:148,1,104,12|0,0:0|0:0,0:0:0:0:
328,288,27971,5,6,0:0:0:0:
272,91,28130,1,2,0:0:0:0:
476,44,28290,1,12,0:0:0:0:
264,204,28449,1,0,0:0:0:0:
16,112,28609,1,6,0:0:0:0:
148,256,28768,5,8,0:0:0:0:
146,296,28847,1,8,0:0:0:0:
117,324,28927,1,10,0:0:0:0:
76,325,29007,1,8,0:0:0:0:
46,297,29087,1,8,0:0:0:0:
44,256,29167,1,8,0:0:0:0:
70,225,29247,6,0,P|104:176|112:128,1,104,6|0,0:0|2:0,0:0:0:0:
0,0,29566,1,8,0:0:0:0:
16,112,29726,1,8,0:0:0:0:
16,112,29806,1,8,0:0:0:0:
16,112,29886,1,8,0:0:0:0:
188,16,30045,1,4,0:0:0:0:
296,228,30205,1,4,0:0:0:0:
372,36,30364,6,0,B|376:8|404:0|404:0|432:76|412:160,1,208,6|2,0:0|0:0,0:0:0:0:
413,154,30763,1,2,0:0:0:0:
413,154,30843,1,8,0:0:0:0:
282,374,31003,1,8,0:0:0:0:
266,324,31082,1,8,0:0:0:0:
261,272,31162,1,8,0:0:0:0:
413,154,31322,1,4,0:0:0:0:
282,374,31481,2,0,P|268:332|261:268,1,104,4|0,0:0|2:0,0:0:0:0:
422,63,31800,6,0,B|336:60|336:60|292:72|292:72|216:68,1,208,6|0,0:0|0:0,0:0:0:0:
260,272,32279,1,2,0:0:0:0:
261,272,32439,2,0,P|276:224|272:168,1,104,8|0,0:0|0:0,0:0:0:0:
176,320,32758,1,2,0:0:0:0:
348,140,32917,2,0,P|352:244|316:352,1,208,2|8,0:0|0:0,0:0:0:0:
164,168,33396,5,2,0:0:0:0:
164,168,33556,1,2,0:0:0:0:
216,80,33715,2,0,P|256:44|316:32,1,104,8|0,0:0|0:0,0:0:0:0:
316,268,34034,2,0,P|264:274|213:266,1,104,2|0,0:0|0:0,0:0:0:0:
432,140,34354,5,2,0:0:0:0:
316,268,34513,1,2,0:0:0:0:
301,31,34673,2,0,P|252:44|215:80,1,104,0|2,0:0|0:0,0:0:0:0:
176,285,34992,2,0,P|167:234|176:183,1,104,8|0,0:0|0:0,0:0:0:0:
348,148,35311,5,2,0:0:0:0:
352,244,35471,1,2,0:0:0:0:
252,120,35630,1,0,0:0:0:0:
288,308,35790,1,8,0:0:0:0:
176,184,35949,1,2,0:0:0:0:
348,148,36109,1,2,0:0:0:0:
208,356,36268,5,12,0:0:0:0:
432,264,36428,1,12,0:0:0:0:
252,120,36588,2,0,B|168:88|124:96|124:96|136:124,1,156,12|0,0:0|2:0,0:0:0:0:
304,56,36907,6,0,P|356:68|416:64,1,104,6|2,0:0|0:0,0:0:0:0:
133,118,37226,2,0,P|81:106|21:110,1,104,0|2,0:0|0:0,0:0:0:0:
252,120,37545,2,0,P|352:148|456:140,1,208,8|2,0:0|0:0,0:0:0:0:
304,56,38024,1,2,0:0:0:0:
328,228,38183,2,0,B|332:296|332:296|324:340,1,104,0|8,0:0|0:0,0:0:0:0:
188,248,38503,1,2,0:0:0:0:
432,232,38662,1,2,0:0:0:0:
216,340,38822,6,0,P|140:328|4:336,1,208,8|2,0:0|0:0,0:0:0:0:
196,146,39300,1,0,0:0:0:0:
196,146,39380,1,0,0:0:0:0:
196,146,39460,6,0,P|200:202|188:250,1,104,2|2,0:0|0:0,0:0:0:0:
264,72,39779,1,0,0:0:0:0:
124,60,39939,1,2,0:0:0:0:
124,60,40018,1,0,0:0:0:0:
124,60,40098,2,0,P|72:56|16:72,1,104,8|2,0:0|0:0,0:0:0:0:
264,72,40417,1,8,0:0:0:0:
299,78,40496,1,8,0:0:0:0:
336,80,40576,1,8,0:0:0:0:
372,78,40657,1,8,0:0:0:0:
408,72,40737,6,0,B|404:192|404:192|440:172,1,156,6|0,0:0|2:0,0:0:0:0:
320,208,41056,6,0,B|232:184|144:196|144:196|208:252,1,218.399993334961,6|0,0:0|2:0,0:0:0:0:
0,72,41375,6,0,B|88:96|176:84|176:84|152:56|112:52,1,249.6,6|0,0:0|2:0,0:0:0:0:
232,140,41694,5,12,0:0:0:0:
113,52,41854,1,0,0:0:0:0:
264,9,42013,2,0,P|320:24|368:24,1,104,6|2,0:0|0:0,0:0:0:0:
500,196,42332,2,0,P|424:176|332:188,1,156,12|0,0:0|2:0,0:0:0:0:
300,208,42651,5,6,0:0:0:0:
352,296,42811,1,2,0:0:0:0:
440,104,42971,2,0,P|352:104|280:132,1,156,12|0,0:0|2:0,0:0:0:0:
244,152,43290,6,0,P|188:176|132:176,1,104,6|2,0:0|0:0,0:0:0:0:
56,124,43609,1,12,0:0:0:0:
238,49,43768,2,0,P|249:100|244:152,1,104,0|2,0:0|0:0,0:0:0:0:
20,312,44088,1,2,0:0:0:0:
20,312,44247,2,0,P|20:256|44:204,1,104,12|0,0:0|0:0,0:0:0:0:
224,252,44566,6,0,P|224:308|200:360,1,104,6|2,0:0|0:0,0:0:0:0:
145,177,44886,1,12,0:0:0:0:
256,36,45045,1,0,0:0:0:0:
256,36,45125,1,0,0:0:0:0:
256,36,45205,2,0,P|316:44|360:60,1,104,6|2,0:0|0:0,0:0:0:0:
145,177,45524,1,12,0:0:0:0:
0,0,45683,1,2,0:0:0:0:
0,0,45763,1,0,0:0:0:0:
0,0,45843,6,0,P|32:56|36:104,1,104,10|0,0:0|0:0,0:0:0:0:
28,148,46082,1,0,0:0:0:0:
12,200,46162,2,0,P|12:256|32:304,1,104,10|0,0:0|0:0,0:0:0:0:
329,333,46481,5,10,0:0:0:0:
303,336,46561,1,8,0:0:0:0:
277,335,46641,1,8,0:0:0:0:
252,330,46721,1,8,0:0:0:0:
227,322,46800,1,10,0:0:0:0:
202,319,46880,1,8,0:0:0:0:
176,321,46960,1,8,0:0:0:0:
151,328,47040,1,8,0:0:0:0:
128,340,47119,1,6,0:0:0:0:
512,292,47439,5,2,0:0:0:0:
428,356,47599,1,0,0:0:0:0:
329,333,47758,2,0,P|312:280|320:232,1,104,12|0,0:0|0:0,0:0:0:0:
480,72,48077,2,0,P|497:125|489:173,1,104,2|0,0:0|0:0,0:0:0:0:
319,233,48396,5,6,0:0:0:0:
244,160,48556,1,0,0:0:0:0:
256,56,48715,1,0,0:0:0:0:
348,8,48875,1,2,0:0:0:0:
244,160,49034,6,0,P|184:176|128:176,1,104,12|8,0:0|0:0,0:0:0:0:
102,170,49274,1,8,0:0:0:0:
88,132,49353,1,10,0:0:0:0:
114,102,49433,1,8,0:0:0:0:
153,109,49513,1,8,0:0:0:0:
167,146,49593,1,8,0:0:0:0:
142,177,49673,6,0,P|128:232|132:288,1,104,6|0,0:0|0:0,0:0:0:0:
381,278,49992,2,0,P|383:227|369:177,1,104,0|2,0:0|0:0,0:0:0:0:
256,92,50311,5,8,0:0:0:0:
256,196,50471,1,4,0:0:0:0:
256,300,50630,2,0,L|256:364,1,52,4|2,0:0|0:0,0:0:0:0:
142,177,50949,5,10,0:0:0:0:
369,177,51109,1,12,0:0:0:0:
130,278,51268,1,14,0:0:0:0:
381,278,51428,1,12,0:0:0:0:
116,88,51588,1,14,0:0:0:0:
396,88,51747,1,12,0:0:0:0:
256,384,51907,2,0,P|256:332|268:280,1,104,14|12,0:0|0:0,0:0:0:0:
256,0,52226,6,0,P|256:52|244:104,1,104,14|0,0:0|2:0,0:0:0:0:
13,100,52545,2,0,P|64:87|116:87,1,104,8|2,0:0|0:0,0:0:0:0:
244,102,52864,1,10,0:0:0:0:
279,110,52943,1,8,0:0:0:0:
311,128,53023,1,8,0:0:0:0:
337,154,53104,1,8,0:0:0:0:
354,185,53183,5,10,0:0:0:0:
351,206,53262,1,8,0:0:0:0:
352,227,53343,1,8,0:0:0:0:
356,247,53423,1,8,0:0:0:0:
364,268,53503,6,0,P|440:304|500:212,1,208,6|12,0:0|0:0,0:0:0:0:
332,344,53981,2,0,B|288:308|276:256|276:256|228:292|164:276,1,208,2|2,0:0|0:0,0:0:0:0:
428,228,54460,1,12,0:0:0:0:
208,176,54620,1,0,0:0:0:0:
208,176,54779,5,6,0:0:0:0:
236,368,54939,1,2,0:0:0:0:
332,176,55098,1,12,0:0:0:0:
208,0,55258,2,0,P|132:-4|4:52,1,208,2|2,0:0|0:0,0:0:0:0:
64,240,55737,1,12,0:0:0:0:
256,268,55896,1,0,0:0:0:0:
176,92,56056,2,0,P|124:96|76:124,1,104,6|2,0:0|0:0,0:0:0:0:
276,152,56375,5,12,0:0:0:0:
420,16,56534,1,0,0:0:0:0:
176,92,56694,2,0,P|124:96|76:124,1,104,2|2,0:0|0:0,0:0:0:0:
276,152,57013,2,0,P|288:96|288:44,1,104,12|0,0:0|0:0,0:0:0:0:
256,268,57332,5,2,0:0:0:0:
176,92,57492,1,0,0:0:0:0:
486,144,57651,2,0,P|435:152|384:144,1,104,10|0,0:0|0:0,0:0:0:0:
432,52,57971,1,10,0:0:0:0:
464,244,58130,1,0,0:0:0:0:
304,356,58290,1,10,0:0:0:0:
280,328,58369,1,8,0:0:0:0:
262,296,58449,1,8,0:0:0:0:
251,262,58529,1,8,0:0:0:0:
247,226,58609,6,0,P|252:176|204:16,1,208,6|12,0:0|0:0,0:0:0:0:
78,333,59088,2,0,B|128:348|176:320|176:320|232:304|280:328,1,208,2|2,0:0|0:0,0:0:0:0:
108,236,59566,2,0,P|56:236|8:252,1,104,12|0,0:0|0:0,0:0:0:0:
78,333,59886,1,6,0:0:0:0:
32,152,60045,1,2,0:0:0:0:
78,333,60205,1,12,0:0:0:0:
88,72,60364,6,0,P|112:32|240:80,1,208,2|2,0:0|0:0,0:0:0:0:
171,194,60843,2,0,B|160:148|160:148|164:92,1,104,12|0,0:0|0:0,0:0:0:0:
164,91,61082,1,0,0:0:0:0:
164,91,61162,5,2,0:0:0:0:
364,28,61322,1,2,0:0:0:0:
496,188,61481,2,0,P|472:256|364:320,1,156,12|0,0:0|2:0,0:0:0:0:
356,320,61800,5,2,0:0:0:0:
364,28,61960,1,2,0:0:0:0:
496,188,62120,2,0,P|472:256|364:320,1,156,12|0,0:0|0:0,0:0:0:0:
356,320,62439,2,0,P|296:304|240:320,1,104,2|8,0:0|0:0,0:0:0:0:
224,332,62678,5,8,0:0:0:0:
191,348,62758,1,2,0:0:0:0:
156,356,62837,1,2,0:0:0:0:
119,355,62917,2,0,P|67:339|15:343,1,104,8|2,0:0|0:0,0:0:0:0:
40,248,63237,5,8,0:0:0:0:
49,223,63316,1,8,0:0:0:0:
55,198,63396,1,2,0:0:0:0:
56,20,63556,1,8,0:0:0:0:
46,44,63635,1,8,0:0:0:0:
40,72,63715,6,0,P|56:132|184:156,1,208,6|12,0:0|0:0,0:0:0:0:
487,131,64194,2,0,P|386:112|282:122,1,208,2|2,0:0|0:0,0:0:0:0:
400,40,64673,2,0,P|464:48|504:60,1,104,12|0,0:0|0:0,0:0:0:0:
364,224,64992,5,6,0:0:0:0:
288,40,65151,1,2,0:0:0:0:
168,200,65311,1,12,0:0:0:0:
256,380,65471,2,0,P|324:384|456:344,1,208,2|2,0:0|0:0,0:0:0:0:
288,40,65949,2,0,P|232:32|184:40,1,104,12|0,0:0|0:0,0:0:0:0:
364,224,66268,5,2,0:0:0:0:
288,40,66428,1,2,0:0:0:0:
132,256,66588,2,0,P|128:312|140:360,1,104,12|0,0:0|0:0,0:0:0:0:
348,124,66907,5,2,0:0:0:0:
148,77,67066,1,2,0:0:0:0:
236,330,67227,2,0,P|280:366|326:383,1,104,12|0,0:0|0:0,0:0:0:0:
364,224,67545,5,2,0:0:0:0:
348,100,67705,1,0,0:0:0:0:
228,136,67864,1,2,0:0:0:0:
212,12,68024,1,0,0:0:0:0:
68,76,68183,5,8,0:0:0:0:
64,112,68262,1,8,0:0:0:0:
65,148,68342,1,8,0:0:0:0:
71,184,68422,1,8,0:0:0:0:
82,218,68502,5,4,0:0:0:0:
97,214,68582,1,4,0:0:0:0:
112,211,68662,1,4,0:0:0:0:
128,208,68742,1,4,0:0:0:0:
144,208,68822,6,0,B|168:212|192:228|192:228|244:220|244:220|288:252|344:232,1,208,6|12,0:0|0:0,0:0:0:0:
432,8,69300,2,0,P|332:44|304:144,1,208,2|2,0:0|0:0,0:0:0:0:
320,184,69699,1,0,0:0:0:0:
341,232,69779,6,0,P|364:296|364:336,1,104,12|0,0:0|0:0,0:0:0:0:
147,332,70098,2,0,P|150:280|170:232,1,104,6|2,0:0|0:0,0:0:0:0:
408,172,70417,1,12,0:0:0:0:
408,172,70577,2,0,P|444:248|452:384,1,208,2|2,0:0|0:0,0:0:0:0:
256,384,71056,5,12,0:0:0:0:
170,232,71215,1,0,0:0:0:0:
220,64,71375,2,0,P|268:32|324:28,1,104,6|2,0:0|0:0,0:0:0:0:
168,8,71694,6,0,B|128:44|78:40|78:40|84:16,1,109.199996667481,12|0,0:0|2:0,0:0:0:0:
220,64,72013,6,0,P|268:32|324:28,1,104,2|2,0:0|0:0,0:0:0:0:
8,120,72332,2,0,P|-4:72|8:4,1,104,12|2,0:0|0:0,0:0:0:0:
200,172,72651,5,8,0:0:0:0:
165,161,72730,1,8,0:0:0:0:
129,161,72810,1,8,0:0:0:0:
95,174,72890,1,8,0:0:0:0:
66,197,72971,5,4,0:0:0:0:
51,218,73050,1,4,0:0:0:0:
44,243,73130,1,4,0:0:0:0:
45,269,73210,1,4,0:0:0:0:
53,293,73290,5,2,0:0:0:0:
61,307,73369,1,2,0:0:0:0:
71,319,73449,1,2,0:0:0:0:
84,328,73529,1,2,0:0:0:0:
97,336,73609,6,0,B|200:328|200:328|256:344,1,156,14|0,0:0|2:0,0:0:0:0:
328,384,73928,6,0,P|340:332|312:280,1,104,6|0,0:0|2:0,0:0:0:0:
301,122,74247,1,8,0:0:0:0:
468,284,74407,1,2,0:0:0:0:
251,342,74566,1,0,0:0:0:0:
408,176,74726,1,2,0:0:0:0:
408,176,74806,1,0,0:0:0:0:
408,176,74886,2,0,B|460:184|460:184|516:184,1,104,8|0,0:0|0:0,0:0:0:0:
220,120,75205,6,0,B|168:112|168:112|116:112,1,104,2|0,0:0|0:0,0:0:0:0:
156,208,75524,1,8,0:0:0:0:
124,24,75683,1,0,0:0:0:0:
24,184,75843,1,2,0:0:0:0:
224,40,76003,1,2,0:0:0:0:
228,284,76162,2,0,P|200:332|160:356,1,104,8|8,0:0|0:0,0:0:0:0:
108,364,76401,1,8,0:0:0:0:
60,348,76481,5,6,0:0:0:0:
156,208,76641,1,2,0:0:0:0:
312,256,76800,6,0,P|308:312|284:368,1,109.199996667481,8|0,0:0|2:0,0:0:0:0:
280,184,77120,5,2,0:0:0:0:
352,60,77279,1,2,0:0:0:0:
384,232,77439,6,0,P|388:284|376:352,1,109.199996667481,8|0,0:0|2:0,0:0:0:0:
180,244,77758,6,0,P|232:248|284:264,1,104,6|2,0:0|0:0,0:0:0:0:
384,232,78077,1,8,0:0:0:0:
192,144,78237,1,0,0:0:0:0:
396,112,78396,1,10,0:0:0:0:
200,44,78556,1,8,0:0:0:0:
164,50,78635,1,8,0:0:0:0:
127,51,78715,1,10,0:0:0:0:
92,48,78795,1,8,0:0:0:0:
58,37,78874,1,8,0:0:0:0:
27,55,78954,1,8,0:0:0:0:
21,90,79034,6,0,P|32:144|28:200,1,104,6|0,0:0|2:0,0:0:0:0:
8,384,79354,2,0,P|-2:330|1:274,1,104,8|0,0:0|0:0,0:0:0:0:
128,192,79673,1,2,0:0:0:0:
256,280,79832,2,0,P|266:333|262:389,2,104,2|8|2,0:0|0:0|0:0,0:0:0:0:
227,179,80311,6,0,P|217:129|219:77,1,104,8|2,0:0|0:0,0:0:0:0:
481,194,80630,1,8,0:0:0:0:
446,204,80709,1,8,0:0:0:0:
410,210,80789,1,2,0:0:0:0:
374,212,80869,1,2,0:0:0:0:
338,209,80949,1,8,0:0:0:0:
64,188,81109,1,2,0:0:0:0:
99,181,81188,1,2,0:0:0:0:
136,184,81268,2,0,B|120:116|128:56|128:56|148:84,1,156,8|0,0:0|2:0,0:0:0:0:
104,268,81588,6,0,P|108:324|104:352,1,78,6|0,0:0|2:0,0:0:0:0:
251,283,81907,2,0,P|235:328|210:367,1,93.5999971435548,0|0,2:0|2:0,0:0:0:0:
451,329,82226,2,0,P|382:365|340:368,1,109.199996667481,0|0,2:0|2:0,0:0:0:0:
419,232,82545,2,0,P|441:279|452:330,1,104,0|0,2:0|2:0,0:0:0:0:
344,160,82864,5,8,0:0:0:0:
504,176,83024,1,8,0:0:0:0:
280,212,83183,1,8,0:0:0:0:
380,11,83343,2,0,P|375:88|296:200,1,208,2|2,0:0|0:0,0:0:0:0:
280,212,83742,1,2,0:0:0:0:
280,212,83822,6,0,P|232:168|276:172,1,156,12|0,0:0|2:0,0:0:0:0:
304,288,84141,6,0,P|256:304|200:288,1,104,6|8,0:0|0:0,0:0:0:0:
172,272,84380,1,8,0:0:0:0:
137,259,84459,1,8,0:0:0:0:
101,254,84540,1,8,0:0:0:0:
65,256,84619,1,6,0:0:0:0:
120,48,84779,5,8,0:0:0:0:
126,73,84859,1,8,0:0:0:0:
130,98,84938,1,8,0:0:0:0:
133,124,85018,1,8,0:0:0:0:
134,150,85098,1,2,0:0:0:0:
104,368,85258,1,6,0:0:0:0:
24,116,85417,5,8,0:0:0:0:
20,112,85577,1,8,0:0:0:0:
232,128,85737,5,8,0:0:0:0:
228,124,85897,1,8,0:0:0:0:
436,148,86056,1,8,0:0:0:0:
428,124,86136,1,2,0:0:0:0:
424,100,86215,1,2,0:0:0:0:
424,72,86295,1,2,0:0:0:0:
512,164,86375,5,8,0:0:0:0:
508,200,86455,1,8,0:0:0:0:
496,236,86534,1,8,0:0:0:0:
472,264,86614,1,8,0:0:0:0:
436,272,86694,2,0,P|408:268|376:272,1,52,8|4,0:0|0:0,0:0:0:0:
328,384,86854,2,0,P|329:358|326:332,1,52,4|4,0:0|0:0,0:0:0:0:
296,168,87013,2,0,P|298:193|306:218,1,52,2|0,0:0|2:0,0:0:0:0:
424,360,87173,5,4,0:0:0:0:
