osu file format v14

[General]
AudioFilename: cool audio.mp3
AudioLeadIn: 0
PreviewTime: 52859
Countdown: 0
SampleSet: Normal
StackLeniency: 0.6
Mode: 0
LetterboxInBreaks: 0
EpilepsyWarning: 1
WidescreenStoryboard: 1

[Editor]
Bookmarks: 6258,8811,11369,19662,20944,21582,26688,31476,34982,36901,39454,42008,47114,48391,49667,50944,52221,52539,52854,53836,56045,61152,61875,66263,71365,81423,81582,81901,82061,82221,82540,82859,83019,83178,83338,84136,85412,85572,85731,85891
DistanceSpacing: 0.4
BeatDivisor: 4
GridSize: 4
TimelineZoom: 2.099999

[Metadata]
Title:COOLEST (TV size)
TitleUnicode:COOLEST (TV size)
Artist:CustomiZ
ArtistUnicode:カスタマイZ
Creator:Rose Pacifica
Version:Sakamoto
Source:坂本ですが?
Tags:TV size 坂本ですが?sakamoto desu ga? haven't you heard? I'm Sakamoto opening coolest
BeatmapID:1347728
BeatmapSetID:635119

[Difficulty]
HPDrainRate:6
CircleSize:4.3
OverallDifficulty:8.5
ApproachRate:9.3
SliderMultiplier:1.6
SliderTickRate:2

[Events]
//Background and Video events
0,0,"sakamoto.jpg",0,0
//Break Periods
//Storyboard Layer 0 (Background)
//Storyboard Layer 1 (Fail)
//Storyboard Layer 2 (Pass)
//Storyboard Layer 3 (Foreground)
//Storyboard Sound Samples

[TimingPoints]
1157,319.148936170213,4,1,0,60,1,0
1157,-66.6666666666667,4,1,0,45,0,0
1476,-133.333333333333,4,1,1,45,0,0
2274,-90.9090909090909,4,1,1,45,0,0
3071,-133.333333333333,4,1,1,45,0,0
3391,-66.6666666666667,4,1,1,45,0,0
3710,-90.9090909090909,4,1,1,45,0,0
4986,-90.9090909090909,4,1,1,70,0,0
6263,-100,4,1,1,20,0,0
6343,-100,4,1,1,5,0,0
6901,-100,4,1,1,30,0,0
6981,-100,4,1,1,15,0,0
7220,-100,4,1,1,40,0,0
7300,-100,4,1,1,20,0,0
7539,-100,4,1,1,50,0,0
7619,-100,4,1,1,25,0,0
7859,-100,4,1,1,60,0,0
7938,-100,4,1,1,30,0,0
8178,-100,4,1,1,70,0,0
8258,-100,4,1,1,35,0,0
8497,-100,4,1,1,80,0,0
8577,-100,4,1,1,40,0,0
8976,-100,4,1,1,60,0,0
9295,-100,4,1,1,40,0,0
10093,-100,4,1,1,60,0,0
11050,-133.333333333333,4,1,1,60,0,0
11369,-100,4,1,1,60,0,0
13603,-83.3333333333333,4,1,1,60,0,0
14242,-100,4,1,1,60,0,0
15837,-90.9090909090909,4,1,1,60,0,0
16476,-100,4,1,1,60,0,0
18710,-90.9090909090909,4,1,1,60,0,0
20146,-76.9230769230769,4,1,1,60,0,0
20944,-66.6666666666667,4,1,1,60,0,0
21582,-90.9090909090909,4,1,1,60,0,0
26369,-66.6666666666667,4,1,1,60,0,0
27008,-76.9230769230769,4,1,1,60,0,0
27486,-66.6666666666667,4,1,1,60,0,0
28284,-76.9230769230769,4,1,1,60,0,0
28763,-66.6666666666667,4,1,1,60,0,0
29880,-76.9230769230769,4,1,1,60,0,0
30039,-100,4,1,1,60,0,0
30199,-133.333333333333,4,1,1,60,0,0
30359,-100,4,1,1,60,0,0
31157,-100,4,1,1,60,0,0
39454,-90.9090909090909,4,1,1,60,0,0
39774,-83.3333333333333,4,1,1,60,0,0
40093,-76.9230769230769,4,1,1,60,0,0
40412,-71.4285714285714,4,1,1,60,0,0
40731,-83.3333333333333,4,1,1,60,0,0
41050,-71.4285714285714,4,1,1,60,0,0
41369,-62.5,4,1,1,60,0,0
42008,-90.9090909090909,4,1,1,60,0,0
45837,-76.9230769230769,4,1,1,60,0,0
47114,-100,4,1,1,60,0,0
48071,-66.6666666666667,4,1,1,60,0,0
49029,-90.9090909090909,4,1,1,60,0,0
49667,-83.3333333333333,4,1,1,60,0,0
50944,-76.9230769230769,4,1,1,60,0,0
52220,-66.6666666666667,4,1,1,60,0,0
53497,-83.3333333333333,4,1,1,60,0,1
66582,-66.6666666666667,4,1,1,60,0,1
66901,-83.3333333333333,4,1,1,60,0,1
67220,-66.6666666666667,4,1,1,60,0,1
67539,-83.3333333333333,4,1,1,60,0,1
71688,-66.6666666666667,4,1,1,60,0,1
72008,-83.3333333333333,4,1,1,60,0,1
72327,-66.6666666666667,4,1,1,60,0,1
72646,-83.3333333333333,4,1,1,60,0,1
73603,-66.6666666666667,4,1,1,60,0,1
73922,-90.9090909090909,4,1,1,60,0,0
81422,-100,4,1,1,60,0,0

[Colours]
Combo1 : 116,219,13
Combo2 : 255,128,0
Combo3 : 255,0,0
Combo4 : 244,176,19

[HitObjects]
63,251,518,5,4,0:0:0:0:
118,246,597,1,4,0:0:0:0:
156,207,677,1,4,0:0:0:0:
159,152,757,1,4,0:0:0:0:
125,109,837,2,0,P|111:151|115:175,1,40,4|0,2:0|0:0,0:0:0:0:
280,228,997,2,4,P|249:194|227:186,1,40,0|0,0:0|0:0,0:0:0:0:
16,320,1157,6,0,B|52:340|52:340|128:320,1,120.000004577637,4|0,0:1|0:0,0:0:0:0:
247,353,1476,5,0,0:0:0:0:
247,353,1635,2,0,L|347:363,1,90.0000034332277,0|0,0:0|3:0,0:0:0:0:
418,330,1954,1,0,0:0:0:0:
350,283,2114,1,0,0:0:0:0:
401,217,2274,6,0,B|434:195|434:195|418:331,1,176.000005371094
280,228,2752,1,0,0:0:0:0:
269,133,2912,1,0,0:0:0:0:
371,196,3071,6,0,P|357:238|351:283,1,90.0000034332277
371,196,3391,6,0,P|369:137|261:149,1,180.000006866455,4|0,0:0|0:0,0:0:0:0:
104,72,3710,5,4,0:0:0:0:
188,104,3869,1,0,0:0:0:0:
24,172,4029,1,0,0:0:0:0:
112,152,4188,2,0,P|96:200|92:248,1,88.000002685547
208,364,4508,1,0,0:0:0:0:
172,260,4667,1,0,0:0:0:0:
80,312,4827,1,0,0:0:0:0:
312,356,4986,5,4,1:0:0:0:
444,100,5146,1,8,0:0:0:0:
456,108,5465,1,12,1:0:0:0:
236,200,5784,1,6,1:0:0:0:
496,296,5944,1,2,0:0:0:0:
328,48,6103,1,2,3:0:0:0:
328,48,6263,5,4,1:3:0:0:
328,52,6342,1,4,3:3:0:0:
329,57,6422,1,4,3:3:0:0:
329,61,6502,1,4,3:3:0:0:
330,66,6582,1,4,1:3:0:0:
331,71,6661,1,4,3:3:0:0:
331,75,6741,1,4,3:3:0:0:
332,80,6821,1,4,3:3:0:0:
352,96,6901,5,4,0:3:0:0:
327,83,6981,1,4,0:3:0:0:
300,79,7061,1,4,0:3:0:0:
272,85,7141,1,4,0:3:0:0:
249,100,7220,1,4,0:3:0:0:
225,116,7300,1,4,0:3:0:0:
198,124,7380,1,4,0:3:0:0:
170,124,7460,1,4,0:3:0:0:
128,96,7539,5,4,0:3:0:0:
150,125,7618,1,4,0:3:0:0:
158,161,7698,1,4,0:3:0:0:
151,198,7778,1,4,0:3:0:0:
129,228,7859,1,4,0:3:0:0:
94,241,7938,1,4,0:3:0:0:
71,270,8018,1,4,0:3:0:0:
67,307,8098,1,4,0:3:0:0:
82,341,8178,1,4,0:3:0:0:
112,362,8257,1,4,0:3:0:0:
149,365,8337,1,4,0:3:0:0:
182,348,8417,1,4,0:3:0:0:
202,317,8497,5,4,0:3:0:0:
253,340,8576,1,4,0:3:0:0:
307,331,8656,1,4,0:3:0:0:
348,293,8736,1,4,0:3:0:0:
360,239,8816,6,0,L|368:280,1,40,6|12,1:0|0:0,0:0:0:0:
504,104,8976,1,2,3:0:0:0:
502,124,9055,1,2,3:0:0:0:
501,144,9135,1,2,3:0:0:0:
499,164,9215,1,2,3:0:0:0:
498,184,9295,2,0,P|466:176|450:172,1,40,14|0,1:0|0:0,0:0:0:0:
312,124,9454,5,2,3:0:0:0:
279,123,9533,1,2,3:0:0:0:
250,138,9613,1,2,3:0:0:0:
231,166,9693,1,2,3:0:0:0:
228,198,9773,1,2,3:0:0:0:
241,229,9852,1,2,3:0:0:0:
266,249,9933,2,0,P|256:244|216:240,1,40,6|0,1:0|0:0,0:0:0:0:
112,24,10093,5,2,1:3:0:0:
93,59,10172,1,2,1:3:0:0:
79,96,10252,1,2,1:3:0:0:
69,135,10332,1,2,1:3:0:0:
64,175,10412,2,0,P|118:120|194:134,1,160,10|0,3:0|0:0,0:0:0:0:
131,288,11050,6,0,P|133:243|144:200,1,90.0000034332277,0|0,0:0|3:0,0:0:0:0:
131,288,11369,6,0,P|192:272|260:344,1,160,4|8,0:0|0:0,0:0:0:0:
416,256,11848,2,0,P|352:276|332:296,2,80
496,292,12327,1,8,0:0:0:0:
404,336,12486,6,0,L|432:148,1,160
336,108,12965,2,0,L|344:196,1,80,8|0,0:0|0:0,0:0:0:0:
292,20,13284,1,2,3:0:0:0:
424,68,13444,1,2,3:0:0:0:
324,288,13603,6,0,L|334:193,1,95.9999970703126,12|0,0:0|0:0,0:0:0:0:
44,77,13922,2,0,P|48:153|152:197,1,191.999994140625,12|8,1:0|0:0,0:0:0:0:
256,116,14401,6,0,P|268:76|276:24,2,80
156,100,14880,1,8,0:0:0:0:
144,199,15039,2,0,P|151:238|162:276,1,80
424,216,15359,1,0,0:0:0:0:
327,195,15518,2,0,P|287:195|244:212,1,80,8|0,0:0|0:0,0:0:0:0:
360,344,15837,6,0,P|336:292|264:332,1,132.00000402832,4|0,0:0|3:0,0:0:0:0:
364,360,16157,2,0,L|376:248,1,88.000002685547,12|0,3:1|0:0,0:0:0:0:
424,216,16396,1,2,3:0:0:0:
440,204,16476,6,0,L|432:108,1,80,8|0,0:0|0:0,0:0:0:0:
344,8,16795,1,8,0:0:0:0:
304,120,16954,1,0,0:0:0:0:
188,32,17114,2,0,P|150:18|110:14,1,80
0,216,17433,1,8,0:0:0:0:
84,244,17593,6,0,P|127:241|169:226,1,80
304,120,17912,1,0,0:0:0:0:
424,216,18071,1,8,0:0:0:0:
244,184,18231,1,0,0:0:0:0:
404,56,18391,2,0,P|400:112|384:164,1,80,8|0,0:0|0:0,0:0:0:0:
316,340,18710,6,0,P|276:336|284:244,1,132.00000402832,4|0,0:0|3:0,0:0:0:0:
328,340,19029,2,0,P|280:360|216:360,1,88.000002685547,6|0,3:1|0:0,0:0:0:0:
424,216,19348,2,0,P|467:221|507:239,1,88.000002685547,12|0,0:0|0:0,0:0:0:0:
404,364,19667,1,2,3:0:0:0:
328,204,19827,1,2,3:0:0:0:
148,320,19986,1,8,1:0:0:0:
222,101,20146,6,0,P|229:153|256:196,1,103.999995239258,2|0,3:0|0:0,0:0:0:0:
483,113,20465,2,0,B|436:84|436:84|340:112,1,155.999992858887,8|0,0:0|0:0,0:0:0:0:
328,108,20784,1,8,0:0:0:0:
400,364,20944,5,12,0:0:0:0:
233,28,21103,1,12,0:0:0:0:
484,112,21263,1,12,0:0:0:0:
149,279,21422,1,12,3:0:0:0:
164,268,21502,1,2,3:0:0:0:
179,257,21582,6,0,P|160:232|80:276,1,132.00000402832,6|0,0:0|3:0,0:0:0:0:
248,368,21901,2,0,P|260:316|292:264,1,88.000002685547,12|0,0:0|0:0,0:0:0:0:
220,100,22220,1,8,0:0:0:0:
424,248,22380,1,0,0:0:0:0:
248,204,22539,1,6,0:0:0:0:
340,44,22699,6,0,L|356:196,1,132.00000402832,8|0,0:0|3:0,0:0:0:0:
348,256,23018,1,8,0:0:0:0:
432,136,23178,2,0,P|460:116|524:108,1,88.000002685547,6|0,0:0|0:0,0:0:0:0:
248,204,23497,2,0,P|204:197|168:174,1,88.000002685547,8|0,0:0|0:0,0:0:0:0:
56,60,23816,2,0,B|80:104|80:104|56:196,1,132.00000402832,6|0,0:0|2:0,0:0:0:0:
32,256,24135,5,8,0:0:0:0:
144,368,24295,1,8,0:0:0:0:
236,116,24454,1,6,0:0:0:0:
156,352,24614,1,8,0:0:0:0:
348,256,24774,2,0,P|296:260|252:280,1,88.000002685547,8|0,0:0|0:0,0:0:0:0:
168,340,25093,1,6,0:0:0:0:
468,224,25252,6,0,P|416:184|292:164,1,176.000005371094,8|8,0:0|0:0,0:0:0:0:
208,192,25731,1,6,0:0:0:0:
360,372,25891,1,8,0:0:0:0:
388,96,26050,1,0,0:0:0:0:
394,75,26129,1,0,0:0:0:0:
405,55,26209,1,0,0:0:0:0:
420,39,26289,1,0,0:0:0:0:
438,27,26369,6,0,P|411:87|507:87,1,180.000006866455,14|0,0:0|3:0,0:0:0:0:
498,104,26688,2,0,B|440:96|440:96|408:124|408:124|360:128|360:128|320:152,1,180.000006866455,2|0,0:0|3:0,0:0:0:0:
208,192,27008,6,0,P|211:140|229:91,1,103.999995239258,4|0,0:0|0:0,0:0:0:0:
476,216,27327,1,0,0:0:0:0:
208,192,27486,5,0,0:0:0:0:
348,360,27646,2,0,P|364:292|256:248,1,180.000006866455,10|0,0:0|3:0,0:0:0:0:
136,236,27965,2,0,P|153:183|208:192,1,120.000004577637,2|0,0:0|0:0,0:0:0:0:
0,120,28284,5,4,0:0:0:0:
208,192,28444,1,0,0:0:0:0:
18,358,28603,2,0,P|22:306|31:255,1,103.999995239258,0|2,0:0|0:0,0:0:0:0:
51,204,28843,1,0,0:0:0:0:
103,189,28923,1,2,0:0:0:0:
147,220,29003,1,2,0:0:0:0:
150,274,29083,1,2,0:0:0:0:
110,310,29163,1,2,0:0:0:0:
57,302,29242,6,0,L|192:312,1,120.000004577637,6|0,0:0|0:0,0:0:0:0:
436,184,29561,1,8,0:0:0:0:
220,28,29720,1,8,0:0:0:0:
215,57,29799,1,8,0:0:0:0:
211,87,29879,1,8,0:0:0:0:
324,312,30039,1,2,3:0:0:0:
320,144,30199,1,2,3:0:0:0:
147,220,30359,6,0,P|204:224|268:200,1,120,12|0,0:0|3:0,0:0:0:0:
320,144,30678,1,8,0:0:0:0:
431,337,30837,2,0,P|355:309|331:309,1,80,8|8,0:0|0:0,0:0:0:0:
340,308,31077,1,8,0:0:0:0:
324,312,31157,1,8,0:0:0:0:
436,185,31316,1,8,0:0:0:0:
211,87,31476,5,10,3:0:0:0:
262,203,31635,1,10,3:0:0:0:
366,75,31795,2,0,P|415:58|471:59,1,80,4|0,0:0|0:0,0:0:0:0:
508,118,32114,1,8,3:0:0:0:
508,118,32274,1,8,3:0:0:0:
262,203,32433,2,0,L|210:199,5,40,8|0|0|0|0|0,1:0|0:0|0:0|0:0|0:0|0:0,0:0:0:0:
352,256,32912,2,0,L|436:252,1,80,8|0,1:0|0:0,0:0:0:0:
337,158,33231,5,8,0:0:0:0:
337,158,33391,1,8,0:0:0:0:
267,276,33550,1,2,3:0:0:0:
104,142,33710,1,8,0:0:0:0:
180,341,33869,1,2,3:0:0:0:
366,75,34029,5,2,0:0:0:0:
366,75,34188,1,2,0:0:0:0:
366,75,34348,2,0,P|307:83|279:83,1,80,8|0,0:0|0:0,0:0:0:0:
59,249,34667,5,2,0:0:0:0:
59,249,34827,1,2,0:0:0:0:
59,249,34986,2,0,P|98:250|138:257,1,80,8|0,0:0|0:0,0:0:0:0:
347,351,35305,5,2,0:0:0:0:
394,231,35465,1,2,0:0:0:0:
347,351,35625,2,0,P|336:297|317:254,1,80,8|0,0:0|0:0,0:0:0:0:
207,62,35944,5,2,0:0:0:0:
157,152,36103,1,2,0:0:0:0:
65,121,36263,2,0,P|78:154|81:179,1,40,8|0,0:0|3:0,0:0:0:0:
124,294,36422,2,0,P|129:274|137:256,1,40,8|0,0:0|3:0,0:0:0:0:
252,164,36582,2,0,P|295:158|364:156,1,80,8|0,0:0|0:0,0:0:0:0:
498,323,36901,5,2,3:0:0:0:
327,273,37061,1,2,3:0:0:0:
444,128,37220,2,0,P|442:185|425:231,1,80,10|2,0:0|3:0,0:0:0:0:
368,340,37460,1,2,3:0:0:0:
347,351,37539,2,0,L|208:348,1,120,8|0,0:0|3:0,0:0:0:0:
124,294,37859,1,2,3:0:0:0:
124,294,38018,1,2,3:0:0:0:
44,380,38178,6,0,P|36:348|28:272,1,80,2|8,3:0|1:0,3:0:0:0:
144,72,38497,2,0,P|138:111|129:150,1,80,10|2,3:0|3:0,3:0:0:0:
4,208,38816,2,0,B|68:216|68:216|92:236|92:236|180:248,1,160,6|0,0:0|0:0,0:0:0:0:
284,200,39295,1,8,0:0:0:0:
364,356,39454,6,0,P|380:304|300:312,1,132.00000402832,2|0,1:0|3:0,0:0:0:0:
308,296,39774,6,0,B|346:299|376:282|376:282|405:264|446:268,1,143.999995605469,2|0,1:0|3:0,3:0:0:0:
332,120,40093,6,0,B|281:101|281:101|329:224,1,155.999992858887,2|0,0:0|3:0,0:0:0:0:
194,374,40412,6,0,P|174:297|231:240,1,167.999994873047,2|0,0:0|0:0,0:0:0:0:
248,232,40731,6,0,P|172:252|80:264,1,143.999995605469,12|0,0:0|0:0,0:0:0:0:
48,108,41050,6,0,P|132:104|116:184,1,167.999994873047,12|0,0:0|0:0,0:0:0:0:
48,344,41369,6,0,P|16:308|16:220,1,128,12|0,0:0|0:0,0:0:0:0:
204,72,41688,1,12,0:0:0:0:
312,368,41848,1,0,0:0:0:0:
416,144,42008,6,0,L|319:149,1,88.000002685547,12|0,0:0|0:0,0:0:0:0:
88,268,42327,1,12,0:0:0:0:
205,75,42486,1,0,0:0:0:0:
11,22,42646,2,0,P|36:100|50:122,1,88.000002685547,2|2,3:0|3:0,0:0:0:0:
194,284,42965,2,0,P|184:326|166:366,1,88.000002685547,12|0,0:0|0:0,0:0:0:0:
17,231,43284,5,2,3:0:0:0:
209,151,43444,1,2,3:0:0:0:
32,224,43603,1,12,0:0:0:0:
194,284,43763,1,0,0:0:0:0:
112,104,43922,1,2,3:0:0:0:
44,363,44082,1,2,3:0:0:0:
304,291,44242,2,0,P|304:228|323:180,1,88.000002685547,12|8,0:0|0:0,0:0:0:0:
412,96,44481,1,2,3:0:0:0:
428,112,44561,6,0,P|452:152|452:216,1,88.000002685547,12|0,0:0|0:0,0:0:0:0:
392,308,44880,1,12,0:0:0:0:
188,216,45039,1,8,0:0:0:0:
348,24,45199,2,0,L|340:124,1,88.000002685547,2|2,3:0|3:0,3:0:0:0:
155,29,45518,1,12,0:0:0:0:
272,280,45678,1,8,0:0:0:0:
8,204,45837,6,0,L|124:196,1,103.999995239258,6|0,0:0|0:0,0:0:0:0:
272,280,46077,1,2,3:0:0:0:
294,314,46157,2,0,L|178:306,1,103.999995239258,6|0,0:0|0:0,0:0:0:0:
311,137,46396,1,2,3:0:0:0:
340,111,46476,6,0,L|328:235,1,103.999995239258,6|0,0:0|0:0,0:0:0:0:
155,29,46715,1,2,3:0:0:0:
126,3,46795,6,0,L|138:127,1,103.999995239258,6|0,0:0|0:0,0:0:0:0:
260,268,47034,1,2,3:0:0:0:
267,247,47114,6,0,P|209:242|160:276,1,120,12|0,0:0|0:0,0:0:0:0:
120,340,47433,1,8,0:0:0:0:
400,332,47593,1,2,3:0:0:0:
397,312,47672,1,2,3:0:0:0:
395,292,47752,2,0,L|403:196,1,80,8|0,0:0|0:0,0:0:0:0:
473,102,48071,1,0,0:0:0:0:
232,332,48231,1,2,3:0:0:0:
320,176,48391,5,8,1:0:0:0:
472,272,48550,1,2,3:0:0:0:
188,216,48710,1,2,3:0:0:0:
344,88,48869,1,2,3:0:0:0:
397,312,49029,6,0,P|341:316|309:328,1,88.000002685547,12|0,0:0|0:0,0:0:0:0:
232,352,49268,1,8,0:0:0:0:
216,356,49348,2,0,P|172:356|120:340,1,88.000002685547,8|0,0:0|0:0,0:0:0:0:
52,240,49587,1,8,0:0:0:0:
36,216,49667,5,8,0:0:0:0:
256,248,49827,1,2,3:0:0:0:
129,344,49986,1,2,3:0:0:0:
264,236,50146,1,2,3:0:0:0:
128,104,50305,5,8,0:0:0:0:
232,352,50465,1,2,3:0:0:0:
400,120,50625,1,8,1:0:0:0:
112,204,50784,1,2,3:0:0:0:
400,296,50944,5,8,0:0:0:0:
128,196,51103,1,8,0:0:0:0:
480,184,51263,5,8,0:0:0:0:
162,269,51422,1,8,0:0:0:0:
400,120,51582,5,8,0:0:0:0:
56,80,51742,1,8,0:0:0:0:
444,56,51901,5,8,0:0:0:0:
44,176,52061,1,8,0:0:0:0:
340,368,52220,6,8,P|332:338|320:311,1,60.0000022888184,10|8,3:0|3:0,3:0:0:0:
254,110,52380,1,2,3:0:0:0:
241,121,52539,6,0,P|230:148|224:178,1,60.0000022888184,2|0,3:0|3:0,3:0:0:0:
228,352,52699,1,2,3:0:0:0:
386,207,52859,6,2,P|330:215|294:231,1,60.0000022888184,2|2,0:2|0:2,0:2:0:0:
103,242,53018,2,2,P|153:268|191:276,1,60.0000022888184,2|2,0:2|0:2,0:2:0:0:
340,368,53178,6,2,P|315:317|288:287,1,60.0000022888184,2|2,0:2|0:2,0:2:0:0:
233,119,53337,6,2,P|223:174|227:213,1,60.0000022888184,2|2,0:2|0:2,0:2:0:0:
452,364,53497,6,0,P|448:312|432:248,1,95.9999970703126,8|0,0:0|0:0,0:0:0:0:
400,120,53816,1,4,0:0:0:0:
104,260,53976,2,0,P|172:268|248:244,1,143.999995605469,8|0,0:0|0:0,0:0:0:0:
368,196,54295,1,8,0:0:0:0:
232,120,54454,1,12,0:0:0:0:
319,312,54614,1,2,3:0:0:0:
488,144,54774,5,2,3:0:0:0:
488,144,54933,2,0,P|436:124|392:120,1,95.9999970703126,8|4,0:0|0:0,0:0:0:0:
200,48,55252,2,0,P|148:80|64:72,1,143.999995605469,8|0,0:0|0:0,0:0:0:0:
4,20,55571,1,8,0:0:0:0:
108,260,55731,1,12,0:0:0:0:
232,120,55891,1,8,0:0:0:0:
16,184,56050,6,0,P|28:248|32:304,1,95.9999970703126,8|2,0:0|3:0,0:0:0:0:
188,384,56289,1,2,3:0:0:0:
200,376,56369,2,0,P|205:328|214:281,1,95.9999970703126,6|0,0:0|0:0,0:0:0:0:
460,248,56688,1,8,0:0:0:0:
232,120,56848,1,8,0:0:0:0:
381,5,57008,2,0,P|390:52|395:99,1,95.9999970703126,12|0,0:0|0:0,0:0:0:0:
352,360,57327,5,8,0:0:0:0:
232,120,57486,1,8,0:0:0:0:
460,248,57646,1,6,0:0:0:0:
214,281,57805,1,8,0:0:0:0:
396,100,57965,1,8,0:0:0:0:
196,292,58125,1,8,0:0:0:0:
64,21,58285,1,0,0:0:0:0:
111,23,58364,1,0,0:0:0:0:
156,39,58444,1,0,0:0:0:0:
194,68,58524,1,0,0:0:0:0:
223,107,58603,6,0,L|98:125,1,95.9999970703126,8|0,0:0|0:0,0:0:0:0:
0,60,58922,1,12,0:0:0:0:
260,216,59082,2,0,L|84:200,1,143.999995605469,8|0,0:0|0:0,0:0:0:0:
32,312,59401,1,8,0:0:0:0:
304,120,59561,1,12,0:0:0:0:
36,224,59720,1,2,3:0:0:0:
384,300,59880,5,2,3:0:0:0:
208,44,60039,2,0,L|192:160,1,95.9999970703126
107,355,60359,2,0,B|149:385|149:385|270:372,1,143.999995605469,8|0,0:0|0:0,0:0:0:0:
352,208,60678,1,12,0:0:0:0:
80,108,60837,1,8,0:0:0:0:
176,296,60997,1,8,0:0:0:0:
432,228,61157,6,0,P|435:170|448:100,1,95.9999970703126,8|2,0:0|3:0,0:0:0:0:
280,24,61396,1,2,3:0:0:0:
256,16,61476,2,0,P|262:63|265:111,1,95.9999970703126,12|0,0:0|0:0,0:0:0:0:
176,296,61795,1,8,0:0:0:0:
72,96,61954,1,8,0:0:0:0:
296,220,62114,2,0,P|289:267|286:315,1,95.9999970703126,12|0,0:0|0:0,0:0:0:0:
460,140,62433,5,2,3:0:0:0:
256,16,62593,1,8,0:1:0:0:
209,25,62672,1,8,0:1:0:0:
178,60,62752,1,4,0:1:0:0:
461,230,62912,1,8,0:1:0:0:
475,185,62991,1,8,0:1:0:0:
460,140,63071,1,12,0:1:0:0:
173,300,63231,1,8,0:1:0:0:
205,335,63310,1,8,0:1:0:0:
251,344,63390,1,12,0:1:0:0:
72,96,63550,1,8,0:1:0:0:
68,127,63629,1,8,0:1:0:0:
64,159,63710,6,0,B|152:136|152:136|204:156,1,143.999995605469
288,200,64029,1,12,0:0:0:0:
128,336,64188,2,0,P|136:268|152:228,1,95.9999970703126
320,48,64508,1,8,0:0:0:0:
448,252,64667,2,0,P|444:204|430:158,1,95.9999970703126,12|0,0:0|0:0,0:0:0:0:
256,284,64986,5,8,0:0:0:0:
436,348,65146,1,8,1:0:0:0:
352,132,65305,1,12,0:0:0:0:
145,242,65465,2,0,P|52:248|32:248,1,95.9999970703126,10|0,3:1|0:0,0:0:0:0:
136,20,65784,1,8,0:0:0:0:
352,132,65944,1,12,0:0:0:0:
256,284,66103,1,8,0:0:0:0:
372,120,66263,2,0,P|419:121|467:126,1,95.9999970703126,8|2,0:0|3:0,0:0:0:0:
264,24,66502,1,2,0:0:0:0:
243,8,66582,6,0,P|257:97|263:186,1,180.000006866455,12|0,0:0|3:0,0:0:0:0:
256,284,66901,1,8,0:0:0:0:
108,80,67061,1,8,0:0:0:0:
44,335,67220,2,0,P|47:276|55:216,1,120.000004577637,12|0,0:0|0:0,0:0:0:0:
263,186,67539,5,8,0:0:0:0:
144,344,67699,1,8,0:0:0:0:
392,276,67859,1,4,0:0:0:0:
128,172,68018,1,8,0:0:0:0:
363,347,68178,1,12,0:0:0:0:
410,350,68257,1,8,0:0:0:0:
451,325,68337,1,8,0:0:0:0:
469,281,68417,1,8,0:0:0:0:
458,235,68497,1,4,0:0:0:0:
422,204,68576,1,0,0:0:0:0:
409,159,68656,1,4,0:0:0:0:
421,113,68736,1,0,0:0:0:0:
457,82,68816,6,8,P|352:84|304:48,1,143.999995605469,8|0,0:0|3:0,0:0:0:0:
248,12,69135,1,12,0:0:0:0:
37,196,69295,2,0,P|80:175|128:172,1,95.9999970703126,8|0,0:0|0:0,0:0:0:0:
288,256,69614,1,8,0:0:0:0:
88,356,69774,1,12,0:0:0:0:
272,268,69933,1,2,3:0:0:0:
164,72,70093,5,8,0:0:0:0:
396,200,70252,1,8,0:0:0:0:
216,348,70412,1,6,3:1:0:0:
264,105,70571,2,0,P|260:49|240:-3,1,95.9999970703126,8|0,0:0|0:0,0:0:0:0:
160,256,70891,1,8,0:0:0:0:
396,200,71050,1,12,0:0:0:0:
204,156,71210,1,8,0:0:0:0:
344,351,71369,6,4,P|415:347|479:311,1,143.999995605469,8|0,0:0|3:0,0:0:0:0:
512,240,71688,1,12,0:0:0:0:
388,32,71848,1,8,0:0:0:0:
255,250,72008,2,0,L|159:255,1,95.9999970703126,2|0,3:0|0:0,0:0:0:0:
56,72,72327,1,12,0:0:0:0:
240,148,72486,1,8,0:0:0:0:
64,292,72646,6,0,P|56:252|60:212,1,47.9999985351563,8|0,0:0|3:0,0:0:0:0:
152,36,72805,2,0,P|190:49|223:72,1,47.9999985351563,8|0,0:0|3:0,0:0:0:0:
299,233,72965,2,0,P|260:247|220:250,1,47.9999985351563,8|0,0:0|3:0,0:0:0:0:
340,100,73125,2,0,P|378:114|418:117,1,47.9999985351563,8|0,0:0|3:0,0:0:0:0:
496,196,73284,1,0,0:0:0:0:
449,208,73363,1,0,0:0:0:0:
411,237,73443,1,0,0:0:0:0:
386,278,73523,1,0,0:0:0:0:
390,361,73603,6,0,P|300:348|194:341,1,180.000006866455,12|0,0:0|3:0,0:0:0:0:
64,296,73922,6,0,P|112:292|188:268,1,88.000002685547,2|0,3:0|0:0,0:0:0:0:
268,192,74242,1,8,0:0:0:0:
108,16,74401,2,0,L|96:148,1,132.00000402832,2|0,3:0|3:0,0:0:0:0:
88,168,74720,1,2,3:0:0:0:
324,128,74880,1,8,0:0:0:0:
204,52,75039,1,8,0:0:0:0:
245,276,75199,6,0,P|265:208|269:176,1,88.000002685547,2|0,3:0|0:0,0:0:0:0:
404,56,75518,2,0,P|418:97|426:140,1,88.000002685547,8|0,0:0|0:0,0:0:0:0:
245,276,75837,1,2,3:0:0:0:
324,128,75997,1,2,3:0:0:0:
496,272,76157,2,0,L|376:264,1,88.000002685547,8|0,0:0|0:0,0:0:0:0:
267,191,76476,5,2,3:0:0:0:
360,356,76635,1,2,3:0:0:0:
426,140,76795,1,8,0:0:0:0:
168,208,76954,2,0,P|104:216|40:208,1,88.000002685547,2|0,3:0|0:0,0:0:0:0:
248,28,77274,1,2,3:0:0:0:
426,140,77433,2,0,L|414:248,1,88.000002685547,8|0,0:0|0:0,0:0:0:0:
254,363,77752,6,0,L|244:275,1,88.000002685547,2|2,3:0|3:0,0:0:0:0:
120,132,78071,2,0,B|188:124|188:124|220:144|220:144|292:136,1,176.000005371094,8|0,0:0|0:0,0:0:0:0:
436,32,78550,1,8,0:0:0:0:
408,65,78629,1,8,0:0:0:0:
391,106,78709,1,8,0:0:0:0:
387,150,78789,1,8,0:0:0:0:
411,184,78868,1,8,0:0:0:0:
453,180,78948,1,8,0:0:0:0:
469,142,79029,6,0,L|479:293,1,132.00000402832,4|0,0:0|3:0,0:0:0:0:
296,348,79348,1,8,0:0:0:0:
332,188,79508,1,8,0:0:0:0:
80,244,79667,2,0,P|96:296|96:364,1,88.000002685547,2|0,3:0|0:0,0:0:0:0:
220,144,79986,2,0,P|224:100|238:58,1,88.000002685547,8|0,0:0|0:0,0:0:0:0:
332,264,80305,5,2,3:0:0:0:
104,156,80465,1,8,0:0:0:0:
82,157,80544,1,8,0:0:0:0:
60,158,80624,1,8,0:0:0:0:
231,344,80784,1,8,0:0:0:0:
241,344,80863,1,8,0:0:0:0:
252,345,80943,1,8,0:0:0:0:
263,346,81023,1,8,0:0:0:0:
274,346,81103,1,8,0:0:0:0:
285,347,81182,1,8,0:0:0:0:
296,348,81262,1,8,0:0:0:0:
335,224,81422,2,0,L|331:272,1,40,8|0,0:0|0:0,0:0:0:0:
268,161,81582,6,0,P|319:132|377:142,1,120,2|0,3:0|3:0,0:0:0:0:
399,20,81901,6,0,P|398:78|360:124,1,120,2|0,3:0|3:0,0:0:0:0:
455,203,82220,6,0,P|404:172|383:117,1,120,2|0,3:0|3:0,3:0:0:0:
383,117,82539,6,0,L|376:200,1,80,2|0,3:0|0:0,0:0:0:0:
384,348,82859,5,8,0:0:0:0:
128,244,83019,1,8,0:0:0:0:
308,48,83178,1,8,0:0:0:0:
256,368,83337,1,8,0:0:0:0:
156,128,83657,5,8,0:0:0:0:
116,124,83736,1,8,0:0:0:0:
76,120,83816,1,10,0:0:0:0:
328,276,84135,6,8,L|420:268,2,80,2|8|2,1:0|1:0|1:0,1:0:0:0:
168,368,84614,1,12,0:0:0:0:
15,231,84774,1,8,0:0:0:0:
53,221,84853,1,8,0:0:0:0:
93,226,84933,1,8,0:0:0:0:
128,244,85013,1,8,0:0:0:0:
156,272,85093,1,0,0:0:0:0:
298,167,85252,6,0,L|307:47,1,120,8|0,0:0|0:0,0:0:0:0:
296,24,85571,1,8,0:0:0:0:
432,200,85731,1,8,0:0:0:0:
240,280,85891,1,8,0:0:0:0:
176,128,86050,5,8,0:0:0:0:
179,98,86129,1,8,0:0:0:0:
183,68,86209,1,8,0:0:0:0:
186,38,86289,1,8,0:0:0:0:
190,8,86369,1,2,3:0:0:0:
170,22,86448,1,2,3:0:0:0:
148,31,86528,1,2,3:0:0:0:
125,36,86608,1,2,3:0:0:0:
101,37,86688,6,0,P|53:29|33:29,1,40,4|0,2:0|0:0,0:0:0:0:
296,76,86848,1,0,0:0:0:0:
93,226,87008,1,0,0:0:0:0:
408,343,87167,6,0,P|403:324|397:305,1,40,8|0,0:0|0:0,0:0:0:0:
