osu file format v14

[General]
AudioFilename: audio.mp3
AudioLeadIn: 0
PreviewTime: 54088
Countdown: 0
SampleSet: Soft
StackLeniency: 0.4
Mode: 0
LetterboxInBreaks: 0
WidescreenStoryboard: 1

[Editor]
DistanceSpacing: 0.9
BeatDivisor: 4
GridSize: 32
TimelineZoom: 1.9

[Metadata]
Title:COOLEST (TV Size)
TitleUnicode:COOLEST (TV Size)
Artist:CustomiZ
ArtistUnicode:カスタマイZ
Creator:Spork Lover
Version:Insane
Source:坂本ですが?
Tags:Sakamoto desu ga? Opening Short Version Deen _DT3 SnowNiNo_
BeatmapID:1571634
BeatmapSetID:520373

[Difficulty]
HPDrainRate:6
CircleSize:4
OverallDifficulty:7.5
ApproachRate:9
SliderMultiplier:2
SliderTickRate:1

[Events]
//Background and Video events
0,0,"Red.jpg",0,0
//Break Periods
//Storyboard Layer 0 (Background)
//Storyboard Layer 1 (Fail)
//Storyboard Layer 2 (Pass)
//Storyboard Layer 3 (Foreground)
//Storyboard Layer 4 (Overlay)
//Storyboard Sound Samples

[TimingPoints]
831,319.148936170213,4,2,1,70,1,0
7213,-200,4,2,1,70,0,0
8490,-133.333333333333,4,2,1,70,0,0
9767,-100,4,2,1,70,0,0
22533,-90.9090909090909,4,2,1,70,0,0
32745,-117.647058823529,4,2,1,70,0,0
42639,-100,4,2,1,70,0,0
52213,-83.3333333333333,4,2,1,70,0,0
52533,-71.4285714285714,4,2,1,70,0,0
52852,-62.5,4,2,1,70,0,0
54448,-80,4,2,2,85,0,1
55724,-80,4,2,3,85,0,1
57001,-80,4,2,2,85,0,1
58277,-80,4,2,3,85,0,1
59474,-80,4,2,1,70,0,1
59554,-80,4,2,2,85,0,1
60831,-80,4,2,3,85,0,1
62107,-80,4,2,2,85,0,1
63384,-80,4,2,3,85,0,1
64341,-80,4,2,3,85,0,0
64581,-80,4,2,1,70,0,0
64660,-80,4,2,2,85,0,1
65937,-80,4,2,3,85,0,1
67213,-80,4,2,2,85,0,1
68490,-80,4,2,3,85,0,1
69687,-80,4,2,1,70,0,1
69767,-80,4,2,2,85,0,1
71043,-80,4,2,3,85,0,1
72320,-80,4,2,2,85,0,1
73596,-80,4,2,3,85,0,1
74873,-80,4,2,2,85,0,0
75192,-80,4,2,1,70,0,0
75671,-80,4,2,2,85,0,0
76150,-80,4,2,3,85,0,0
76469,-86.9565217391304,4,2,3,85,0,0
76788,-95.2380952380952,4,2,3,85,0,0
77107,-105.263157894737,4,2,3,85,0,0
77426,-80,4,2,2,85,0,0
78703,-80,4,2,3,85,0,0
79900,-80,4,2,1,70,0,0
79979,-80,4,2,2,85,0,0
81256,-80,4,2,1,70,0,0
81416,-80,4,2,3,85,0,0
81575,-80,4,2,1,70,0,0
81735,-80,4,2,2,85,0,0
81894,-80,4,2,1,85,0,0
81974,-80,4,2,3,85,0,0
82213,-80,4,2,1,70,0,0
82293,-80,4,2,2,70,0,0
83809,-80,4,2,1,70,0,0
85086,-80,4,2,1,70,0,0

[Colours]
Combo1 : 251,153,153
Combo2 : 208,34,61
SliderBorder : 219,157,157
SliderTrackOverride : 61,1,1

[HitObjects]
142,316,1469,5,8,0:0:0:0:
154,289,1549,1,0,0:0:0:0:
156,260,1628,2,0,P|149:227|131:193,1,50,8|0,0:0|0:0,0:0:0:0:
91,131,1788,5,8,0:0:0:0:
118,119,1868,1,0,0:0:0:0:
147,117,1947,2,0,P|180:124|214:142,1,50,8|0,0:0|0:0,0:0:0:0:
256,192,2107,5,2,0:0:0:0:
256,48,4341,1,4,0:0:0:0:
256,192,4660,5,6,0:0:0:0:
256,192,5937,5,2,0:0:0:0:
376,140,6096,2,0,L|504:108,1,100,12|0,0:0|0:0,0:0:0:0:
375,246,6416,2,0,L|503:214,1,100,12|0,0:0|0:0,0:0:0:0:
497,200,6735,1,2,0:0:0:0:
273,288,6894,2,0,B|253:238|253:238|257:172,1,100,4|0,0:0|0:0,0:0:0:0:
256,192,7213,6,0,L|314:192,1,50,6|0,0:0|0:0,0:0:0:0:
448,192,7533,2,0,L|398:192,1,50,2|0,0:0|0:0,0:0:0:0:
353,121,7852,1,2,0:0:0:0:
353,263,8011,1,0,0:0:0:0:
353,106,8171,1,2,0:0:0:0:
353,278,8330,1,0,0:0:0:0:
256,192,8490,6,0,L|159:192,1,75.0000028610231,6|0,0:0|0:0,0:0:0:0:
23,192,8810,2,0,L|124:192,1,75.0000028610231,2|0,0:0|0:0,0:0:0:0:
140,119,9128,1,8,0:0:0:0:
140,266,9288,1,8,0:0:0:0:
139,94,9448,1,8,0:0:0:0:
139,290,9608,1,8,0:0:0:0:
256,192,9767,5,4,0:0:0:0:
393,242,9926,1,8,0:0:0:0:
393,242,10006,1,0,0:0:0:0:
393,242,10086,1,2,0:0:0:0:
282,307,10245,1,4,0:0:0:0:
423,144,10404,2,0,L|422:90,2,50,8|0|2,0:0|0:0|0:0,0:0:0:0:
456,178,10644,1,0,0:0:0:0:
486,213,10724,2,0,L|483:277,1,50,8|0,0:0|0:0,0:0:0:0:
407,340,10884,1,4,0:0:0:0:
256,192,11043,6,0,P|192:168|128:168,1,100,0|2,0:0|0:0,0:0:0:0:
50,188,11362,1,12,0:0:0:0:
317,246,11682,1,4,0:0:0:0:
317,246,12001,2,0,P|285:293|259:222,1,150,4|0,0:0|0:0,0:0:0:0:
256,192,12320,6,0,P|224:143|166:116,1,100,2|0,0:0|0:0,0:0:0:0:
96,123,12639,1,8,0:0:0:0:
146,230,12799,2,0,P|152:282|129:359,2,100,2|0|2,0:0|0:0|0:0,0:0:0:0:
96,123,13277,1,8,0:0:0:0:
256,192,13437,6,0,P|314:188|366:152,1,100,2|0,0:0|0:0,0:0:0:0:
491,116,13756,2,0,P|432:112|380:76,1,100,2|8,0:0|0:0,0:0:0:0:
381,59,14075,1,0,0:0:0:0:
485,267,14235,2,0,P|426:263|374:227,1,100,2|0,0:0|0:0,0:0:0:0:
373,208,14554,1,8,0:0:0:0:
292,344,14713,1,0,0:0:0:0:
256,192,14873,6,0,P|193:206|153:244,1,100,2|0,0:0|0:0,0:0:0:0:
172,323,15192,1,8,0:0:0:0:
85,277,15352,1,0,0:0:0:0:
165,227,15511,1,2,0:0:0:0:
172,323,15671,1,0,0:0:0:0:
85,277,15831,1,8,0:0:0:0:
256,192,15990,6,0,B|282:147|282:147|290:63,1,100,2|0,0:0|0:0,0:0:0:0:
225,19,16309,1,2,0:0:0:0:
379,68,16469,2,0,B|334:94|334:94|250:102,1,100,8|0,0:0|0:0,0:0:0:0:
91,68,16788,2,0,B|94:16|94:16|148:51,1,100,2|0,0:0|0:0,0:0:0:0:
79,195,17107,2,0,B|40:229|40:229|26:166,1,100,8|0,0:0|0:0,0:0:0:0:
256,192,17426,5,6,0:0:0:0:
267,302,17586,1,0,0:0:0:0:
173,260,17745,1,8,0:0:0:0:
173,260,17905,1,0,0:0:0:0:
361,338,18065,2,0,L|350:212,1,100,2|0,0:0|0:0,0:0:0:0:
381,204,18384,1,8,0:0:0:0:
256,192,18543,6,0,L|141:177,1,100,2|0,0:0|0:0,0:0:0:0:
59,130,18862,2,0,P|53:179|61:229,1,100,2|8,0:0|0:0,0:0:0:0:
152,269,19182,1,0,0:0:0:0:
60,228,19341,1,2,0:0:0:0:
72,329,19501,1,0,0:0:0:0:
278,351,19660,2,0,P|318:311|341:254,1,100,8|0,0:0|0:0,0:0:0:0:
256,192,19979,6,0,P|216:152|193:95,1,100,2|0,0:0|0:0,0:0:0:0:
223,15,20299,1,8,0:0:0:0:
223,15,20458,1,0,0:0:0:0:
120,187,20618,2,0,L|-14:160,1,100,2|0,0:0|0:0,0:0:0:0:
0,174,20937,1,8,0:0:0:0:
256,192,21096,6,0,P|298:156|366:159,1,100,2|0,0:0|0:0,0:0:0:0:
429,256,21416,2,0,L|295:229,1,100,2|8,0:0|0:0,0:0:0:0:
159,219,21735,1,0,0:0:0:0:
256,352,21894,5,2,0:0:0:0:
159,219,22054,1,0,0:0:0:0:
315,269,22213,1,8,0:0:0:0:
159,320,22373,1,8,0:0:0:0:
256,192,22533,6,0,B|279:135|279:135|276:54,1,110.000003356934,6|0,0:0|0:0,0:0:0:0:
213,13,22852,1,8,0:0:0:0:
341,16,23011,1,0,0:0:0:0:
189,96,23171,2,0,B|134:99|134:99|63:79,1,110.000003356934,2|0,0:0|0:0,0:0:0:0:
63,71,23490,1,8,0:0:0:0:
256,192,23650,6,0,B|311:195|311:195|382:175,1,110.000003356934,2|0,0:0|0:0,0:0:0:0:
387,166,23969,1,2,0:0:0:0:
256,384,24128,2,0,L|256:256,1,110.000003356934,8|0,0:0|0:0,0:0:0:0:
303,78,24448,1,2,0:0:0:0:
303,78,24607,1,0,0:0:0:0:
387,166,24767,1,8,0:0:0:0:
423,50,24926,1,0,0:0:0:0:
256,192,25086,6,0,P|239:251|266:335,2,110.000003356934,6|0|8,0:0|0:0|0:0,0:0:0:0:
350,249,25565,1,0,0:0:0:0:
246,298,25724,2,0,P|168:307|106:291,1,110.000003356934,2|0,0:0|0:0,0:0:0:0:
102,283,26043,1,8,0:0:0:0:
256,192,26203,6,0,P|319:182|404:132,1,110.000003356934,2|0,0:0|0:0,0:0:0:0:
434,81,26522,1,2,0:0:0:0:
468,185,26682,1,8,0:0:0:0:
361,163,26841,1,0,0:0:0:0:
434,81,27001,1,2,0:0:0:0:
402,238,27160,2,0,L|389:292,1,55.0000016784668,2|0,0:0|0:0,0:0:0:0:
393,384,27320,2,0,L|423:246,1,110.000003356934,12|0,0:0|0:0,0:0:0:0:
256,192,27639,6,0,P|186:157|163:129,1,110.000003356934,6|0,0:0|0:0,0:0:0:0:
60,333,27958,2,0,P|130:298|153:270,1,110.000003356934,8|0,0:0|0:0,0:0:0:0:
166,133,28277,1,2,0:0:0:0:
166,133,28437,1,2,0:0:0:0:
46,225,28596,2,0,B|6:185|6:185|74:169,1,110.000003356934,8|0,0:0|0:0,0:0:0:0:
256,192,28916,6,0,P|326:157|349:129,1,110.000003356934,2|0,0:0|0:0,0:0:0:0:
241,308,29235,2,0,P|201:269|151:249,1,110.000003356934,8|0,0:0|0:0,0:0:0:0:
46,225,29554,1,2,0:0:0:0:
88,109,29713,5,8,0:0:0:0:
115,72,29792,1,0,0:0:0:0:
161,68,29872,1,8,0:0:0:0:
185,105,29952,1,0,0:0:0:0:
178,149,30032,1,8,0:0:0:0:
206,183,30112,1,0,0:0:0:0:
256,192,30192,6,0,P|273:267|201:356,1,165.000005035401,6|0,0:0|0:0,0:0:0:0:
177,355,30511,1,8,0:0:0:0:
360,296,30671,1,8,0:0:0:0:
360,296,30751,1,0,0:0:0:0:
360,296,30831,1,6,0:0:0:0:
280,362,30990,1,2,0:0:0:0:
177,355,31150,1,8,0:0:0:0:
256,192,31309,6,0,P|273:117|201:28,1,165.000005035401,6|0,0:0|0:0,0:0:0:0:
191,35,31628,1,2,0:0:0:0:
191,35,31788,1,12,0:0:0:0:
139,160,31948,1,0,0:0:0:0:
134,211,32027,1,0,0:0:0:0:
162,247,32107,2,0,B|176:294|176:294|177:369,2,110.000003356934,8|0|8,0:0|0:0|0:0,0:0:0:0:
65,148,32586,1,8,0:0:0:0:
256,192,32745,6,0,L|354:195,1,85.0000016212464,6|0,0:0|0:0,0:0:0:0:
485,258,33065,2,0,L|400:255,1,85.0000016212464,0|0,0:0|0:0,0:0:0:0:
405,131,33384,1,8,0:0:0:0:
421,98,33703,1,0,0:0:0:0:
256,192,33862,6,0,L|158:195,1,85.0000016212464,2|0,0:0|0:0,0:0:0:0:
27,258,34182,2,0,L|111:255,1,85.0000016212464,2|0,0:0|0:0,0:0:0:0:
107,131,34501,1,0,0:0:0:0:
256,342,34660,2,0,L|171:339,1,85.0000016212464,8|0,0:0|0:0,0:0:0:0:
111,255,34979,1,0,0:0:0:0:
171,339,35139,1,0,0:0:0:0:
256,192,35299,5,6,0:0:0:0:
341,339,35458,1,0,0:0:0:0:
401,255,35618,2,0,L|409:151,2,85.0000016212464,0|0|8,0:0|0:0|0:0,0:0:0:0:
341,339,36096,1,0,0:0:0:0:
401,255,36256,1,2,0:0:0:0:
452,346,36416,1,2,0:0:0:0:
256,192,36575,6,0,L|160:160,1,85.0000016212464,0|8,0:0|0:0,0:0:0:0:
55,119,36894,2,0,L|151:87,1,85.0000016212464,2|2,0:0|0:0,0:0:0:0:
261,39,37213,1,12,0:0:0:0:
175,165,37373,1,0,0:0:0:0:
261,39,37533,2,0,P|263:73|235:53,1,85.0000016212464,8|0,0:0|0:0,0:0:0:0:
256,192,37852,6,0,P|255:255|316:211,1,170.000003242493,6|0,0:0|0:0,0:0:0:0:
213,114,38331,1,2,0:0:0:0:
401,196,38490,2,0,P|398:258|317:347,1,170.000003242493,8|0,0:0|0:0,0:0:0:0:
159,333,38969,1,2,0:0:0:0:
256,192,39128,6,0,P|256:128|195:172,1,170.000003242493,0|0,0:0|0:0,0:0:0:0:
223,268,39607,1,2,0:0:0:0:
361,162,39767,2,0,P|344:102|245:33,1,170.000003242493,8|0,0:0|0:0,0:0:0:0:
159,37,40246,1,8,0:0:0:0:
256,192,40405,5,6,0:0:0:0:
160,160,40724,1,0,0:0:0:0:
384,96,41043,1,8,0:0:0:0:
295,380,41362,1,0,0:0:0:0:
256,192,41682,5,6,0:0:0:0:
352,160,42001,1,0,0:0:0:0:
128,96,42320,1,12,0:0:0:0:
217,380,42479,1,2,0:0:0:0:
217,380,42639,2,0,L|241:248,1,100,8|8,0:0|0:0,0:0:0:0:
256,192,42958,6,0,L|280:60,1,100,6|0,0:0|0:0,0:0:0:0:
236,9,43277,1,8,0:0:0:0:
336,22,43437,1,0,0:0:0:0:
172,137,43596,2,0,L|73:155,1,100,2|0,0:0|0:0,0:0:0:0:
38,33,43916,2,0,L|137:51,1,100,8|0,0:0|0:0,0:0:0:0:
256,192,44235,5,2,0:0:0:0:
273,93,44394,1,0,0:0:0:0:
273,93,44554,1,8,0:0:0:0:
392,231,44713,2,0,P|435:235|427:192,1,100,2|0,0:0|0:0,0:0:0:0:
348,155,45033,1,2,0:0:0:0:
222,311,45192,1,8,0:0:0:0:
222,311,45352,1,0,0:0:0:0:
256,192,45511,6,0,L|379:176,1,100,6|0,0:0|0:0,0:0:0:0:
479,302,45831,2,0,L|379:289,1,100,8|0,0:0|0:0,0:0:0:0:
253,361,46150,1,2,0:0:0:0:
387,295,46309,1,0,0:0:0:0:
387,295,46469,1,8,0:0:0:0:
346,384,46628,1,2,0:0:0:0:
256,192,46788,5,6,0:0:0:0:
155,302,46948,1,0,0:0:0:0:
155,302,47027,1,2,0:0:0:0:
155,302,47107,1,8,0:0:0:0:
69,157,47267,2,0,L|22:139,2,50,0|0|12,0:0|0:0|0:0,0:0:0:0:
105,362,47586,1,2,0:0:0:0:
126,373,47665,1,0,0:0:0:0:
150,378,47745,1,8,0:0:0:0:
180,221,47905,1,8,0:0:0:0:
214,195,47985,1,0,0:0:0:0:
256,192,48065,6,0,P|317:200|385:182,1,100,6|0,0:0|0:0,0:0:0:0:
484,98,48384,2,0,P|423:106|355:88,1,100,0|0,0:0|0:0,0:0:0:0:
257,31,48703,1,8,0:0:0:0:
257,353,49022,1,4,0:0:0:0:
257,373,49182,1,0,0:0:0:0:
256,192,49341,6,0,P|195:184|127:202,1,100,6|0,0:0|0:0,0:0:0:0:
28,286,49660,2,0,P|89:278|157:296,1,100,0|0,0:0|0:0,0:0:0:0:
257,353,49979,1,8,0:0:0:0:
257,31,50299,1,4,0:0:0:0:
257,12,50458,1,0,0:0:0:0:
256,192,50618,5,6,0:0:0:0:
260,196,50777,1,0,0:0:0:0:
128,172,50937,1,8,0:0:0:0:
132,176,51096,1,0,0:0:0:0:
205,85,51257,1,2,0:0:0:0:
93,65,51416,1,0,0:0:0:0:
205,85,51575,1,8,0:0:0:0:
17,152,51735,1,0,0:0:0:0:
256,192,51894,6,0,B|305:203|305:203|294:135,1,100,6|0,0:0|0:0,0:0:0:0:
128,172,52213,2,0,B|77:203|77:203|143:250,1,119.999996337891,8|2,0:0|0:0,0:0:0:0:
385,93,52533,2,0,B|390:23|390:23|284:66,1,139.999995727539,12|8,0:0|0:0,0:0:0:0:
312,330,52852,2,0,B|385:360|385:360|379:280,1,160,8|8,0:0|0:0,0:0:0:0:
256,192,53171,5,6,0:0:0:0:
256,192,53490,1,8,0:0:0:0:
369,323,53809,5,8,0:0:0:0:
408,322,53889,1,0,0:0:0:0:
442,296,53969,1,8,0:0:0:0:
456,257,54049,1,0,0:0:0:0:
446,216,54128,1,8,0:0:0:0:
407,204,54208,1,0,0:0:0:0:
385,168,54288,1,8,0:0:0:0:
379,128,54368,1,0,0:0:0:0:
389,90,54448,5,6,0:0:0:0:
469,139,54607,1,0,0:0:0:0:
469,139,54687,1,0,0:0:0:0:
469,139,54767,1,8,0:0:0:0:
305,59,54926,2,0,B|282:-1|282:-1|349:9,1,125,2|0,0:0|0:0,0:0:0:0:
389,90,55245,1,2,0:0:0:0:
299,168,55405,1,8,0:0:0:0:
299,168,55565,1,0,0:0:0:0:
188,96,55724,5,2,0:0:0:0:
219,248,55884,2,0,P|214:318|196:376,1,125,0|8,0:0|0:0,0:0:0:0:
0,270,56203,2,0,P|66:290|128:293,1,125,2|0,0:0|0:0,0:0:0:0:
219,248,56522,1,2,0:0:0:0:
121,293,56682,1,8,0:0:0:0:
131,191,56841,1,0,0:0:0:0:
314,294,57001,5,6,0:0:0:0:
301,190,57160,1,0,0:0:0:0:
409,116,57320,2,0,B|462:80|462:80|409:48,1,125,8|0,0:0|0:0,0:0:0:0:
314,90,57639,5,6,0:0:0:0:
301,190,57798,1,0,0:0:0:0:
409,268,57958,2,0,B|462:304|462:304|409:336,1,125,8|0,0:0|0:0,0:0:0:0:
216,270,58277,6,0,P|154:263|70:275,1,125,6|0,0:0|0:0,0:0:0:0:
0,370,58596,1,8,0:0:0:0:
92,270,58756,1,0,0:0:0:0:
16,155,58916,2,0,P|9:92|16:30,1,125,6|0,0:0|0:0,0:0:0:0:
143,103,59235,1,8,0:0:0:0:
187,126,59315,1,2,0:0:0:0:
235,116,59394,1,8,0:0:0:0:
256,69,59474,1,0,0:0:0:0:
295,35,59554,6,0,B|362:24|362:24|429:55,1,125,6|0,0:0|0:0,0:0:0:0:
492,119,59793,1,0,0:0:0:0:
492,119,59873,1,8,0:0:0:0:
358,249,60033,2,0,B|370:188|370:188|338:115,1,125,2|0,0:0|0:0,0:0:0:0:
295,35,60352,1,2,0:0:0:0:
354,136,60511,1,8,0:0:0:0:
354,136,60671,1,0,0:0:0:0:
197,84,60831,5,2,0:0:0:0:
200,211,60990,2,0,P|194:277|174:333,1,125,0|8,0:0|0:0,0:0:0:0:
0,176,61309,2,0,P|58:155|121:150,1,125,2|0,0:0|0:0,0:0:0:0:
200,211,61628,1,2,0:0:0:0:
203,90,61788,1,8,0:0:0:0:
203,90,61948,1,0,0:0:0:0:
322,84,62107,5,6,0:0:0:0:
319,215,62266,1,0,0:0:0:0:
433,313,62426,2,0,B|486:349|486:349|433:381,1,125,8|0,0:0|0:0,0:0:0:0:
322,346,62745,5,6,0:0:0:0:
319,215,62904,1,0,0:0:0:0:
433,113,63064,2,0,B|486:77|486:77|433:45,1,125,8|0,0:0|0:0,0:0:0:0:
201,89,63383,5,6,0:0:0:0:
215,222,63543,2,0,P|221:256|216:293,2,62.5,2|2|12,0:0|0:0|0:0,0:0:0:0:
125,132,63862,1,0,0:0:0:0:
112,101,63942,1,0,0:0:0:0:
118,67,64022,1,12,0:0:0:0:
109,238,64182,2,0,P|75:244|38:239,2,62.5,2|0|12,0:0|0:0|0:0,0:0:0:0:
201,89,64501,1,8,0:0:0:0:
256,62,64581,1,2,0:0:0:0:
308,89,64661,5,6,0:0:0:0:
429,37,64820,1,0,0:0:0:0:
429,37,64900,1,0,0:0:0:0:
429,37,64979,1,8,0:0:0:0:
391,181,65139,2,0,B|377:243|377:243|458:225,1,125,2|0,0:0|0:0,0:0:0:0:
484,129,65458,1,2,0:0:0:0:
430,323,65618,2,0,B|368:337|368:337|287:312,1,125,8|0,0:0|0:0,0:0:0:0:
143,213,65937,5,2,0:0:0:0:
219,131,66096,1,0,0:0:0:0:
114,108,66256,1,8,0:0:0:0:
191,326,66416,2,0,P|175:265|142:212,1,125,2|0,0:0|0:0,0:0:0:0:
37,185,66735,1,2,0:0:0:0:
72,7,66894,2,0,P|134:11|191:35,1,125,8|0,0:0|0:0,0:0:0:0:
304,191,67213,5,6,0:0:0:0:
448,192,67372,1,0,0:0:0:0:
308,91,67533,2,0,B|362:57|362:57|370:118,1,125,8|0,0:0|0:0,0:0:0:0:
304,191,67852,5,6,0:0:0:0:
448,192,68011,1,0,0:0:0:0:
304,295,68172,2,0,B|358:329|358:329|366:268,1,125,8|0,0:0|0:0,0:0:0:0:
185,323,68490,6,0,P|108:347|63:389,1,125,6|0,0:0|0:0,0:0:0:0:
172,210,68809,2,0,P|208:159|223:99,1,125,8|0,0:0|0:0,0:0:0:0:
27,30,69128,1,6,0:0:0:0:
57,62,69208,1,0,0:0:0:0:
98,78,69288,1,0,0:0:0:0:
142,69,69368,1,0,0:0:0:0:
177,42,69448,1,8,0:0:0:0:
200,25,69527,1,0,0:0:0:0:
228,22,69607,1,8,0:0:0:0:
255,29,69687,1,0,0:0:0:0:
279,43,69767,6,0,B|331:81|331:81|391:82,1,125,6|0,0:0|0:0,0:0:0:0:
476,28,70006,1,0,0:0:0:0:
476,28,70086,1,8,0:0:0:0:
397,174,70245,2,0,B|365:229|365:229|366:312,1,125,2|0,0:0|0:0,0:0:0:0:
448,347,70565,1,2,0:0:0:0:
291,351,70724,1,8,0:0:0:0:
291,351,70884,1,0,0:0:0:0:
203,192,71043,5,2,0:0:0:0:
171,335,71203,1,0,0:0:0:0:
66,240,71362,1,8,0:0:0:0:
203,192,71522,2,0,P|231:123|206:44,1,125,2|0,0:0|0:0,0:0:0:0:
131,10,71841,1,2,0:0:0:0:
17,135,72001,2,0,P|103:113|151:128,1,125,8|0,0:0|0:0,0:0:0:0:
305,193,72320,5,6,0:0:0:0:
448,192,72479,1,0,0:0:0:0:
372,71,72639,2,0,B|380:10|380:10|434:44,1,125,8|0,0:0|0:0,0:0:0:0:
448,192,72959,5,6,0:0:0:0:
305,193,73118,1,0,0:0:0:0:
381,314,73278,2,0,B|372:374|372:374|318:340,1,125,8|0,0:0|0:0,0:0:0:0:
164,173,73596,5,6,0:0:0:0:
204,358,73756,2,0,P|206:327|191:279,1,62.5,2|0,0:0|0:0,0:0:0:0:
99,231,73916,1,8,0:0:0:0:
82,200,73995,1,0,0:0:0:0:
79,166,74075,1,2,0:0:0:0:
88,133,74155,1,0,0:0:0:0:
115,110,74235,1,6,0:0:0:0:
151,83,74315,1,0,0:0:0:0:
163,40,74394,1,8,0:0:0:0:
133,6,74474,1,0,0:0:0:0:
89,15,74554,6,0,P|163:51|256:14,1,187.5,4|0,0:0|0:0,0:0:0:0:
427,11,74873,6,0,B|339:51|339:51|256:14,1,187.5,6|0,0:0|0:0,0:0:0:0:
256,14,75192,6,0,L|256:160,1,125,8|0,0:0|0:0,0:0:0:0:
256,267,75511,1,0,0:0:0:0:
403,242,75671,1,2,0:0:0:0:
355,384,75831,1,8,0:0:0:0:
340,304,75990,1,0,0:0:0:0:
162,350,76150,6,0,P|96:343|27:275,1,125,2|0,0:0|0:0,0:0:0:0:
33,141,76469,2,0,P|47:195|87:236,1,115.000002193451,8|0,0:0|0:0,0:0:0:0:
224,200,76788,2,0,P|182:199|134:162,1,104.999996795654,2|0,0:0|0:0,0:0:0:0:
139,20,77107,2,0,P|151:65|183:99,1,94.9999974632264,8|0,0:0|0:0,0:0:0:0:
310,89,77426,6,0,B|376:74|376:74|442:96,1,125,6|0,0:0|0:0,0:0:0:0:
368,195,77745,1,8,0:0:0:0:
490,178,77905,2,0,B|499:245|499:245|471:308,1,125,2|0,0:0|0:0,0:0:0:0:
368,195,78224,1,2,0:0:0:0:
413,364,78384,2,0,B|355:371|355:371|297:338,1,125,8|0,0:0|0:0,0:0:0:0:
215,233,78703,5,6,0:0:0:0:
185,312,78862,1,0,0:0:0:0:
162,163,79022,2,0,P|151:100|119:24,1,125,8|0,0:0|0:0,0:0:0:0:
17,288,79341,2,0,P|23:224|50:146,1,125,6|2,0:0|0:0,0:0:0:0:
74,133,79581,1,0,0:0:0:0:
115,155,79660,1,8,0:0:0:0:
162,163,79740,1,0,0:0:0:0:
210,155,79820,1,8,0:0:0:0:
252,130,79900,1,0,0:0:0:0:
281,89,79979,6,0,B|337:58|337:58|423:72,1,125,6|0,0:0|0:0,0:0:0:0:
498,88,80299,1,8,0:0:0:0:
498,88,80458,1,0,0:0:0:0:
358,159,80618,1,2,0:0:0:0:
358,159,80777,1,0,0:0:0:0:
499,230,80937,2,0,B|443:261|443:261|357:247,1,125,8|0,0:0|0:0,0:0:0:0:
256,192,81256,5,6,0:0:0:0:
158,338,81416,2,0,P|140:304|140:264,1,62.5,0|0,0:0|0:0,0:0:0:0:
256,192,81575,1,12,0:0:0:0:
354,338,81735,2,0,B|370:313|370:313|370:280,1,62.5,2|0,0:0|0:0,0:0:0:0:
256,192,81894,5,12,0:0:0:0:
227,160,81974,1,0,0:0:0:0:
215,120,82054,1,0,0:0:0:0:
227,80,82134,1,0,0:0:0:0:
256,50,82213,1,12,0:0:0:0:
291,75,82293,1,0,0:0:0:0:
328,99,82373,1,8,0:0:0:0:
366,77,82453,1,0,0:0:0:0:
399,48,82533,5,6,0:0:0:0:
409,45,83809,5,12,0:0:0:0:
352,135,83969,1,8,0:0:0:0:
463,137,84128,1,10,0:0:0:0:
299,39,84288,2,0,B|236:24|236:24|171:40,1,125,6|0,0:0|0:0,0:0:0:0:
111,236,84607,1,2,0:0:0:0:
111,236,84687,1,0,0:0:0:0:
110,237,84767,2,0,B|95:178|95:178|110:115,1,125,12|0,0:0|0:0,0:0:0:0:
256,192,85086,5,12,0:0:0:0:
230,355,85245,1,2,0:0:0:0:
230,355,85325,1,0,0:0:0:0:
230,355,85405,1,2,0:0:0:0:
357,293,85565,1,12,0:0:0:0:
199,264,85724,2,0,L|179:199,2,62.5,2|0|2,0:0|0:0|0:0,0:0:0:0:
357,293,86043,1,2,0:0:0:0:
234,360,86203,1,12,0:0:0:0:
256,192,86362,6,0,P|256:128|230:65,1,125,2|0,0:0|0:0,0:0:0:0:
133,20,86682,1,8,0:0:0:0:
133,20,86841,1,8,0:0:0:0:
32,171,87001,2,0,P|94:171|152:149,1,125,2|2,0:0|0:0,0:0:0:0:
234,71,87320,1,8,0:0:0:0:
335,123,87479,1,0,0:0:0:0:
256,192,87639,5,12,0:0:0:0:
314,23,87799,1,0,0:0:0:0:
314,23,87958,1,2,0:0:0:0:
439,151,88118,1,12,0:0:0:0:
