osu file format v14

[General]
AudioFilename: audio.mp3
AudioLeadIn: 0
PreviewTime: 54088
Countdown: 0
SampleSet: Soft
StackLeniency: 0.6
Mode: 0
LetterboxInBreaks: 0
WidescreenStoryboard: 1

[Editor]
Bookmarks: 35937,47745
DistanceSpacing: 1.3
BeatDivisor: 8
GridSize: 8
TimelineZoom: 2.999999

[Metadata]
Title:COOLEST (TV Size)
TitleUnicode:COOLEST (TV Size)
Artist:CustomiZ
ArtistUnicode:カスタマイZ
Creator:Spork Lover
Version:Hi-Speed Extreme
Source:坂本ですが?
Tags:Sakamoto desu ga? Opening Short Version Deen _DT3 SnowNiNo_
BeatmapID:1105536
BeatmapSetID:520373

[Difficulty]
HPDrainRate:6
CircleSize:4
OverallDifficulty:8.5
ApproachRate:9.5
SliderMultiplier:1.4
SliderTickRate:1

[Events]
//Background and Video events
0,0,"Purple.jpg",0,0
//Break Periods
//Storyboard Layer 0 (Background)
//Storyboard Layer 1 (Fail)
//Storyboard Layer 2 (Pass)
//Storyboard Layer 3 (Foreground)
//Storyboard Layer 4 (Overlay)
//Storyboard Sound Samples

[TimingPoints]
831,319.148936170213,4,2,1,70,1,0
1469,-25,4,2,1,70,0,0
2107,-50,4,2,1,70,0,0
4341,-40,4,2,1,70,0,0
4660,-25,4,2,1,70,0,0
6894,-33.3333333333333,4,2,1,70,0,0
7213,-100,4,2,1,70,0,0
7533,-80,4,2,1,60,0,0
7852,-66.6666666666667,4,2,1,50,0,0
8171,-57.1428571428571,4,2,1,40,0,0
8490,-50,4,2,1,50,0,0
8809,-44.4444444444445,4,2,1,60,0,0
9128,-40,4,2,1,70,0,0
9448,-36.3636363636364,4,2,1,80,0,0
9767,-36.3636363636364,4,2,1,90,0,0
10245,-200,4,2,1,90,0,0
10724,-36.3636363636364,4,2,1,90,0,0
11362,-25,4,2,1,90,0,0
12320,-66.6666666666667,4,2,1,70,0,0
14554,-33.3333333333333,4,2,1,70,0,0
14873,-133.333333333333,4,2,1,70,0,0
15990,-66.6666666666667,4,2,1,70,0,0
16788,-33.3333333333333,4,2,1,70,0,0
17107,-25,4,2,1,70,0,0
17426,-66.6666666666667,4,2,1,70,0,0
19660,-500,4,2,1,70,0,0
19979,-66.6666666666667,4,2,1,70,0,0
21894,-200,4,2,1,70,0,0
22213,-16.6666666666666,4,2,1,70,0,0
22533,-50,4,2,1,70,0,0
23650,-50,4,2,1,70,0,0
24767,-333.333333333333,4,2,1,70,0,0
25086,-50,4,2,1,70,0,0
27320,-200,4,2,1,70,0,0
27639,-200,4,2,1,70,0,0
27958,-33.3333333333333,4,2,1,70,0,0
28916,-200,4,2,1,70,0,0
29235,-33.3333333333333,4,2,1,70,0,0
29713,-25,4,2,1,70,0,0
30192,-50,4,2,1,70,0,0
30511,-25,4,2,1,70,0,0
30831,-20,4,2,1,70,0,0
31309,-50,4,2,1,70,0,0
31628,-25,4,2,1,70,0,0
31788,-133.333333333333,4,2,1,70,0,0
32107,-50,4,2,1,70,0,0
32426,-25,4,2,1,70,0,0
32745,-50,4,2,1,70,0,0
32825,-16.6666666666666,4,2,1,5,0,0
33065,-57.1428571428571,4,2,1,70,0,0
36256,-57.1428571428571,4,2,1,70,0,0
37533,-200,4,2,1,70,0,0
37772,-200,4,2,1,5,0,0
37852,-57.1428571428571,4,2,1,70,0,0
40405,-200,4,2,1,70,0,0
40724,-100,4,2,1,70,0,0
41043,-57.1428571428571,4,2,1,70,0,0
41362,-33.3333333333333,4,2,1,70,0,0
41682,-100,4,2,1,70,0,0
42001,-50,4,2,1,70,0,0
42639,-25,4,2,1,70,0,0
42958,-16.6666666666666,4,2,1,70,0,0
43277,-50,4,2,1,70,0,0
44713,-100,4,2,1,70,0,0
45192,-50,4,2,1,70,0,0
47745,-25,4,2,1,70,0,0
47905,-16.6666666666666,4,2,1,70,0,0
50618,-50,4,2,1,70,0,0
50698,-50,4,2,1,5,0,0
50777,-50,4,2,1,70,0,0
50857,-50,4,2,1,5,0,0
50937,-50,4,2,1,70,0,0
51256,-33.3333333333333,4,2,1,70,0,0
51336,-33.3333333333333,4,2,1,5,0,0
51416,-33.3333333333333,4,2,1,70,0,0
51495,-33.3333333333333,4,2,1,5,0,0
51575,-33.3333333333333,4,2,1,70,0,0
51894,-25,4,2,1,70,0,0
52533,-40,4,2,1,70,0,0
52852,-28.5714285714286,4,2,1,70,0,0
53171,-200,4,2,1,70,0,0
53809,-25,4,2,1,70,0,0
54448,-50,4,2,1,85,0,1
57001,-133.333333333333,4,2,1,85,0,1
57320,-25,4,2,1,85,0,1
57639,-133.333333333333,4,2,1,85,0,1
57958,-25,4,2,1,85,0,1
58277,-33.3333333333333,4,2,1,85,0,1
58916,-200,4,2,1,85,0,1
59554,-25,4,2,1,85,0,1
60033,-50,4,2,1,85,0,1
60352,-200,4,2,1,85,0,1
60990,-50,4,2,1,85,0,1
62107,-133.333333333333,4,2,1,85,0,1
62426,-25,4,2,1,85,0,1
62745,-133.333333333333,4,2,1,85,0,1
63064,-25,4,2,1,85,0,1
63543,-50,4,2,1,85,0,1
64341,-20,4,2,1,85,0,1
64660,-50,4,2,1,85,0,1
67213,-133.333333333333,4,2,1,85,0,1
67532,-25,4,2,1,85,0,1
67851,-133.333333333333,4,2,1,85,0,1
68170,-25,4,2,1,85,0,1
69767,-50,4,2,1,85,0,1
72319,-133.333333333333,4,2,1,85,0,1
72638,-25,4,2,1,85,0,1
72957,-133.333333333333,4,2,1,85,0,1
73276,-25,4,2,1,85,0,1
73755,-40,4,2,1,85,0,1
74554,-142.857142857143,4,2,1,85,0,1
74873,-50,4,2,1,85,0,0
76150,-33.3333333333333,4,2,1,85,0,0
76469,-50,4,2,1,85,0,0
76788,-100,4,2,1,85,0,0
77905,-50,4,2,1,85,0,0
78384,-33.3333333333333,4,2,1,85,0,0
79501,-25,4,2,1,85,0,0
80299,-33.3333333333333,4,2,1,85,0,0
80937,-250,4,2,1,85,0,0
81256,-25,4,2,1,85,0,0
81416,-40,4,2,1,85,0,0
82213,-28.5714285714286,4,2,1,85,0,0
82533,-8.3333333333333,4,2,1,85,0,0
82573,-8.3333333333333,4,2,1,5,0,0
83809,-40,4,2,1,85,0,0
84767,-5,4,2,1,85,0,0
84807,-16.6666666666666,4,2,1,5,0,0
85086,-36.3636363636364,4,2,1,70,0,0
85565,-200,4,2,1,70,0,0
86043,-36.3636363636364,4,2,1,70,0,0
87639,-25,4,2,1,85,0,0
88118,-13.2,4,2,1,85,0,0
88277,-13.2,4,2,1,5,0,0

[Colours]
Combo1 : 158,36,189
Combo2 : 215,130,251
SliderBorder : 187,168,225
SliderTrackOverride : 34,22,48

[HitObjects]
66,48,1469,6,0,B|66:84|66:84|73:119|73:119|64:161|64:161|74:225,1,140,8|0,0:0|0:0,0:0:0:0:
178,342,1628,2,0,B|178:305|178:305|185:271|185:271|176:229|176:229|186:165,1,140,8|0,0:0|0:0,0:0:0:0:
288,23,1788,2,0,B|288:59|288:59|295:94|295:94|286:136|286:136|296:200,1,140,8|0,0:0|0:0,0:0:0:0:
391,374,1947,2,0,B|391:337|391:337|398:303|398:303|389:261|389:261|399:197,1,140,8|0,0:0|0:0,0:0:0:0:
512,0,2107,5,2,0:0:0:0:
256,278,4341,6,0,L|256:-3,1,262.5,4|0,0:0|0:0,0:0:0:0:
256,355,4660,1,2,0:0:0:0:
56,371,5937,5,2,0:0:0:0:
432,121,6096,5,12,0:0:0:0:
398,114,6416,1,12,0:0:0:0:
410,145,6735,1,2,0:0:0:0:
297,61,6894,6,0,B|245:55|152:78|195:124|251:139|251:139|300:123|329:151|329:151|306:155|281:180,1,315.000012016297,4|0,0:0|0:0,0:0:0:0:
270,257,7213,5,6,0:0:0:0:
383,230,7373,2,0,L|336:226,1,35
342,309,7533,2,0,P|357:259|336:210,1,87.5,2|0,0:0|0:0,0:0:0:0:
286,175,7772,1,0,0:0:0:0:
303,223,7852,5,2,0:0:0:0:
319,77,8012,2,0,L|312:138,1,52.5000020027161
184,276,8171,1,2,0:0:0:0:
178,116,8331,2,0,L|172:185,1,61.2500005841255
68,167,8490,6,0,P|111:114|179:117,1,140,6|0,0:0|0:0,0:0:0:0:
255,207,8730,1,0,0:0:0:0:
204,226,8809,1,2,0:0:0:0:
407,294,8969,2,0,L|306:280,1,78.7500030040742
182,319,9128,6,0,P|264:337|330:283,1,175,8|8,0:0|0:0,0:0:0:0:
286,175,9368,1,0,0:0:0:0:
255,207,9448,2,0,L|136:195,1,96.2500009179115,8|0,0:0|0:0,0:0:0:0:
33,79,9608,2,0,L|130:68,1,96.2500009179115,8|0,0:0|0:0,0:0:0:0:
402,34,9767,5,6,0:0:0:0:
19,192,9926,5,0,0:0:0:0:
42,231,10006,1,0,0:0:0:0:
61,262,10086,2,0,L|165:269,1,96.2500009179115,8|0,0:0|0:0,0:0:0:0:
391,246,10245,2,0,L|391:211,1,35,6|0,0:0|0:0,0:0:0:0:
372,20,10565,5,2,0:0:0:0:
386,51,10645,1,0,0:0:0:0:
402,81,10724,2,0,L|408:185,1,96.2500009179115,8|0,0:0|0:0,0:0:0:0:
416,298,10884,2,0,L|311:304,1,96.2500009179115,6|0,0:0|0:0,0:0:0:0:
259,136,11043,5,0,0:0:0:0:
182,94,11123,1,0,0:0:0:0:
134,168,11203,1,2,0:0:0:0:
215,210,11283,1,0,0:0:0:0:
441,117,11362,2,0,B|364:102|247:158|247:158|263:113|263:113|169:166|77:109,1,420,12|0,0:0|0:0,0:0:0:0:
15,53,11682,5,4,0:0:0:0:
512,0,12001,5,4,0:0:0:0:
330,338,12320,6,0,P|336:285|314:222,1,105.000004005432,2|0,0:0|0:0,0:0:0:0:
172,171,12639,1,8,0:0:0:0:
339,93,12799,6,0,B|286:99|245:88|245:88|212:98|191:124,1,157.500006008148,2|0,0:0|0:0,0:0:0:0:
172,171,13118,1,0,0:0:0:0:
149,34,13277,1,8,0:0:0:0:
353,202,13437,6,0,B|307:203|271:232|271:232|237:233|203:214,1,157.500006008148,2|0,0:0|0:0,0:0:0:0:
172,171,13756,2,0,P|119:193|67:187,2,105.000004005432,2|8|0,0:0|0:0|0:0,0:0:0:0:
268,30,14235,1,2,0:0:0:0:
286,54,14394,1,0,0:0:0:0:
173,341,14554,6,0,B|208:237|304:191|304:191|308:151|290:115|290:115|310:86|308:46,1,315.000012016297,8|0,0:0|0:0,0:0:0:0:
173,341,14873,6,0,P|131:339|93:351,1,78.7500030040742,6|0,0:0|0:0,0:0:0:0:
52,328,15192,1,8,0:0:0:0:
62,135,15352,1,0,0:0:0:0:
163,231,15511,1,2,0:0:0:0:
191,113,15671,1,0,0:0:0:0:
154,270,15831,1,8,0:0:0:0:
198,71,15990,6,0,B|251:65|292:76|292:76|325:66|346:40,1,157.500006008148,2|0,0:0|0:0,0:0:0:0:
376,0,16309,2,0,P|365:51|392:105,2,105.000004005432,2|8|0,0:0|0:0|0:0,0:0:0:0:
445,42,16788,6,0,B|458:71|458:71|440:107|444:147|444:147|416:179|420:222|420:222|461:286|432:343,1,315.000012016297,2|0,0:0|0:0,0:0:0:0:
391,364,17107,1,8,0:0:0:0:
367,378,17267,2,0,B|383:346|383:346|354:306|354:306|363:272|336:226,1,140,2|0,0:0|0:0,0:0:0:0:
18,102,17426,6,0,P|69:95|120:109,1,105.000004005432,6|0,0:0|0:0,0:0:0:0:
217,190,17745,1,8,0:0:0:0:
242,49,17905,1,0,0:0:0:0:
253,369,18065,6,0,B|230:336|226:280|226:280|247:251|244:210,1,157.500006008148,2|0,0:0|0:0,0:0:0:0:
217,190,18384,1,8,0:0:0:0:
340,266,18543,6,0,B|397:273|397:273|459:251,1,105.000004005432,2|0,0:0|0:0,0:0:0:0:
342,122,18862,2,0,B|326:77|326:77|333:20,1,105.000004005432,2|8,0:0|0:0,0:0:0:0:
217,190,19182,1,0,0:0:0:0:
416,63,19341,1,2,0:0:0:0:
430,156,19501,1,0,0:0:0:0:
437,243,19660,6,0,L|440:266,1,21,8|0,0:0|0:0,0:0:0:0:
430,156,19979,5,2,0:0:0:0:
169,329,20139,1,0,0:0:0:0:
163,176,20299,1,8,0:0:0:0:
294,243,20458,1,0,0:0:0:0:
135,161,20618,2,0,B|86:140|86:140|30:137,1,105.000004005432,2|2,0:0|0:0,0:0:0:0:
210,251,20937,1,8,0:0:0:0:
308,96,21096,6,0,B|357:69|412:75|412:75|458:54|465:32,1,157.500006008148,2|0,0:0|0:0,0:0:0:0:
502,18,21416,2,0,B|453:45|397:38|397:38|352:60|345:82,1,157.500006008148,2|0,0:0|0:0,0:0:0:0:
308,96,21735,1,2,0:0:0:0:
433,183,21894,6,0,P|433:223|433:223,1,35,2|0,0:0|0:0,0:0:0:0:
476,357,22213,6,0,B|458:339|458:339|461:303|433:285|433:285|457:261|464:233|464:233|436:215|433:180,1,210.000008010865,8|0,0:0|0:0,0:0:0:0:
273,0,22373,2,0,B|270:31|242:49|242:49|249:77|273:101|273:101|245:119|248:155|248:155|230:173,1,210.000008010865,8|0,0:0|0:0,0:0:0:0:
28,322,22533,6,0,B|76:295|121:300|121:300|165:337|253:337,1,210,6|0,0:0|0:0,0:0:0:0:
276,337,22852,1,8,0:0:0:0:
229,173,23011,1,0,0:0:0:0:
441,327,23171,6,0,B|437:278|399:238|399:238|426:190|426:102,1,210,6|0,0:0|0:0,0:0:0:0:
382,92,23490,1,8,0:0:0:0:
93,153,23650,6,0,P|162:149|228:172,1,140,2|0,0:0|0:0,0:0:0:0:
305,244,23969,1,2,0:0:0:0:
382,92,24128,1,8,0:0:0:0:
164,71,24288,1,0,0:0:0:0:
305,244,24448,2,0,B|260:181|252:115|252:115|266:74|258:24,1,210,2|0,0:0|0:0,0:0:0:0:
305,244,24767,6,0,L|338:244,1,31.4999990386963,8|0,0:0|0:0,0:0:0:0:
164,71,25086,6,0,B|87:65|87:65|28:87,2,140,6|0|8,0:0|0:0|0:0,0:0:0:0:
217,151,25565,1,0,0:0:0:0:
477,18,25724,1,2,0:0:0:0:
398,273,25884,1,0,0:0:0:0:
379,119,26043,1,8,0:0:0:0:
404,316,26203,6,0,B|333:304|333:304|250:327|250:327|216:307|172:322,1,210,2|0,0:0|0:0,0:0:0:0:
157,347,26522,1,2,0:0:0:0:
117,16,26682,1,8,0:0:0:0:
170,112,26841,1,0,0:0:0:0:
436,33,27001,2,0,P|430:63|406:99,1,70,2|0,0:0|0:0,0:0:0:0:
76,351,27160,2,0,P|82:321|106:285,1,70
256,191,27320,6,0,L|256:244,1,52.5,8|0,0:0|0:0,0:0:0:0:
256,92,27639,6,0,P|283:85|314:91,1,52.5,6|0,0:0|0:0,0:0:0:0:
136,128,27958,6,0,B|110:117|100:95|100:95|175:66|263:94,1,210.000008010865,8|0,0:0|0:0,0:0:0:0:
450,169,28277,1,2,0:0:0:0:
464,32,28437,1,2,0:0:0:0:
294,284,28596,6,0,B|351:147|305:55|269:42|269:42|251:74|256:134,1,315.000012016297,8|0,0:0|0:0,0:0:0:0:
256,92,28916,6,0,P|229:85|198:91,1,52.5,2|0,0:0|0:0,0:0:0:0:
377,128,29235,6,0,B|403:117|413:95|413:95|338:66|250:94,1,210.000008010865,8|0,0:0|0:0,0:0:0:0:
154,267,29554,1,2,0:0:0:0:
459,196,29713,5,8,0:0:0:0:
496,261,29793,1,0,0:0:0:0:
459,326,29872,1,8,0:0:0:0:
384,326,29952,1,0,0:0:0:0:
346,261,30033,1,8,0:0:0:0:
384,196,30112,1,0,0:0:0:0:
420,260,30192,6,0,B|412:209|412:209|412:157|438:116|438:116|435:79|418:41,1,210,6|0,0:0|0:0,0:0:0:0:
393,14,30511,6,0,B|379:42|401:45|401:45|389:76|389:76|397:124|351:178,1,140,8|0,0:0|0:0,0:0:0:0:
209,365,30671,2,0,B|195:337|217:334|217:334|205:303|205:303|213:255|167:201,1,140,8|0,0:0|0:0,0:0:0:0:
24,37,30831,6,0,B|31:82|65:107|65:107|114:100|144:59|144:59|230:32|332:107,2,350,6|2|0,0:0|0:0|0:0,0:0:0:0:
383,249,31309,5,6,0:0:0:0:
440,289,31628,6,0,B|472:268|468:250|468:250|430:226|380:250,1,140,2|0,0:0|0:0,0:0:0:0:
251,317,31788,6,0,P|242:284|247:263,1,52.5000020027161,12|0,0:0|0:0,0:0:0:0:
257,144,32107,2,0,P|189:158|143:209,1,140,8|0,0:0|0:0,0:0:0:0:
29,303,32426,2,0,P|42:160|129:46,1,280,8|0,0:0|0:0,0:0:0:0:
502,356,32745,6,0,B|470:372|443:358|443:358|437:340|414:330|414:330|364:359|279:335,1,210,6|0,0:0|0:0,0:0:0:0:
268,314,33065,1,2,0:0:0:0:
298,102,33224,1,0,0:0:0:0:
171,364,33384,2,0,B|197:309|190:250|190:250|161:225|149:168,1,183.750001752377,8|0,0:0|0:0,0:0:0:0:
110,162,33703,1,2,0:0:0:0:
285,191,33862,6,0,B|316:206|343:192|343:192|349:174|372:164|372:164|422:193|476:176,1,210,6|0,0:0|0:0,0:0:0:0:
506,154,34182,1,2,0:0:0:0:
389,337,34341,1,2,0:0:0:0:
389,337,34501,1,0,0:0:0:0:
391,40,34660,1,8,0:0:0:0:
319,101,34820,1,0,0:0:0:0:
319,101,34900,1,0,0:0:0:0:
319,101,34979,5,2,0:0:0:0:
485,61,35139,1,0,0:0:0:0:
413,127,35299,5,6,0:0:0:0:
464,298,35458,1,0,0:0:0:0:
174,230,35618,5,0,0:0:0:0:
340,190,35777,1,0,0:0:0:0:
291,345,35937,1,8,0:0:0:0:
246,153,36096,1,2,0:0:0:0:
224,51,36256,1,0,0:0:0:0:
224,51,36416,1,2,0:0:0:0:
145,119,36575,5,0,0:0:0:0:
413,127,36735,2,0,P|454:73|519:39,1,122.500001168251,8|0,0:0|0:0,0:0:0:0:
340,190,37054,1,2,0:0:0:0:
246,153,37213,1,8,0:0:0:0:
286,337,37373,1,0,0:0:0:0:
57,92,37533,6,0,P|79:62|82:44,1,52.5,12|0,0:0|0:0,0:0:0:0:
57,92,37852,6,0,B|77:145|77:145|77:217|77:217|98:274,1,183.750001752377,6|0,0:0|0:0,0:0:0:0:
133,293,38171,1,0,0:0:0:0:
240,291,38331,1,2,0:0:0:0:
57,92,38490,6,0,B|134:99|186:128|186:128|207:117|233:117,1,183.750001752377,8|0,0:0|0:0,0:0:0:0:
279,137,38809,1,0,0:0:0:0:
330,41,38969,6,0,B|385:22|421:48|421:48|459:83|502:88,1,183.750001752377,2|0,0:0|0:0,0:0:0:0:
499,88,39288,2,0,B|443:106|407:80|407:80|369:45|326:40,1,183.750001752377,8|0,0:0|0:0,0:0:0:0:
287,23,39607,1,2,0:0:0:0:
302,255,39767,2,0,P|299:192|275:131,1,122.500001168251,8|0,0:0|0:0,0:0:0:0:
219,74,40086,1,0,0:0:0:0:
388,192,40246,1,8,0:0:0:0:
136,180,40405,6,0,L|204:166,3,70,6|0|8|0,0:0|0:0|0:0|0:0,0:0:0:0:
205,166,41682,6,0,B|226:192|226:192|206:307,1,140,6|0,0:0|0:0,0:0:0:0:
205,166,42320,6,0,B|229:195|229:195|418:163,1,210,8|0,0:0|0:0,0:0:0:0:
457,205,42639,6,0,B|488:184|484:166|484:166|447:141|398:166,1,140,8|0,0:0|0:0,0:0:0:0:
182,316,42799,2,0,B|150:337|154:355|154:355|192:379|242:355,1,140,8|0,0:0|0:0,0:0:0:0:
452,35,42958,6,0,B|422:63|373:30|373:30|330:69|330:69|190:33|59:93,1,420.000016021729,6|0,0:0|0:0,0:0:0:0:
15,261,43277,1,8,0:0:0:0:
61,92,43437,1,0,0:0:0:0:
125,329,43596,6,0,B|107:244|107:244|129:187,1,140,2|0,0:0|0:0,0:0:0:0:
403,253,43916,2,0,B|336:263|282:229|282:229|235:232|204:258,1,210,8|0,0:0|0:0,0:0:0:0:
164,296,44235,1,2,0:0:0:0:
379,46,44394,1,0,0:0:0:0:
125,329,44554,1,8,0:0:0:0:
161,213,44713,6,0,P|171:135|162:66,1,140,2|2,0:0|0:0,0:0:0:0:
164,74,45192,6,0,B|215:49|259:70|259:70|315:96|370:69,1,210,8|0,0:0|0:0,0:0:0:0:
379,46,45511,5,6,0:0:0:0:
407,258,45671,1,0,0:0:0:0:
194,289,45831,1,8,0:0:0:0:
164,74,45990,1,0,0:0:0:0:
396,25,46150,5,2,0:0:0:0:
178,309,46309,2,0,B|108:326|33:309|33:309|80:361,1,210,2|0,0:0|0:0,0:0:0:0:
210,271,46628,1,2,0:0:0:0:
365,376,46788,5,6,0:0:0:0:
234,57,46948,5,0,0:0:0:0:
249,83,47027,1,0,0:0:0:0:
274,98,47107,1,12,0:0:0:0:
136,10,47267,5,0,0:0:0:0:
139,80,47346,1,0,0:0:0:0:
109,145,47426,1,6,0:0:0:0:
374,112,47586,5,0,0:0:0:0:
365,202,47666,1,0,0:0:0:0:
400,288,47745,2,0,B|380:300|348:295|348:295|325:286|325:286|295:295|295:295|251:284,1,140,12|0,0:0|0:0,0:0:0:0:
41,348,47905,2,0,B|49:313|90:283|90:283|124:268|124:268|147:225|147:225|206:189,1,210.000008010865,8|0,0:0|0:0,0:0:0:0:
328,24,48065,5,6,0:0:0:0:
328,24,49022,5,4,0:0:0:0:
184,360,49341,1,4,0:0:0:0:
184,24,50299,5,4,0:0:0:0:
328,360,50458,1,4,0:0:0:0:
294,158,50618,6,0,L|294:240,1,70,6|0,0:0|0:0,0:0:0:0:
218,158,50777,2,0,L|218:240,1,70,0|0,0:0|0:0,0:0:0:0:
256,303,50937,1,8,0:0:0:0:
256,89,51096,1,0,0:0:0:0:
73,249,51256,6,0,L|73:141,1,105.000004005432,2|0,0:0|0:0,0:0:0:0:
439,249,51416,2,0,L|439:141,1,105.000004005432,2|0,0:0|0:0,0:0:0:0:
256,11,51575,1,8,0:0:0:0:
256,383,51735,1,0,0:0:0:0:
439,144,51894,6,0,B|471:123|467:105|467:105|429:80|379:105,1,140,6|0,0:0|0:0,0:0:0:0:
159,244,52054,2,0,B|135:293|160:331|160:331|178:334|199:303,1,140
353,244,52213,6,0,B|377:293|352:331|352:331|334:334|313:303,1,140,8|0,0:0|0:0,0:0:0:0:
73,144,52373,2,0,B|41:123|45:105|45:105|83:80|132:105,1,140
353,244,52533,6,0,B|396:263|458:243,3,87.5,12|0|8|0,0:0|0:0|0:0|0:0,0:0:0:0:
147,28,52852,2,0,B|87:0|21:27,3,122.500001168251,12|0|8|0,0:0|0:0|0:0|0:0,0:0:0:0:
62,192,53171,6,0,B|68:157,2,35,6|0|8,0:0|0:0|0:0,0:0:0:0:
62,192,53809,6,0,B|128:219|161:191|161:191|184:180|219:185,1,140,8|0,0:0|0:0,0:0:0:0:
450,192,53969,2,0,B|384:165|351:193|351:193|328:204|293:199,1,140,8|0,0:0|0:0,0:0:0:0:
256,0,54128,2,0,B|229:66|257:99|257:99|268:122|263:157,1,140,8|0,0:0|0:0,0:0:0:0:
256,384,54288,2,0,B|283:318|255:285|255:285|244:262|249:227,1,140,8|0,0:0|0:0,0:0:0:0:
35,41,54448,5,6,0:0:0:0:
71,202,54607,1,0,0:0:0:0:
71,202,54687,1,0,0:0:0:0:
71,202,54767,1,8,0:0:0:0:
236,67,54926,2,0,B|262:63|284:78|284:78|332:65|332:65|380:87|447:65,1,210,2|0,0:0|0:0,0:0:0:0:
477,41,55245,1,0,0:0:0:0:
475,313,55405,1,8,0:0:0:0:
475,313,55565,1,0,0:0:0:0:
477,41,55724,5,2,0:0:0:0:
384,151,55884,2,0,B|388:177|373:199|373:199|386:247|386:247|364:295|383:354,1,210
383,354,56203,2,0,B|379:328|394:306|394:306|381:258|381:258|403:210|383:150,1,210,6|0,0:0|0:0,0:0:0:0:
416,108,56522,1,2,0:0:0:0:
258,40,56682,1,8,0:0:0:0:
258,40,56841,1,2,0:0:0:0:
460,347,57001,6,0,P|467:319|451:262,1,78.7500030040742,6|0,0:0|0:0,0:0:0:0:
460,347,57320,2,0,B|410:383|341:341|341:341|305:383|305:383|239:367|206:372,1,280,8|0,0:0|0:0,0:0:0:0:
50,192,57639,6,0,P|43:164|59:107,1,78.7500030040742,6|0,0:0|0:0,0:0:0:0:
50,192,57958,2,0,B|99:155|168:197|168:197|204:155|204:155|270:171|306:166,1,280,8|0,0:0|0:0,0:0:0:0:
496,43,58277,5,2,0:0:0:0:
434,260,58437,1,0,0:0:0:0:
418,49,58596,1,8,0:0:0:0:
512,254,58756,1,0,0:0:0:0:
180,31,58916,6,0,L|127:31,1,52.5,2|0,0:0|0:0,0:0:0:0:
243,96,59235,5,8,0:0:0:0:
268,181,59315,1,0,0:0:0:0:
239,262,59394,1,8,0:0:0:0:
177,325,59474,1,0,0:0:0:0:
91,349,59554,5,6,0:0:0:0:
279,191,59714,1,0,0:0:0:0:
279,191,59794,1,0,0:0:0:0:
279,191,59874,1,8,0:0:0:0:
76,107,60033,2,0,B|95:166|73:214|73:214|86:262|86:262|71:284|75:310,1,210,2|0,0:0|0:0,0:0:0:0:
91,349,60352,1,2,0:0:0:0:
17,42,60511,1,8,0:0:0:0:
17,42,60671,1,0,0:0:0:0:
269,320,60831,5,2,0:0:0:0:
130,231,60990,2,0,B|166:236|199:225|199:225|257:182|257:182|306:192|341:176,1,210
371,185,61309,2,0,B|359:263|359:263|388:342,1,140,8|0,0:0|0:0,0:0:0:0:
452,127,61628,5,2,0:0:0:0:
364,90,61788,1,8,0:0:0:0:
276,52,61948,1,0,0:0:0:0:
26,104,62107,6,0,L|26:157,1,52.5000020027161,6|0,0:0|0:0,0:0:0:0:
202,96,62426,2,0,B|204:116|239:133|239:133|215:155|180:149|180:149|114:114|55:152|55:152|40:164|25:156,1,280,8|0,0:0|0:0,0:0:0:0:
485,233,62745,6,0,L|485:286,1,52.5000020027161,6|0,0:0|0:0,0:0:0:0:
310,225,63064,2,0,B|308:245|273:262|273:262|297:284|332:278|332:278|398:243|457:281|457:281|472:293|487:285,1,280,8|0,0:0|0:0,0:0:0:0:
36,346,63384,5,6,0:0:0:0:
74,236,63543,5,2,0:0:0:0:
81,278,63623,1,0,0:0:0:0:
110,310,63703,1,8,0:0:0:0:
282,134,63862,5,2,0:0:0:0:
270,209,63942,1,0,0:0:0:0:
234,271,64022,1,8,0:0:0:0:
56,0,64182,5,2,0:0:0:0:
69,89,64262,1,0,0:0:0:0:
115,168,64341,2,0,B|138:152|163:146|163:146|214:158|259:136|259:136|282:131|314:138,1,175,8|0,0:0|0:0,0:0:0:0:
479,302,64501,2,0,B|458:288|435:282|435:282|389:293|348:273|348:273|327:269|298:275,1,175,8|0,0:0|0:0,0:0:0:0:
36,346,64660,5,6,0:0:0:0:
241,357,64820,1,0,0:0:0:0:
241,357,64900,1,0,0:0:0:0:
241,357,64979,1,8,0:0:0:0:
110,219,65139,2,0,B|62:121|126:80|137:39|104:7|104:7|62:26|70:53,1,280,6|2,0:0|0:0,0:0:0:0:
205,160,65618,2,0,B|270:116|365:180|417:154,1,210,8|0,0:0|0:0,0:0:0:0:
454,121,65937,5,2,0:0:0:0:
430,356,66096,1,0,0:0:0:0:
205,160,66256,1,8,0:0:0:0:
454,121,66416,2,0,B|443:170|461:202|461:202|484:252|468:297|468:297|467:334,1,210,6|0,0:0|0:0,0:0:0:0:
430,356,66735,5,2,0:0:0:0:
124,128,66895,1,8,0:0:0:0:
132,210,67054,1,0,0:0:0:0:
454,121,67213,6,0,P|462:82|455:44,1,78.7500030040742,6|0,0:0|0:0,0:0:0:0:
257,22,67533,2,0,B|311:54|368:33|368:33|427:7|427:7|487:27|487:27|456:44,1,280,8|0,0:0|0:0,0:0:0:0:
8,259,67852,6,0,P|1:220|8:182,1,78.7500030040742,6|0,0:0|0:0,0:0:0:0:
205,160,68171,2,0,B|152:192|95:171|95:171|36:145|36:145|-25:165|-25:165|7:182,1,280,8|0,0:0|0:0,0:0:0:0:
396,308,68490,5,6,0:0:0:0:
369,47,68650,1,0,0:0:0:0:
205,160,68809,1,8,0:0:0:0:
419,328,68969,1,0,0:0:0:0:
42,211,69128,5,6,0:0:0:0:
135,207,69208,1,0,0:0:0:0:
211,247,69288,1,0,0:0:0:0:
258,300,69368,1,0,0:0:0:0:
280,354,69448,5,8,0:0:0:0:
333,345,69528,1,0,0:0:0:0:
374,329,69608,1,8,0:0:0:0:
396,308,69688,1,0,0:0:0:0:
419,328,69767,5,6,0:0:0:0:
184,334,69926,1,0,0:0:0:0:
184,334,70006,1,0,0:0:0:0:
184,334,70086,1,8,0:0:0:0:
284,26,70245,1,2,0:0:0:0:
284,26,70565,1,2,0:0:0:0:
193,88,70724,6,0,B|153:102|98:81|98:81|62:68|25:75,1,140,8|0,0:0|0:0,0:0:0:0:
384,63,71043,5,2,0:0:0:0:
375,312,71203,1,0,0:0:0:0:
327,253,71362,1,8,0:0:0:0:
94,343,71522,6,0,B|166:329|166:329|220:293|220:293|293:282,1,210.000008010865,2|0,0:0|0:0,0:0:0:0:
327,253,71841,5,2,0:0:0:0:
127,128,72001,1,8,0:0:0:0:
94,343,72160,1,0,0:0:0:0:
385,128,72320,6,0,P|382:113|340:60,1,78.7500030040742,6|0,0:0|0:0,0:0:0:0:
327,253,72639,2,0,P|388:273|367:128,1,280,8|0,0:0|0:0,0:0:0:0:
127,128,72958,6,0,P|130:113|172:60,1,78.7500030040742,6|0,0:0|0:0,0:0:0:0:
185,253,73277,2,0,P|124:273|145:128,1,280,8|0,0:0|0:0,0:0:0:0:
327,253,73596,5,6,0:0:0:0:
255,50,73756,2,0,L|255:169,1,87.5,2|0,0:0|0:0,0:0:0:0:
185,253,73916,1,8,0:0:0:0:
129,298,73995,1,0,0:0:0:0:
52,304,74075,2,0,P|57:261|88:230,1,87.5,2|0,0:0|0:0,0:0:0:0:
353,101,74235,5,6,0:0:0:0:
387,194,74315,1,0,0:0:0:0:
295,231,74394,1,8,0:0:0:0:
255,137,74474,1,0,0:0:0:0:
421,128,74554,6,0,L|349:99,1,73.4999977569581,4|0,0:0|0:0,0:0:0:0:
284,45,74873,6,0,B|217:56|217:56|137:26|137:26|59:41,1,210,6|0,0:0|0:0,0:0:0:0:
92,81,75192,2,0,B|148:72|148:72|213:16|213:16|280:4,1,210,8|0,0:0|0:0,0:0:0:0:
334,20,75511,1,2,0:0:0:0:
200,339,75671,5,0,0:0:0:0:
92,81,75831,1,8,0:0:0:0:
373,295,75991,1,0,0:0:0:0:
445,36,76150,6,0,P|426:143|446:249,1,210.000008010865,2|0,0:0|0:0,0:0:0:0:
200,339,76469,2,0,P|240:282|297:242,1,140,8|0,0:0|0:0,0:0:0:0:
147,173,76788,2,0,B|109:160|78:173,1,70,2|0,0:0|0:0,0:0:0:0:
256,59,77107,1,8,0:0:0:0:
256,43,77267,1,0,0:0:0:0:
365,173,77426,6,0,B|403:160|434:173,1,70,6|0,0:0|0:0,0:0:0:0:
256,30,77745,1,8,0:0:0:0:
311,340,77905,2,0,P|271:283|214:242,1,140,2|0,0:0|0:0,0:0:0:0:
256,14,78224,1,2,0:0:0:0:
67,35,78384,2,0,B|96:194|96:194|45:286|45:286|53:368,1,315.000012016297,8|0,0:0|0:0,0:0:0:0:
24,382,78703,1,6,0:0:0:0:
445,35,79022,6,0,B|416:194|416:194|467:286|467:286|459:368,1,315.000012016297,8|0,0:0|0:0,0:0:0:0:
488,382,79341,1,6,0:0:0:0:
314,120,79501,6,0,B|305:170|305:170|248:239,1,140,8|0,0:0|0:0,0:0:0:0:
18,64,79661,2,0,B|66:45|66:45|153:60,1,140,8|0,0:0|0:0,0:0:0:0:
105,350,79820,2,0,B|65:317|65:317|34:234,1,140,8|0,0:0|0:0,0:0:0:0:
481,122,79979,6,0,B|486:184|432:229|432:229|364:241|299:191|299:191|225:148|133:176,1,420,6|0,0:0|0:0,0:0:0:0:
18,64,80299,5,8,0:0:0:0:
105,350,80458,1,0,0:0:0:0:
109,63,80618,5,2,0:0:0:0:
22,349,80777,1,0,0:0:0:0:
288,351,80937,6,0,L|331:351,1,42,8|0,0:0|0:0,0:0:0:0:
288,351,81256,6,0,B|281:292|281:292|290:258|290:258|274:217|274:217|285:186,1,140,6|0,0:0|0:0,0:0:0:0:
494,64,81416,1,0,0:0:0:0:
459,171,81495,1,0,0:0:0:0:
378,88,81575,1,12,0:0:0:0:
361,74,81735,6,0,B|312:67|312:67|267:82,1,87.5,2|0,0:0|0:0,0:0:0:0:
138,154,81894,6,0,L|47:143,3,87.5,12|0|0|0,0:0|0:0|0:0|0:0,0:0:0:0:
337,281,82213,2,0,L|474:297,3,122.500001168251,12|0|0|0,0:0|0:0|0:0|0:0,0:0:0:0:
51,331,82533,6,0,B|16:364|16:364|67:346|67:346|93:349|93:349|110:328|110:328|127:317,1,175,6|0,0:0|0:0,0:0:0:0:
153,315,83809,5,12,0:0:0:0:
256,81,83969,1,8,0:0:0:0:
358,315,84128,5,10,0:0:0:0:
256,190,84288,1,6,0:0:0:0:
256,190,84607,5,0,0:0:0:0:
256,290,84687,1,0,0:0:0:0:
341,236,84767,6,0,B|255:265|255:265|174:236,1,175,12|0,0:0|0:0,0:0:0:0:
175,236,85086,5,6,0:0:0:0:
435,92,85245,5,0,0:0:0:0:
346,55,85325,1,0,0:0:0:0:
256,92,85405,2,0,L|255:189,1,96.2500009179115,8|0,0:0|0:0,0:0:0:0:
258,326,85565,2,0,L|258:289,1,35,6|0,0:0|0:0,0:0:0:0:
112,214,85884,5,2,0:0:0:0:
80,230,85964,1,0,0:0:0:0:
55,246,86043,2,0,L|152:240,1,96.2500009179115,8|0,0:0|0:0,0:0:0:0:
352,85,86203,2,0,L|255:91,1,96.2500009179115,6|0,0:0|0:0,0:0:0:0:
39,172,86362,5,0,0:0:0:0:
92,103,86442,1,0,0:0:0:0:
171,75,86522,1,2,0:0:0:0:
256,91,86602,1,0,0:0:0:0:
324,142,86682,5,12,0:0:0:0:
267,143,86762,1,0,0:0:0:0:
208,124,86842,1,2,0:0:0:0:
171,75,86922,1,0,0:0:0:0:
172,17,87001,6,0,P|166:58|179:116,1,96.2500009179115,6|0,0:0|0:0,0:0:0:0:
454,289,87160,2,0,P|394:248|356:190,1,96.2500009179115,2|0,0:0|0:0,0:0:0:0:
56,113,87320,5,12,0:0:0:0:
30,128,87400,1,0,0:0:0:0:
14,150,87479,2,0,P|86:149|144:177,1,96.2500009179115,2|0,0:0|0:0,0:0:0:0:
455,289,87639,6,0,B|465:325|448:334|448:334|401:333|376:282,1,140,12|0,0:0|0:0,0:0:0:0:
310,88,87799,2,0,B|256:42|256:42|201:88,1,140
57,284,87958,2,0,B|48:323|65:332|65:332|112:331|136:280,1,140,2|0,0:0|0:0,0:0:0:0:
435,212,88118,6,0,B|384:232|377:284|377:284|370:226|318:204|318:204|256:232|193:204|193:204|147:226|133:285|133:285|132:231|76:212,1,530.303037965703,12|0,0:0|0:0,0:0:0:0:
