osu file format v14

[General]
AudioFilename: audio.mp3
AudioLeadIn: 0
PreviewTime: 54088
Countdown: 0
SampleSet: Soft
StackLeniency: 0.3
Mode: 0
LetterboxInBreaks: 0
WidescreenStoryboard: 1

[Editor]
DistanceSpacing: 1
BeatDivisor: 4
GridSize: 8
TimelineZoom: 1.9

[Metadata]
Title:COOLEST (TV Size)
TitleUnicode:COOLEST (TV Size)
Artist:CustomiZ
ArtistUnicode:カスタマイZ
Creator:Spork Lover
Version:Extra
Source:坂本ですが?
Tags:Sakamoto desu ga? Opening Short Version Deen _DT3 SnowNiNo_
BeatmapID:1563369
BeatmapSetID:520373

[Difficulty]
HPDrainRate:6
CircleSize:3
OverallDifficulty:8
ApproachRate:9
SliderMultiplier:1.9
SliderTickRate:1

[Events]
//Background and Video events
0,0,"PurpleelpruP.jpg",0,0
//Break Periods
//Storyboard Layer 0 (Background)
//Storyboard Layer 1 (Fail)
//Storyboard Layer 2 (Pass)
//Storyboard Layer 3 (Foreground)
//Storyboard Layer 4 (Overlay)
//Storyboard Sound Samples

[TimingPoints]
831,319.148936170213,4,2,1,70,1,0
8490,-80,4,2,1,70,0,0
12320,-90.9090909090909,4,2,1,70,0,0
14554,-62.5,4,2,1,70,0,0
14873,-90.9090909090909,4,2,1,70,0,0
16788,-66.6666666666667,4,2,1,70,0,0
17426,-90.9090909090909,4,2,1,70,0,0
19660,-71.4285714285714,4,2,1,70,0,0
20299,-80,4,2,1,70,0,0
22533,-78.7401574803149,4,2,1,70,0,0
30192,-69.9300699300699,4,2,1,70,0,0
32745,-90.9090909090909,4,2,1,70,0,0
37852,-100,4,2,1,70,0,0
40405,-90.9090909090909,4,2,1,70,0,0
41043,-74.0740740740741,4,2,1,70,0,0
41682,-60.6060606060606,4,2,1,70,0,0
42958,-66.6666666666667,4,2,1,70,0,0
48065,-125,4,2,1,70,0,0
50299,-83.3333333333333,4,2,1,70,0,0
54448,-66.6666666666667,4,2,1,80,0,1
64341,-66.6666666666667,4,2,1,80,0,0
64660,-66.6666666666667,4,2,1,80,0,1
74554,-54.054054054054,4,2,1,80,0,1
74873,-66.6666666666667,4,2,1,70,0,0
82533,-71.4285714285714,4,2,1,70,0,0
84767,-50,4,2,1,70,0,0
85086,-57.1428571428571,4,2,1,70,0,0

[Colours]
Combo1 : 158,36,189
Combo2 : 215,130,251
SliderBorder : 187,168,225
SliderTrackOverride : 34,22,48

[HitObjects]
92,139,1469,5,8,0:0:0:0:
139,134,1549,1,0,0:0:0:0:
182,117,1628,1,8,0:0:0:0:
223,92,1708,1,0,0:0:0:0:
255,56,1788,5,8,0:0:0:0:
285,92,1868,1,0,0:0:0:0:
326,117,1948,1,8,0:0:0:0:
369,134,2027,1,0,0:0:0:0:
416,139,2107,5,2,0:0:0:0:
416,139,4341,1,4,0:0:0:0:
92,139,4660,1,2,0:0:0:0:
92,139,5937,1,2,0:0:0:0:
416,139,6096,5,12,0:0:0:0:
416,139,6416,1,12,0:0:0:0:
256,352,6735,1,2,0:0:0:0:
256,95,6894,2,0,L|256:0,1,95,4|0,0:0|0:0,0:0:0:0:
256,271,7213,6,0,P|289:297|359:303,1,95,6|0,0:0|0:0,0:0:0:0:
426,232,7533,2,0,P|393:206|323:200,1,95,2|0,0:0|0:0,0:0:0:0:
256,271,7852,2,0,P|223:297|153:303,1,95,2|0,0:0|0:0,0:0:0:0:
86,232,8172,2,0,P|119:206|189:200,1,95,2|0,0:0|0:0,0:0:0:0:
363,332,8490,6,0,L|434:218,1,118.75,6|0,0:0|0:0,0:0:0:0:
318,74,8809,2,0,L|256:175,1,118.75,2|0,0:0|0:0,0:0:0:0:
149,332,9128,2,0,L|78:218,1,118.75,8|8,0:0|0:0,0:0:0:0:
193,74,9448,2,0,L|255:175,1,118.75,8|8,0:0|0:0,0:0:0:0:
363,332,9767,5,4,0:0:0:0:
288,192,9926,1,8,0:0:0:0:
255,175,10006,1,0,0:0:0:0:
224,192,10086,1,2,0:0:0:0:
149,332,10245,5,4,0:0:0:0:
192,120,10405,1,8,0:0:0:0:
224,104,10485,1,0,0:0:0:0:
256,96,10564,1,2,0:0:0:0:
288,104,10643,1,0,0:0:0:0:
320,120,10723,1,8,0:0:0:0:
149,332,10884,6,0,P|92:343|25:324,1,118.75,4|0,0:0|0:0,0:0:0:0:
256,96,11203,1,2,0:0:0:0:
363,332,11362,2,0,P|420:343|487:324,1,118.75,12|0,0:0|0:0,0:0:0:0:
256,0,11682,1,4,0:0:0:0:
256,384,12001,1,4,0:0:0:0:
256,384,12320,6,0,L|256:256,1,104.500003189087,6|0,0:0|0:0,0:0:0:0:
256,152,12639,1,8,0:0:0:0:
136,272,12799,2,0,L|62:345,2,104.500003189087,0|2|0,0:0|0:0|0:0,0:0:0:0:
256,152,13277,1,8,0:0:0:0:
376,272,13437,2,0,L|449:345,1,104.500003189087,2|0,0:0|0:0,0:0:0:0:
136,272,13756,2,0,P|88:248|62:198,1,104.500003189087,2|8,0:0|0:0,0:0:0:0:
256,152,14075,1,0,0:0:0:0:
376,272,14235,2,0,P|424:248|449:198,1,104.500003189087,2|0,0:0|0:0,0:0:0:0:
212,61,14554,6,0,B|256:0|256:0|304:62,1,152,8|0,0:0|0:0,0:0:0:0:
256,280,14873,6,0,L|256:385,1,104.500003189087,2|0,0:0|0:0,0:0:0:0:
160,136,15192,2,0,L|64:80,1,104.500003189087,8|0,0:0|0:0,0:0:0:0:
352,136,15511,2,0,L|448:80,1,104.500003189087,2|0,0:0|0:0,0:0:0:0:
256,96,15831,1,8,0:0:0:0:
256,280,15990,2,0,L|256:384,1,104.500003189087,2|0,0:0|0:0,0:0:0:0:
160,136,16309,1,2,0:0:0:0:
352,136,16469,1,8,0:0:0:0:
256,96,16628,1,0,0:0:0:0:
320,313,16788,6,0,B|256:280|256:280|193:312,1,142.500005435944,2|0,0:0|0:0,0:0:0:0:
256,376,17107,1,8,0:0:0:0:
256,184,17267,1,0,0:0:0:0:
448,256,17426,6,0,L|320:256,1,104.500003189087,6|0,0:0|0:0,0:0:0:0:
64,256,17745,2,0,L|192:256,1,104.500003189087,8|0,0:0|0:0,0:0:0:0:
448,128,18065,2,0,L|320:128,1,104.500003189087,2|0,0:0|0:0,0:0:0:0:
320,96,18384,1,8,0:0:0:0:
448,256,18543,6,0,L|320:256,1,104.500003189087,2|0,0:0|0:0,0:0:0:0:
64,256,18862,2,0,L|168:256,1,104.500003189087,2|8,0:0|0:0,0:0:0:0:
192,288,19182,1,0,0:0:0:0:
64,128,19341,2,0,L|168:128,1,104.500003189087,2|0,0:0|0:0,0:0:0:0:
289,319,19660,6,0,P|255:365|224:318,1,132.999995941162,8|0,0:0|0:0,0:0:0:0:
344,128,19979,5,2,0:0:0:0:
256,8,20139,1,0,0:0:0:0:
168,128,20299,1,8,0:0:0:0:
256,8,20458,1,0,0:0:0:0:
256,328,20618,2,0,B|256:176,1,118.75,2|0,0:0|0:0,0:0:0:0:
256,8,20937,1,8,0:0:0:0:
416,288,21096,6,0,B|352:288|352:288|303:263,1,118.75,2|0,0:0|0:0,0:0:0:0:
96,288,21416,2,0,B|160:288|160:288|208:263,1,118.75,2|8,0:0|0:0,0:0:0:0:
256,136,21735,1,0,0:0:0:0:
96,288,21894,5,2,0:0:0:0:
160,96,22054,1,0,0:0:0:0:
416,288,22213,5,8,0:0:0:0:
352,96,22373,1,8,0:0:0:0:
256,352,22533,6,0,L|256:224,1,120.649999079514,6|0,0:0|0:0,0:0:0:0:
256,136,22852,1,8,0:0:0:0:
160,256,23011,1,0,0:0:0:0:
352,256,23171,2,0,L|480:256,1,120.649999079514,2|0,0:0|0:0,0:0:0:0:
512,224,23490,1,8,0:0:0:0:
160,256,23650,6,0,L|32:256,1,120.649999079514,2|0,0:0|0:0,0:0:0:0:
0,224,23969,1,2,0:0:0:0:
256,376,24128,2,0,L|256:256,1,120.649999079514,8|0,0:0|0:0,0:0:0:0:
256,7,24448,2,0,L|256:128,1,120.649999079514,2|0,0:0|0:0,0:0:0:0:
352,256,24767,1,8,0:0:0:0:
160,128,24926,1,0,0:0:0:0:
472,128,25086,6,0,L|352:128,1,120.649999079514,6|0,0:0|0:0,0:0:0:0:
320,96,25405,1,8,0:0:0:0:
256,288,25565,1,0,0:0:0:0:
39,128,25724,2,0,L|160:128,1,120.649999079514,2|0,0:0|0:0,0:0:0:0:
192,96,26043,1,8,0:0:0:0:
160,376,26203,6,0,L|160:256,1,120.649999079514,2|0,0:0|0:0,0:0:0:0:
320,96,26522,1,2,0:0:0:0:
352,376,26682,2,0,L|352:256,1,120.649999079514,8|0,0:0|0:0,0:0:0:0:
192,96,27001,1,2,0:0:0:0:
256,320,27160,5,2,0:0:0:0:
256,352,27240,1,0,0:0:0:0:
256,384,27320,1,12,0:0:0:0:
256,152,27479,1,0,0:0:0:0:
448,288,27639,6,0,P|391:307|335:288,1,120.649999079514,6|0,0:0|0:0,0:0:0:0:
64,96,27958,2,0,P|120:76|176:95,1,120.649999079514,8|0,0:0|0:0,0:0:0:0:
320,192,28277,1,2,0:0:0:0:
192,192,28437,1,2,0:0:0:0:
448,96,28596,2,0,P|391:76|335:95,1,120.649999079514,8|0,0:0|0:0,0:0:0:0:
64,288,28915,6,0,P|120:307|176:288,1,120.649999079514,2|0,0:0|0:0,0:0:0:0:
448,96,29235,2,0,P|391:76|335:95,1,120.649999079514,8|0,0:0|0:0,0:0:0:0:
256,352,29554,1,2,0:0:0:0:
256,208,29713,5,8,0:0:0:0:
256,176,29793,1,0,0:0:0:0:
256,144,29873,1,8,0:0:0:0:
256,112,29953,1,0,0:0:0:0:
256,80,30033,1,8,0:0:0:0:
256,48,30113,1,0,0:0:0:0:
256,16,30192,6,0,B|208:48|160:16|160:16|112:-16|64:16,1,203.775002798424,6|0,0:0|0:0,0:0:0:0:
32,48,30511,1,8,0:0:0:0:
224,208,30671,5,8,0:0:0:0:
256,224,30751,1,0,0:0:0:0:
288,208,30831,1,6,0:0:0:0:
480,48,30990,1,2,0:0:0:0:
256,256,31150,1,8,0:0:0:0:
256,16,31309,6,0,B|302:47|350:15|350:15|398:-16|446:15,1,203.775002798424,6|0,0:0|0:0,0:0:0:0:
480,48,31628,1,2,0:0:0:0:
432,272,31788,5,12,0:0:0:0:
288,176,31948,1,0,0:0:0:0:
256,160,32027,1,0,0:0:0:0:
224,176,32107,1,8,0:0:0:0:
80,272,32267,1,0,0:0:0:0:
256,336,32426,5,8,0:0:0:0:
256,256,32586,1,8,0:0:0:0:
256,55,32745,6,0,L|256:160,1,104.500003189087,6|0,0:0|0:0,0:0:0:0:
352,272,33065,1,0,0:0:0:0:
160,272,33225,1,0,0:0:0:0:
352,55,33384,2,0,L|352:160,1,104.500003189087,8|0,0:0|0:0,0:0:0:0:
384,192,33703,1,0,0:0:0:0:
160,55,33862,6,0,L|160:160,1,104.500003189087,2|0,0:0|0:0,0:0:0:0:
128,192,34182,1,2,0:0:0:0:
256,144,34341,1,0,0:0:0:0:
384,192,34501,1,0,0:0:0:0:
256,344,34660,2,0,L|256:216,1,104.500003189087,8|0,0:0|0:0,0:0:0:0:
256,192,34979,1,0,0:0:0:0:
128,256,35139,1,0,0:0:0:0:
32,64,35299,5,6,0:0:0:0:
128,256,35458,1,0,0:0:0:0:
256,192,35618,1,0,0:0:0:0:
384,256,35777,1,0,0:0:0:0:
480,64,35938,1,8,0:0:0:0:
384,256,36096,5,0,0:0:0:0:
256,192,36256,1,0,0:0:0:0:
128,256,36416,1,2,0:0:0:0:
256,320,36575,5,0,0:0:0:0:
256,192,36735,1,8,0:0:0:0:
256,64,36894,2,0,B|256:168,1,104.500003189087,2|2,0:0|0:0,0:0:0:0:
352,352,37213,1,12,0:0:0:0:
160,352,37373,1,0,0:0:0:0:
416,192,37533,2,0,L|416:87,1,104.500003189087,8|0,0:0|0:0,0:0:0:0:
96,192,37852,6,0,P|36:145|24:20,1,190,6|0,0:0|0:0,0:0:0:0:
48,0,38331,1,2,0:0:0:0:
169,128,38490,6,0,B|256:168|256:168|344:128,1,190,8|0,0:0|0:0,0:0:0:0:
256,48,38969,1,2,0:0:0:0:
416,192,39128,6,0,P|476:145|488:20,1,190
464,0,39607,1,2,0:0:0:0:
343,128,39766,6,0,B|256:168|256:168|168:128,1,190,8|0,0:0|0:0,0:0:0:0:
256,48,40245,1,8,0:0:0:0:
132,352,40405,6,0,L|132:247,1,104.500003189087,6|0,0:0|0:0,0:0:0:0:
379,351,40724,2,0,L|379:246,1,104.500003189087
40,192,41043,6,0,L|40:64,1,128.250000489235,8|0,0:0|0:0,0:0:0:0:
472,192,41362,2,0,L|472:64,1,128.250000489235
132,352,41682,6,0,B|256:256|256:256|380:352,2,313.500002989769,6|0|12,0:0|0:0|0:0,0:0:0:0:
132,352,42639,1,8,0:0:0:0:
380,352,42799,1,8,0:0:0:0:
256,192,42958,6,0,B|256:32,1,142.500005435944,6|0,0:0|0:0,0:0:0:0:
256,320,43277,1,8,0:0:0:0:
256,49,43437,1,0,0:0:0:0:
416,224,43596,2,0,B|448:192|448:192|350:192,1,142.500005435944,2|0,0:0|0:0,0:0:0:0:
96,224,43916,2,0,B|64:192|64:192|161:192,1,142.500005435944,8|0,0:0|0:0,0:0:0:0:
352,320,44235,5,2,0:0:0:0:
256,192,44394,1,0,0:0:0:0:
160,320,44554,1,8,0:0:0:0:
288,96,44713,2,0,B|256:32|256:32|224:96,1,142.500005435944,2|0,0:0|0:0,0:0:0:0:
256,288,45033,1,2,0:0:0:0:
416,192,45192,2,0,L|480:64,1,142.500005435944,8|0,0:0|0:0,0:0:0:0:
96,192,45511,6,0,L|32:64,1,142.500005435944,6|0,0:0|0:0,0:0:0:0:
144,288,45831,1,8,0:0:0:0:
256,80,45990,1,0,0:0:0:0:
368,288,46150,2,0,L|503:333,1,142.500005435944,2|0,0:0|0:0,0:0:0:0:
144,288,46469,2,0,L|0:336,1,142.500005435944,8|2,0:0|0:0,0:0:0:0:
368,288,46788,5,6,0:0:0:0:
144,288,46948,2,0,L|192:200,1,71.2500027179719,2|0,0:0|0:0,0:0:0:0:
256,80,47107,1,8,0:0:0:0:
368,288,47267,2,0,L|320:200,1,71.2500027179719,2|0,0:0|0:0,0:0:0:0:
256,80,47426,1,8,0:0:0:0:
144,288,47586,1,2,0:0:0:0:
86,289,47666,1,0,0:0:0:0:
42,251,47745,1,8,0:0:0:0:
368,288,47905,1,2,0:0:0:0:
426,289,47985,1,0,0:0:0:0:
470,251,48065,6,0,L|470:166,1,76,6|0,0:0|0:0,0:0:0:0:
368,104,48384,1,0,0:0:0:0:
256,192,48543,1,0,0:0:0:0:
256,24,48703,1,8,0:0:0:0:
256,24,49022,1,2,0:0:0:0:
256,192,49182,1,0,0:0:0:0:
42,251,49341,6,0,L|42:166,1,76,6|0,0:0|0:0,0:0:0:0:
144,104,49660,1,0,0:0:0:0:
256,192,49819,1,0,0:0:0:0:
256,24,49979,1,8,0:0:0:0:
255,384,50299,6,0,L|255:270,1,113.999996520996,2|0,0:0|0:0,0:0:0:0:
112,152,50618,5,6,0:0:0:0:
400,152,50777,1,0,0:0:0:0:
143,271,50937,2,0,P|198:281|254:271,1,114,8|0,0:0|0:0,0:0:0:0:
400,152,51256,5,2,0:0:0:0:
112,152,51415,1,0,0:0:0:0:
367,271,51575,2,0,P|311:281|255:271,1,114,8|0,0:0|0:0,0:0:0:0:
80,48,51894,5,6,0:0:0:0:
32,192,52054,1,0,0:0:0:0:
192,112,52213,5,8,0:0:0:0:
144,256,52373,1,2,0:0:0:0:
432,48,52533,5,12,0:0:0:0:
480,192,52693,1,8,0:0:0:0:
320,112,52852,5,8,0:0:0:0:
368,256,53012,1,8,0:0:0:0:
256,16,53171,5,6,0:0:0:0:
256,368,53490,1,8,0:0:0:0:
256,368,53809,5,8,0:0:0:0:
256,336,53889,1,0,0:0:0:0:
256,288,53969,1,8,0:0:0:0:
256,240,54049,1,0,0:0:0:0:
256,192,54128,5,8,0:0:0:0:
224,144,54208,1,0,0:0:0:0:
256,96,54288,1,8,0:0:0:0:
288,48,54368,1,0,0:0:0:0:
256,0,54448,6,0,L|112:0,1,142.500005435944,6|0,0:0|0:0,0:0:0:0:
16,64,54767,1,8,0:0:0:0:
256,0,54926,2,0,L|400:0,1,142.500005435944,2|0,0:0|0:0,0:0:0:0:
496,64,55245,1,2,0:0:0:0:
256,272,55405,2,0,L|256:128,1,142.500005435944,8|0,0:0|0:0,0:0:0:0:
256,0,55724,5,2,0:0:0:0:
384,336,55884,2,0,L|384:192,1,142.500005435944,0|8,0:0|0:0,0:0:0:0:
128,336,56203,2,0,L|128:192,1,142.500005435944,2|0,0:0|0:0,0:0:0:0:
384,64,56522,1,0,0:0:0:0:
256,272,56682,1,8,0:0:0:0:
128,64,56841,1,2,0:0:0:0:
256,272,57001,6,0,B|257:322|227:363|227:363|198:327,1,142.500005435944,6|0,0:0|0:0,0:0:0:0:
256,144,57320,2,0,L|256:0,1,142.500005435944,8|0,0:0|0:0,0:0:0:0:
256,272,57639,6,0,B|256:322|286:363|286:363|322:318,1,142.500005435944,6|0,0:0|0:0,0:0:0:0:
384,64,57958,1,8,0:0:0:0:
160,224,58118,1,0,0:0:0:0:
128,64,58277,5,6,0:0:0:0:
352,224,58437,1,0,0:0:0:0:
160,224,58596,1,8,0:0:0:0:
384,64,58756,1,0,0:0:0:0:
256,384,58916,2,0,L|256:240,1,142.500005435944,6|0,0:0|0:0,0:0:0:0:
256,0,59235,5,8,0:0:0:0:
224,48,59315,1,2,0:0:0:0:
256,96,59395,1,8,0:0:0:0:
288,144,59475,1,0,0:0:0:0:
256,192,59555,6,0,L|112:192,1,142.500005435944,6|0,0:0|0:0,0:0:0:0:
16,128,59873,1,8,0:0:0:0:
256,192,60032,2,0,L|400:192,1,142.500005435944,2|0,0:0|0:0,0:0:0:0:
496,128,60351,1,2,0:0:0:0:
208,304,60511,5,8,0:0:0:0:
304,304,60671,1,0,0:0:0:0:
256,16,60831,5,2,0:0:0:0:
144,224,60990,2,0,P|78:250|7:246,1,142.500005435944,0|8,0:0|0:0,0:0:0:0:
368,224,61309,2,0,P|433:250|504:246,1,142.500005435944,2|0,0:0|0:0,0:0:0:0:
256,96,61628,1,2,0:0:0:0:
368,336,61788,1,8,0:0:0:0:
144,336,61948,1,0,0:0:0:0:
256,96,62107,6,0,B|259:32|220:2|220:2|204:20|209:52,1,142.500005435944,6|0,0:0|0:0,0:0:0:0:
256,241,62426,2,0,L|256:384,1,142.500005435944,8|0,0:0|0:0,0:0:0:0:
256,96,62745,6,0,B|253:32|292:2|292:2|308:20|303:52,1,142.500005435944,6|0,0:0|0:0,0:0:0:0:
256,241,63065,1,8,0:0:0:0:
112,176,63224,1,0,0:0:0:0:
400,176,63384,5,6,0:0:0:0:
160,48,63543,1,2,0:0:0:0:
112,39,63623,1,2,0:0:0:0:
65,31,63703,1,12,0:0:0:0:
282,228,63862,1,0,0:0:0:0:
285,279,63942,1,0,0:0:0:0:
256,320,64022,1,12,0:0:0:0:
352,48,64182,1,2,0:0:0:0:
400,39,64262,1,0,0:0:0:0:
447,31,64342,1,12,0:0:0:0:
230,228,64501,1,8,0:0:0:0:
227,279,64581,1,2,0:0:0:0:
256,320,64660,6,0,L|400:320,1,142.500005435944,6|0,0:0|0:0,0:0:0:0:
480,240,64979,1,8,0:0:0:0:
256,320,65139,2,0,L|112:320,1,142.500005435944,2|0,0:0|0:0,0:0:0:0:
32,240,65457,1,2,0:0:0:0:
256,16,65618,2,0,L|256:160,1,142.500005435944,8|0,0:0|0:0,0:0:0:0:
256,320,65937,5,2,0:0:0:0:
112,144,66096,1,0,0:0:0:0:
400,144,66256,1,8,0:0:0:0:
175,263,66416,2,0,P|233:224|256:158,1,142.500005435944,2|0,0:0|0:0,0:0:0:0:
256,16,66735,1,2,0:0:0:0:
336,263,66894,2,0,P|278:224|256:158,1,142.500005435944,8|0,0:0|0:0,0:0:0:0:
352,16,67213,6,0,B|448:16|448:16|384:64,1,142.500005435944,6|0,0:0|0:0,0:0:0:0:
112,185,67533,2,0,P|76:245|86:314,1,142.500005435944,8|0,0:0|0:0,0:0:0:0:
156,16,67852,6,0,B|60:16|60:16|124:64,1,142.500005435944,6|0,0:0|0:0,0:0:0:0:
400,185,68171,2,0,P|435:245|425:314,1,142.500005435944,8|0,0:0|0:0,0:0:0:0:
256,16,68490,5,6,0:0:0:0:
175,263,68650,1,0,0:0:0:0:
256,16,68809,1,8,0:0:0:0:
337,263,68969,1,0,0:0:0:0:
256,16,69128,5,6,0:0:0:0:
256,64,69208,1,0,0:0:0:0:
256,112,69288,1,0,0:0:0:0:
256,160,69368,1,0,0:0:0:0:
256,208,69448,5,8,0:0:0:0:
256,240,69528,1,0,0:0:0:0:
256,272,69608,1,8,0:0:0:0:
256,304,69688,1,0,0:0:0:0:
256,336,69767,6,0,L|112:336,1,142.500005435944,6|0,0:0|0:0,0:0:0:0:
16,272,70086,1,8,0:0:0:0:
256,336,70245,2,0,L|400:336,1,142.500005435944,2|0,0:0|0:0,0:0:0:0:
496,272,70564,1,2,0:0:0:0:
208,144,70724,5,8,0:0:0:0:
304,144,70884,1,0,0:0:0:0:
256,64,71043,5,2,0:0:0:0:
256,336,71203,1,0,0:0:0:0:
96,192,71362,1,8,0:0:0:0:
416,192,71522,2,0,P|464:128|462:65,1,142.500005435944,2|0,0:0|0:0,0:0:0:0:
256,336,71841,1,2,0:0:0:0:
96,192,72001,2,0,P|48:128|50:65,1,142.500005435944,8|0,0:0|0:0,0:0:0:0:
368,336,72320,6,0,B|464:336|464:336|400:288,1,142.500005435944,6|0,0:0|0:0,0:0:0:0:
193,120,72639,2,0,P|206:61|256:96,1,142.500005435944,8|0,0:0|0:0,0:0:0:0:
172,336,72959,6,0,B|76:336|76:336|140:288,1,142.500005435944,6|0,0:0|0:0,0:0:0:0:
318,120,73277,2,0,P|305:61|256:96,1,142.500005435944,8|0,0:0|0:0,0:0:0:0:
256,304,73596,5,6,0:0:0:0:
288,336,73676,1,0,0:0:0:0:
336,352,73756,1,2,0:0:0:0:
384,336,73836,1,0,0:0:0:0:
416,304,73915,5,8,0:0:0:0:
384,272,73995,1,0,0:0:0:0:
336,256,74075,1,2,0:0:0:0:
288,272,74155,1,0,0:0:0:0:
256,304,74234,5,6,0:0:0:0:
224,336,74315,1,0,0:0:0:0:
176,352,74393,1,8,0:0:0:0:
128,336,74473,1,0,0:0:0:0:
96,304,74554,6,0,B|112:240|112:240|96:176|96:176|112:112|112:112|96:48,1,263.62499899435,4|0,0:0|0:0,0:0:0:0:
96,48,74873,6,0,L|132:191,1,142.500005435944,6|0,0:0|0:0,0:0:0:0:
416,48,75192,2,0,L|380:191,1,142.500005435944,8|0,0:0|0:0,0:0:0:0:
256,368,75511,1,0,0:0:0:0:
256,112,75671,5,2,0:0:0:0:
152,288,75831,1,8,0:0:0:0:
360,288,75990,1,0,0:0:0:0:
96,48,76150,5,2,0:0:0:0:
256,0,76309,1,0,0:0:0:0:
352,192,76469,2,0,B|432:192|432:192|496:160,1,142.500005435944,8|0,0:0|0:0,0:0:0:0:
416,48,76788,5,2,0:0:0:0:
256,0,76947,1,0,0:0:0:0:
160,192,77107,2,0,B|80:192|80:192|16:160,1,142.500005435944,8|0,0:0|0:0,0:0:0:0:
256,368,77426,6,0,L|256:208,1,142.500005435944,6|0,0:0|0:0,0:0:0:0:
256,0,77745,1,8,0:0:0:0:
512,288,77905,2,0,L|398:174,1,142.500005435944,2|0,0:0|0:0,0:0:0:0:
256,0,78224,1,2,0:0:0:0:
0,288,78384,2,0,L|113:174,1,142.500005435944,8|0,0:0|0:0,0:0:0:0:
256,0,78703,6,0,B|256:148,1,142.500005435944,6|0,0:0|0:0,0:0:0:0:
368,352,79022,6,0,B|376:304|376:304|360:256|360:256|368:208,1,142.500005435944,8|0,0:0|0:0,0:0:0:0:
144,352,79341,2,0,B|136:304|136:304|152:256|152:256|144:208,1,142.500005435944,6|2,0:0|0:0,0:0:0:0:
176,176,79581,1,0,0:0:0:0:
216,168,79660,1,8,0:0:0:0:
256,144,79740,1,0,0:0:0:0:
296,168,79820,1,8,0:0:0:0:
336,176,79900,1,0,0:0:0:0:
367,213,79979,6,0,B|360:256|360:256|376:304|376:304|368:352,1,142.500005435944,6|0,0:0|0:0,0:0:0:0:
256,312,80299,1,8,0:0:0:0:
256,144,80458,1,0,0:0:0:0:
368,351,80618,1,2,0:0:0:0:
61,248,80777,1,0,0:0:0:0:
456,245,80937,1,8,0:0:0:0:
144,352,81096,1,0,0:0:0:0:
256,0,81256,6,0,B|256:160,1,142.500005435944,6|0,0:0|0:0,0:0:0:0:
256,384,81575,2,0,B|256:224,1,142.500005435944,12|2,0:0|0:0,0:0:0:0:
256,0,81894,5,12,0:0:0:0:
256,48,81974,1,0,0:0:0:0:
256,96,82054,1,0,0:0:0:0:
256,143,82134,1,0,0:0:0:0:
256,192,82214,5,12,0:0:0:0:
224,240,82293,1,0,0:0:0:0:
256,288,82373,1,8,0:0:0:0:
288,336,82453,1,0,0:0:0:0:
256,384,82533,5,6,0:0:0:0:
256,0,83809,5,12,0:0:0:0:
256,193,83969,1,8,0:0:0:0:
256,0,84128,1,10,0:0:0:0:
256,384,84288,2,0,B|240:359|264:320|264:320|269:288|248:256|248:256|256:225|256:192,1,199.499993911743,6|0,0:0|0:0,0:0:0:0:
256,125,84607,6,0,B|256:229,1,66.4999979705811,2|0,0:0|0:0,0:0:0:0:
384,320,84767,2,0,B|256:384|256:384|128:320,1,285,12|0,0:0|0:0,0:0:0:0:
80,288,85086,5,12,0:0:0:0:
224,141,85245,1,2,0:0:0:0:
256,125,85325,1,0,0:0:0:0:
288,141,85405,1,2,0:0:0:0:
432,288,85565,5,12,0:0:0:0:
320,56,85724,1,2,0:0:0:0:
288,40,85805,1,0,0:0:0:0:
256,32,85884,1,2,0:0:0:0:
224,40,85963,1,0,0:0:0:0:
192,56,86043,1,2,0:0:0:0:
256,364,86203,6,0,L|256:172,1,166.250001585484,12|2,0:0|0:0,0:0:0:0:
256,32,86522,1,0,0:0:0:0:
352,256,86682,2,0,P|432:288|528:256,1,166.250001585484,8|8,0:0|0:0,0:0:0:0:
160,256,87001,2,0,P|80:288|-16:256,1,166.250001585484,2|2,0:0|0:0,0:0:0:0:
256,32,87320,2,0,L|256:224,1,166.250001585484,8|0,0:0|0:0,0:0:0:0:
64,352,87639,5,12,0:0:0:0:
352,128,87799,1,0,0:0:0:0:
160,128,87958,1,2,0:0:0:0:
448,352,88118,1,12,0:0:0:0:
