osu file format v14

[General]
AudioFilename: audio.mp3
AudioLeadIn: 0
PreviewTime: 53180
Countdown: 0
SampleSet: Soft
StackLeniency: 0.7
Mode: 0
LetterboxInBreaks: 0
WidescreenStoryboard: 0

[Editor]
DistanceSpacing: 1.1
BeatDivisor: 4
GridSize: 8
TimelineZoom: 2.699999

[Metadata]
Title:COOLEST (TV Size)
TitleUnicode:COOLEST (TV Size)
Artist:CustomiZ
ArtistUnicode:カスタマイZ
Creator:KeRLi_
Version:SHARDEX' INSANE!
Source:坂本ですが?
Tags:testo op opening anime japanese jrock sakamoto desu ga maruoko cami cappu taeyang shaiden shardex
BeatmapID:2063973
BeatmapSetID:960799

[Difficulty]
HPDrainRate:5
CircleSize:4
OverallDifficulty:7.8
ApproachRate:9
SliderMultiplier:1.8
SliderTickRate:1

[Events]
//Background and Video events
0,0,"bggb1.jpg",0,0
//Break Periods
2,1359,2793
//Storyboard Layer 0 (Background)
//Storyboard Layer 1 (Fail)
//Storyboard Layer 2 (Pass)
//Storyboard Layer 3 (Foreground)
//Storyboard Sound Samples

[TimingPoints]
-117,319.148936170213,4,2,1,80,1,0
521,-125,4,2,1,80,0,0
3633,-125,4,2,1,5,0,0
3712,-125,4,2,1,80,0,0
5069,-125,4,2,1,5,0,0
5148,-125,4,2,1,80,0,0
8819,-111.111111111111,4,2,1,80,0,0
11053,-125,4,2,1,80,0,0
11292,-125,4,2,1,5,0,0
11372,-125,4,2,1,80,0,0
11851,-125,4,2,1,50,0,0
13606,-125,4,2,1,60,0,0
14404,-125,4,2,1,50,0,0
15840,-125,4,2,1,60,0,0
16079,-125,4,2,1,5,0,0
16159,-125,4,2,1,60,0,0
16797,-125,4,2,1,50,0,0
18712,-125,4,2,1,60,0,0
19510,-125,4,2,1,50,0,0
21585,-125,4,2,1,70,0,0
26372,-125,4,2,1,80,0,0
26611,-125,4,2,1,5,0,0
26691,-125,4,2,1,80,0,0
27250,-125,4,2,1,5,0,0
27329,-125,4,2,1,80,0,0
28526,-125,4,2,1,5,0,0
28606,-125,4,2,1,80,0,0
31797,-142.857142857143,4,2,1,50,0,0
34031,-142.857142857143,4,2,1,75,0,0
35148,-142.857142857143,4,2,1,50,0,0
36265,-142.857142857143,4,2,1,75,0,0
36744,-142.857142857143,4,2,1,50,0,0
39457,-142.857142857143,4,2,1,60,0,0
39696,-142.857142857143,4,2,1,5,0,0
39776,-142.857142857143,4,2,1,60,0,0
40335,-142.857142857143,4,2,1,5,0,0
40414,-142.857142857143,4,2,1,60,0,0
40734,-125,4,2,1,80,0,0
40973,-125,4,2,1,5,0,0
41053,-125,4,2,1,80,0,0
41611,-125,4,2,1,5,0,0
41691,-125,4,2,1,80,0,0
53500,-100,4,2,1,90,0,1
72250,-100,4,2,1,5,0,1
72329,-100,4,2,1,90,0,1
73925,-100,4,2,1,80,0,0
75441,-100,4,2,1,5,0,0
75521,-100,4,2,1,80,0,0
76079,-100,4,2,1,5,0,0
76159,-100,4,2,1,80,0,0
76718,-100,4,2,1,5,0,0
76797,-100,4,2,1,80,0,0
77356,-100,4,2,1,5,0,0
77436,-100,4,2,1,80,0,0
77994,-100,4,2,1,5,0,0
78074,-100,4,2,1,80,0,0
80547,-100,4,2,1,5,0,0
80627,-100,4,2,1,80,0,0
81585,-125,4,2,1,80,0,0
81824,-125,4,2,1,5,0,0
81904,-125,4,2,1,80,0,0
82462,-125,4,2,1,5,0,0
82542,-125,4,2,1,80,0,0
82861,-111.111111111111,4,2,1,80,0,0
83898,-111.111111111111,4,2,1,5,0,0
84138,-111.111111111111,4,2,1,90,0,1
87170,-111.111111111111,4,2,1,90,0,0
87489,-111.111111111111,4,2,1,5,0,0

[Colours]
Combo1 : 53,180,255
Combo2 : 212,212,212

[HitObjects]
98,142,521,6,0,L|75:101,3,36,8|8|8|8,3:0|3:0|3:0|3:0,0:0:0:0:
160,90,840,2,0,L|144:42,3,36,8|8|8|8,3:0|3:0|3:0|3:0,0:0:0:0:
241,94,1159,1,4,3:2:0:0:
241,94,3393,6,0,L|230:232,1,108,4|0,3:2|0:0,0:0:0:0:
230,228,3712,1,4,3:2:0:0:
230,228,4989,6,0,L|286:221,1,36,8|0,3:2|0:0,0:0:0:0:
315,274,5148,2,0,L|333:109,2,144,4|4|8,3:2|3:2|3:2,0:0:0:0:
241,312,5946,1,8,3:2:0:0:
241,312,6106,1,8,3:2:0:0:
187,241,6265,5,8,3:0:0:0:
155,240,6344,1,0,3:0:0:0:
125,251,6424,1,0,3:0:0:0:
102,273,6504,1,0,3:0:0:0:
89,301,6585,2,0,L|97:357,3,36,8|0|0|0,3:0|3:0|3:0|3:0,0:0:0:0:
176,309,6904,2,0,L|181:273,3,36,8|0|0|0,3:0|3:0|3:0|3:0,0:0:0:0:
118,217,7223,2,0,L|112:181,3,36,8|0|0|0,3:0|3:0|3:0|3:0,0:0:0:0:
185,136,7542,5,8,3:0:0:0:
185,136,7622,1,0,3:0:0:0:
185,136,7702,2,0,L|236:145,5,36,0|0|8|0|0|0,3:0|3:0|3:0|3:0|3:0|3:0,0:0:0:0:
119,67,8180,1,8,3:0:0:0:
119,67,8260,1,0,3:0:0:0:
119,67,8340,2,0,L|68:76,5,36,0|0|8|0|0|0,3:0|3:0|3:0|3:0|3:0|3:0,3:0:0:0:
199,30,8819,5,4,3:2:0:0:
280,76,8978,2,0,L|293:8,2,40.4999987640381,10|8|10,3:0|3:0|3:0,0:0:0:0:
372,8,9297,2,0,L|383:125,1,80.9999975280763,4|8,3:2|3:0,0:0:0:0:
412,107,9537,1,8,3:0:0:0:
412,107,9617,2,0,L|401:224,1,80.9999975280763,2|10,3:0|3:0,0:0:0:0:
427,281,9936,6,0,P|362:271|327:265,1,80.9999975280763,4|8,3:2|3:0,0:0:0:0:
332,233,10175,1,8,3:0:0:0:
332,233,10255,2,0,P|299:238|266:243,1,40.4999987640381,8|8,3:0|3:0,0:0:0:0:
219,292,10414,2,0,P|176:237|75:249,1,161.999995056153,4|4,3:2|3:2,0:0:0:0:
89,238,11053,2,0,P|129:235|177:185,1,108,2|0,0:0|0:0,0:0:0:0:
201,166,11372,6,0,L|217:312,1,144,4|8,3:2|3:2,0:0:0:0:
303,330,11851,1,0,0:0:0:0:
303,330,12010,2,0,P|341:307|382:299,1,72,0|0,3:0|3:0,0:0:0:0:
451,238,12329,1,8,3:2:0:0:
451,238,12489,6,0,P|413:215|372:207,1,72,0|0,3:0|0:0,0:0:0:0:
294,235,12808,1,0,3:0:0:0:
286,163,12968,2,0,L|297:267,1,72,8|0,3:2|0:0,0:0:0:0:
386,208,13287,2,0,L|393:136,1,72,0|0,3:0|3:0,0:0:0:0:
314,74,13606,1,8,3:2:0:0:
314,74,13765,1,0,0:0:0:0:
221,148,13925,6,0,P|156:132|65:121,1,144,0|8,3:2|3:2,0:0:0:0:
123,38,14404,1,0,0:0:0:0:
123,38,14563,2,0,P|186:46|208:51,1,72,0|0,3:0|3:0,0:0:0:0:
221,148,14883,1,8,3:2:0:0:
295,88,15042,6,0,P|314:22|324:5,1,72,0|0,3:0|0:0,0:0:0:0:
389,91,15361,1,0,3:0:0:0:
382,184,15521,2,0,L|293:170,1,72,8|0,3:2|0:0,0:0:0:0:
212,132,15840,2,0,P|217:183|157:243,1,108,0|0,3:0|0:0,0:0:0:0:
169,240,16159,2,0,P|106:219|77:212,1,72,8|0,3:2|0:0,0:0:0:0:
9,110,16478,5,4,3:2:0:0:
9,110,16797,2,0,L|17:198,1,72,8|0,3:2|0:0,0:0:0:0:
29,274,17117,2,0,P|81:258|172:239,1,144,0|8,3:0|3:2,0:0:0:0:
230,307,17595,6,0,P|281:317|318:330,1,72,0|0,3:0|0:0,0:0:0:0:
325,229,17914,2,0,P|274:219|237:206,1,72,0|8,3:0|3:2,0:0:0:0:
165,167,18234,1,0,0:0:0:0:
165,167,18393,2,0,L|169:257,1,72,0|0,3:0|3:0,0:0:0:0:
255,130,18712,1,8,3:2:0:0:
255,130,18872,1,0,0:0:0:0:
334,229,19031,6,0,P|340:152|351:69,1,144,4|8,3:2|3:2,0:0:0:0:
438,49,19510,1,0,0:0:0:0:
488,120,19670,1,0,3:0:0:0:
467,203,19829,1,0,3:0:0:0:
467,203,19989,1,8,3:2:0:0:
321,143,20148,6,0,L|409:131,1,72,0|0,3:0|0:0,0:0:0:0:
365,238,20468,2,0,L|293:228,1,72,0|8,3:0|3:2,0:0:0:0:
220,148,20787,1,0,3:0:0:0:
220,148,20946,2,0,P|171:153|124:171,1,72,0|8,3:0|3:2,0:0:0:0:
78,230,21265,1,8,3:2:0:0:
155,301,21425,1,0,0:0:0:0:
155,301,21505,1,0,0:0:0:0:
155,301,21585,6,0,P|176:260|148:152,1,144,4|8,3:2|3:2,0:0:0:0:
68,67,22063,2,0,L|147:76,1,72,0|0,0:0|3:0,0:0:0:0:
78,165,22383,1,0,3:0:0:0:
78,165,22542,1,8,3:2:0:0:
186,145,22702,6,0,P|233:137|338:127,1,144,0|0,3:0|3:0,0:0:0:0:
409,76,23180,2,0,P|425:130|418:162,1,72,8|0,3:2|0:0,0:0:0:0:
350,230,23500,1,0,3:0:0:0:
350,230,23819,2,0,L|444:241,1,72,8|0,3:2|0:0,0:0:0:0:
391,350,24138,5,0,3:0:0:0:
313,317,24297,1,0,3:0:0:0:
237,359,24457,2,0,L|228:270,1,72,8|0,3:2|0:0,0:0:0:0:
144,252,24776,2,0,P|128:213|138:104,1,144,0|8,3:0|3:2,0:0:0:0:
211,71,25255,6,0,L|287:82,1,72,0|0,3:0|0:0,0:0:0:0:
333,165,25574,1,0,3:0:0:0:
333,165,25734,2,0,L|257:176,1,72,8|0,3:2|0:0,0:0:0:0:
176,203,26053,2,0,L|169:148,3,36,0|0|0|0,3:0|3:0|3:0|3:0,0:0:0:0:
174,234,26372,6,0,P|212:207|289:221,1,108,8|0,3:2|0:0,0:0:0:0:
284,235,26691,2,0,P|328:247|374:217,1,72,4|0,3:2|0:0,0:0:0:0:
438,192,27010,6,0,L|426:79,1,108,8|0,3:2|0:0,0:0:0:0:
419,55,27329,2,0,L|337:82,1,72,0|0,3:0|3:0,0:0:0:0:
236,46,27648,6,0,P|205:82|134:82,1,108,8|0,3:2|0:0,0:0:0:0:
126,78,27968,2,0,L|140:164,1,72,0|0,3:0|3:0,0:0:0:0:
108,272,28287,6,0,P|156:250|232:257,1,108,8|0,3:2|0:0,0:0:0:0:
226,272,28606,2,0,P|268:278|304:276,1,72,0|8,3:0|3:0,0:0:0:0:
322,265,28845,1,8,3:0:0:0:
322,265,28925,2,0,L|332:216,3,36,8|8|8|8,3:2|3:0|3:0|3:0,0:0:0:0:
351,206,29244,6,0,P|344:134|319:38,1,144,4|8,3:2|3:2,0:0:0:0:
218,23,29723,1,8,3:2:0:0:
218,23,29803,1,8,3:2:0:0:
218,23,29883,1,8,3:2:0:0:
249,117,30042,1,0,3:0:0:0:
126,58,30202,1,0,3:0:0:0:
146,190,30361,6,0,B|127:274|127:274|132:324|150:349,1,144,4|0,3:2|3:0,0:0:0:0:
236,299,30840,1,8,3:2:0:0:
236,299,30920,1,0,0:0:0:0:
236,299,31000,1,8,3:0:0:0:
311,346,31159,1,8,3:0:0:0:
384,324,31319,1,8,3:0:0:0:
426,261,31478,1,0,3:0:0:0:
413,197,31638,1,0,3:0:0:0:
346,139,31797,6,0,P|298:177|231:198,1,125.999996154785,4|0,3:2|0:0,0:0:0:0:
183,117,32276,1,0,3:0:0:0:
97,155,32436,2,0,L|79:15,2,125.999996154785,8|0|0,3:2|3:0|0:0,0:0:0:0:
169,211,33234,1,8,3:2:0:0:
169,211,33393,1,0,3:0:0:0:
67,240,33553,1,0,3:0:0:0:
136,304,33712,2,0,L|219:315,1,62.9999980773926,8|0,3:2|0:0,0:0:0:0:
282,269,34031,1,0,3:0:0:0:
348,332,34191,1,0,3:0:0:0:
412,268,34351,6,0,L|404:182,1,62.9999980773926,4|0,3:2|3:0,0:0:0:0:
447,118,34670,1,0,3:0:0:0:
447,118,34829,1,0,3:0:0:0:
356,69,34989,2,0,L|352:131,1,62.9999980773926,8|0,3:2|3:0,0:0:0:0:
283,191,35308,1,0,3:0:0:0:
209,148,35468,1,0,3:0:0:0:
206,69,35627,6,0,L|280:63,1,62.9999980773926,0|8,0:0|3:2,0:0:0:0:
200,164,35946,2,0,P|133:159|70:148,1,125.999996154785,0|8,3:0|3:2,0:0:0:0:
17,90,36425,1,8,3:2:0:0:
0,171,36585,1,8,3:2:0:0:
54,231,36744,1,0,0:0:0:0:
166,214,36904,6,0,P|208:205|236:200,2,62.9999980773926,4|0|0,3:2|0:0|0:0,0:0:0:0:
128,300,37383,1,0,3:0:0:0:
128,300,37462,1,0,3:0:0:0:
128,300,37542,2,0,P|195:316|257:321,1,125.999996154785,8|0,3:2|3:0,0:0:0:0:
299,247,38021,1,0,3:0:0:0:
381,312,38180,6,0,L|392:228,2,62.9999980773926,0|8|0,3:0|3:2|3:0,0:0:0:0:
462,346,38659,1,0,3:0:0:0:
512,269,38819,2,0,P|513:223|494:125,1,125.999996154785,8|0,3:2|3:0,0:0:0:0:
500,144,39297,1,0,0:0:0:0:
416,102,39457,6,0,P|356:129|301:137,1,94.499997116089,4|0,3:2|0:0,0:0:0:0:
311,121,39776,2,0,P|267:104|223:106,1,62.9999980773926,0|0,0:0|3:0,0:0:0:0:
138,60,40095,6,0,L|157:169,1,94.499997116089,8|0,3:2|0:0,0:0:0:0:
167,167,40414,2,0,L|153:236,1,62.9999980773926,0|0,3:0|3:0,0:0:0:0:
92,322,40734,6,0,P|138:345|208:328,1,108,4|0,3:2|0:0,0:0:0:0:
208,323,41053,2,0,P|239:310|287:315,1,72,4|0,3:2|0:0,0:0:0:0:
413,353,41372,6,0,L|426:237,1,108,4|0,3:2|0:0,0:0:0:0:
445,229,41691,1,8,3:2:0:0:
354,158,41851,1,0,3:0:0:0:
354,158,41930,1,0,3:0:0:0:
354,158,42010,6,0,P|324:185|263:197,1,72,4|0,3:2|3:0,0:0:0:0:
210,194,42329,1,8,3:2:0:0:
231,111,42489,1,0,0:0:0:0:
123,56,42648,2,0,P|92:67|39:72,1,72,0|0,3:0|3:0,0:0:0:0:
69,156,42968,2,0,P|104:151|138:139,1,72,8|0,3:2|0:0,0:0:0:0:
214,44,43287,5,0,3:0:0:0:
214,44,43446,1,0,3:0:0:0:
292,93,43606,1,8,3:2:0:0:
249,174,43765,2,0,P|147:150|105:144,1,144,0|0,3:0|3:0,0:0:0:0:
31,190,44244,2,0,P|43:234|52:282,1,72,8|0,3:2|0:0,0:0:0:0:
92,328,44563,5,0,3:0:0:0:
140,252,44723,1,0,3:0:0:0:
193,329,44883,2,0,L|265:317,1,72,8|0,3:2|3:0,0:0:0:0:
343,260,45202,1,0,3:0:0:0:
343,260,45361,1,0,3:0:0:0:
416,318,45521,2,0,P|430:281|424:224,1,72,8|0,3:2|3:0,0:0:0:0:
484,175,45840,6,0,P|463:128|421:100,1,72,12|0,3:2|3:0,0:0:0:0:
417,102,46079,1,0,3:0:0:0:
417,102,46159,2,0,P|354:125|343:127,1,72,8|0,3:2|3:0,0:0:0:0:
268,64,46478,2,0,P|248:128|252:150,1,72,8|8,3:2|3:0,0:0:0:0:
259,153,46718,1,8,3:0:0:0:
259,153,46797,2,0,P|213:103|192:96,1,72,8|8,3:2|3:0,0:0:0:0:
101,120,47117,5,4,3:2:0:0:
101,120,47436,1,0,0:0:0:0:
162,185,47595,2,0,L|153:227,1,36,0|0,3:0|3:0,0:0:0:0:
123,266,47755,2,0,L|218:248,1,72,8|0,3:2|0:0,0:0:0:0:
294,311,48074,2,0,P|336:328|408:302,1,108,4|0,3:2|0:0,0:0:0:0:
423,306,48393,6,0,L|432:212,1,72,4|0,3:2|3:0,0:0:0:0:
369,173,48712,1,0,0:0:0:0:
423,107,48872,2,0,L|464:121,2,36,0|0|8,3:0|3:0|3:2,0:0:0:0:
345,52,49191,1,8,3:0:0:0:
345,52,49271,1,8,3:0:0:0:
345,52,49351,2,0,L|301:65,1,36,0|0,3:0|3:0,0:0:0:0:
240,125,49510,1,0,3:0:0:0:
155,76,49670,6,0,L|161:1,1,72,4|0,3:2|3:0,0:0:0:0:
66,53,49989,1,0,3:0:0:0:
103,143,50148,1,8,3:0:0:0:
103,143,50228,1,8,3:0:0:0:
103,143,50308,1,8,3:0:0:0:
182,165,50468,1,0,3:0:0:0:
105,179,50627,2,0,P|57:183|20:203,1,72,2|0,0:0|3:0,0:0:0:0:
23,281,50946,5,8,3:2:0:0:
64,350,51106,1,8,3:0:0:0:
98,253,51265,1,8,3:2:0:0:
158,328,51425,1,8,3:0:0:0:
169,203,51585,1,8,3:2:0:0:
248,274,51744,1,8,3:0:0:0:
214,123,51904,1,8,3:2:0:0:
346,154,52063,1,8,3:0:0:0:
298,268,52223,6,0,L|286:348,1,72,4|0,3:2|3:0,0:0:0:0:
373,327,52542,2,0,L|383:255,1,72,8|0,3:0|3:0,0:0:0:0:
476,235,52861,1,8,3:0:0:0:
492,204,52940,1,8,3:0:0:0:
492,169,53020,1,8,3:0:0:0:
475,139,53100,1,8,3:0:0:0:
446,120,53180,2,0,L|410:131,3,36,8|8|8|8,3:0|3:0|3:0|3:0,0:0:0:0:
382,154,53500,6,0,P|326:147|194:129,1,180,4|8,3:2|3:2,0:0:0:0:
113,76,53978,2,0,B|82:192|143:170|125:255,1,180,0|0,3:0|3:0,0:0:0:0:
226,278,54457,2,0,P|272:264|320:260,1,90,8|0,3:2|0:0,0:0:0:0:
403,314,54776,5,0,3:0:0:0:
403,314,54936,2,0,L|412:221,1,90,0|8,3:0|3:2,0:0:0:0:
304,170,55255,2,0,L|312:259,1,90,0|0,3:0|0:0,0:0:0:0:
393,126,55574,1,0,3:0:0:0:
393,126,55734,2,0,P|355:88|318:77,1,90,8|0,3:2|0:0,0:0:0:0:
268,0,56053,6,0,P|214:0|180:18,1,90,0|0,3:0|3:0,0:0:0:0:
230,176,56372,2,0,L|237:74,1,90,12|0,3:2|0:0,0:0:0:0:
134,122,56691,1,0,3:0:0:0:
134,122,56851,1,0,3:0:0:0:
143,212,57010,2,0,L|149:301,1,90,12|0,3:2|0:0,0:0:0:0:
254,342,57329,5,4,3:2:0:0:
347,298,57489,1,0,3:0:0:0:
367,212,57648,1,12,3:2:0:0:
330,150,57808,1,0,3:0:0:0:
259,244,57968,2,0,P|304:230|357:228,1,90,4|0,3:2|3:0,0:0:0:0:
446,272,58287,1,8,3:0:0:0:
447,240,58366,1,8,3:0:0:0:
449,209,58446,1,8,3:0:0:0:
451,177,58526,1,8,3:0:0:0:
453,146,58606,6,0,P|406:134|259:144,1,180,4|8,3:2|3:2,0:0:0:0:
174,79,59085,2,0,P|226:103|199:225,1,180,0|0,3:0|3:0,0:0:0:0:
126,174,59563,1,8,3:2:0:0:
126,174,59723,1,0,0:0:0:0:
59,248,59883,6,0,L|53:348,2,90,0|0|8,3:0|3:0|3:2,0:0:0:0:
148,310,60361,2,0,P|198:294|238:296,1,90,0|0,3:0|0:0,0:0:0:0:
336,311,60680,1,0,3:0:0:0:
336,311,60840,2,0,P|385:297|419:255,1,90,8|0,3:2|0:0,0:0:0:0:
366,177,61159,6,0,P|317:191|283:233,1,90,0|0,3:0|3:0,0:0:0:0:
492,301,61478,1,12,3:2:0:0:
492,301,61797,2,0,L|508:147,1,135,0|0,3:0|0:0,0:0:0:0:
491,149,62117,2,0,L|481:59,1,90,12|0,3:2|0:0,0:0:0:0:
395,30,62436,5,4,3:2:0:0:
395,30,62515,1,0,3:0:0:0:
395,30,62595,2,0,L|378:87,1,45,8|8,3:0|3:0,0:0:0:0:
323,138,62755,2,0,L|310:94,1,45,8|0,3:2|0:0,0:0:0:0:
250,17,62914,2,0,L|233:74,1,45,8|8,3:0|3:0,0:0:0:0:
177,141,63074,1,8,3:2:0:0:
177,141,63154,1,0,3:0:0:0:
177,141,63234,2,0,L|164:97,1,45,8|8,3:0|3:0,0:0:0:0:
77,51,63393,1,8,3:2:0:0:
78,83,63472,1,0,0:0:0:0:
81,117,63552,1,8,3:0:0:0:
84,152,63632,1,8,3:0:0:0:
87,182,63712,6,0,B|188:153|156:217|268:183,1,180,4|8,3:2|3:2,0:0:0:0:
361,117,64191,2,0,P|357:183|349:302,1,180,0|0,3:0|3:0,0:0:0:0:
254,298,64670,1,8,3:2:0:0:
254,298,64829,1,0,0:0:0:0:
321,384,64989,6,0,L|415:366,1,90,0|0,3:0|3:0,0:0:0:0:
459,290,65308,1,8,3:2:0:0:
447,200,65468,2,0,L|459:296,1,90,0|0,3:0|0:0,0:0:0:0:
361,284,65787,1,0,3:0:0:0:
361,284,65946,2,0,P|305:262|246:262,1,90,8|0,3:2|0:0,0:0:0:0:
205,193,66265,6,0,P|250:166|321:162,1,90,0|0,3:0|3:0,0:0:0:0:
198,365,66585,1,12,3:2:0:0:
198,365,66904,2,0,L|185:275,1,90,0|0,3:0|3:0,0:0:0:0:
109,201,67223,2,0,L|96:290,1,90,12|0,3:2|0:0,0:0:0:0:
209,197,67542,5,4,3:2:0:0:
209,197,67702,1,0,3:0:0:0:
287,257,67861,2,0,P|328:241|380:232,1,90,12|0,3:2|3:0,0:0:0:0:
468,229,68180,2,0,L|461:292,3,45,8|8|8|8,3:2|3:0|3:0|3:0,0:0:0:0:
469,125,68500,1,8,3:2:0:0:
440,138,68579,1,8,3:0:0:0:
409,140,68659,1,8,3:0:0:0:
379,132,68739,1,8,3:0:0:0:
353,113,68819,6,0,B|292:77|232:71|232:71|186:98,1,180,4|8,3:2|3:2,0:0:0:0:
89,134,69297,2,0,P|146:197|241:191,1,180,0|0,3:0|3:0,0:0:0:0:
301,270,69776,2,0,P|350:247|396:250,1,90,8|0,3:2|0:0,0:0:0:0:
477,315,70095,6,0,L|492:199,2,90,0|0|8,3:0|3:0|3:2,0:0:0:0:
402,375,70574,2,0,P|350:360|301:361,1,90,0|0,3:0|0:0,0:0:0:0:
302,271,70893,1,0,3:0:0:0:
302,271,71053,2,0,P|253:292|226:339,1,90,8|0,3:2|0:0,0:0:0:0:
135,364,71372,6,0,L|121:240,1,90,0|0,3:0|3:0,0:0:0:0:
258,192,71691,1,12,3:2:0:0:
258,192,72010,2,0,L|273:36,1,135,0|0,3:0|0:0,0:0:0:0:
283,48,72329,2,0,L|297:143,1,90,12|0,3:2|0:0,0:0:0:0:
382,187,72648,6,0,L|427:169,3,45,8|0|0|0,3:0|3:0|3:0|3:0,0:0:0:0:
332,260,72968,2,0,L|287:242,3,45,8|0|0|0,3:0|3:0|3:0|3:0,0:0:0:0:
429,288,73287,1,0,3:0:0:0:
429,288,73367,1,0,3:0:0:0:
429,288,73446,2,0,L|400:343,1,45,0|0,3:0|3:0,0:0:0:0:
331,367,73606,1,12,3:2:0:0:
298,356,73686,1,0,3:0:0:0:
266,354,73765,1,0,3:0:0:0:
233,358,73845,1,0,3:0:0:0:
203,368,73925,6,0,L|189:251,1,90,4|0,3:2|0:0,0:0:0:0:
302,185,74244,2,0,L|289:274,1,90,8|0,3:2|3:0,0:0:0:0:
197,179,74563,1,0,0:0:0:0:
197,179,74723,1,0,3:0:0:0:
109,185,74883,2,0,P|159:173|205:181,1,90,8|0,3:2|0:0,0:0:0:0:
288,125,75202,6,0,P|353:147|424:87,1,135,0|0,3:0|0:0,0:0:0:0:
423,103,75521,2,0,L|410:8,1,90,8|0,3:2|0:0,0:0:0:0:
303,18,75840,6,0,B|225:3|243:59|149:41,1,135,0|0,3:0|0:0,0:0:0:0:
157,32,76159,2,0,P|107:23|67:43,1,90,8|0,3:2|0:0,0:0:0:0:
54,149,76478,6,0,P|126:173|195:133,1,135,4|0,3:2|0:0,0:0:0:0:
202,134,76797,2,0,L|191:234,1,90,8|0,3:2|0:0,0:0:0:0:
308,284,77117,6,0,L|295:137,1,135,4|0,3:2|0:0,0:0:0:0:
309,136,77436,2,0,P|356:155|402:151,1,90,8|0,3:2|0:0,0:0:0:0:
492,148,77755,6,0,P|464:219|381:246,1,135,4|0,3:2|0:0,0:0:0:0:
403,261,78074,2,0,P|330:242|297:241,1,90,8|0,3:2|3:0,0:0:0:0:
254,301,78393,2,0,L|264:350,3,45,0|0|8|8,3:0|3:0|3:0|3:0,0:0:0:0:
218,216,78712,2,0,L|226:171,3,45,8|0|0|0,3:0|3:0|3:0|3:0,0:0:0:0:
155,289,79031,6,0,P|110:293|48:331,1,90,4|0,3:2|0:0,0:0:0:0:
43,208,79351,2,0,P|88:204|150:166,1,90,8|0,3:2|0:0,0:0:0:0:
180,106,79670,1,0,3:0:0:0:
180,106,79829,1,0,3:0:0:0:
259,146,79989,2,0,L|246:249,1,90,8|0,3:2|3:0,0:0:0:0:
314,307,80308,6,0,P|353:268|433:259,1,135,4|0,3:2|3:0,0:0:0:0:
457,276,80627,2,0,P|432:230|445:179,1,90,8|0,3:0|3:0,0:0:0:0:
459,166,80867,1,0,3:0:0:0:
459,166,80946,2,0,P|467:118|461:102,3,45,0|0|0|0,3:0|3:0|3:0|3:0,0:0:0:0:
382,44,81265,1,8,3:2:0:0:
382,44,81345,1,0,3:0:0:0:
382,44,81425,2,0,L|365:100,1,45,0|0,3:0|3:0,3:0:0:0:
345,179,81585,6,0,P|289:149|237:147,1,108,4|0,3:2|0:0,0:0:0:0:
220,153,81904,1,0,0:0:0:0:
76,216,82223,6,0,L|81:78,1,108,0|0,0:0|0:0,0:0:0:0:
83,79,82542,1,0,0:0:0:0:
196,300,82861,5,8,3:0:0:0:
284,238,83021,1,8,3:0:0:0:
177,209,83180,1,8,3:0:0:0:
295,330,83340,1,8,3:0:0:0:
380,289,83500,2,0,P|373:219|370:186,1,80.9999975280763,0|0,0:0|3:0,0:0:0:0:
398,201,83739,1,0,3:0:0:0:
398,201,83819,2,0,L|443:210,1,40.4999987640381,4|0,3:2|0:0,0:0:0:0:
335,44,84138,5,4,3:2:0:0:
274,122,84297,1,8,3:0:0:0:
274,122,84377,1,8,3:0:0:0:
274,122,84457,1,8,3:0:0:0:
208,47,84617,2,0,P|167:29|100:45,1,80.9999975280763,12|8,3:0|3:0,0:0:0:0:
107,46,84856,1,8,3:0:0:0:
107,46,84936,1,0,3:0:0:0:
53,122,85095,1,0,3:0:0:0:
141,216,85255,6,0,L|155:116,1,80.9999975280763,2|8,3:0|3:2,0:0:0:0:
52,219,85574,1,8,3:0:0:0:
97,296,85734,1,8,3:2:0:0:
186,307,85893,2,0,P|220:283|265:274,1,80.9999975280763,8|2,3:0|3:0,0:0:0:0:
378,225,86212,1,0,3:0:0:0:
378,225,86292,1,0,3:0:0:0:
378,225,86372,2,0,P|338:215|306:192,1,80.9999975280763,2|0,3:0|3:0,0:0:0:0:
376,134,86691,6,0,L|398:74,2,40.4999987640381,12|8|8,3:0|3:0|3:0,0:0:0:0:
306,192,87010,1,8,3:0:0:0:
249,111,87170,2,0,B|242:79|99:133|94:103,1,161.999995056153,4|0,3:2|0:0,0:0:0:0:
