osu file format v14

[General]
AudioFilename: audio.mp3
AudioLeadIn: 0
PreviewTime: 53180
Countdown: 0
SampleSet: Soft
StackLeniency: 0.5
Mode: 0
LetterboxInBreaks: 0
WidescreenStoryboard: 0

[Editor]
Bookmarks: 521,11372,31797,53500,87489
DistanceSpacing: 2.7
BeatDivisor: 4
GridSize: 4
TimelineZoom: 1.6

[Metadata]
Title:COOLEST (TV Size)
TitleUnicode:COOLEST (TV Size)
Artist:CustomiZ
ArtistUnicode:カスタマイZ
Creator:KeRLi_
Version:ANOTHER!
Source:坂本ですが?
Tags:testo op opening anime japanese jrock sakamoto desu ga maruoko cami cappu taeyang shaiden shardex
BeatmapID:2011535
BeatmapSetID:960799

[Difficulty]
HPDrainRate:4.5
CircleSize:3.9
OverallDifficulty:8
ApproachRate:9
SliderMultiplier:1.7
SliderTickRate:1

[Events]
//Background and Video events
0,0,"bggb1.jpg",0,0
//Break Periods
2,1359,2793
//Storyboard Layer 0 (Background)
//Storyboard Layer 1 (Fail)
//Storyboard Layer 2 (Pass)
//Storyboard Layer 3 (Foreground)
//Storyboard Sound Samples

[TimingPoints]
-117,319.148936170213,4,2,1,80,1,0
1159,-133.333333333333,4,2,1,80,0,0
3393,-100,4,2,1,80,0,0
3633,-100,4,2,1,5,0,0
3712,-100,4,2,1,80,0,0
5388,-100,4,2,1,5,0,0
5468,-100,4,2,1,80,0,0
5707,-100,4,2,1,5,0,0
5787,-100,4,2,1,80,0,0
8819,-100,4,2,1,80,0,0
10414,-80,4,2,1,80,0,0
10654,-80,4,2,1,5,0,0
10734,-133.333333333333,4,2,1,80,0,0
11292,-133.333333333333,4,2,1,5,0,0
11372,-100,4,2,1,80,0,0
11851,-117.647058823529,4,2,1,50,0,0
13606,-100,4,2,1,60,0,0
13845,-100,4,2,1,5,0,0
13925,-100,4,2,1,60,0,0
14244,-117.647058823529,4,2,1,50,0,0
15840,-100,4,2,1,60,0,0
16079,-100,4,2,1,5,0,0
16159,-100,4,2,1,60,0,0
16398,-100,4,2,1,5,0,0
16478,-100,4,2,1,60,0,0
16957,-117.647058823529,4,2,1,50,0,0
18712,-100,4,2,1,60,0,0
18952,-100,4,2,1,5,0,0
19031,-100,4,2,1,60,0,0
19510,-100,4,2,1,50,0,0
21585,-100,4,2,1,70,0,0
26372,-133.333333333333,4,2,1,80,0,0
26611,-133.333333333333,4,2,1,5,0,0
26691,-100,4,2,1,80,0,0
26930,-100,4,2,1,5,0,0
27010,-133.333333333333,4,2,1,80,0,0
27250,-133.333333333333,4,2,1,5,0,0
27329,-100,4,2,1,80,0,0
27648,-117.647058823529,4,2,1,80,0,0
27888,-117.647058823529,4,2,1,5,0,0
27968,-90.9090909090909,4,2,1,80,0,0
28207,-90.9090909090909,4,2,1,5,0,0
28287,-117.647058823529,4,2,1,80,0,0
28606,-100,4,2,1,80,0,0
31797,-117.647058823529,4,2,1,50,0,0
34031,-117.647058823529,4,2,1,75,0,0
35308,-117.647058823529,4,2,1,50,0,0
36265,-117.647058823529,4,2,1,75,0,0
36904,-117.647058823529,4,2,1,50,0,0
39457,-117.647058823529,4,2,1,60,0,0
39696,-117.647058823529,4,2,1,5,0,0
39776,-117.647058823529,4,2,1,60,0,0
40015,-117.647058823529,4,2,1,5,0,0
40095,-117.647058823529,4,2,1,60,0,0
40414,-105.263157894737,4,2,1,60,0,0
40654,-105.263157894737,4,2,1,5,0,0
40734,-90.9090909090909,4,2,1,80,0,0
40973,-90.9090909090909,4,2,1,5,0,0
41053,-90.9090909090909,4,2,1,80,0,0
41292,-90.9090909090909,4,2,1,5,0,0
41372,-90.9090909090909,4,2,1,80,0,0
41611,-90.9090909090909,4,2,1,5,0,0
41691,-100,4,2,1,80,0,0
42010,-100,4,2,1,80,0,0
47117,-117.647058823529,4,2,1,80,0,0
49670,-100,4,2,1,80,0,0
53500,-80,4,2,1,90,0,1
56053,-100,4,2,1,90,0,1
56292,-100,4,2,1,5,0,1
56372,-71.4285714285714,4,2,1,90,0,1
56531,-100,4,2,1,90,0,1
56930,-100,4,2,1,5,0,1
57010,-80,4,2,1,90,0,1
61159,-100,4,2,1,90,0,1
61398,-100,4,2,1,5,0,1
61478,-71.4285714285714,4,2,1,90,0,1
61718,-71.4285714285714,4,2,1,5,0,1
61797,-100,4,2,1,90,0,1
62037,-100,4,2,1,5,0,1
62117,-80,4,2,1,90,0,1
66265,-100,4,2,1,90,0,1
66505,-100,4,2,1,5,0,1
66585,-71.4285714285714,4,2,1,90,0,1
66904,-100,4,2,1,90,0,1
67143,-100,4,2,1,5,0,1
67223,-71.4285714285714,4,2,1,90,0,1
67383,-80,4,2,1,90,0,1
71372,-100,4,2,1,90,0,1
71611,-100,4,2,1,5,0,1
71691,-71.4285714285714,4,2,1,90,0,1
71930,-71.4285714285714,4,2,1,5,0,1
72010,-100,4,2,1,90,0,1
72250,-100,4,2,1,5,0,1
72329,-71.4285714285714,4,2,1,90,0,1
72648,-80,4,2,1,90,0,1
73845,-80,4,2,1,5,0,1
73925,-100,4,2,1,80,0,0
81585,-100,4,2,1,80,0,0
84138,-80,4,2,1,90,0,1
87170,-80,4,2,1,90,0,0
87489,-80,4,2,1,5,0,0

[Colours]
Combo1 : 53,180,255
Combo2 : 212,212,212

[HitObjects]
296,88,521,6,0,P|310:51|327:28,3,42.5,8|8|8|8,3:0|3:0|3:0|3:0,0:0:0:0:
355,170,840,2,0,P|379:200|390:226,3,42.5,8|8|8|8,3:0|3:0|3:0|3:0,0:0:0:0:
254,180,1159,5,4,3:2:0:0:
254,180,3393,6,0,B|216:160|180:176|180:176|148:188|120:176,1,127.5,4|0,3:2|0:0,0:0:0:0:
104,164,3712,1,4,3:2:0:0:
356,172,4989,5,8,3:2:0:0:
272,276,5148,2,0,L|124:272,1,127.5,4|0,3:2|0:0,0:0:0:0:
120,288,5468,2,0,P|88:244|108:176,1,127.5,4|0,3:2|0:0,0:0:0:0:
132,164,5787,5,8,3:2:0:0:
200,312,5946,1,8,3:2:0:0:
228,148,6106,1,8,3:2:0:0:
272,276,6265,5,8,3:0:0:0:
292,268,6344,1,0,3:0:0:0:
312,264,6424,1,0,3:0:0:0:
334,263,6504,1,0,3:0:0:0:
355,265,6585,2,0,L|363:323,3,42.5,8|0|0|0,3:0|3:0|3:0|3:0,0:0:0:0:
432,160,6904,5,8,3:0:0:0:
412,152,6983,1,0,3:0:0:0:
392,148,7063,1,0,3:0:0:0:
370,147,7143,1,0,3:0:0:0:
349,149,7224,2,0,L|341:207,3,42.5,8|0|0|0,3:0|3:0|3:0|3:0,0:0:0:0:
296,36,7542,5,8,3:0:0:0:
280,21,7621,1,0,3:0:0:0:
261,12,7701,1,0,3:0:0:0:
240,11,7781,1,0,3:0:0:0:
219,16,7861,1,8,3:0:0:0:
202,28,7940,1,0,3:0:0:0:
189,45,8020,1,0,3:0:0:0:
183,66,8100,1,0,3:0:0:0:
184,88,8180,2,0,P|188:120|184:156,3,42.5,8|0|0|0,3:0|0:0|0:0|0:0,0:0:0:0:
88,216,8500,2,0,P|58:203|29:181,3,42.5,8|0|0|0,3:0|3:0|3:0|3:0,0:0:0:0:
72,88,8819,5,4,3:2:0:0:
192,224,8978,1,10,3:0:0:0:
192,224,9058,1,8,3:0:0:0:
192,224,9138,2,0,L|240:220,1,42.5,10|8,3:0|3:0,0:0:0:0:
344,184,9297,2,0,P|316:232|312:272,1,85,4|8,3:2|3:0,0:0:0:0:
328,288,9537,1,8,3:0:0:0:
328,288,9617,2,0,P|380:290|420:271,1,85,2|10,3:0|3:0,0:0:0:0:
484,136,9936,5,4,3:2:0:0:
400,40,10095,1,8,3:0:0:0:
400,40,10175,1,8,3:0:0:0:
400,40,10255,2,0,L|388:88,1,42.5,8|8,3:0|3:0,0:0:0:0:
360,164,10414,2,0,P|304:152|240:232,1,159.375,4|0,3:2|0:0,0:0:0:0:
240,244,10734,1,4,3:2:0:0:
240,244,11053,6,0,P|236:196|200:156,1,95.6250036478044,2|0,0:0|0:0,0:0:0:0:
176,152,11372,2,0,L|164:332,1,170,4|8,3:2|3:2,0:0:0:0:
260,340,11851,5,0,0:0:0:0:
260,340,12010,2,0,P|316:332|340:316,1,72.2500013780594,0|0,3:0|3:0,0:0:0:0:
362,188,12329,1,8,3:2:0:0:
362,188,12489,2,0,P|326:277|329:326,1,144.500002756119,0|0,3:0|3:0,0:0:0:0:
504,288,12968,2,0,P|470:273|435:272,1,72.2500013780594,8|0,3:2|0:0,0:0:0:0:
328,324,13287,2,0,P|293:338|257:340,1,72.2500013780594,0|0,3:0|3:0,0:0:0:0:
144,196,13606,6,0,P|208:200|208:268,1,127.5,8|0,3:2|0:0,0:0:0:0:
204,280,13925,2,0,P|140:272|48:328,1,170,0|8,3:2|3:2,0:0:0:0:
148,356,14404,5,0,0:0:0:0:
148,356,14563,2,0,L|240:360,1,72.2500013780594,0|0,3:0|3:0,0:0:0:0:
364,240,14883,1,8,3:2:0:0:
364,240,15042,2,0,L|207:246,1,144.500002756119,0|0,3:0|3:0,0:0:0:0:
77,214,15521,2,0,P|117:194|161:202,1,72.2500013780594,8|0,3:2|0:0,0:0:0:0:
36,280,15840,6,0,L|40:140,1,127.5,0|0,3:0|0:0,0:0:0:0:
52,128,16159,2,0,P|100:112|176:112,1,127.5,8|0,3:2|0:0,0:0:0:0:
204,128,16478,6,0,P|260:128|204:52,1,170,4|8,3:2|3:2,0:0:0:0:
116,80,16957,1,0,0:0:0:0:
116,80,17117,2,0,L|140:232,1,144.500002756119,0|8,3:0|3:2,0:0:0:0:
244,260,17595,2,0,P|156:252|120:296,1,144.500002756119,0|0,3:0|3:0,0:0:0:0:
232,352,18074,1,8,3:2:0:0:
232,352,18234,2,0,P|292:352|328:348,1,72.2500013780594,0|0,0:0|3:0,0:0:0:0:
392,328,18553,1,0,3:0:0:0:
456,220,18712,2,0,P|392:204|336:260,1,127.5,8|0,3:2|0:0,0:0:0:0:
332,264,19031,5,4,3:2:0:0:
416,304,19191,1,0,0:0:0:0:
304,164,19351,2,0,P|264:140|223:135,1,85,8|0,3:2|0:0,0:0:0:0:
142,269,19670,1,0,3:0:0:0:
228,236,19829,1,0,3:0:0:0:
92,104,19989,1,8,3:2:0:0:
92,104,20148,2,0,P|36:136|68:228,1,170,0|0,3:0|3:0,0:0:0:0:
231,259,20627,1,8,3:2:0:0:
220,160,20787,1,0,3:0:0:0:
220,160,20946,1,0,3:0:0:0:
60,32,21106,5,8,3:2:0:0:
139,177,21265,1,8,3:2:0:0:
172,16,21425,1,8,3:2:0:0:
288,124,21585,6,0,B|332:108|368:132|368:132|408:160|460:132,1,170,4|8,3:2|3:2,0:0:0:0:
472,8,22063,1,0,0:0:0:0:
472,8,22223,2,0,P|432:32|412:84,1,85,0|0,3:0|3:0,0:0:0:0:
468,216,22542,1,8,3:2:0:0:
472,132,22702,2,0,P|412:152|392:256,1,170,0|0,3:0|3:0,0:0:0:0:
328,88,23180,2,0,L|216:84,1,85,8|0,3:2|0:0,0:0:0:0:
128,208,23500,2,0,L|212:204,1,85,0|0,3:0|3:0,0:0:0:0:
152,80,23819,6,0,P|88:48|8:100,1,170,8|0,3:2|3:0,0:0:0:0:
8,204,24297,1,0,3:0:0:0:
124,291,24457,2,0,P|132:239|124:195,1,85,8|0,3:2|0:0,0:0:0:0:
40,336,24776,2,0,P|88:368|208:340,1,170,0|8,3:0|3:2,0:0:0:0:
288,184,25255,2,0,L|296:356,1,170,0|0,3:0|3:0,0:0:0:0:
416,240,25734,2,0,P|408:192|384:156,1,85,8|0,3:2|0:0,0:0:0:0:
288,184,26053,1,0,3:0:0:0:
267,190,26132,1,0,3:0:0:0:
247,194,26212,1,0,3:0:0:0:
225,196,26292,1,0,3:0:0:0:
204,194,26372,6,0,L|216:80,1,95.6250036478044,8|0,3:2|0:0,0:0:0:0:
200,76,26691,2,0,L|60:60,1,127.5,4|0,3:2|0:0,0:0:0:0:
48,72,27010,2,0,P|40:116|48:184,1,95.6250036478044,8|0,3:2|0:0,0:0:0:0:
64,188,27329,2,0,P|76:240|76:284,1,85,0|0,3:0|3:0,0:0:0:0:
28,376,27648,6,0,P|84:364|156:380,1,108.375002067089,8|0,3:2|0:0,0:0:0:0:
152,356,27968,2,0,P|180:292|160:228,1,140.25000428009,0|0,3:0|0:0,0:0:0:0:
139,218,28287,2,0,L|59:206,1,72.2500013780594,8|0,3:2|0:0,0:0:0:0:
80,291,28606,1,0,3:0:0:0:
252,252,28765,1,8,3:0:0:0:
269,239,28844,1,8,3:0:0:0:
289,235,28925,2,0,L|293:287,3,42.5,8|8|8|8,3:2|3:0|3:0|3:0,0:0:0:0:
376,324,29244,6,0,L|384:148,1,170,4|8,3:2|3:2,0:0:0:0:
264,100,29723,1,8,3:2:0:0:
266,121,29802,1,8,3:2:0:0:
269,142,29882,1,8,3:2:0:0:
344,76,30042,1,0,3:0:0:0:
252,20,30202,1,0,3:0:0:0:
164,124,30361,2,0,P|100:132|92:44,1,170,4|0,3:2|3:0,0:0:0:0:
269,142,30840,1,8,3:2:0:0:
200,223,31000,5,8,3:0:0:0:
200,223,31079,1,8,3:0:0:0:
200,223,31159,1,8,3:0:0:0:
95,204,31319,1,8,3:0:0:0:
164,124,31478,1,0,3:0:0:0:
200,223,31638,1,0,3:0:0:0:
131,304,31797,6,0,P|64:296|-4:236,1,144.500002756119,4|0,3:2|0:0,0:0:0:0:
12,160,32276,1,0,3:0:0:0:
200,223,32436,2,0,L|212:372,1,144.500002756119,8|0,3:2|3:0,0:0:0:0:
288,376,32914,1,0,3:0:0:0:
408,148,33234,5,8,3:2:0:0:
312,180,33393,1,0,3:0:0:0:
388,247,33553,1,0,3:0:0:0:
332,80,33712,2,0,P|264:92|204:164,1,144.500002756119,8|0,3:2|3:0,0:0:0:0:
204,228,34191,5,0,3:0:0:0:
112,120,34351,2,0,L|36:116,1,72.2500013780594,4|0,3:2|3:0,0:0:0:0:
204,228,34670,1,0,3:0:0:0:
195,312,34829,1,0,3:0:0:0:
103,204,34989,2,0,L|27:200,1,72.2500013780594,8|0,3:2|3:0,0:0:0:0:
111,303,35308,5,0,3:0:0:0:
195,312,35467,1,0,3:0:0:0:
296,188,35627,2,0,P|267:206|244:252,1,72.2500013780594,0|8,0:0|3:2,0:0:0:0:
252,372,35946,1,0,3:0:0:0:
328,340,36106,1,0,3:0:0:0:
392,216,36265,5,8,3:2:0:0:
460,360,36425,1,8,3:2:0:0:
380,196,36585,1,8,3:2:0:0:
380,196,36904,6,0,P|328:172|236:180,1,144.500002756119,4|0,3:2|0:0,0:0:0:0:
188,244,37383,1,0,3:0:0:0:
188,244,37462,1,0,3:0:0:0:
188,244,37542,2,0,P|156:200|192:112,1,144.500002756119,8|0,3:2|3:0,0:0:0:0:
296,248,38021,1,0,3:0:0:0:
240,344,38180,2,0,L|88:332,1,144.500002756119,0|0,3:0|3:0,0:0:0:0:
28,232,38659,1,0,3:0:0:0:
104,108,38819,2,0,P|112:156|108:276,1,144.500002756119,8|0,3:2|3:0,0:0:0:0:
24,140,39297,1,0,0:0:0:0:
120,16,39457,6,0,B|144:16|164:32|164:32|188:56|220:52,1,108.375002067089,4|0,3:2|0:0,0:0:0:0:
244,40,39776,2,0,P|284:24|360:40,1,108.375002067089,0|0,3:0|3:0,0:0:0:0:
360,56,40095,2,0,L|356:180,1,108.375002067089,8|0,3:2|3:0,0:0:0:0:
348,192,40414,2,0,P|276:176|220:200,1,121.124996765614,0|0,3:0|3:0,0:0:0:0:
176,240,40734,6,0,B|156:276|156:276|168:376,1,140.25000428009,4|0,3:2|0:0,0:0:0:0:
204,384,41053,2,0,P|180:332|96:328,1,140.25000428009,4|0,3:2|0:0,0:0:0:0:
80,344,41372,2,0,P|16:340|40:276,1,140.25000428009,4|0,3:2|0:0,0:0:0:0:
52,268,41691,5,8,3:2:0:0:
56,184,41851,1,0,3:0:0:0:
186,59,42010,2,0,L|209:241,1,170,4|8,3:2|3:2,0:0:0:0:
284,272,42489,1,0,0:0:0:0:
368,180,42648,1,0,3:0:0:0:
276,180,42808,1,0,3:0:0:0:
328,344,42968,2,0,P|376:348|424:332,1,85,8|0,3:2|3:0,0:0:0:0:
480,280,43287,5,0,3:0:0:0:
480,280,43446,1,0,3:0:0:0:
368,180,43606,1,8,3:2:0:0:
284,272,43765,2,0,P|200:280|100:264,1,170,0|0,3:0|3:0,0:0:0:0:
148,84,44244,6,0,P|204:68|236:76,1,85,8|0,3:2|0:0,0:0:0:0:
276,180,44563,1,0,3:0:0:0:
100,160,44723,1,0,3:0:0:0:
268,8,44883,2,0,L|280:116,1,85,8|0,3:2|3:0,0:0:0:0:
264,208,45202,1,0,3:0:0:0:
144,252,45361,1,0,3:0:0:0:
188,120,45521,1,8,3:2:0:0:
252,240,45680,1,0,3:0:0:0:
48,252,45840,5,12,3:2:0:0:
0,160,46000,2,0,L|4:116,2,42.5,0|0|8,3:0|3:0|3:2,0:0:0:0:
32,328,46319,2,0,L|28:284,1,42.5,0|0,3:0|3:0,0:0:0:0:
100,180,46478,1,8,3:2:0:0:
180,296,46638,1,8,3:0:0:0:
200,289,46717,1,8,3:0:0:0:
221,287,46797,1,8,3:2:0:0:
345,365,46957,1,8,3:0:0:0:
345,365,47036,1,8,3:0:0:0:
345,365,47117,6,0,P|393:349|385:261,1,144.500002756119,4|0,3:2|0:0,0:0:0:0:
312,232,47595,1,0,3:0:0:0:
312,232,47675,1,0,3:0:0:0:
312,232,47755,2,0,P|296:168|320:80,1,144.500002756119,8|4,3:2|3:2,0:0:0:0:
388,52,48234,1,0,0:0:0:0:
468,232,48393,6,0,P|484:168|460:80,1,144.500002756119,4|0,3:2|0:0,0:0:0:0:
388,52,48872,1,0,3:0:0:0:
388,52,48952,1,0,3:0:0:0:
388,52,49031,2,0,L|284:48,1,72.2500013780594,8|8,3:2|3:0,0:0:0:0:
292,68,49271,1,8,3:0:0:0:
292,68,49351,1,0,3:0:0:0:
208,16,49510,1,0,3:0:0:0:
180,172,49670,5,4,3:2:0:0:
148,96,49829,1,0,3:0:0:0:
60,116,49989,1,0,3:0:0:0:
56,200,50148,1,8,3:0:0:0:
56,200,50228,1,8,3:0:0:0:
56,200,50308,2,0,L|52:296,1,85,8|0,3:0|3:0,0:0:0:0:
128,368,50627,1,2,0:0:0:0:
128,368,50787,1,0,3:0:0:0:
180,172,50946,5,8,3:2:0:0:
240,368,51106,1,8,3:0:0:0:
244,124,51265,1,8,3:2:0:0:
184,320,51425,1,8,3:0:0:0:
180,76,51585,1,8,3:2:0:0:
240,272,51745,1,8,3:0:0:0:
244,28,51904,1,8,3:2:0:0:
184,224,52064,1,8,3:0:0:0:
320,60,52223,5,4,3:2:0:0:
160,76,52383,1,0,3:0:0:0:
288,192,52542,1,8,3:0:0:0:
228,16,52702,1,0,3:0:0:0:
76,104,52861,6,0,L|24:100,3,42.5,8|8|8|8,3:0|3:0|3:0|3:0,0:0:0:0:
48,212,53180,2,0,L|100:208,3,42.5,8|8|8|8,3:0|3:0|3:0|3:0,0:0:0:0:
208,248,53500,6,0,P|280:220|376:324,1,212.5,4|8,3:2|3:2,0:0:0:0:
216,228,53978,2,0,P|288:200|384:304,1,212.5,0|0,3:0|3:0,0:0:0:0:
136,328,54457,2,0,P|128:266|141:217,1,106.25,8|0,3:2|0:0,0:0:0:0:
208,140,54776,1,0,3:0:0:0:
284,300,54936,2,0,L|296:180,1,106.25,0|8,3:0|3:2,0:0:0:0:
344,32,55255,2,0,P|384:92|396:140,1,106.25,0|0,3:0|0:0,0:0:0:0:
312,196,55574,1,0,3:0:0:0:
244,44,55734,1,8,3:2:0:0:
192,160,55893,1,0,0:0:0:0:
52,84,56053,6,0,L|48:244,1,127.5,0|0,3:0|0:0,0:0:0:0:
60,240,56372,1,12,3:2:0:0:
164,340,56531,1,0,0:0:0:0:
256,288,56691,2,0,L|252:128,1,127.5,0|0,3:0|0:0,0:0:0:0:
232,136,57010,6,0,P|192:136|132:176,1,106.25,12|0,3:2|0:0,0:0:0:0:
80,256,57329,1,4,3:2:0:0:
180,356,57489,1,0,3:0:0:0:
208,224,57648,1,12,3:2:0:0:
196,376,57808,1,0,3:0:0:0:
332,264,57968,2,0,P|388:240|468:344,1,212.5,4|8,3:2|3:0,0:0:0:0:
440,364,58367,1,8,3:0:0:0:
440,364,58446,2,0,L|368:360,1,53.125,8|8,3:0|3:0,0:0:0:0:
248,304,58606,6,0,P|236:224|304:88,1,212.5,4|8,3:2|3:2,0:0:0:0:
412,20,59085,2,0,L|428:232,1,212.5,0|0,3:0|3:0,0:0:0:0:
280,216,59563,1,8,3:2:0:0:
304,120,59723,1,0,0:0:0:0:
328,296,59883,1,0,3:0:0:0:
168,204,60042,2,0,L|288:208,1,106.25,0|8,3:0|3:2,0:0:0:0:
12,304,60361,2,0,P|-8:228|88:152,1,212.5,0|0,3:0|3:0,0:0:0:0:
116,320,60840,1,8,3:2:0:0:
168,220,61000,1,0,0:0:0:0:
280,336,61159,6,0,P|348:344|420:328,1,127.5,0|0,3:0|0:0,0:0:0:0:
432,320,61478,2,0,P|396:256|276:252,1,178.499994552612,12|0,3:2|0:0,0:0:0:0:
280,264,61797,2,0,P|328:252|392:180,1,127.5,0|0,3:0|0:0,0:0:0:0:
384,172,62117,6,0,P|336:136|196:192,1,212.5,12|4,3:2|3:2,0:0:0:0:
184,292,62595,2,0,L|188:348,2,53.125,8|8|8,3:0|3:0|3:2,0:0:0:0:
80,224,62914,1,8,3:0:0:0:
80,224,62994,1,8,3:0:0:0:
80,224,63074,1,8,3:2:0:0:
148,120,63234,2,0,L|144:67,2,53.125,8|8|8,3:0|3:0|3:2,0:0:0:0:
252,188,63553,1,8,3:0:0:0:
252,188,63633,1,8,3:0:0:0:
252,188,63712,6,0,L|493:170,1,212.5,4|8,3:2|3:2,0:0:0:0:
304,48,64191,2,0,L|62:30,1,212.5,0|0,3:0|3:0,0:0:0:0:
80,224,64670,2,0,P|144:224|184:196,1,106.25,8|0,3:2|0:0,0:0:0:0:
24,132,64989,1,0,3:0:0:0:
0,240,65148,1,0,3:0:0:0:
196,128,65308,1,8,3:2:0:0:
116,52,65468,2,0,P|56:128|44:240,1,212.5,0|0,3:0|3:0,0:0:0:0:
148,312,65946,1,8,3:2:0:0:
178,202,66106,1,0,0:0:0:0:
280,296,66265,6,0,P|336:280|420:288,1,127.5,0|0,3:0|0:0,0:0:0:0:
428,308,66585,1,12,3:2:0:0:
340,376,66744,1,0,0:0:0:0:
208,348,66904,2,0,P|144:328|84:344,1,127.5,0|0,3:0|0:0,0:0:0:0:
64,364,67223,5,12,3:2:0:0:
24,260,67383,1,0,0:0:0:0:
200,328,67542,5,4,3:2:0:0:
236,230,67702,1,0,3:0:0:0:
336,240,67861,1,12,3:2:0:0:
345,345,68021,1,0,3:0:0:0:
224,200,68180,1,8,3:2:0:0:
199,190,68259,1,8,3:0:0:0:
172,189,68339,1,8,3:0:0:0:
147,195,68419,1,8,3:0:0:0:
124,208,68500,2,0,P|96:236|84:256,3,53.125,8|8|8|8,3:2|3:0|3:0|3:0,0:0:0:0:
4,244,68819,6,0,L|12:24,1,212.5,4|8,3:2|3:2,0:0:0:0:
164,32,69297,2,0,P|248:28|340:132,1,212.5,0|0,3:0|3:0,0:0:0:0:
240,268,69776,2,0,P|252:200|280:164,1,106.25,8|0,3:2|0:0,0:0:0:0:
384,188,70095,1,0,3:0:0:0:
348,276,70255,1,0,3:0:0:0:
168,192,70414,1,8,3:2:0:0:
124,292,70574,2,0,P|68:260|100:116,1,212.5,0|0,3:0|3:0,0:0:0:0:
273,170,71053,1,8,3:2:0:0:
168,192,71212,1,0,0:0:0:0:
224,80,71372,6,0,P|284:64|360:108,1,127.5,0|0,3:0|0:0,0:0:0:0:
364,112,71691,2,0,L|380:304,1,178.499994552612,12|0,3:2|0:0,0:0:0:0:
364,324,72010,2,0,P|300:304|236:320,1,127.5,0|0,3:0|0:0,0:0:0:0:
220,344,72329,6,0,P|160:360|104:356,1,118.999996368408,12|0,3:2|0:0,0:0:0:0:
44,236,72648,2,0,L|36:292,2,53.125,8|0|0,3:0|3:0|3:0,0:0:0:0:
112,132,72968,2,0,L|104:76,1,53.125,8|0,3:0|3:0,0:0:0:0:
180,200,73127,1,0,3:0:0:0:
180,200,73207,1,0,3:0:0:0:
180,200,73287,2,0,L|172:256,3,53.125,0|0|0|0,3:0|3:0|3:0|3:0,0:0:0:0:
264,208,73606,2,0,L|248:36,1,159.375,12|0,3:2|0:0,0:0:0:0:
248,20,73925,6,0,P|328:24|396:92,2,170,4|8|0,3:2|3:2|0:0,0:0:0:0:
112,132,74723,1,0,3:0:0:0:
60,48,74883,1,8,3:2:0:0:
14,136,75042,1,0,0:0:0:0:
65,219,75202,2,0,P|116:232|164:224,1,85,0|0,3:0|3:0,0:0:0:0:
288,88,75521,2,0,P|251:125|234:171,1,85,8|0,3:2|0:0,0:0:0:0:
376,232,75840,2,0,P|356:194|326:165,1,85,0|0,3:0|3:0,0:0:0:0:
244,352,76159,2,0,P|286:354|326:342,1,85,8|0,3:2|0:0,3:0:0:0:
372,92,76478,5,4,3:2:0:0:
65,219,76797,1,8,3:2:0:0:
65,219,76957,2,0,L|59:318,1,85,0|4,0:0|3:2,0:0:0:0:
136,356,77276,1,0,0:0:0:0:
243,239,77436,2,0,L|237:154,1,85,8|0,3:2|0:0,0:0:0:0:
144,68,77755,2,0,P|88:68|48:88,1,85,4|0,3:2|0:0,0:0:0:0:
32,324,78074,6,0,P|92:352|192:336,1,170,8|0,3:2|3:0,0:0:0:0:
275,282,78552,1,8,3:0:0:0:
281,261,78632,1,8,3:0:0:0:
285,242,78712,2,0,L|241:238,3,42.5,8|0|0|0,3:0|3:0|3:0|3:0,0:0:0:0:
172,168,79031,6,0,L|341:151,1,170,4|8,3:2|3:2,0:0:0:0:
448,136,79510,1,0,0:0:0:0:
407,236,79670,1,0,3:0:0:0:
341,150,79829,1,0,3:0:0:0:
383,50,79989,2,0,P|424:32|484:24,1,85,8|0,3:2|3:0,0:0:0:0:
404,212,80308,1,4,3:2:0:0:
284,88,80468,5,0,3:0:0:0:
265,78,80547,1,0,3:0:0:0:
244,72,80627,1,8,3:0:0:0:
223,71,80707,1,0,3:0:0:0:
202,74,80787,2,0,P|154:90|134:90,1,42.5,0|0,3:0|3:0,0:0:0:0:
40,40,80946,2,0,L|96:44,3,42.5,0|0|0|0,3:0|3:0|3:0|3:0,0:0:0:0:
120,172,81265,2,0,L|25:178,1,85,8|0,3:2|0:0,0:0:0:0:
244,72,81585,6,0,P|304:56|424:108,2,170,4|0|0,3:2|0:0|0:0,0:0:0:0:
244,72,82542,1,0,0:0:0:0:
140,240,82861,5,8,3:0:0:0:
180,120,83021,1,8,3:0:0:0:
212,280,83180,1,8,3:0:0:0:
40,184,83340,1,8,3:0:0:0:
32,352,83659,5,0,3:0:0:0:
32,352,83739,1,0,3:0:0:0:
32,352,83819,2,0,P|84:328|160:340,1,127.5,4|0,3:2|0:0,0:0:0:0:
176,352,84138,6,0,P|236:360|276:336,1,106.25,4|8,3:2|3:0,0:0:0:0:
272,308,84377,1,8,3:0:0:0:
272,308,84457,2,0,L|260:256,1,53.125,8|8,3:0|3:0,0:0:0:0:
208,168,84617,1,12,3:0:0:0:
72,236,84776,1,8,3:0:0:0:
212,192,84936,1,0,3:0:0:0:
212,192,85015,1,0,3:0:0:0:
212,192,85095,5,0,3:0:0:0:
176,352,85255,1,2,3:0:0:0:
140,144,85414,1,8,3:2:0:0:
0,208,85574,1,8,3:0:0:0:
140,124,85734,1,8,3:2:0:0:
30,118,85893,1,8,3:0:0:0:
72,236,86053,1,2,3:0:0:0:
260,148,86212,5,0,3:0:0:0:
260,148,86292,1,0,3:0:0:0:
260,148,86372,2,0,L|256:88,3,53.125,2|0|0|0,3:0|3:0|3:0|3:0,0:0:0:0:
126,33,86691,5,12,3:0:0:0:
100,41,86770,1,8,3:0:0:0:
79,56,86850,1,8,3:0:0:0:
62,76,86930,1,8,3:0:0:0:
51,100,87010,1,8,3:0:0:0:
48,127,87089,1,8,3:0:0:0:
52,153,87170,6,0,B|124:160|124:160|166:137|166:137|270:149,1,212.5,4|0,3:2|0:0,0:0:0:0:
