osu file format v14

[General]
AudioFilename: audio.mp3
AudioLeadIn: 0
PreviewTime:53101
Countdown: 0
SampleSet: Soft
StackLeniency: 0.7
Mode: 2
LetterboxInBreaks: 0
WidescreenStoryboard: 1

[Editor]
Bookmarks: 47171
DistanceSpacing: 1
BeatDivisor: 4
GridSize: 32
TimelineZoom: 2.4

[Metadata]
Title:COOLEST (TV Size)
TitleUnicode:COOLEST (TV Size)
Artist:CustomiZ
ArtistUnicode:カスタマイZ
Creator:Ascendance
Version:SALAD
Source:坂本ですが?
Tags:op opening anime japanese jrock sakamoto desu ga jorkseljund bastian -joni- spectator baron KeRLi_ Greaper havent you heard im haven't i'm
BeatmapID:2615428
BeatmapSetID:1258175

[Difficulty]
HPDrainRate:4
CircleSize:3
OverallDifficulty:7
ApproachRate:7
SliderMultiplier:1.5
SliderTickRate:1

[Events]
//Background and Video events
0,0,"cropped-1920-1080-759660.jpg"
//Break Periods
//Storyboard Layer 0 (Background)
//Storyboard Layer 1 (Fail)
//Storyboard Layer 2 (Pass)
//Storyboard Layer 3 (Foreground)
//Storyboard Layer 4 (Overlay)
//Storyboard Sound Samples

[TimingPoints]
-63,319.148936170213,4,2,1,80,1,0
-63,-100,4,2,1,80,0,0
3447,-100,4,2,1,80,0,0
3687,-100,4,2,1,5,0,0
3766,-100,4,2,1,80,0,0
6559,-100,4,2,1,5,0,0
6639,-100,4,2,1,80,0,0
10708,-100,4,2,1,5,0,0
10788,-100,4,2,1,80,0,0
11027,-100,4,2,1,5,0,0
11107,-100,4,2,1,80,0,0
11346,-100,4,2,1,5,0,0
11426,-100,4,2,1,70,0,0
11665,-100,4,2,1,5,0,0
11745,-100,4,2,1,70,0,0
14218,-100,4,2,1,5,0,0
14298,-100,4,2,1,70,0,0
17889,-100,4,2,1,5,0,0
17968,-100,4,2,1,70,0,0
20442,-100,4,2,1,5,0,0
20522,-100,4,2,1,70,0,0
21559,-100,4,2,1,5,0,0
21639,-100,4,2,1,70,0,0
24112,-100,4,2,1,5,0,0
24192,-100,4,2,1,70,0,0
26665,-100,4,2,1,5,0,0
26745,-100,4,2,1,70,0,0
27304,-100,4,2,1,5,0,0
27383,-100,4,2,1,70,0,0
27942,-100,4,2,1,5,0,0
28022,-100,4,2,1,70,0,0
41027,-100,4,2,1,5,0,0
41107,-100,4,2,1,75,0,0
41346,-100,4,2,1,5,0,0
41426,-100,4,2,1,80,0,0
41665,-100,4,2,1,5,0,0
41745,-100,4,2,1,85,0,0
41905,-100,4,2,1,70,0,0
43261,-100,4,2,1,5,0,0
43341,-100,4,2,1,70,0,0
53554,-100,4,2,1,90,0,1
58899,-100,4,2,1,5,0,1
58979,-100,4,2,1,90,0,1
64006,-100,4,2,1,5,0,1
64085,-100,4,2,1,90,0,1
71984,-100,4,2,1,5,0,1
72064,-100,4,2,1,90,0,1
72623,-100,4,2,1,5,0,1
72702,-100,4,2,1,90,0,1
73899,-100,4,2,1,5,0,1
73979,-100,4,2,1,80,0,0
76452,-100,4,2,1,5,0,0
76532,-100,4,2,1,80,0,0
78048,-100,4,2,1,5,0,0
78128,-100,4,2,1,80,0,0
79325,-100,4,2,1,5,0,0
79405,-100,4,2,1,80,0,0
81878,-100,4,2,1,5,0,0
81958,-100,4,2,1,80,0,0
84192,-100,4,2,1,90,0,0
87543,-100,4,2,1,5,0,0

[Colours]
Combo1 : 236,44,44
Combo2 : 236,142,142
Combo3 : 109,102,102

[HitObjects]
134,319,575,5,8,3:0:0:0:
74,277,734,1,8,3:0:0:0:
72,205,894,1,8,3:0:0:0:
129,160,1054,1,8,3:0:0:0:
304,161,1213,5,4,3:2:0:0:
171,136,1532,2,0,L|255:120,1,75
380,122,2011,2,0,L|455:133,2,75
245,106,2649,2,0,L|169:98,1,75
279,67,3128,1,0,0:0:0:0:
35,33,3447,1,4,3:2:0:0:
288,62,3766,6,0,L|442:44,1,150,4|0,3:2|0:0,0:0:0:0:
371,28,4245,1,0,0:0:0:0:
244,74,4564,2,0,L|149:60,1,75
36,84,5043,5,8,3:2:0:0:
212,35,5202,2,0,L|374:53,2,150,4|4|8,3:2|3:2|3:2,0:0:0:0:
137,22,6000,1,8,3:2:0:0:
411,55,6319,6,0,L|412:223,1,150,8|8,3:0|3:0,0:0:0:0:
262,222,6958,2,0,L|263:390,1,150,8|8,3:0|3:0,0:0:0:0:
412,371,7596,2,0,L|251:353,1,150,8|8,3:0|3:0,0:0:0:0:
118,315,8234,2,0,L|278:293,1,150,8|8,3:0|3:0,0:0:0:0:
341,284,8713,1,0,3:0:0:0:
153,199,8873,6,0,L|66:187,2,75,4|10|10,3:2|3:0|3:0,0:0:0:0:
267,226,9351,2,0,P|318:176|281:118,1,150,4|2,3:2|3:0,0:0:0:0:
207,115,9830,1,10,3:0:0:0:
36,113,9990,1,4,3:2:0:0:
185,113,10309,2,0,L|266:113,1,75,8|4,3:0|3:2,0:0:0:0:
120,57,10788,2,0,L|117:227,1,150,4|2,3:2|0:0,0:0:0:0:
433,261,11426,6,0,P|501:191|420:106,1,225,4|0,3:2|0:0,0:0:0:0:
283,91,12224,2,0,L|371:68,1,75,0|8,3:0|3:2,0:0:0:0:
428,90,12543,1,0,3:0:0:0:
279,108,12862,2,0,L|189:95,1,75,0|8,3:0|3:2,0:0:0:0:
61,143,13341,1,0,3:0:0:0:
43,291,13660,1,8,3:2:0:0:
326,338,13979,6,0,P|392:273|323:183,1,225,0|0,3:2|0:0,0:0:0:0:
248,182,14617,1,0,3:0:0:0:
188,135,14777,1,0,3:0:0:0:
184,59,14937,1,8,3:2:0:0:
249,22,15096,1,0,3:0:0:0:
397,40,15415,2,0,L|303:24,1,75,0|8,3:0|3:2,0:0:0:0:
50,188,15894,2,0,L|42:30,1,150,0|8,3:0|3:2,0:0:0:0:
314,216,16532,6,0,L|491:191,2,150,4|8|0,3:2|3:2|3:0,0:0:0:0:
166,185,17490,2,0,L|257:197,1,75,8|0,3:2|3:0,0:0:0:0:
368,272,17968,2,0,P|439:215|412:145,1,150,0|0,3:0|0:0,0:0:0:0:
360,137,18447,1,0,3:0:0:0:
211,113,18766,1,8,3:2:0:0:
360,137,19085,6,0,P|402:84|353:17,1,150,4|8,3:2|3:2,0:0:0:0:
290,7,19564,1,0,0:0:0:0:
214,4,19724,1,0,3:0:0:0:
341,82,20043,2,0,L|426:68,1,75,8|0,3:2|3:0,0:0:0:0:
295,160,20522,2,0,L|142:147,1,150,0|0,3:0|3:0,0:0:0:0:
71,137,21000,1,0,3:0:0:0:
240,269,21160,2,0,L|322:259,2,75,8|8|0,3:2|3:2|0:0,0:0:0:0:
66,355,21639,6,0,P|35:277|146:201,1,225,4|0,3:2|0:0,0:0:0:0:
248,230,22277,2,0,L|259:146,2,75,0|0|8,3:0|3:0|3:2,0:0:0:0:
68,278,22756,2,0,P|5:215|46:146,1,150,0|0,3:0|3:0,0:0:0:0:
91,143,23234,1,8,3:2:0:0:
241,144,23554,1,0,3:0:0:0:
91,144,23873,1,8,3:2:0:0:
380,337,24192,5,0,3:0:0:0:
449,290,24351,1,0,3:0:0:0:
447,217,24511,1,8,3:2:0:0:
377,173,24671,1,0,0:0:0:0:
302,172,24830,1,0,3:0:0:0:
152,160,25149,2,0,L|242:138,1,75,8|0,3:2|3:0,0:0:0:0:
375,139,25628,2,0,L|460:149,2,75,0|8|0,3:0|3:2|0:0,0:0:0:0:
293,125,26107,1,0,3:0:0:0:
35,150,26426,1,8,3:2:0:0:
312,124,26745,6,0,L|475:136,1,150,4|8,3:2|3:2,0:0:0:0:
384,164,27224,1,0,0:0:0:0:
302,176,27383,1,0,3:0:0:0:
34,131,27702,1,8,3:2:0:0:
302,122,28022,5,0,3:0:0:0:
207,76,28341,2,0,L|48:67,1,150,8|0,3:2|3:0,0:0:0:0:
219,301,28819,2,0,P|267:246|203:193,1,150,8|8,3:0|3:0,0:0:0:0:
73,184,29298,5,4,3:2:0:0:
213,186,29617,1,8,3:2:0:0:
284,135,29777,1,8,3:2:0:0:
225,71,29937,1,8,3:2:0:0:
204,2,30096,1,0,3:0:0:0:
298,9,30256,1,0,3:0:0:0:
449,29,30415,5,4,3:2:0:0:
304,109,30734,2,0,L|224:99,1,75,0|8,3:0|3:2,0:0:0:0:
382,163,31213,2,0,L|383:244,1,75,8|8,3:0|3:0,0:0:0:0:
465,237,31532,2,0,L|466:342,1,75,0|0,3:0|3:0,0:0:0:0:
261,353,31851,6,0,P|207:316|243:233,1,150,4|0,3:2|0:0,0:0:0:0:
306,225,32330,1,0,3:0:0:0:
388,221,32490,1,8,3:2:0:0:
238,222,32809,1,0,3:0:0:0:
88,222,33128,5,0,0:0:0:0:
33,169,33288,1,8,3:2:0:0:
41,94,33447,1,0,3:0:0:0:
187,60,33766,1,8,3:2:0:0:
39,36,34085,2,0,L|124:32,1,75,0|0,3:0|3:0,0:0:0:0:
306,213,34405,5,4,3:2:0:0:
364,170,34564,1,0,3:0:0:0:
368,97,34724,1,0,3:0:0:0:
315,48,34883,1,0,3:0:0:0:
240,42,35043,1,8,3:2:0:0:
90,41,35362,1,0,3:0:0:0:
240,42,35681,6,0,L|390:42,2,150,0|0|8,0:0|3:0|3:2,0:0:0:0:
169,68,36479,1,8,3:2:0:0:
136,136,36639,1,8,3:2:0:0:
436,308,36958,6,0,P|502:251|447:135,1,225,4|0,3:2|3:0,0:0:0:0:
255,127,37596,1,8,3:2:0:0:
404,116,37915,2,0,L|321:103,1,75,0|0,3:0|3:0,0:0:0:0:
255,114,38234,2,0,L|159:98,1,75,0|8,3:0|3:2,0:0:0:0:
35,141,38713,1,0,3:0:0:0:
105,113,38873,2,0,L|266:127,1,150,8|0,3:2|3:0,0:0:0:0:
403,142,39511,6,0,P|451:81|398:23,1,150,4|0,3:2|0:0,0:0:0:0:
244,219,40149,2,0,L|411:220,1,150,8|0,3:2|3:0,0:0:0:0:
106,352,40788,2,0,L|104:176,1,150,4|4,3:2|3:2,0:0:0:0:
406,352,41426,2,0,L|408:176,1,150,4|8,3:2|3:2,0:0:0:0:
334,185,41905,1,0,3:0:0:0:
157,121,42064,6,0,P|97:114|34:38,2,150,4|8|0,3:2|3:2|3:0,0:0:0:0:
229,102,42862,1,0,3:0:0:0:
301,81,43022,1,8,3:2:0:0:
157,38,43341,5,0,3:0:0:0:
292,101,43660,2,0,L|388:113,1,75,8|0,3:2|3:0,0:0:0:0:
227,168,44139,2,0,L|126:182,1,75,0|8,3:0|3:2,0:0:0:0:
319,319,44617,5,0,3:0:0:0:
378,277,44777,1,0,3:0:0:0:
382,204,44937,1,8,3:2:0:0:
327,157,45096,1,0,3:0:0:0:
237,230,45256,1,0,3:0:0:0:
177,188,45415,1,0,3:0:0:0:
173,115,45575,1,8,3:2:0:0:
228,68,45734,1,0,3:0:0:0:
400,56,45894,6,0,L|402:206,1,150,12|8,3:2|3:2,0:0:0:0:
253,223,46532,2,0,L|430:217,1,150,8|8,3:2|3:2,0:0:0:0:
98,116,47171,5,4,3:2:0:0:
245,141,47490,2,0,L|336:129,2,75,0|0|8,0:0|3:0|3:2,0:0:0:0:
115,269,48128,1,4,3:2:0:0:
58,224,48288,1,0,0:0:0:0:
59,151,48447,1,4,3:2:0:0:
117,108,48607,1,0,3:0:0:0:
189,94,48766,2,0,L|265:88,1,75,0|0,0:0|3:0,0:0:0:0:
110,210,49085,2,0,L|139:369,1,150,8|0,3:2|3:0,0:0:0:0:
225,358,49564,1,0,3:0:0:0:
421,360,49724,5,4,3:2:0:0:
483,323,49883,1,0,3:0:0:0:
491,252,50043,1,0,3:0:0:0:
437,203,50202,1,8,3:0:0:0:
268,236,50362,1,8,3:0:0:0:
205,199,50522,1,0,3:0:0:0:
197,128,50681,1,2,0:0:0:0:
251,79,50841,1,0,3:0:0:0:
426,25,51000,6,0,L|426:184,1,150,8|8,3:2|3:2,0:0:0:0:
163,61,51639,2,0,L|9:63,1,150,8|8,3:2|3:2,0:0:0:0:
156,107,52277,5,4,3:2:0:0:
156,107,52596,1,8,3:0:0:0:
337,73,52915,1,8,3:0:0:0:
399,108,53075,1,8,3:0:0:0:
404,179,53234,1,8,3:0:0:0:
346,222,53394,1,8,3:0:0:0:
170,330,53554,6,0,P|109:281|147:197,1,150,4|8,3:2|3:2,0:0:0:0:
192,196,54032,1,0,3:0:0:0:
341,192,54351,2,0,L|423:192,1,75,0|8,3:0|3:2,0:0:0:0:
268,161,54830,1,0,3:0:0:0:
227,100,54990,1,0,3:0:0:0:
248,31,55149,1,8,3:2:0:0:
315,3,55309,1,0,3:0:0:0:
463,34,55628,2,0,L|470:119,1,75,0|8,3:0|3:2,0:0:0:0:
395,122,55947,1,0,0:0:0:0:
202,143,56107,6,0,L|51:137,1,150,0|12,3:0|3:2,0:0:0:0:
123,116,56585,1,0,0:0:0:0:
302,162,56745,2,0,L|453:156,1,150,0|12,3:0|3:2,0:0:0:0:
381,135,57224,1,0,0:0:0:0:
207,323,57383,6,0,L|196:237,1,75,4|0,3:2|3:0,0:0:0:0:
306,242,57702,2,0,L|320:158,1,75,12|0,3:2|3:0,0:0:0:0:
150,205,58022,2,0,P|101:164|141:70,1,150,4|8,3:2|3:0,0:0:0:0:
187,66,58500,1,8,3:0:0:0:
364,57,58660,6,0,P|415:96|374:182,1,150,4|8,3:2|3:2,0:0:0:0:
322,188,59139,1,0,3:0:0:0:
174,216,59458,2,0,L|258:205,1,75,0|8,3:0|3:2,0:0:0:0:
398,197,59937,6,0,L|488:212,2,75,0|0|8,3:0|3:0|3:2,0:0:0:0:
322,184,60415,1,0,3:0:0:0:
153,210,60734,2,0,L|58:194,1,75,0|8,3:0|3:2,0:0:0:0:
306,303,61213,6,0,L|467:283,1,150,0|12,3:0|3:2,0:0:0:0:
369,265,61692,1,0,0:0:0:0:
181,234,61851,2,0,L|20:214,1,150,0|12,3:0|3:2,0:0:0:0:
106,197,62330,1,0,0:0:0:0:
289,238,62490,5,4,3:2:0:0:
349,199,62649,1,8,3:0:0:0:
351,127,62809,1,8,3:2:0:0:
293,84,62968,2,0,L|136:77,1,150,8|8,3:0|3:0,0:0:0:0:
68,71,63447,1,8,3:2:0:0:
323,148,63766,6,0,L|486:132,1,150,4|8,3:2|3:2,0:0:0:0:
399,115,64245,1,0,3:0:0:0:
250,94,64564,2,0,L|162:80,1,75,0|8,3:0|3:2,0:0:0:0:
341,138,65043,1,0,3:0:0:0:
403,173,65202,1,0,3:0:0:0:
410,245,65362,1,8,3:2:0:0:
355,292,65522,1,0,3:0:0:0:
198,300,65841,2,0,L|108:291,2,75,0|8|0,3:0|3:2|0:0,0:0:0:0:
369,355,66319,6,0,L|374:200,1,150,0|12,3:0|3:2,0:0:0:0:
299,191,66798,1,0,0:0:0:0:
119,283,66958,2,0,L|114:128,1,150,0|12,3:0|3:2,0:0:0:0:
189,119,67437,1,0,0:0:0:0:
396,200,67596,5,4,3:2:0:0:
454,157,67756,1,0,3:0:0:0:
453,85,67915,1,12,3:2:0:0:
394,44,68075,1,0,3:0:0:0:
222,34,68234,2,0,L|71:26,1,150,8|8,3:2|3:2,0:0:0:0:
142,52,68713,1,8,3:0:0:0:
318,81,68873,6,0,L|319:246,1,150,4|8,3:2|3:2,0:0:0:0:
244,236,69351,1,0,3:0:0:0:
93,238,69671,2,0,L|170:228,1,75,0|8,3:0|3:2,0:0:0:0:
332,317,70149,5,0,3:0:0:0:
391,275,70309,1,0,3:0:0:0:
394,203,70468,1,8,3:2:0:0:
339,156,70628,1,0,3:0:0:0:
189,122,70947,2,0,L|97:134,2,75,0|8|0,3:0|3:2|0:0,0:0:0:0:
340,67,71426,6,0,L|504:78,1,150,0|12,3:0|3:2,0:0:0:0:
420,47,71905,1,0,0:0:0:0:
261,163,72064,2,0,L|256:82,1,75,0|0,3:0|3:0,0:0:0:0:
352,261,72383,2,0,L|362:183,1,75,12|0,3:2|0:0,0:0:0:0:
161,352,72702,5,8,3:0:0:0:
92,324,72862,1,0,3:0:0:0:
48,265,73022,1,8,3:0:0:0:
43,191,73181,1,0,3:0:0:0:
78,126,73341,1,0,3:0:0:0:
143,90,73500,1,0,3:0:0:0:
301,89,73660,2,0,L|378:89,1,75,12|0,3:2|0:0,0:0:0:0:
189,172,73979,6,0,L|39:172,1,150,4|8,3:2|3:2,0:0:0:0:
111,151,74458,1,0,3:0:0:0:
260,165,74777,2,0,L|341:164,2,75,0|8|0,3:0|3:2|0:0,0:0:0:0:
184,165,75256,2,0,P|114:156|74:67,2,150,0|8|0,3:0|3:2|3:0,0:0:0:0:
259,161,76054,1,0,3:0:0:0:
333,157,76213,1,8,3:2:0:0:
42,341,76532,6,0,L|42:170,1,150,4|8,3:2|3:2,0:0:0:0:
116,183,77011,1,0,0:0:0:0:
264,203,77330,2,0,L|343:196,1,75,0|8,0:0|3:2,0:0:0:0:
488,182,77809,1,4,3:2:0:0:
192,128,78128,2,0,L|9:107,2,150,8|0|8,3:2|3:0|3:0,0:0:0:0:
266,118,78926,1,0,3:0:0:0:
338,100,79085,5,4,3:2:0:0:
178,34,79405,1,8,3:2:0:0:
114,67,79564,1,0,0:0:0:0:
108,138,79724,1,0,3:0:0:0:
165,182,79883,1,0,3:0:0:0:
240,182,80043,1,8,3:2:0:0:
389,180,80362,2,0,L|391:337,1,150,4|8,3:2|3:0,0:0:0:0:
241,337,81000,2,0,L|406:331,1,150,0|8,3:0|3:2,0:0:0:0:
66,278,81639,6,0,L|56:117,1,150,4|0,3:2|0:0,0:0:0:0:
196,73,82277,1,0,0:0:0:0:
46,57,82596,2,0,L|135:40,1,75
292,111,82915,2,0,L|386:123,2,75,8|8|8,3:0|3:0|3:0,0:0:0:0:
133,167,83394,1,8,3:0:0:0:
277,205,83713,2,0,L|366:192,1,75,0|4,3:0|3:2,0:0:0:0:
227,279,84192,5,4,3:2:0:0:
152,271,84351,1,8,3:0:0:0:
77,263,84511,1,8,3:0:0:0:
151,250,84671,1,12,3:0:0:0:
300,235,84990,2,0,L|376:255,1,75,0|0,3:0|3:0,0:0:0:0:
301,230,85309,6,0,L|147:241,1,150,2|8,3:0|3:0,0:0:0:0:
76,248,85788,1,8,3:2:0:0:
150,239,85947,1,8,3:0:0:0:
224,229,86107,1,2,3:0:0:0:
373,214,86426,1,2,3:0:0:0:
93,158,86745,5,12,3:0:0:0:
73,84,86905,1,8,3:0:0:0:
139,25,87064,1,8,3:0:0:0:
307,28,87224,1,4,3:2:0:0:
