osu file format v14

[General]
AudioFilename: audio.mp3
AudioLeadIn: 0
PreviewTime: 53101
Countdown: 0
SampleSet: Soft
StackLeniency: 0.7
Mode: 2
LetterboxInBreaks: 0
WidescreenStoryboard: 1

[Editor]
DistanceSpacing: 1.1
BeatDivisor: 4
GridSize: 32
TimelineZoom: 2.4

[Metadata]
Title:COOLEST (TV Size)
TitleUnicode:COOLEST (TV Size)
Artist:CustomiZ
ArtistUnicode:カスタマイZ
Creator:Ascendance
Version:RAIN
Source:坂本ですが?
Tags:op opening anime japanese jrock sakamoto desu ga jorkseljund bastian -joni- spectator baron KeRLi_ Greaper havent you heard im haven't i'm
BeatmapID:2615427
BeatmapSetID:1258175

[Difficulty]
HPDrainRate:5
CircleSize:4
OverallDifficulty:9
ApproachRate:9
SliderMultiplier:1.9
SliderTickRate:2

[Events]
//Background and Video events
0,0,"cropped-1920-1080-759660.jpg",0,0
//Break Periods
//Storyboard Layer 0 (Background)
//Storyboard Layer 1 (Fail)
//Storyboard Layer 2 (Pass)
//Storyboard Layer 3 (Foreground)
//Storyboard Layer 4 (Overlay)
//Storyboard Sound Samples

[TimingPoints]
-63,319.148936170213,4,2,1,80,1,0
-63,-100,4,2,1,80,0,0
3447,-100,4,2,1,80,0,0
3766,-100,4,2,1,80,0,0
6559,-100,4,2,1,5,0,0
6639,-100,4,2,1,80,0,0
10708,-100,4,2,1,5,0,0
10788,-100,4,2,1,80,0,0
11027,-100,4,2,1,5,0,0
11107,-100,4,2,1,80,0,0
11346,-100,4,2,1,5,0,0
11426,-100,4,2,1,70,0,0
11665,-100,4,2,1,5,0,0
11745,-100,4,2,1,70,0,0
14218,-100,4,2,1,5,0,0
14298,-100,4,2,1,70,0,0
17889,-100,4,2,1,5,0,0
17968,-100,4,2,1,70,0,0
20442,-100,4,2,1,5,0,0
20522,-100,4,2,1,70,0,0
21559,-100,4,2,1,5,0,0
21639,-100,4,2,1,70,0,0
24112,-100,4,2,1,5,0,0
24192,-100,4,2,1,70,0,0
26665,-100,4,2,1,5,0,0
26745,-100,4,2,1,70,0,0
27304,-100,4,2,1,5,0,0
27383,-100,4,2,1,70,0,0
27942,-100,4,2,1,5,0,0
28022,-100,4,2,1,70,0,0
41027,-100,4,2,1,5,0,0
41107,-100,4,2,1,75,0,0
41346,-100,4,2,1,5,0,0
41426,-100,4,2,1,80,0,0
41665,-100,4,2,1,5,0,0
41745,-100,4,2,1,85,0,0
41905,-100,4,2,1,70,0,0
43261,-100,4,2,1,5,0,0
43341,-100,4,2,1,70,0,0
53554,-100,4,2,1,90,0,1
58899,-100,4,2,1,5,0,1
58979,-100,4,2,1,90,0,1
64006,-100,4,2,1,5,0,1
64085,-100,4,2,1,90,0,1
71984,-100,4,2,1,5,0,1
72064,-100,4,2,1,90,0,1
72623,-100,4,2,1,5,0,1
72702,-100,4,2,1,90,0,1
73899,-100,4,2,1,5,0,1
73979,-100,4,2,1,80,0,0
76452,-100,4,2,1,5,0,0
76532,-100,4,2,1,80,0,0
78048,-100,4,2,1,5,0,0
78128,-100,4,2,1,80,0,0
79325,-100,4,2,1,5,0,0
79405,-100,4,2,1,80,0,0
81878,-100,4,2,1,5,0,0
81958,-100,4,2,1,80,0,0
84192,-100,4,2,1,90,0,0
87543,-100,4,2,1,5,0,0

[Colours]
Combo1 : 236,44,44
Combo2 : 236,142,142
Combo3 : 109,102,102

[HitObjects]
173,289,575,5,8,3:0:0:0:
119,266,655,1,8,3:0:0:0:
115,220,734,1,8,3:0:0:0:
165,189,814,1,8,3:0:0:0:
327,202,894,1,8,3:0:0:0:
381,179,974,1,8,3:0:0:0:
385,133,1054,1,8,3:0:0:0:
335,102,1133,1,8,3:0:0:0:
134,27,1213,6,0,P|68:91|145:143,1,190,4|0,3:2|0:0,0:0:0:0:
243,149,1692,1,0,0:0:0:0:
42,174,2011,2,0,L|148:174,1,95
291,253,2330,2,0,L|71:251,1,190
236,280,2809,2,0,L|235:385,1,95
109,280,3128,2,0,L|110:149,1,95
366,219,3447,2,0,P|419:155|357:117,1,142.5,4|0,3:2|0:0,0:0:0:0:
180,142,3766,6,0,P|109:88|174:10,1,190,4|0,3:2|0:0,0:0:0:0:
328,235,4245,2,0,L|127:226,1,190
261,355,4724,2,0,L|379:342,1,95
111,247,5043,5,8,3:2:0:0:
350,263,5202,2,0,P|443:229|468:113,2,190,4|4|8,3:2|3:2|3:2,0:0:0:0:
79,320,6000,2,0,L|76:209,1,95,8|8,3:2|3:2,0:0:0:0:
297,364,6319,6,0,L|315:289,1,47.5,8|0,3:0|0:0,0:0:0:0:
226,296,6479,2,0,L|213:246,1,47.5,0|0,0:0|3:0,0:0:0:0:
308,249,6639,1,8,3:0:0:0:
358,216,6718,1,0,3:0:0:0:
356,169,6798,1,0,3:0:0:0:
305,139,6878,1,0,3:0:0:0:
213,170,6958,6,0,L|199:102,1,47.5,8|0,3:0|3:0,0:0:0:0:
115,142,7117,2,0,L|106:74,1,47.5,0|0,3:0|3:0,0:0:0:0:
209,117,7277,1,8,3:0:0:0:
249,139,7357,1,0,3:0:0:0:
260,184,7437,1,0,3:0:0:0:
236,223,7516,1,0,3:0:0:0:
41,335,7596,5,8,3:0:0:0:
41,288,7676,1,0,3:0:0:0:
66,248,7756,1,0,3:0:0:0:
108,228,7835,1,0,3:0:0:0:
311,229,7915,1,8,3:0:0:0:
356,216,7995,1,0,3:0:0:0:
386,180,8075,1,0,3:0:0:0:
391,134,8155,1,0,3:0:0:0:
194,107,8234,1,8,3:0:0:0:
154,84,8314,1,0,3:0:0:0:
147,39,8394,1,0,3:0:0:0:
180,6,8474,1,0,3:0:0:0:
333,110,8554,2,0,L|394:110,1,47.5,8|0,3:0|3:0,0:0:0:0:
196,136,8713,2,0,L|125:137,1,47.5,0|0,3:0|3:0,0:0:0:0:
393,213,8873,5,4,3:2:0:0:
290,285,9032,2,0,L|270:210,2,47.5,10|8|10,3:0|3:0|3:0,0:0:0:0:
414,202,9351,2,0,L|180:182,1,190,4|2,3:2|3:0,0:0:0:0:
343,109,9830,1,10,3:0:0:0:
61,191,9990,1,4,3:2:0:0:
180,223,10149,1,8,3:0:0:0:
132,216,10229,1,8,3:0:0:0:
85,210,10309,1,8,3:0:0:0:
241,333,10468,2,0,L|406:306,1,142.5,4|0,3:2|0:0,0:0:0:0:
151,227,10788,1,4,3:2:0:0:
314,174,11107,2,0,L|440:191,1,95,2|0,0:0|0:0,0:0:0:0:
186,38,11426,6,0,P|124:113|206:165,1,190,4|8,3:2|3:2,0:0:0:0:
314,261,11905,2,0,L|326:157,1,95,0|0,0:0|3:0,0:0:0:0:
168,261,12224,1,0,3:0:0:0:
314,283,12383,1,8,3:2:0:0:
150,265,12543,2,0,L|138:372,1,95,0|0,3:0|0:0,0:0:0:0:
281,219,12862,2,0,L|380:212,2,95,0|8|0,3:0|3:2|0:0,0:0:0:0:
156,139,13341,2,0,L|143:249,1,95,0|0,3:0|3:0,0:0:0:0:
297,114,13660,2,0,L|400:93,1,95,8|0,3:2|0:0,0:0:0:0:
106,30,13979,6,0,L|93:219,1,190,0|8,3:2|3:2,0:0:0:0:
229,146,14458,1,0,0:0:0:0:
71,244,14617,2,0,L|198:227,2,95,0|0|8,3:0|3:0|3:2,0:0:0:0:
216,142,15096,2,0,P|309:164|330:255,1,190,0|0,3:0|3:0,0:0:0:0:
236,352,15575,2,0,L|233:246,1,95,8|0,3:2|0:0,0:0:0:0:
467,190,15894,2,0,L|257:167,1,190,0|8,3:0|3:2,0:0:0:0:
134,188,16373,2,0,L|67:179,1,47.5
234,303,16532,6,0,L|427:278,1,190,4|8,3:2|3:2,0:0:0:0:
285,202,17011,1,0,0:0:0:0:
155,136,17171,2,0,L|144:250,1,95,0|0,3:0|3:0,0:0:0:0:
272,124,17490,1,8,3:2:0:0:
94,52,17649,6,0,L|203:35,1,95,0|0,3:0|0:0,0:0:0:0:
349,222,17968,2,0,L|149:197,1,190,0|0,3:0|0:0,0:0:0:0:
318,91,18447,2,0,L|323:191,1,95,0|0,3:0|3:0,0:0:0:0:
172,50,18766,2,0,L|52:41,1,95,8|0,3:2|0:0,0:0:0:0:
215,142,19085,5,4,3:2:0:0:
336,127,19245,1,0,0:0:0:0:
197,152,19405,2,0,L|189:265,1,95,8|0,3:2|0:0,0:0:0:0:
345,192,19724,2,0,L|452:175,2,95,0|0|8,3:0|3:0|3:2,0:0:0:0:
128,80,20202,6,0,L|343:103,2,190,0|0|0,3:0|3:0|3:0,0:0:0:0:
251,51,21000,1,0,3:0:0:0:
26,147,21160,2,0,L|161:122,2,95,8|8|0,3:2|3:2|0:0,0:0:0:0:
300,303,21639,6,0,P|366:242|301:165,1,190,4|8,3:2|3:2,0:0:0:0:
191,165,22117,1,0,0:0:0:0:
311,58,22277,2,0,L|308:179,1,95,0|0,3:0|3:0,0:0:0:0:
174,159,22596,1,8,3:2:0:0:
437,230,22756,6,0,L|217:206,1,190,0|0,3:0|3:0,0:0:0:0:
97,350,23234,2,0,L|226:334,1,95,8|0,3:2|0:0,0:0:0:0:
355,246,23554,2,0,L|226:225,1,95,0|0,3:0|3:0,0:0:0:0:
96,100,23873,2,0,L|92:270,1,142.5,8|0,3:2|0:0,0:0:0:0:
322,74,24192,6,0,L|450:62,1,95,0|0,3:0|3:0,0:0:0:0:
292,203,24511,2,0,L|195:194,1,95,8|0,3:2|0:0,0:0:0:0:
467,356,24830,2,0,L|475:158,1,190,0|8,3:0|3:2,0:0:0:0:
310,269,25309,2,0,P|239:185|295:130,1,190,0|0,3:0|3:0,0:0:0:0:
422,61,25788,2,0,L|423:180,1,95,8|0,3:2|0:0,0:0:0:0:
271,75,26107,2,0,L|191:64,1,47.5,0|0,3:0|3:0,0:0:0:0:
271,75,26266,2,0,L|327:68,1,47.5,0|0,3:0|3:0,0:0:0:0:
163,176,26426,2,0,L|19:162,1,142.5,8|0,3:2|0:0,0:0:0:0:
221,315,26745,6,0,L|330:299,1,95,4|0,3:2|0:0,0:0:0:0:
34,328,27064,2,0,L|29:207,1,95,8|0,3:2|0:0,0:0:0:0:
142,192,27383,1,0,3:0:0:0:
291,202,27543,1,0,3:0:0:0:
116,187,27702,2,0,L|106:83,1,95,8|0,3:2|0:0,0:0:0:0:
261,187,28022,6,0,L|270:296,1,95,0|0,3:0|3:0,0:0:0:0:
44,134,28341,2,0,L|152:106,2,95,8|0|0,3:2|0:0|3:0,0:0:0:0:
325,55,28819,1,8,3:0:0:0:
277,50,28899,1,8,3:0:0:0:
230,45,28979,1,8,3:2:0:0:
183,40,29059,1,8,3:0:0:0:
136,35,29139,1,8,3:0:0:0:
426,156,29298,5,4,3:2:0:0:
231,228,29617,1,8,3:2:0:0:
351,220,29777,1,8,3:2:0:0:
354,267,29857,1,8,3:2:0:0:
357,314,29937,1,8,3:2:0:0:
231,228,30096,1,0,3:0:0:0:
351,220,30256,1,0,3:0:0:0:
103,334,30415,6,0,P|40:259|113:181,1,190,4|0,3:2|3:0,0:0:0:0:
131,180,30814,1,0,3:0:0:0:
304,166,30894,1,8,3:2:0:0:
154,178,31054,2,0,L|139:232,2,47.5,8|8|8,3:0|3:0|3:0,0:0:0:0:
256,154,31373,1,8,3:0:0:0:
364,195,31532,1,0,3:0:0:0:
346,315,31692,1,0,3:0:0:0:
62,341,31851,6,0,P|34:258|142:187,1,190,4|0,3:2|0:0,0:0:0:0:
212,179,32330,1,0,3:0:0:0:
468,177,32490,2,0,L|470:291,1,95,8|0,3:2|0:0,0:0:0:0:
343,148,32809,1,0,3:0:0:0:
465,122,32968,1,0,3:0:0:0:
309,327,33128,5,0,0:0:0:0:
263,313,33208,1,0,0:0:0:0:
228,282,33288,1,8,3:2:0:0:
208,239,33367,1,0,0:0:0:0:
208,192,33447,1,0,3:0:0:0:
227,149,33527,1,0,0:0:0:0:
262,118,33607,1,0,3:0:0:0:
307,104,33687,1,0,0:0:0:0:
351,105,33766,2,0,L|452:98,1,95,8|0,3:2|0:0,0:0:0:0:
291,231,34085,2,0,L|424:217,1,95,0|0,3:0|3:0,0:0:0:0:
116,81,34405,5,4,3:2:0:0:
253,112,34564,1,0,3:0:0:0:
106,90,34724,2,0,L|103:209,1,95,0|0,3:0|3:0,0:0:0:0:
381,302,35043,2,0,L|381:189,1,95,8|0,3:2|3:0,0:0:0:0:
266,308,35362,1,0,3:0:0:0:
386,325,35522,1,0,3:0:0:0:
258,290,35681,6,0,L|148:303,1,95,0|8,0:0|3:2,0:0:0:0:
360,183,36000,2,0,L|362:290,1,95,0|0,3:0|3:0,0:0:0:0:
209,162,36319,2,0,L|110:155,1,95,8|8,3:2|3:2,0:0:0:0:
234,270,36639,2,0,L|111:265,1,95,8|0,3:2|0:0,0:0:0:0:
395,340,36958,6,0,P|463:297|409:188,1,190,4|0,3:2|0:0,0:0:0:0:
331,188,37437,1,0,3:0:0:0:
166,286,37596,2,0,L|261:267,1,95,8|0,3:2|0:0,0:0:0:0:
409,338,37915,2,0,L|415:227,1,95,0|0,3:0|3:0,0:0:0:0:
270,260,38234,6,0,P|212:216|267:117,1,190,0|0,3:0|3:0,0:0:0:0:
369,111,38713,1,0,3:0:0:0:
227,38,38873,2,0,L|435:19,1,190,8|0,3:2|3:0,0:0:0:0:
400,128,39351,1,0,0:0:0:0:
40,200,39511,6,0,L|40:308,1,95,4|0,3:2|3:0,0:0:0:0:
165,126,39830,2,0,L|165:237,1,95,0|0,0:0|3:0,0:0:0:0:
291,83,40149,2,0,L|291:191,1,95,8|0,3:2|3:0,0:0:0:0:
416,9,40468,2,0,L|416:120,1,95,0|0,3:0|3:0,0:0:0:0:
136,49,40788,6,0,L|364:71,2,190,4|4|4,3:2|3:2|3:2,0:0:0:0:
301,183,41745,2,0,L|415:166,1,95,8|0,3:2|3:0,0:0:0:0:
122,337,42064,6,0,P|57:306|87:192,1,190,4|8,3:2|3:2,0:0:0:0:
186,185,42543,1,0,0:0:0:0:
54,115,42702,2,0,L|53:222,1,95,0|0,3:0|3:0,0:0:0:0:
177,75,43022,2,0,L|61:61,1,95,8|0,3:2|0:0,0:0:0:0:
326,213,43341,6,0,L|431:195,2,95,0|0|8,3:0|3:0|3:2,0:0:0:0:
189,309,43819,2,0,L|389:330,1,190,0|0,3:0|3:0,0:0:0:0:
240,196,44298,2,0,L|82:218,1,142.5,8|0,3:2|0:0,0:0:0:0:
342,253,44617,6,0,L|354:134,1,95,0|0,3:0|3:0,0:0:0:0:
217,247,44937,2,0,L|202:377,1,95,8|0,3:2|3:0,0:0:0:0:
348,260,45256,1,0,3:0:0:0:
173,248,45415,2,0,P|114:197|161:105,1,190,0|0,3:0|3:0,0:0:0:0:
404,166,45894,5,12,3:2:0:0:
446,148,45974,1,0,0:0:0:0:
458,104,46054,1,0,3:0:0:0:
431,67,46133,1,0,3:0:0:0:
270,305,46213,1,8,3:2:0:0:
227,287,46293,1,0,0:0:0:0:
215,243,46373,1,0,3:0:0:0:
242,206,46452,1,0,3:0:0:0:
439,288,46532,6,0,L|443:163,1,95,8|8,3:2|3:0,0:0:0:0:
389,185,46772,1,8,3:0:0:0:
181,187,46851,2,0,L|177:62,1,95,8|8,3:2|3:0,0:0:0:0:
231,84,47091,1,8,3:0:0:0:
445,50,47171,5,4,3:2:0:0:
212,81,47490,2,0,L|110:70,1,95,0|0,0:0|3:0,0:0:0:0:
231,198,47809,2,0,L|388:176,1,142.5,8|0,3:2|0:0,0:0:0:0:
220,319,48128,2,0,L|117:306,1,95,4|0,3:2|0:0,0:0:0:0:
313,356,48447,5,4,3:2:0:0:
391,310,48607,1,0,3:0:0:0:
395,219,48766,1,0,0:0:0:0:
320,167,48926,1,0,3:0:0:0:
80,234,49085,1,8,3:2:0:0:
21,168,49245,1,8,3:0:0:0:
34,123,49325,1,8,3:0:0:0:
71,96,49405,1,0,3:0:0:0:
184,88,49564,1,0,3:0:0:0:
415,92,49724,6,0,L|415:202,1,95,4|0,3:2|3:0,0:0:0:0:
277,74,50043,2,0,L|161:59,1,95,0|8,3:0|3:0,0:0:0:0:
233,49,50282,1,8,3:0:0:0:
450,39,50362,2,0,L|452:150,1,95,8|0,3:0|3:0,0:0:0:0:
325,142,50681,2,0,L|324:251,1,95,2|0,0:0|3:0,0:0:0:0:
48,77,51000,6,0,L|175:52,1,95,8|8,3:2|3:0,0:0:0:0:
435,200,51319,2,0,L|440:72,1,95,8|8,3:2|3:0,0:0:0:0:
173,266,51639,2,0,L|61:256,1,95,8|8,3:2|3:0,0:0:0:0:
331,325,51958,2,0,L|463:338,1,95,8|8,3:2|3:0,0:0:0:0:
204,352,52277,5,4,3:2:0:0:
158,340,52357,1,0,0:0:0:0:
120,312,52437,1,0,3:0:0:0:
98,270,52516,1,0,0:0:0:0:
95,223,52596,1,8,3:0:0:0:
111,179,52676,1,0,0:0:0:0:
144,145,52756,1,0,3:0:0:0:
188,128,52835,1,0,0:0:0:0:
362,128,52915,2,0,L|415:128,1,47.5,8|8,3:0|3:0,0:0:0:0:
186,146,53075,2,0,L|121:147,1,47.5,8|8,3:0|3:0,0:0:0:0:
377,267,53234,1,8,3:0:0:0:
415,243,53314,1,8,3:0:0:0:
417,197,53394,1,8,3:0:0:0:
380,171,53474,1,8,3:0:0:0:
147,346,53554,6,0,P|89:279|162:212,1,190,4|8,3:2|3:2,0:0:0:0:
279,346,54032,2,0,P|337:279|264:212,1,190,0|0,3:0|3:0,0:0:0:0:
137,141,54511,2,0,L|136:247,1,95,8|0,3:2|0:0,0:0:0:0:
341,85,54830,5,0,3:0:0:0:
224,157,54990,2,0,L|223:58,1,95,0|8,3:0|3:2,0:0:0:0:
381,262,55309,2,0,P|442:209|379:130,1,190,0|0,3:0|3:0,0:0:0:0:
265,132,55788,1,8,3:2:0:0:
383,128,55947,1,0,0:0:0:0:
235,130,56107,6,0,L|122:130,1,95,0|0,3:0|3:0,0:0:0:0:
427,210,56426,2,0,L|427:309,1,95,12|0,3:2|0:0,0:0:0:0:
283,171,56745,2,0,L|407:171,1,95,0|0,3:0|3:0,0:0:0:0:
84,320,57064,2,0,L|86:195,1,95,12|0,3:2|0:0,0:0:0:0:
315,270,57383,6,0,L|415:271,1,95,4|0,3:2|3:0,0:0:0:0:
214,189,57702,2,0,L|110:189,1,95,12|0,3:2|3:0,0:0:0:0:
367,357,58022,2,0,P|441:311|379:219,1,190,4|8,3:2|3:0,0:0:0:0:
295,204,58500,1,8,3:0:0:0:
29,273,58660,6,0,P|26:194|119:133,1,190,4|8,3:2|3:2,0:0:0:0:
267,68,59139,2,0,L|68:47,1,190,0|0,3:0|3:0,0:0:0:0:
215,182,59617,2,0,L|348:162,1,95,8|0,3:2|0:0,0:0:0:0:
46,278,59937,6,0,L|176:292,2,95,0|0|8,3:0|3:0|3:2,0:0:0:0:
192,364,60415,2,0,P|251:309|188:228,1,190,0|0,3:0|3:0,0:0:0:0:
50,149,60894,2,0,L|56:266,1,95,8|0,3:2|0:0,0:0:0:0:
192,181,61213,6,0,L|300:166,1,95,0|0,3:0|3:0,0:0:0:0:
32,70,61532,2,0,L|33:178,1,95,12|0,3:2|0:0,0:0:0:0:
149,47,61851,2,0,L|44:36,1,95,0|0,3:0|3:0,0:0:0:0:
333,172,62171,2,0,L|429:155,1,95,12|0,3:2|0:0,0:0:0:0:
131,255,62490,5,4,3:2:0:0:
266,334,62649,1,8,3:0:0:0:
308,315,62729,1,8,3:0:0:0:
327,273,62809,1,8,3:2:0:0:
314,228,62889,1,0,0:0:0:0:
274,204,62968,1,8,3:0:0:0:
131,202,63128,1,8,3:2:0:0:
270,201,63288,2,0,L|324:201,2,47.5,8|8|8,3:0|3:0|3:2,0:0:0:0:
124,195,63607,2,0,L|191:195,1,47.5,8|8,3:0|3:0,0:0:0:0:
397,258,63766,6,0,P|464:201|400:125,1,190,4|8,3:2|3:2,0:0:0:0:
274,329,64245,2,0,P|207:272|271:196,1,190,0|0,3:0|3:0,0:0:0:0:
405,210,64724,2,0,P|454:156|399:107,1,142.5,8|0,3:2|0:0,0:0:0:0:
246,59,65043,6,0,L|132:80,2,95,0|0|8,3:0|3:0|3:2,0:0:0:0:
100,161,65522,2,0,L|311:178,1,190,0|0,3:0|3:0,0:0:0:0:
148,274,66000,2,0,L|38:283,1,95,8|0,3:2|0:0,0:0:0:0:
212,359,66319,6,0,L|323:343,1,95,0|0,3:0|3:0,0:0:0:0:
40,232,66639,2,0,L|149:211,1,95,12|0,3:2|0:0,0:0:0:0:
263,227,66958,2,0,L|364:210,1,95,0|0,3:0|3:0,0:0:0:0:
74,72,67277,2,0,L|66:183,1,95,12|0,3:2|0:0,0:0:0:0:
308,68,67596,6,0,L|404:53,1,95,4|0,3:2|3:0,0:0:0:0:
253,163,67915,2,0,L|133:151,1,95,12|0,3:2|3:0,0:0:0:0:
392,339,68234,1,8,3:2:0:0:
433,315,68314,1,8,3:0:0:0:
462,278,68394,1,8,3:0:0:0:
476,233,68474,1,8,3:0:0:0:
472,186,68554,1,8,3:2:0:0:
452,144,68633,1,8,3:0:0:0:
417,112,68713,1,8,3:0:0:0:
372,95,68793,1,8,3:0:0:0:
173,273,68873,6,0,P|102:195|167:127,1,190,4|8,3:2|3:2,0:0:0:0:
264,108,69351,2,0,L|40:88,1,190,0|0,3:0|3:0,0:0:0:0:
204,229,69830,2,0,L|339:213,1,95,8|0,3:2|0:0,0:0:0:0:
45,350,70149,6,0,L|32:237,1,95,0|0,3:0|3:0,0:0:0:0:
134,214,70468,1,8,3:2:0:0:
325,210,70628,2,0,L|121:190,1,190,0|0,3:0|3:0,0:0:0:0:
277,116,71107,2,0,L|396:93,1,95,8|0,3:2|0:0,0:0:0:0:
234,209,71426,6,0,L|135:199,1,95,0|0,3:0|3:0,0:0:0:0:
408,223,71745,2,0,L|411:328,1,95,12|0,3:2|0:0,0:0:0:0:
293,153,72064,2,0,L|392:134,1,95,0|0,3:0|3:0,0:0:0:0:
148,295,72383,2,0,L|39:281,1,95,12|0,3:2|0:0,0:0:0:0:
346,344,72702,5,8,3:0:0:0:
387,323,72782,1,0,3:0:0:0:
406,281,72862,1,0,3:0:0:0:
393,236,72942,1,0,3:0:0:0:
354,210,73022,1,8,3:0:0:0:
222,206,73181,1,0,3:0:0:0:
92,210,73341,1,0,3:0:0:0:
52,186,73421,1,0,3:0:0:0:
45,140,73500,1,0,3:0:0:0:
76,106,73580,1,0,3:0:0:0:
242,89,73660,2,0,L|305:83,1,47.5,12|0,3:2|0:0,0:0:0:0:
103,39,73819,2,0,L|54:32,1,47.5
275,92,73979,6,0,L|472:105,1,190,4|8,3:2|3:2,0:0:0:0:
365,136,74458,1,0,3:0:0:0:
236,233,74617,2,0,L|232:111,1,95,0|0,0:0|3:0,0:0:0:0:
468,250,74937,2,0,L|472:362,1,95,8|0,3:2|0:0,0:0:0:0:
327,207,75256,6,0,B|260:230|260:230|134:197,2,190,0|8|0,3:0|3:2|3:0,0:0:0:0:
212,162,76054,1,0,3:0:0:0:
378,165,76213,2,0,L|386:278,1,95,8|0,3:2|0:0,0:0:0:0:
135,63,76532,6,0,L|351:39,1,190,4|8,3:2|3:2,0:0:0:0:
199,172,77011,2,0,L|83:157,2,95,0|4|0,0:0|3:2|0:0,0:0:0:0:
446,248,77490,2,0,P|492:192|426:151,1,142.5,8|0,3:2|0:0,0:0:0:0:
217,306,77809,6,0,L|91:313,1,95,4|0,3:2|0:0,0:0:0:0:
417,349,78128,2,0,L|436:218,1,95,8|0,3:2|3:0,0:0:0:0:
251,229,78447,2,0,L|263:109,1,95,0|8,3:0|3:0,0:0:0:0:
313,130,78687,1,8,3:0:0:0:
481,104,78766,2,0,L|417:93,1,47.5,8|0,3:0|3:0,0:0:0:0:
226,108,78926,2,0,L|159:95,1,47.5,0|0,3:0|3:0,0:0:0:0:
346,217,79085,6,0,L|491:186,1,142.5,4|0,3:2|0:0,0:0:0:0:
296,335,79405,2,0,L|201:323,1,95,8|0,3:2|0:0,0:0:0:0:
52,209,79724,2,0,L|162:187,1,95,0|0,3:0|3:0,0:0:0:0:
297,77,80043,2,0,L|302:223,1,142.5,8|0,3:2|0:0,0:0:0:0:
125,49,80362,6,0,P|41:31|5:34,1,95,4|0,3:2|3:0,0:0:0:0:
316,257,80681,2,0,P|375:272|422:262,1,95,8|0,3:0|3:0,0:0:0:0:
253,126,81000,2,0,L|238:191,3,47.5,0|0|0|0,3:0|0:0|3:0|3:0,0:0:0:0:
461,62,81319,2,0,L|367:46,1,95,8|0,3:2|0:0,0:0:0:0:
97,260,81639,6,0,L|290:239,2,190,4|0|0,3:2|0:0|0:0,0:0:0:0:
220,119,82596,2,0,L|376:142,1,142.5
149,26,82915,6,0,L|41:42,2,95,8|8|8,3:0|3:0|3:0,0:0:0:0:
394,191,83394,2,0,L|159:165,1,190,8|0,3:0|3:0,0:0:0:0:
153,163,83793,1,0,3:0:0:0:
334,296,83873,2,0,L|452:280,1,95,4|0,3:2|0:0,0:0:0:0:
201,333,84192,5,4,3:2:0:0:
327,353,84351,1,8,3:0:0:0:
367,329,84431,1,8,3:0:0:0:
381,285,84511,1,8,3:0:0:0:
364,242,84591,1,8,3:0:0:0:
321,220,84671,2,0,L|156:203,1,142.5,12|8,3:0|3:0,0:0:0:0:
381,114,84990,2,0,L|486:95,1,95,0|0,3:0|3:0,0:0:0:0:
119,18,85309,6,0,L|332:35,1,190,2|8,3:0|3:0,0:0:0:0:
199,101,85788,1,8,3:2:0:0:
334,61,85947,1,8,3:0:0:0:
41,155,86107,1,2,3:0:0:0:
46,202,86187,1,0,3:0:0:0:
51,249,86266,1,0,3:0:0:0:
201,223,86426,1,2,3:0:0:0:
206,270,86506,1,0,3:0:0:0:
211,317,86585,1,0,3:0:0:0:
443,204,86745,5,12,3:0:0:0:
483,183,86825,1,8,3:0:0:0:
491,138,86905,1,8,3:0:0:0:
459,105,86984,1,8,3:0:0:0:
275,74,87064,2,0,L|213:64,1,47.5,8|8,3:0|3:0,0:0:0:0:
422,17,87224,5,4,3:2:0:0:
