osu file format v14

[General]
AudioFilename: audio.mp3
AudioLeadIn: 0
PreviewTime:53101
Countdown: 0
SampleSet: Soft
StackLeniency: 0.7
Mode: 2
LetterboxInBreaks: 0
WidescreenStoryboard: 1

[Editor]
DistanceSpacing: 1
BeatDivisor: 4
GridSize: 32
TimelineZoom: 2.4

[Metadata]
Title:COOLEST (TV Size)
TitleUnicode:COOLEST (TV Size)
Artist:CustomiZ
ArtistUnicode:カスタマイZ
Creator:Ascendance
Version:JONI'S CUP
Source:坂本ですが?
Tags:op opening anime japanese jrock sakamoto desu ga jorkseljund bastian -joni- spectator baron KeRLi_ Greaper havent you heard im haven't i'm
BeatmapID:2615426
BeatmapSetID:1258175

[Difficulty]
HPDrainRate:3
CircleSize:2.5
OverallDifficulty:6
ApproachRate:6
SliderMultiplier:1.4
SliderTickRate:1

[Events]
//Background and Video events
0,0,"cropped-1920-1080-759660.jpg"
//Break Periods
//Storyboard Layer 0 (Background)
//Storyboard Layer 1 (Fail)
//Storyboard Layer 2 (Pass)
//Storyboard Layer 3 (Foreground)
//Storyboard Layer 4 (Overlay)
//Storyboard Sound Samples

[TimingPoints]
-63,319.148936170213,4,2,1,80,1,0
-63,-100,4,2,1,80,0,0
1253,-100,4,2,1,5,0,0
3447,-100,4,2,1,80,0,0
3687,-100,4,2,1,5,0,0
3766,-100,4,2,1,80,0,0
6559,-100,4,2,1,5,0,0
6639,-100,4,2,1,80,0,0
10708,-100,4,2,1,5,0,0
10788,-100,4,2,1,80,0,0
11027,-100,4,2,1,5,0,0
11107,-100,4,2,1,80,0,0
11346,-100,4,2,1,5,0,0
11426,-100,4,2,1,70,0,0
11665,-100,4,2,1,5,0,0
11745,-100,4,2,1,70,0,0
14218,-100,4,2,1,5,0,0
14298,-100,4,2,1,70,0,0
17889,-100,4,2,1,5,0,0
17968,-100,4,2,1,70,0,0
20442,-100,4,2,1,5,0,0
20522,-100,4,2,1,70,0,0
21559,-100,4,2,1,5,0,0
21639,-100,4,2,1,70,0,0
24112,-100,4,2,1,5,0,0
24192,-100,4,2,1,70,0,0
26665,-100,4,2,1,5,0,0
26745,-100,4,2,1,70,0,0
27304,-100,4,2,1,5,0,0
27383,-100,4,2,1,70,0,0
27942,-100,4,2,1,5,0,0
28022,-100,4,2,1,70,0,0
41027,-100,4,2,1,5,0,0
41107,-100,4,2,1,75,0,0
41346,-100,4,2,1,5,0,0
41426,-100,4,2,1,80,0,0
41665,-100,4,2,1,5,0,0
41745,-100,4,2,1,85,0,0
41905,-100,4,2,1,70,0,0
43261,-100,4,2,1,5,0,0
43341,-100,4,2,1,70,0,0
53554,-100,4,2,1,90,0,1
58899,-100,4,2,1,5,0,1
58979,-100,4,2,1,90,0,1
64006,-100,4,2,1,5,0,1
64085,-100,4,2,1,90,0,1
71984,-100,4,2,1,5,0,1
72064,-100,4,2,1,90,0,1
72623,-100,4,2,1,5,0,1
72702,-100,4,2,1,90,0,1
73899,-100,4,2,1,5,0,1
73979,-100,4,2,1,80,0,0
76452,-100,4,2,1,5,0,0
76532,-100,4,2,1,80,0,0
78048,-100,4,2,1,5,0,0
78128,-100,4,2,1,80,0,0
79325,-100,4,2,1,5,0,0
79405,-100,4,2,1,80,0,0
81878,-100,4,2,1,5,0,0
81958,-100,4,2,1,80,0,0
84192,-100,4,2,1,90,0,0
87543,-100,4,2,1,5,0,0

[Colours]
Combo1 : 236,44,44
Combo2 : 236,142,142
Combo3 : 109,102,102

[HitObjects]
199,261,575,6,0,L|287:260,2,70,8|8|8,3:0|3:0|3:0,0:0:0:0:
107,262,1054,1,8,3:0:0:0:
103,171,1213,1,4,3:2:0:0:
285,194,3447,1,4,3:2:0:0:
392,96,3766,1,4,3:2:0:0:
223,222,5043,5,8,3:2:0:0:
132,219,5202,2,0,P|60:218|37:161,2,140,4|4|8,3:2|3:2|3:2,0:0:0:0:
223,222,6000,1,8,3:2:0:0:
379,186,6319,6,0,L|393:19,1,140,8|8,3:0|3:0,0:0:0:0:
266,94,6958,2,0,L|105:95,1,140,8|8,3:0|3:0,0:0:0:0:
279,93,7596,1,8,3:0:0:0:
400,118,7915,1,8,3:0:0:0:
470,224,8234,1,8,3:0:0:0:
381,334,8554,1,8,3:0:0:0:
189,288,8873,6,0,L|94:288,2,70,4|10|10,3:2|3:0|3:0,0:0:0:0:
265,289,9351,2,0,B|340:288|340:288|341:219,1,140,4|2,3:2|3:0,0:0:0:0:
167,230,9990,2,0,B|92:230|92:230|92:160,1,140,4|8,3:2|3:0,0:0:0:0:
188,158,10468,1,4,3:2:0:0:
323,161,10788,1,4,3:2:0:0:
186,318,11107,6,0,P|140:288|196:232,1,140,2|4,0:0|3:2,0:0:0:0:
301,282,11745,1,8,3:2:0:0:
366,256,11905,2,0,L|211:250,1,140,0|0,0:0|3:0,0:0:0:0:
156,245,12383,1,8,3:2:0:0:
85,249,12543,1,0,3:0:0:0:
223,227,12862,1,0,3:0:0:0:
153,219,13022,6,0,L|145:59,1,140,8|0,3:2|3:0,0:0:0:0:
213,61,13500,1,0,3:0:0:0:
281,45,13660,1,8,3:2:0:0:
437,43,13979,5,0,3:2:0:0:
292,67,14458,2,0,L|370:66,2,70,0|0|0,0:0|3:0|3:0,0:0:0:0:
200,70,14937,2,0,L|131:70,1,70,8|0,3:2|3:0,0:0:0:0:
266,101,15415,1,0,3:0:0:0:
348,281,15575,6,0,P|390:238|335:199,1,140,8|0,3:2|3:0,0:0:0:0:
264,197,16054,2,0,L|182:197,1,70,0|8,3:0|3:2,0:0:0:0:
338,92,16532,1,4,3:2:0:0:
187,97,16851,6,0,L|94:98,2,70,8|0|0,3:2|0:0|3:0,0:0:0:0:
321,225,17490,1,8,3:2:0:0:
401,225,17649,2,0,L|403:63,1,140,0|0,3:0|3:0,0:0:0:0:
325,83,18128,1,8,3:2:0:0:
157,224,18447,2,0,B|79:224|79:224|78:148,1,140,0|8,3:0|3:2,0:0:0:0:
159,121,18926,1,0,0:0:0:0:
263,224,19085,6,0,L|263:59,1,140,4|8,3:2|3:2,0:0:0:0:
122,166,19724,1,0,3:0:0:0:
121,93,19883,1,0,3:0:0:0:
189,68,20043,1,8,3:2:0:0:
279,60,20202,6,0,B|355:60|355:60|355:-8,1,140,0|0,3:0|3:0,0:0:0:0:
278,45,20681,1,8,3:2:0:0:
160,312,21000,2,0,P|111:256|167:219,1,140,0|8,3:0|3:2,0:0:0:0:
237,213,21479,1,0,0:0:0:0:
328,217,21639,6,0,B|409:219|409:219|407:150,1,140,4|8,3:2|3:2,0:0:0:0:
329,152,22117,2,0,L|239:153,1,70,0|0,0:0|3:0,0:0:0:0:
412,175,22596,1,8,3:2:0:0:
484,172,22756,2,0,L|482:9,1,140,0|0,3:0|3:0,0:0:0:0:
406,34,23234,1,8,3:2:0:0:
287,95,23554,1,0,3:0:0:0:
128,295,23873,2,0,L|52:296,1,70,8|0,3:2|0:0,0:0:0:0:
126,243,24192,6,0,L|287:240,1,140,0|8,3:0|3:2,0:0:0:0:
111,194,24830,2,0,L|108:50,1,140,0|8,3:0|3:2,0:0:0:0:
199,60,25309,1,0,3:0:0:0:
323,59,25628,1,0,3:0:0:0:
161,291,25947,2,0,L|73:292,2,70,0|0|0,0:0|3:0|3:0,0:0:0:0:
252,296,26426,6,0,L|255:145,1,140,8|4,3:2|3:2,0:0:0:0:
78,199,27064,2,0,L|82:42,1,140,8|0,3:2|3:0,0:0:0:0:
172,62,27543,1,0,3:0:0:0:
262,64,27702,2,0,B|337:62|337:62|337:-14,1,140,8|0,3:2|3:0,0:0:0:0:
223,140,28341,2,0,L|63:141,1,140,8|0,3:2|3:0,0:0:0:0:
145,75,28819,2,0,L|231:75,1,70,8|8,3:0|3:2,0:0:0:0:
362,254,29298,6,0,P|404:209|351:176,1,140,4|8,3:2|3:2,0:0:0:0:
261,176,29777,2,0,L|185:176,2,70,8|8|0,3:2|3:2|3:0,0:0:0:0:
338,128,30256,1,0,3:0:0:0:
343,37,30415,1,4,3:2:0:0:
189,292,30734,6,0,L|111:292,1,70,0|8,3:0|3:2,0:0:0:0:
207,183,31213,2,0,L|215:100,1,70,8|8,3:0|3:0,0:0:0:0:
122,172,31532,2,0,L|113:90,1,70,0|0,3:0|3:0,0:0:0:0:
228,160,31851,6,0,B|301:158|301:158|303:88,1,140,4|0,3:2|0:0,0:0:0:0:
232,90,32330,1,0,3:0:0:0:
156,90,32490,2,0,P|80:87|120:-21,1,210,8|0,3:2|3:0,0:0:0:0:
268,188,33288,2,0,L|370:190,1,70,8|0,3:2|3:0,0:0:0:0:
301,118,33607,2,0,L|224:116,1,70,0|8,3:0|3:2,0:0:0:0:
125,236,34085,2,0,L|118:150,1,70,0|0,3:0|3:0,0:0:0:0:
190,154,34405,5,4,3:2:0:0:
316,197,34724,2,0,L|394:201,2,70,0|0|8,3:0|3:0|3:2,0:0:0:0:
186,126,35362,2,0,L|115:121,1,70,0|0,3:0|3:0,0:0:0:0:
183,59,35681,2,0,L|332:60,1,140,0|0,0:0|3:0,0:0:0:0:
428,59,36319,1,8,3:2:0:0:
283,129,36639,1,8,3:2:0:0:
411,219,36958,6,0,P|443:153|409:67,1,140,4|0,3:2|0:0,0:0:0:0:
351,83,37437,2,0,L|259:87,1,70,0|8,3:0|3:2,0:0:0:0:
282,136,37915,2,0,L|377:122,1,70,0|0,3:0|3:0,0:0:0:0:
438,113,38234,6,0,P|475:129|416:185,1,140,0|0,3:0|3:0,0:0:0:0:
252,128,38873,1,8,3:2:0:0:
92,155,39192,2,0,L|84:67,1,70,0|0,3:0|0:0,0:0:0:0:
174,79,39511,6,0,L|324:78,1,140,4|0,3:2|0:0,0:0:0:0:
182,229,40149,2,0,P|119:199|109:110,1,140,8|0,3:2|3:0,0:0:0:0:
285,161,40788,2,0,L|447:160,2,140,4|4|4,3:2|3:2|3:2,0:0:0:0:
126,187,41745,2,0,L|115:111,1,70,8|0,3:2|3:0,0:0:0:0:
191,109,42064,6,0,L|341:110,1,140,4|8,3:2|3:2,0:0:0:0:
187,222,42702,2,0,L|101:222,2,70,0|0|8,3:0|3:0|3:2,0:0:0:0:
320,238,43341,2,0,L|418:237,1,70,0|0,3:0|3:0,0:0:0:0:
389,127,43660,2,0,L|312:127,1,70,8|0,3:2|3:0,0:0:0:0:
154,127,44298,2,0,L|65:127,1,70,8|0,3:2|0:0,0:0:0:0:
152,66,44617,6,0,L|307:65,1,140,0|8,3:0|3:2,0:0:0:0:
153,225,45256,2,0,P|111:173|160:147,1,140,0|8,3:0|3:2,0:0:0:0:
324,201,45894,2,0,L|417:200,1,70,12|0,3:2|3:0,0:0:0:0:
382,109,46213,1,8,3:2:0:0:
290,111,46373,1,0,3:0:0:0:
199,120,46532,2,0,P|154:75|212:45,1,140,8|8,3:2|3:2,0:0:0:0:
383,68,47171,5,4,3:2:0:0:
227,229,47490,2,0,L|67:228,1,140,0|8,0:0|3:2,0:0:0:0:
257,165,48128,2,0,L|313:117,1,70,4|0,3:2|0:0,0:0:0:0:
235,167,48447,2,0,L|234:7,1,140,4|0,3:2|0:0,0:0:0:0:
313,41,48926,2,0,L|402:41,1,70,0|8,3:0|3:2,0:0:0:0:
193,260,49405,2,0,L|116:261,1,70,0|0,3:0|3:0,0:0:0:0:
187,196,49724,6,0,L|352:194,1,140,4|0,3:2|3:0,0:0:0:0:
165,323,50362,2,0,B|88:325|88:325|84:241,1,140,8|2,3:0|0:0,0:0:0:0:
261,223,51000,6,0,B|340:223|340:223|343:152,1,140,8|8,3:2|3:2,0:0:0:0:
253,132,51479,1,8,3:0:0:0:
161,132,51639,2,0,B|80:132|80:132|77:50,1,140,8|8,3:2|3:2,0:0:0:0:
261,154,52277,6,0,P|304:90|243:69,1,140,4|8,3:2|3:0,0:0:0:0:
129,63,52915,1,8,3:0:0:0:
288,287,53234,1,8,3:0:0:0:
362,287,53394,1,8,3:0:0:0:
288,287,53554,6,0,P|217:220|307:163,1,210,4|0,3:2|3:0,0:0:0:0:
444,151,54351,2,0,L|351:152,1,70,0|8,3:0|3:2,0:0:0:0:
219,97,54830,6,0,L|136:99,2,70,0|0|8,3:0|3:0|3:2,0:0:0:0:
295,96,55309,1,0,3:0:0:0:
128,197,55628,1,0,3:0:0:0:
54,197,55788,2,0,L|53:112,1,70,8|0,3:2|0:0,0:0:0:0:
163,131,56107,6,0,B|239:128|239:128|239:50,1,140,0|12,3:0|3:2,0:0:0:0:
161,67,56585,2,0,L|87:67,1,70,0|0,0:0|3:0,0:0:0:0:
264,86,57064,2,0,L|346:84,1,70,12|0,3:2|0:0,0:0:0:0:
264,224,57383,6,0,L|173:224,1,70,4|0,3:2|3:0,0:0:0:0:
185,111,57702,2,0,L|261:110,1,70,12|0,3:2|3:0,0:0:0:0:
340,107,58022,2,0,P|380:129|340:207,1,140,4|8,3:2|3:0,0:0:0:0:
263,209,58500,1,8,3:0:0:0:
171,209,58660,6,0,P|134:189|188:62,1,210,4|0,3:2|3:0,0:0:0:0:
349,127,59458,2,0,L|352:39,1,70,0|8,3:0|3:2,0:0:0:0:
185,133,59937,2,0,L|95:133,2,70,0|0|8,3:0|3:0|3:2,0:0:0:0:
259,133,60415,1,0,3:0:0:0:
420,159,60734,6,0,L|422:59,1,70,0|8,3:0|3:2,0:0:0:0:
255,164,61213,2,0,L|175:165,1,70,0|0,3:0|3:0,0:0:0:0:
240,92,61532,2,0,B|314:91|314:91|315:17,1,140,12|0,3:2|3:0,0:0:0:0:
243,24,62011,2,0,L|157:24,1,70,0|12,3:0|3:2,0:0:0:0:
291,138,62490,6,0,L|370:136,2,70,4|8|8,3:2|3:0|3:2,0:0:0:0:
217,143,62968,2,0,B|139:140|139:140|142:63,1,140,8|8,3:0|3:0,0:0:0:0:
232,76,63447,1,8,3:2:0:0:
121,220,63766,6,0,P|78:177|155:76,1,210,4|0,3:2|3:0,0:0:0:0:
296,70,64564,2,0,L|387:66,1,70,0|8,3:0|3:2,0:0:0:0:
187,103,65043,2,0,L|87:108,2,70,0|0|8,3:0|3:0|3:2,0:0:0:0:
262,99,65522,1,0,3:0:0:0:
388,325,65841,2,0,L|476:323,2,70,0|8|0,3:0|3:2|0:0,0:0:0:0:
315,324,66319,2,0,L|306:224,1,70,0|0,3:0|3:0,0:0:0:0:
387,248,66639,6,0,B|460:247|460:247|460:179,1,140,12|0,3:2|3:0,0:0:0:0:
384,172,67117,2,0,L|302:171,1,70,0|12,3:0|3:2,0:0:0:0:
159,196,67596,2,0,P|110:139|158:111,1,140,4|12,3:2|3:2,0:0:0:0:
224,105,68075,1,0,3:0:0:0:
300,104,68234,2,0,L|394:102,2,70,8|8|8,3:2|3:0|3:2,0:0:0:0:
157,223,68873,6,0,P|109:180|202:92,1,210,4|0,3:2|3:0,0:0:0:0:
325,94,69671,2,0,L|412:87,1,70,0|8,3:0|3:2,0:0:0:0:
219,265,70149,2,0,L|124:265,1,70,0|0,3:0|3:0,0:0:0:0:
149,265,70468,2,0,L|238:265,1,70,8|0,3:2|3:0,0:0:0:0:
386,260,70947,1,0,3:0:0:0:
459,256,71107,2,0,L|457:172,1,70,8|0,3:2|0:0,0:0:0:0:
384,174,71426,6,0,L|228:173,1,140,0|12,3:0|3:2,0:0:0:0:
389,217,72064,2,0,P|429:153|374:134,1,140,0|12,3:0|3:2,0:0:0:0:
223,160,72702,2,0,L|135:159,2,70,8|0|8,3:0|3:0|3:0,0:0:0:0:
300,161,73181,1,0,3:0:0:0:
373,154,73341,2,0,L|370:54,1,70,0|0,3:0|3:0,0:0:0:0:
299,87,73660,1,12,3:2:0:0:
161,223,73979,6,0,P|102:190|184:113,1,210,4|0,3:2|3:0,0:0:0:0:
295,133,74777,2,0,L|387:134,1,70,0|8,3:0|3:2,0:0:0:0:
249,247,75256,2,0,L|242:99,1,140,0|8,3:0|3:2,0:0:0:0:
410,191,75894,2,0,L|421:46,1,140,0|8,3:0|3:2,0:0:0:0:
288,130,76532,6,0,L|119:131,1,140,4|8,3:2|3:2,0:0:0:0:
217,72,77011,1,0,0:0:0:0:
355,188,77330,2,0,L|358:92,1,70,0|8,0:0|3:2,0:0:0:0:
188,190,77809,2,0,L|101:186,1,70,4|0,3:2|0:0,0:0:0:0:
186,135,78128,6,0,L|331:133,1,140,8|0,3:2|3:0,0:0:0:0:
400,133,78607,2,0,L|486:133,2,70,8|8|0,3:0|3:0|3:0,0:0:0:0:
325,133,79085,2,0,P|272:84|330:43,1,140,4|8,3:2|3:2,0:0:0:0:
413,196,79724,1,0,3:0:0:0:
262,196,80043,1,8,3:2:0:0:
379,285,80362,6,0,L|392:140,1,140,4|8,3:2|3:0,0:0:0:0:
248,129,81000,2,0,L|80:121,1,140,0|8,3:0|3:2,0:0:0:0:
226,222,81639,1,4,3:2:0:0:
358,227,82915,6,0,L|445:225,2,70,8|8|8,3:0|3:0|3:0,0:0:0:0:
286,229,83394,1,8,3:0:0:0:
127,230,83713,2,0,L|121:133,1,70,0|4,3:0|3:2,0:0:0:0:
315,322,84192,6,0,P|353:259|311:246,1,140,4|8,3:2|3:0,0:0:0:0:
239,248,84671,1,12,3:0:0:0:
163,250,84830,2,0,B|95:249|95:249|93:168,1,140,8|0,3:0|3:0,0:0:0:0:
166,170,85309,1,2,3:0:0:0:
327,230,85628,2,0,L|418:229,1,70,8|8,3:0|3:2,0:0:0:0:
328,168,85947,1,8,3:0:0:0:
240,195,86107,6,0,L|230:104,1,70,2|0,3:0|3:0,0:0:0:0:
305,121,86426,1,2,3:0:0:0:
420,159,86745,2,0,P|462:86|410:77,1,140,12|8,3:0|3:0,0:0:0:0:
346,77,87224,1,4,3:2:0:0:
