osu file format v14

[General]
AudioFilename: audio.mp3
AudioLeadIn: 0
PreviewTime: 53101
Countdown: 0
SampleSet: Soft
StackLeniency: 0.7
Mode: 2
LetterboxInBreaks: 0
WidescreenStoryboard: 0

[Editor]
DistanceSpacing: 1.3
BeatDivisor: 4
GridSize: 32
TimelineZoom: 2.4

[Metadata]
Title:COOLEST (TV Size)
TitleUnicode:COOLEST (TV Size)
Artist:CustomiZ
ArtistUnicode:カスタマイZ
Creator:Ascendance
Version:BREAKFAST!!
Source:坂本ですが?
Tags:op opening anime japanese jrock sakamoto desu ga jorkseljund bastian -joni- spectator baron KeRLi_ Greaper havent you heard im haven't i'm
BeatmapID:2615425
BeatmapSetID:1258175

[Difficulty]
HPDrainRate:5
CircleSize:8
OverallDifficulty:9.4
ApproachRate:9.4
SliderMultiplier:2
SliderTickRate:2

[Events]
//Background and Video events
0,0,"cropped-1920-1080-759660.jpg",0,0
//Break Periods
//Storyboard Layer 0 (Background)
//Storyboard Layer 1 (Fail)
//Storyboard Layer 2 (Pass)
//Storyboard Layer 3 (Foreground)
//Storyboard Layer 4 (Overlay)
//Storyboard Sound Samples

[TimingPoints]
-63,319.148936170213,4,2,1,80,1,0
3447,-100,4,2,1,80,0,0
3766,-100,4,2,1,80,0,0
6639,-100,4,2,1,80,0,0
10708,-100,4,2,1,5,0,0
10788,-100,4,2,1,80,0,0
11027,-100,4,2,1,5,0,0
11107,-100,4,2,1,80,0,0
11346,-100,4,2,1,5,0,0
11426,-100,4,2,1,70,0,0
11665,-100,4,2,1,5,0,0
11745,-100,4,2,1,70,0,0
14218,-100,4,2,1,5,0,0
14298,-100,4,2,1,70,0,0
17889,-100,4,2,1,5,0,0
17969,-100,4,2,1,70,0,0
19724,-83.3333333333333,4,2,1,70,0,0
20202,-100,4,2,1,70,0,0
20442,-100,4,2,1,5,0,0
20522,-100,4,2,1,70,0,0
21559,-100,4,2,1,5,0,0
21639,-100,4,2,1,70,0,0
24112,-100,4,2,1,5,0,0
24192,-100,4,2,1,70,0,0
26665,-100,4,2,1,5,0,0
26745,-100,4,2,1,70,0,0
27304,-100,4,2,1,5,0,0
27384,-100,4,2,1,70,0,0
27942,-100,4,2,1,5,0,0
28022,-100,4,2,1,70,0,0
41027,-100,4,2,1,5,0,0
41107,-100,4,2,1,75,0,0
41346,-100,4,2,1,5,0,0
41426,-100,4,2,1,80,0,0
41665,-100,4,2,1,5,0,0
41745,-100,4,2,1,85,0,0
41905,-100,4,2,1,70,0,0
43261,-100,4,2,1,5,0,0
43341,-100,4,2,1,70,0,0
53554,-100,4,2,1,90,0,1
58899,-100,4,2,1,5,0,1
58979,-100,4,2,1,90,0,1
64006,-100,4,2,1,5,0,1
64085,-100,4,2,1,90,0,1
71984,-100,4,2,1,5,0,1
72064,-100,4,2,1,90,0,1
72623,-100,4,2,1,5,0,1
72702,-100,4,2,1,90,0,1
73899,-100,4,2,1,5,0,1
73979,-100,4,2,1,80,0,1
76452,-100,4,2,1,5,0,0
76532,-100,4,2,1,80,0,0
78048,-100,4,2,1,5,0,0
78128,-100,4,2,1,80,0,0
79325,-100,4,2,1,5,0,0
79405,-100,4,2,1,80,0,0
81878,-100,4,2,1,5,0,0
81958,-100,4,2,1,80,0,0
84192,-100,4,2,1,90,0,0
87543,-100,4,2,1,5,0,0

[Colours]
Combo1 : 236,44,44
Combo2 : 236,142,142
Combo3 : 109,102,102

[HitObjects]
127,336,575,5,8,3:0:0:0:
86,310,654,1,8,3:0:0:0:
86,262,734,1,8,3:0:0:0:
127,237,814,1,8,3:0:0:0:
287,334,894,1,8,3:0:0:0:
327,308,973,1,8,3:0:0:0:
327,260,1053,1,8,3:0:0:0:
286,235,1133,1,8,3:0:0:0:
89,322,1213,6,0,P|24:262|101:184,1,200,4|0,3:2|0:0,0:0:0:0:
204,183,1692,1,0,0:0:0:0:
333,117,1851,2,0,L|334:225,1,100
206,186,2171,1,0,0:0:0:0:
426,304,2330,6,0,P|482:274|426:170,1,200
322,169,2809,1,0,0:0:0:0:
433,169,2968,1,0,0:0:0:0:
205,247,3128,2,0,P|157:189|206:147,1,150
363,247,3447,2,0,P|411:189|362:147,1,150,4|0,3:2|0:0,0:0:0:0:
188,187,3766,6,0,P|126:122|196:57,1,200,4|0,3:2|0:0,0:0:0:0:
307,58,4245,1,0,0:0:0:0:
189,56,4405,2,0,L|186:161,1,100
307,58,4724,1,0,0:0:0:0:
178,50,4883,1,0,0:0:0:0:
387,57,5043,5,8,3:2:0:0:
169,50,5202,2,0,P|122:95|173:150,1,150,4|0,3:2|0:0,0:0:0:0:
343,50,5522,2,0,P|390:95|339:150,1,150,4|0,3:2|0:0,0:0:0:0:
163,156,5841,2,0,L|101:156,1,50,8|0,3:2|0:0,0:0:0:0:
343,173,6000,2,0,L|395:172,1,50,8|0,3:2|0:0,0:0:0:0:
163,156,6160,2,0,L|101:156,1,50,8|0,3:2|0:0,0:0:0:0:
413,356,6319,5,8,3:0:0:0:
462,335,6398,1,0,0:0:0:0:
468,287,6478,1,0,0:0:0:0:
426,253,6558,1,0,3:0:0:0:
255,243,6639,2,0,L|171:243,1,50,8|0,3:0|3:0,0:0:0:0:
405,197,6798,2,0,L|488:197,1,50,0|0,3:0|3:0,0:0:0:0:
225,245,6958,5,8,3:0:0:0:
170,222,7037,1,0,3:0:0:0:
164,174,7117,1,0,3:0:0:0:
211,142,7197,1,0,3:0:0:0:
386,184,7277,5,8,3:0:0:0:
441,161,7356,1,0,3:0:0:0:
447,113,7436,1,0,3:0:0:0:
400,81,7516,1,0,3:0:0:0:
191,79,7596,6,0,L|137:80,1,50,8|0,3:0|3:0,0:0:0:0:
309,129,7756,2,0,L|361:128,1,50,0|0,3:0|3:0,0:0:0:0:
195,193,7915,2,0,L|132:194,1,50,8|0,3:0|3:0,0:0:0:0:
195,193,8075,2,0,L|251:192,1,50,0|0,3:0|3:0,0:0:0:0:
88,281,8234,6,0,L|34:280,1,50,8|0,3:0|3:0,0:0:0:0:
223,262,8394,2,0,L|297:262,1,50,0|0,3:0|3:0,0:0:0:0:
78,290,8554,2,0,L|27:290,1,50,8|0,3:0|3:0,0:0:0:0:
235,276,8713,2,0,L|318:278,1,50,0|0,3:0|3:0,0:0:0:0:
92,247,8873,5,4,3:2:0:0:
46,229,8952,1,0,0:0:0:0:
20,187,9032,1,10,3:0:0:0:
24,138,9112,1,8,3:0:0:0:
56,101,9192,1,10,3:0:0:0:
104,91,9271,1,8,3:0:0:0:
301,169,9351,2,0,P|367:134|304:39,1,200,4|2,3:2|3:0,0:0:0:0:
212,37,9830,1,10,3:0:0:0:
461,41,9990,5,4,3:2:0:0:
346,96,10149,1,8,3:0:0:0:
395,95,10228,1,8,3:0:0:0:
445,95,10308,1,8,3:0:0:0:
194,244,10468,2,0,P|131:190|200:136,1,150,4|0,3:2|0:0,0:0:0:0:
373,137,10788,1,4,3:2:0:0:
154,173,11107,2,0,P|105:136|167:73,1,150,2|0,0:0|0:0,0:0:0:0:
298,315,11426,6,0,P|362:253|280:192,1,200,4|8,3:2|3:2,0:0:0:0:
63,256,11905,2,0,L|64:132,1,100,0|0,0:0|3:0,0:0:0:0:
190,146,12224,1,0,3:0:0:0:
62,102,12383,1,8,3:2:0:0:
311,245,12543,6,0,L|108:243,1,200,0|0,3:0|3:0,0:0:0:0:
255,160,13022,2,0,L|256:264,1,100,8|0,3:2|0:0,0:0:0:0:
132,172,13341,2,0,L|128:69,1,100,0|0,3:0|3:0,0:0:0:0:
363,222,13660,2,0,P|411:172|346:126,1,150,8|0,3:2|0:0,0:0:0:0:
147,237,13979,6,0,P|83:174|159:107,1,200,0|8,3:2|3:2,0:0:0:0:
253,108,14458,1,0,0:0:0:0:
44,92,14617,1,0,0:0:0:0:
146,92,14777,1,0,3:0:0:0:
44,92,14937,1,0,0:0:0:0:
237,201,15096,2,0,P|302:143|233:73,1,200,0|0,3:0|3:0,0:0:0:0:
112,33,15575,2,0,L|112:154,1,100,8|0,3:2|0:0,0:0:0:0:
301,187,15894,2,0,P|359:126|307:79,1,150,0|0,3:0|0:0,0:0:0:0:
171,294,16213,2,0,P|113:233|165:186,1,150,8|0,3:2|0:0,0:0:0:0:
346,253,16532,6,0,P|408:205|346:125,1,200,4|8,3:2|3:2,0:0:0:0:
236,127,17011,1,0,0:0:0:0:
470,44,17171,2,0,L|471:167,1,100,0|0,3:0|3:0,0:0:0:0:
356,160,17490,1,8,3:2:0:0:
135,202,17649,6,0,L|133:311,1,100,0|0,3:0|0:0,0:0:0:0:
275,156,17968,2,0,L|274:259,1,100,0|8,3:0|3:2,0:0:0:0:
138,135,18288,1,0,0:0:0:0:
376,125,18447,2,0,L|481:125,1,100,0|0,3:0|3:0,0:0:0:0:
224,103,18766,2,0,P|170:52|236:20,1,150,8|0,3:2|0:0,0:0:0:0:
426,15,19085,5,4,3:2:0:0:
319,14,19245,1,0,0:0:0:0:
432,15,19405,2,0,L|434:123,1,100,8|0,3:2|0:0,0:0:0:0:
195,187,19724,2,0,L|341:187,2,119.999996337891,0|0|8,3:0|3:0|3:2,0:0:0:0:
437,234,20202,6,0,L|437:343,1,100,0|0,3:0|0:0,0:0:0:0:
182,308,20522,2,0,L|180:178,1,100,0|8,3:0|3:2,0:0:0:0:
291,190,20841,1,0,3:0:0:0:
104,135,21000,1,0,3:0:0:0:
292,110,21160,5,8,3:2:0:0:
104,135,21320,1,8,3:2:0:0:
318,111,21479,1,0,0:0:0:0:
22,68,21639,6,0,L|225:75,1,200,4|8,3:2|3:2,0:0:0:0:
360,83,22117,1,0,0:0:0:0:
210,125,22277,2,0,L|211:242,1,100,0|0,3:0|3:0,0:0:0:0:
360,83,22596,1,8,3:2:0:0:
120,278,22756,6,0,P|55:220|129:161,1,200,0|0,3:0|3:0,0:0:0:0:
343,118,23234,2,0,L|344:229,1,100,8|0,3:2|0:0,0:0:0:0:
153,102,23554,1,0,3:0:0:0:
38,102,23713,1,0,0:0:0:0:
343,119,23873,2,0,P|391:84|334:25,1,150,8|0,3:2|0:0,0:0:0:0:
179,117,24192,6,0,L|179:231,1,100,0|0,3:0|3:0,0:0:0:0:
303,115,24511,1,8,3:2:0:0:
180,117,24671,1,0,0:0:0:0:
322,178,24830,2,0,P|384:118|319:49,1,200,0|8,3:0|3:2,0:0:0:0:
108,313,25309,6,0,L|351:302,1,200,0|0,3:0|3:0,0:0:0:0:
57,154,25788,2,0,L|53:263,1,100,8|0,3:2|0:0,0:0:0:0:
193,188,26107,1,0,3:0:0:0:
235,165,26186,1,0,3:0:0:0:
238,117,26266,1,0,3:0:0:0:
199,89,26346,1,0,3:0:0:0:
46,40,26426,2,0,L|46:142,1,100,8|0,3:2|0:0,0:0:0:0:
285,83,26745,6,0,L|411:83,1,100,4|0,3:2|0:0,0:0:0:0:
167,242,27064,2,0,L|167:142,1,100,8|0,3:2|0:0,0:0:0:0:
380,244,27383,1,0,3:0:0:0:
168,247,27543,1,0,3:0:0:0:
387,244,27702,2,0,L|386:141,1,100,8|0,3:2|0:0,0:0:0:0:
239,197,28022,6,0,L|117:197,1,100,0|0,3:0|3:0,0:0:0:0:
416,321,28341,2,0,L|418:215,1,100,8|0,3:2|3:0,0:0:0:0:
213,208,28660,1,0,3:0:0:0:
91,207,28819,2,0,L|166:207,1,50,8|8,3:0|3:0,0:0:0:0:
295,268,28979,2,0,L|216:265,1,50,8|8,3:2|3:0,0:0:0:0:
76,319,29139,2,0,L|126:319,1,50,8|8,3:0|3:0,0:0:0:0:
295,328,29298,6,0,L|425:328,1,100,4|0,3:2|0:0,0:0:0:0:
134,218,29617,1,8,3:2:0:0:
247,222,29777,2,0,L|310:223,1,50,8|8,3:2|3:2,0:0:0:0:
136,157,29937,2,0,L|84:157,1,50,8|0,3:2|0:0,0:0:0:0:
270,232,30096,2,0,L|330:233,1,50,0|0,3:0|0:0,0:0:0:0:
270,232,30256,2,0,L|192:231,1,50,0|0,3:0|0:0,0:0:0:0:
404,333,30415,6,0,P|461:284|400:228,1,150,4|0,3:2|0:0,0:0:0:0:
286,220,30734,2,0,L|229:220,1,50,0|0,3:0|3:0,0:0:0:0:
407,216,30894,2,0,L|406:110,1,100,8|8,3:2|3:0,0:0:0:0:
352,104,31133,1,8,3:0:0:0:
170,100,31213,1,8,3:0:0:0:
56,99,31373,1,8,3:0:0:0:
170,100,31532,1,0,3:0:0:0:
56,99,31692,1,0,3:0:0:0:
296,153,31851,6,0,L|296:263,1,100,4|0,3:2|3:0,0:0:0:0:
160,102,32171,2,0,L|160:208,1,100,0|0,0:0|3:0,0:0:0:0:
437,292,32490,2,0,P|498:238|430:155,1,200,8|0,3:2|3:0,0:0:0:0:
327,154,32968,1,0,3:0:0:0:
131,285,33128,5,0,0:0:0:0:
83,269,33207,1,0,0:0:0:0:
47,235,33287,1,8,3:2:0:0:
28,190,33367,1,0,0:0:0:0:
28,140,33447,1,0,3:0:0:0:
49,95,33526,1,0,0:0:0:0:
86,62,33606,1,0,3:0:0:0:
134,48,33686,1,0,0:0:0:0:
298,49,33766,2,0,L|407:48,1,100,8|0,3:2|0:0,0:0:0:0:
156,140,34085,1,0,3:0:0:0:
369,141,34245,1,0,3:0:0:0:
156,140,34405,6,0,L|47:140,1,100,4|0,3:2|3:0,0:0:0:0:
309,217,34724,1,0,3:0:0:0:
120,216,34883,1,0,3:0:0:0:
309,217,35043,2,0,L|418:218,1,100,8|0,3:2|3:0,0:0:0:0:
181,310,35362,2,0,L|318:311,1,100,0|0,3:0|3:0,0:0:0:0:
406,310,35681,5,0,0:0:0:0:
146,212,35841,1,8,3:2:0:0:
256,126,36000,2,0,L|259:231,1,100,0|0,3:0|3:0,0:0:0:0:
39,80,36319,1,8,3:2:0:0:
162,78,36479,1,8,3:2:0:0:
39,80,36639,1,8,3:2:0:0:
162,78,36798,1,0,0:0:0:0:
411,263,36958,6,0,P|476:202|401:138,1,200,4|0,3:2|0:0,0:0:0:0:
304,137,37437,1,0,3:0:0:0:
54,119,37596,2,0,L|54:220,1,100,8|0,3:2|0:0,0:0:0:0:
182,79,37915,2,0,L|73:79,1,100,0|0,3:0|3:0,0:0:0:0:
200,143,38234,5,0,3:0:0:0:
461,152,38394,1,8,3:2:0:0:
345,151,38554,1,0,3:0:0:0:
461,152,38713,1,0,0:0:0:0:
209,206,38873,2,0,L|209:306,1,100,8|0,3:2|0:0,0:0:0:0:
369,256,39192,2,0,L|491:255,1,100,0|0,3:0|0:0,0:0:0:0:
198,235,39511,6,0,P|148:189|212:149,1,150,4|0,3:2|0:0,0:0:0:0:
334,233,39830,2,0,P|384:187|320:147,1,150,0|0,0:0|3:0,0:0:0:0:
162,234,40149,6,0,P|112:188|176:148,1,150,8|0,3:2|0:0,0:0:0:0:
370,233,40468,2,0,P|420:187|356:147,1,150,0|0,3:0|0:0,0:0:0:0:
150,147,40788,6,0,L|44:147,1,100,4|0,3:2|0:0,0:0:0:0:
268,237,41107,2,0,L|401:237,1,100,4|0,3:2|0:0,0:0:0:0:
96,220,41426,2,0,L|96:320,1,100,4|0,3:2|0:0,0:0:0:0:
314,177,41745,1,8,3:2:0:0:
96,134,41905,1,0,3:0:0:0:
371,182,42064,6,0,P|436:121|365:59,1,200,4|8,3:2|3:2,0:0:0:0:
235,55,42543,1,0,0:0:0:0:
371,18,42702,2,0,L|370:132,1,100,0|0,3:0|3:0,0:0:0:0:
162,58,43022,2,0,L|37:58,1,100,8|0,3:2|0:0,0:0:0:0:
322,111,43341,6,0,L|422:111,2,100,0|0|8,3:0|3:0|3:2,0:0:0:0:
176,204,43819,2,0,P|107:143|178:74,1,200,0|0,3:0|3:0,0:0:0:0:
369,140,44298,2,0,P|427:98|371:43,1,150,8|0,3:2|0:0,0:0:0:0:
176,37,44617,6,0,L|56:37,1,100,0|0,3:0|3:0,0:0:0:0:
300,137,44937,2,0,L|411:138,1,100,8|0,3:2|3:0,0:0:0:0:
155,184,45256,1,0,3:0:0:0:
346,321,45415,2,0,P|406:279|346:188,1,200,0|0,3:0|3:0,0:0:0:0:
129,311,45894,5,12,3:2:0:0:
77,289,45973,1,0,0:0:0:0:
75,241,46053,1,0,3:0:0:0:
125,218,46133,1,0,3:0:0:0:
258,232,46213,1,8,3:2:0:0:
310,210,46292,1,0,0:0:0:0:
312,162,46372,1,0,3:0:0:0:
261,139,46452,1,0,3:0:0:0:
118,121,46532,6,0,L|56:121,1,50,8|0,3:2|0:0,0:0:0:0:
248,86,46692,2,0,L|331:86,1,50,8|8,3:0|3:0,0:0:0:0:
118,121,46851,2,0,L|56:121,1,50,8|0,3:2|0:0,0:0:0:0:
248,86,47011,2,0,L|331:86,1,50,8|8,3:0|3:0,0:0:0:0:
32,18,47171,5,4,3:2:0:0:
248,86,47490,2,0,L|363:85,1,100,0|0,0:0|3:0,0:0:0:0:
294,72,47729,1,0,3:0:0:0:
119,165,47809,2,0,L|119:56,1,100,8|0,3:2|0:0,0:0:0:0:
321,174,48128,2,0,L|426:174,1,100,4|0,3:2|0:0,0:0:0:0:
186,257,48447,5,4,3:2:0:0:
56,257,48607,1,0,3:0:0:0:
186,257,48766,1,0,0:0:0:0:
56,257,48926,2,0,L|112:257,1,50,0|0,3:0|3:0,0:0:0:0:
322,318,49085,1,8,3:2:0:0:
363,294,49164,1,0,0:0:0:0:
363,246,49244,1,8,3:0:0:0:
322,223,49324,1,8,3:0:0:0:
187,243,49405,2,0,L|183:181,1,50,0|0,3:0|3:0,0:0:0:0:
331,232,49564,2,0,L|338:294,1,50,0|0,3:0|3:0,0:0:0:0:
136,212,49724,6,0,L|35:212,1,100,4|0,3:2|3:0,0:0:0:0:
278,153,50043,2,0,L|406:153,1,100,0|8,3:0|3:0,0:0:0:0:
324,140,50282,1,8,3:0:0:0:
173,227,50362,2,0,L|171:108,1,100,8|0,3:0|3:0,0:0:0:0:
389,253,50681,1,2,0:0:0:0:
148,267,50841,1,0,3:0:0:0:
401,254,51000,6,0,L|408:368,1,100,8|8,3:2|3:0,0:0:0:0:
138,260,51319,2,0,L|130:156,1,100,8|8,3:2|3:0,0:0:0:0:
363,204,51639,2,0,L|416:200,1,50,8|0,3:2|0:0,0:0:0:0:
166,161,51798,2,0,L|116:167,1,50,8|0,3:0|0:0,0:0:0:0:
376,209,51958,2,0,L|429:205,1,50,8|0,3:2|0:0,0:0:0:0:
156,172,52117,2,0,L|106:178,1,50,8|0,3:0|0:0,0:0:0:0:
286,308,52277,5,4,3:2:0:0:
327,284,52356,1,0,0:0:0:0:
329,236,52436,1,0,3:0:0:0:
290,209,52516,1,0,0:0:0:0:
214,221,52596,1,8,3:0:0:0:
172,197,52675,1,0,0:0:0:0:
170,149,52755,1,0,3:0:0:0:
209,122,52835,1,0,0:0:0:0:
370,117,52915,6,0,L|431:117,1,50,8|8,3:0|3:0,0:0:0:0:
186,83,53075,2,0,L|115:83,1,50,8|8,3:0|3:0,0:0:0:0:
370,117,53234,2,0,L|431:117,1,50,8|8,3:0|3:0,0:0:0:0:
186,83,53394,2,0,L|115:83,1,50,8|8,3:0|3:0,0:0:0:0:
386,304,53554,6,0,P|448:239|379:173,1,200,4|8,3:2|3:2,0:0:0:0:
166,114,54032,2,0,L|166:224,1,100,0|0,3:0|0:0,0:0:0:0:
286,106,54351,1,0,3:0:0:0:
41,49,54511,1,8,3:2:0:0:
164,47,54671,1,0,0:0:0:0:
374,52,54830,5,0,3:0:0:0:
131,46,54990,2,0,L|131:153,1,100,0|8,3:0|3:2,0:0:0:0:
395,265,55309,2,0,P|461:203|380:136,1,200,0|0,3:0|3:0,0:0:0:0:
177,133,55788,1,8,3:2:0:0:
389,131,55947,1,0,0:0:0:0:
140,127,56107,6,0,L|23:127,1,100,0|0,3:0|3:0,0:0:0:0:
339,186,56426,2,0,L|340:293,1,100,12|0,3:2|0:0,0:0:0:0:
65,181,56745,2,0,L|204:180,1,100,0|0,3:0|3:0,0:0:0:0:
366,180,57064,1,12,3:2:0:0:
151,177,57224,1,0,0:0:0:0:
375,180,57383,6,0,L|475:179,1,100,4|0,3:2|3:0,0:0:0:0:
207,266,57702,2,0,L|79:266,1,100,12|0,3:2|3:0,0:0:0:0:
402,244,58022,2,0,L|402:363,1,100,4|0,3:2|3:0,0:0:0:0:
195,182,58341,2,0,L|125:182,1,50,8|8,3:0|3:0,0:0:0:0:
305,244,58500,2,0,L|360:244,1,50,8|8,3:0|3:0,0:0:0:0:
124,353,58660,6,0,P|51:309|121:211,1,200,4|8,3:2|3:2,0:0:0:0:
309,254,59139,2,0,L|308:141,1,100,0|0,3:0|0:0,0:0:0:0:
183,137,59458,1,0,3:0:0:0:
446,47,59617,2,0,L|447:158,1,100,8|0,3:2|0:0,0:0:0:0:
162,26,59937,5,0,3:0:0:0:
416,19,60096,1,0,3:0:0:0:
291,17,60256,1,8,3:2:0:0:
53,77,60415,2,0,L|52:183,1,100,0|0,3:0|0:0,0:0:0:0:
177,186,60734,1,0,3:0:0:0:
423,191,60894,2,0,L|311:192,1,100,8|0,3:2|0:0,0:0:0:0:
84,264,61213,6,0,L|198:263,1,100,0|0,3:0|3:0,0:0:0:0:
406,240,61532,2,0,L|406:349,1,100,12|0,3:2|0:0,0:0:0:0:
195,176,61851,2,0,L|303:176,1,100,0|0,3:0|3:0,0:0:0:0:
77,231,62171,1,12,3:2:0:0:
338,232,62330,1,0,0:0:0:0:
77,231,62490,6,0,L|77:130,1,100,4|8,3:2|3:0,0:0:0:0:
131,124,62729,1,8,3:0:0:0:
282,123,62809,2,0,L|346:123,1,50,8|0,3:2|0:0,0:0:0:0:
161,69,62968,2,0,L|93:69,1,50,8|8,3:0|3:0,0:0:0:0:
332,123,63128,2,0,L|442:123,1,100,8|8,3:2|3:0,0:0:0:0:
378,109,63367,1,8,3:0:0:0:
182,131,63447,2,0,L|105:132,1,50,8|0,3:2|0:0,0:0:0:0:
303,206,63607,2,0,L|380:206,1,50,8|8,3:0|3:0,0:0:0:0:
136,318,63766,6,0,P|74:242|153:182,1,200,4|8,3:2|3:2,0:0:0:0:
363,173,64245,1,0,3:0:0:0:
242,172,64405,1,0,0:0:0:0:
126,176,64564,1,0,3:0:0:0:
375,222,64724,2,0,L|376:347,1,100,8|0,3:2|0:0,0:0:0:0:
156,131,65043,5,0,3:0:0:0:
281,130,65202,1,0,3:0:0:0:
29,57,65362,1,8,3:2:0:0:
252,48,65522,2,0,P|317:93|252:173,1,200,0|0,3:0|3:0,0:0:0:0:
54,176,66000,1,8,3:2:0:0:
263,178,66160,1,0,0:0:0:0:
32,175,66319,6,0,L|33:276,1,100,0|0,3:0|3:0,0:0:0:0:
297,190,66639,1,12,3:2:0:0:
96,150,66798,1,0,0:0:0:0:
361,57,66958,2,0,L|363:159,1,100,0|0,3:0|3:0,0:0:0:0:
152,37,67277,1,12,3:2:0:0:
377,15,67437,1,0,0:0:0:0:
137,37,67596,6,0,L|25:30,1,100,4|0,3:2|3:0,0:0:0:0:
281,190,67915,2,0,L|397:184,1,100,12|0,3:2|3:0,0:0:0:0:
136,297,68234,2,0,L|84:292,1,50,8|8,3:2|3:0,0:0:0:0:
279,255,68394,2,0,L|359:265,1,50,8|8,3:0|3:0,0:0:0:0:
149,277,68554,2,0,L|94:268,1,50,8|8,3:2|3:0,0:0:0:0:
266,268,68713,2,0,L|326:278,1,50,8|8,3:0|3:0,0:0:0:0:
99,249,68873,6,0,P|37:182|106:105,1,200,4|8,3:2|3:2,0:0:0:0:
296,34,69351,2,0,L|297:143,1,100,0|0,3:0|0:0,0:0:0:0:
165,18,69671,1,0,3:0:0:0:
471,99,69830,2,0,L|471:215,1,100,8|0,3:2|0:0,0:0:0:0:
239,94,70149,5,0,3:0:0:0:
445,96,70309,1,0,3:0:0:0:
239,94,70468,1,8,3:2:0:0:
30,93,70628,2,0,L|29:203,1,100,0|0,3:0|0:0,0:0:0:0:
161,195,70947,1,0,3:0:0:0:
391,165,71107,2,0,L|392:284,1,100,8|0,3:2|0:0,0:0:0:0:
183,136,71426,6,0,L|43:136,1,100,0|0,3:0|3:0,0:0:0:0:
321,216,71745,2,0,L|435:216,1,100,12|0,3:2|0:0,0:0:0:0:
96,216,72064,2,0,L|96:318,1,100,0|0,3:0|3:0,0:0:0:0:
300,162,72383,1,12,3:2:0:0:
174,161,72543,1,0,0:0:0:0:
374,160,72702,6,0,L|428:160,1,50,8|0,3:0|3:0,0:0:0:0:
188,135,72862,2,0,L|113:134,1,50,0|0,3:0|3:0,0:0:0:0:
373,179,73022,2,0,L|438:179,1,50,8|0,3:0|3:0,0:0:0:0:
177,146,73181,2,0,L|112:145,1,50,0|0,3:0|3:0,0:0:0:0:
370,224,73341,1,0,3:0:0:0:
412,201,73420,1,0,3:0:0:0:
413,153,73500,1,0,3:0:0:0:
373,127,73580,1,0,3:0:0:0:
155,111,73660,2,0,L|97:111,1,50,12|0,3:2|0:0,0:0:0:0:
313,61,73819,2,0,L|401:61,1,50
162,43,73979,6,0,P|96:105|185:162,1,200,4|8,3:2|3:2,0:0:0:0:
270,123,74458,1,0,3:0:0:0:
271,172,74537,1,0,0:0:0:0:
272,222,74617,1,0,0:0:0:0:
155,106,74777,1,0,3:0:0:0:
400,26,74937,2,0,L|406:131,1,100,8|0,3:2|0:0,0:0:0:0:
167,26,75256,5,0,3:0:0:0:
47,13,75415,1,0,3:0:0:0:
327,119,75575,1,8,3:2:0:0:
103,144,75734,1,0,0:0:0:0:
334,117,75894,1,0,3:0:0:0:
456,130,76054,1,0,3:0:0:0:
191,320,76213,2,0,P|145:283|202:218,1,150,8|0,3:2|0:0,0:0:0:0:
415,261,76532,6,0,P|465:181|404:104,1,200,4|8,3:2|3:2,0:0:0:0:
172,123,77011,1,0,0:0:0:0:
415,47,77171,2,0,L|416:153,1,100,4|0,3:2|0:0,0:0:0:0:
171,39,77490,2,0,L|39:40,1,100,8|0,3:2|0:0,0:0:0:0:
336,77,77809,6,0,L|453:77,1,100,4|0,3:2|0:0,0:0:0:0:
120,124,78128,2,0,L|105:246,1,100,8|0,3:2|3:0,0:0:0:0:
444,154,78447,2,0,P|452:200|440:268,1,100,0|8,3:0|3:0,0:0:0:0:
383,263,78687,1,8,3:0:0:0:
237,256,78766,2,0,L|188:262,1,50,8|0,3:0|3:0,0:0:0:0:
336,340,78926,2,0,L|385:344,1,50,0|0,3:0|3:0,0:0:0:0:
119,370,79085,6,0,P|70:292|128:208,1,200,4|8,3:2|3:2,0:0:0:0:
345,235,79564,1,0,0:0:0:0:
217,158,79724,2,0,L|216:260,1,100,0|0,3:0|3:0,0:0:0:0:
469,317,80043,2,0,P|505:255|441:186,1,150,8|0,3:2|0:0,0:0:0:0:
222,78,80362,6,0,L|163:78,1,50,4|0,3:2|0:0,0:0:0:0:
351,133,80522,2,0,L|403:133,1,50,0|0,3:0|3:0,0:0:0:0:
203,85,80681,6,0,L|144:85,1,50,8|0,3:0|0:0,0:0:0:0:
332,140,80841,2,0,L|384:140,1,50,0|0,3:0|3:0,0:0:0:0:
186,94,81000,6,0,L|127:94,1,50,0|0,3:0|0:0,0:0:0:0:
315,149,81160,2,0,L|367:149,1,50,0|0,3:0|3:0,0:0:0:0:
98,138,81319,2,0,L|98:253,1,100,8|0,3:2|0:0,0:0:0:0:
378,314,81639,6,0,L|376:215,1,100,4|0,3:2|0:0,0:0:0:0:
238,154,81958,2,0,L|240:263,1,100
111,155,82277,2,0,L|110:47,1,100
248,102,82596,1,0,0:0:0:0:
123,100,82756,1,0,0:0:0:0:
365,103,82915,5,8,3:0:0:0:
123,100,83075,1,8,3:0:0:0:
365,103,83234,1,8,3:0:0:0:
123,100,83394,2,0,P|59:156|144:228,1,200,8|0,3:0|3:0,0:0:0:0:
174,233,83793,1,0,3:0:0:0:
339,225,83873,2,0,L|466:225,1,100,4|0,3:2|0:0,0:0:0:0:
191,303,84192,6,0,L|115:302,1,50,4|0,3:2|0:0,0:0:0:0:
322,264,84351,2,0,L|401:266,1,50,8|8,3:0|3:0,0:0:0:0:
177,316,84511,2,0,L|121:316,1,50,8|8,3:0|3:0,0:0:0:0:
384,367,84671,2,0,P|438:304|381:259,1,150,12|8,3:0|3:0,0:0:0:0:
251,253,84990,2,0,L|183:253,1,50,0|0,3:0|3:0,0:0:0:0:
251,253,85149,2,0,L|308:253,1,50,0|0,3:0|0:0,0:0:0:0:
90,227,85309,6,0,P|40:176|96:121,1,150,2|0,3:0|0:0,0:0:0:0:
220,112,85628,2,0,L|292:112,1,50,8|0,3:0|0:0,0:0:0:0:
102,68,85788,2,0,L|40:68,1,50,8|0,3:2|0:0,0:0:0:0:
240,122,85947,2,0,L|306:122,1,50,8|0,3:0|0:0,0:0:0:0:
106,242,86107,1,2,3:0:0:0:
64,217,86186,1,0,3:0:0:0:
62,169,86266,1,0,3:0:0:0:
101,140,86346,1,0,3:0:0:0:
269,192,86426,1,2,3:0:0:0:
310,167,86505,1,0,3:0:0:0:
312,119,86585,1,0,3:0:0:0:
273,90,86665,1,0,3:0:0:0:
94,73,86745,6,0,L|33:73,1,50,12|8,3:0|3:0,0:0:0:0:
286,78,86905,2,0,L|341:78,1,50,8|8,3:0|3:0,0:0:0:0:
79,85,87064,2,0,L|25:85,1,50,8|8,3:0|3:0,0:0:0:0:
303,65,87224,5,4,3:2:0:0:
