osu file format v14

[General]
AudioFilename: audio.mp3
AudioLeadIn: 0
PreviewTime: 53101
Countdown: 0
SampleSet: Soft
StackLeniency: 0.7
Mode: 2
LetterboxInBreaks: 0
WidescreenStoryboard: 1

[Editor]
Bookmarks: 31851
DistanceSpacing: 1.1
BeatDivisor: 4
GridSize: 32
TimelineZoom: 2.4

[Metadata]
Title:COOLEST (TV Size)
TitleUnicode:COOLEST (TV Size)
Artist:CustomiZ
ArtistUnicode:カスタマイZ
Creator:Ascendance
Version:BARON'S OVERDOSE
Source:坂本ですが?
Tags:op opening anime japanese jrock sakamoto desu ga jorkseljund bastian -joni- spectator baron KeRLi_ Greaper havent you heard im haven't i'm
BeatmapID:2615424
BeatmapSetID:1258175

[Difficulty]
HPDrainRate:6
CircleSize:4.2
OverallDifficulty:9.3
ApproachRate:9.3
SliderMultiplier:2
SliderTickRate:2

[Events]
//Background and Video events
0,0,"cropped-1920-1080-759660.jpg",0,0
//Break Periods
//Storyboard Layer 0 (Background)
//Storyboard Layer 1 (Fail)
//Storyboard Layer 2 (Pass)
//Storyboard Layer 3 (Foreground)
//Storyboard Layer 4 (Overlay)
//Storyboard Sound Samples

[TimingPoints]
-63,319.148936170213,4,2,1,80,1,0
-63,-100,4,2,1,80,0,0
3447,-100,4,2,1,80,0,0
3766,-100,4,2,1,80,0,0
6639,-100,4,2,1,80,0,0
10708,-100,4,2,1,5,0,0
10788,-100,4,2,1,80,0,0
11027,-100,4,2,1,5,0,0
11107,-100,4,2,1,80,0,0
11346,-100,4,2,1,5,0,0
11426,-100,4,2,1,70,0,0
11665,-100,4,2,1,5,0,0
11745,-100,4,2,1,70,0,0
14218,-100,4,2,1,5,0,0
14298,-100,4,2,1,70,0,0
17889,-100,4,2,1,5,0,0
17968,-100,4,2,1,70,0,0
20442,-100,4,2,1,5,0,0
20522,-100,4,2,1,70,0,0
21559,-100,4,2,1,5,0,0
21639,-100,4,2,1,70,0,0
24112,-100,4,2,1,5,0,0
24192,-100,4,2,1,70,0,0
26665,-100,4,2,1,5,0,0
26745,-100,4,2,1,70,0,0
27304,-100,4,2,1,5,0,0
27383,-100,4,2,1,70,0,0
27942,-100,4,2,1,5,0,0
28022,-100,4,2,1,70,0,0
39830,-90.9090909090909,4,2,1,70,0,0
40069,-100,4,2,1,70,0,0
41027,-100,4,2,1,5,0,0
41107,-100,4,2,1,75,0,0
41346,-100,4,2,1,5,0,0
41426,-100,4,2,1,80,0,0
41665,-100,4,2,1,5,0,0
41745,-100,4,2,1,85,0,0
41905,-100,4,2,1,70,0,0
43261,-100,4,2,1,5,0,0
43341,-100,4,2,1,70,0,0
53554,-100,4,2,1,90,0,1
58899,-100,4,2,1,5,0,1
58979,-100,4,2,1,90,0,1
59139,-83.3333333333333,4,2,1,90,0,1
59458,-100,4,2,1,90,0,1
64006,-100,4,2,1,5,0,1
64085,-100,4,2,1,90,0,1
64245,-83.3333333333333,4,2,1,90,0,1
64564,-100,4,2,1,90,0,1
69351,-83.3333333333333,4,2,1,90,0,1
69671,-100,4,2,1,90,0,1
71984,-100,4,2,1,5,0,1
72064,-100,4,2,1,90,0,1
72623,-100,4,2,1,5,0,1
72702,-100,4,2,1,90,0,1
73899,-100,4,2,1,5,0,1
73979,-100,4,2,1,80,0,0
75256,-66.6666666666667,4,2,1,80,0,0
75415,-100,4,2,1,80,0,0
75894,-66.6666666666667,4,2,1,80,0,0
76054,-100,4,2,1,80,0,0
76452,-100,4,2,1,5,0,0
76532,-100,4,2,1,80,0,0
78048,-100,4,2,1,5,0,0
78128,-100,4,2,1,80,0,0
79325,-100,4,2,1,5,0,0
79405,-100,4,2,1,80,0,0
81878,-100,4,2,1,5,0,0
81958,-100,4,2,1,80,0,0
84192,-100,4,2,1,90,0,0
87543,-100,4,2,1,5,0,0

[Colours]
Combo1 : 236,44,44
Combo2 : 236,142,142
Combo3 : 109,102,102

[HitObjects]
149,224,575,6,0,L|69:220,1,50,8|8,3:0|3:0,0:0:0:0:
86,174,734,2,0,L|159:173,1,50,8|8,3:0|3:0,0:0:0:0:
334,173,894,2,0,L|333:109,1,50,8|8,3:0|3:0,0:0:0:0:
166,117,1054,2,0,L|116:92,1,50,8|8,3:0|3:0,0:0:0:0:
399,202,1213,6,0,B|494:202|494:202|380:201,1,200,4|0,3:2|0:0,0:0:0:0:
234,199,1692,2,0,P|116:135|119:67,1,200
221,62,2171,1,0,0:0:0:0:
464,144,2330,6,0,P|435:45|331:44,1,200
171,41,2809,1,0,0:0:0:0:
341,40,2968,1,0,0:0:0:0:
103,202,3128,2,0,P|31:152|81:129,1,150
268,137,3447,2,0,L|426:137,1,150,4|0,3:2|0:0,0:0:0:0:
165,228,3766,6,0,P|104:155|197:128,1,200,4|0,3:2|0:0,0:0:0:0:
332,125,4245,2,0,L|332:-3,1,100
167,177,4564,1,0,0:0:0:0:
50,170,4724,1,0,0:0:0:0:
163,85,4883,1,0,0:0:0:0:
425,195,5043,5,8,3:2:0:0:
161,185,5202,2,0,P|146:132|219:80,1,150,4|0,3:2|0:0,0:0:0:0:
433,122,5522,2,0,P|434:43|341:47,1,150,4|0,3:2|0:0,0:0:0:0:
166,140,5841,1,8,3:2:0:0:
396,146,6000,2,0,L|496:145,1,100,8|8,3:2|3:2,0:0:0:0:
149,255,6319,5,8,3:0:0:0:
90,216,6399,1,0,0:0:0:0:
59,153,6479,1,0,0:0:0:0:
126,117,6559,1,0,3:0:0:0:
371,186,6639,1,8,3:0:0:0:
433,142,6718,1,0,3:0:0:0:
428,59,6798,1,0,3:0:0:0:
353,40,6878,1,0,3:0:0:0:
193,185,6958,5,8,3:0:0:0:
247,185,7038,1,0,3:0:0:0:
301,185,7117,1,0,3:0:0:0:
353,184,7197,1,0,3:0:0:0:
137,133,7277,2,0,L|79:131,1,50,8|0,3:0|3:0,0:0:0:0:
43,79,7437,2,0,L|106:78,1,50,0|0,3:0|3:0,0:0:0:0:
354,123,7596,6,0,L|411:98,1,50,8|0,3:0|3:0,0:0:0:0:
150,122,7756,2,0,L|96:122,1,50,0|0,3:0|3:0,0:0:0:0:
368,216,7915,2,0,L|366:148,1,50,8|0,3:0|3:0,0:0:0:0:
100,211,8075,2,0,L|154:210,1,50,0|0,3:0|3:0,0:0:0:0:
375,266,8234,5,8,3:0:0:0:
421,247,8314,1,0,3:0:0:0:
454,211,8394,1,0,3:0:0:0:
470,164,8474,1,0,3:0:0:0:
464,114,8554,1,8,3:0:0:0:
437,72,8633,1,0,3:0:0:0:
395,46,8713,1,0,3:0:0:0:
346,39,8793,1,0,3:0:0:0:
98,208,8873,5,4,3:2:0:0:
356,207,9032,2,0,L|425:207,1,50,10|8,3:0|3:0,0:0:0:0:
455,154,9192,2,0,L|391:152,1,50,10|8,3:0|3:0,0:0:0:0:
151,148,9351,1,4,3:2:0:0:
265,147,9511,2,0,L|336:147,1,50,8|8,3:0|3:0,0:0:0:0:
121,275,9671,2,0,L|63:275,1,50,2|0,3:0|3:0,0:0:0:0:
79,226,9830,2,0,L|150:227,1,50,10|0,3:0|3:0,0:0:0:0:
326,230,9990,1,4,3:2:0:0:
103,142,10149,6,0,L|42:108,1,50,8|8,3:0|3:0,0:0:0:0:
103,142,10309,2,0,L|170:142,1,50,8|8,3:0|3:0,0:0:0:0:
361,137,10468,2,0,P|435:85|428:28,1,150,4|0,3:2|0:0,0:0:0:0:
209,40,10788,2,0,P|166:104|218:115,1,150,4|0,3:2|0:0,0:0:0:0:
316,124,11107,2,0,P|365:173|294:213,1,150,2|0,0:0|0:0,0:0:0:0:
110,221,11426,6,0,P|55:157|98:108,1,150,4|0,3:2|0:0,0:0:0:0:
233,106,11745,1,8,3:2:0:0:
366,108,11905,2,0,L|459:62,2,100,0|0|0,0:0|3:0|3:0,0:0:0:0:
146,108,12383,2,0,L|146:233,1,100,8|0,3:2|3:0,0:0:0:0:
289,206,12702,5,0,0:0:0:0:
146,208,12862,1,0,3:0:0:0:
445,204,13022,2,0,L|444:101,1,100,8|0,3:2|0:0,0:0:0:0:
205,107,13341,2,0,L|116:43,1,100,0|0,3:0|3:0,0:0:0:0:
381,78,13660,2,0,P|446:101|457:177,1,150,8|0,3:2|0:0,0:0:0:0:
246,206,13979,6,0,L|141:205,1,100,0|0,3:2|0:0,0:0:0:0:
380,206,14298,1,8,3:2:0:0:
243,134,14458,2,0,L|146:84,2,100,0|0|0,0:0|3:0|3:0,0:0:0:0:
476,132,14937,1,8,3:2:0:0:
226,169,15096,6,0,L|224:60,1,100,0|0,3:0|0:0,0:0:0:0:
383,63,15415,1,0,3:0:0:0:
159,215,15575,2,0,L|38:212,1,100,8|0,3:2|0:0,0:0:0:0:
297,153,15894,2,0,L|296:47,1,100,0|0,3:0|3:0,0:0:0:0:
35,157,16213,2,0,B|35:56|35:56|89:74,1,150,8|0,3:2|0:0,0:0:0:0:
252,175,16532,6,0,L|371:177,1,100,4|0,3:2|0:0,0:0:0:0:
129,177,16851,2,0,L|128:62,1,100,8|0,3:2|0:0,0:0:0:0:
278,85,17171,2,0,L|165:82,1,100,0|0,3:0|3:0,0:0:0:0:
431,89,17490,1,8,3:2:0:0:
278,85,17649,6,0,L|152:82,1,100,0|0,3:0|0:0,0:0:0:0:
414,165,17968,2,0,L|411:46,1,100,0|8,3:0|3:2,0:0:0:0:
275,70,18288,1,0,0:0:0:0:
51,73,18447,2,0,L|50:177,1,100,0|0,3:0|3:0,0:0:0:0:
317,184,18766,2,0,L|440:187,1,100,8|0,3:2|0:0,0:0:0:0:
146,183,19085,6,0,L|13:181,1,100,4|0,3:2|0:0,0:0:0:0:
275,186,19405,1,8,3:2:0:0:
127,111,19564,2,0,L|31:60,2,100,0|0|0,0:0|3:0|3:0,0:0:0:0:
351,115,20043,1,8,3:2:0:0:
107,150,20202,6,0,P|96:248|182:267,1,200,0|0,3:0|3:0,0:0:0:0:
477,267,20681,1,8,3:2:0:0:
334,267,20841,1,0,3:0:0:0:
91,277,21000,1,0,3:0:0:0:
334,267,21160,1,8,3:2:0:0:
70,238,21319,1,8,3:2:0:0:
393,210,21479,1,0,0:0:0:0:
161,162,21639,6,0,L|160:51,1,100,4|0,3:2|0:0,0:0:0:0:
379,159,21958,1,8,3:2:0:0:
208,165,22117,1,0,0:0:0:0:
429,223,22277,2,0,B|488:222|488:222|408:222,1,100,0|0,3:0|3:0,0:0:0:0:
181,232,22596,1,8,3:2:0:0:
406,171,22756,6,0,P|397:79|296:32,1,200,0|0,3:0|3:0,0:0:0:0:
70,179,23234,2,0,L|71:74,1,100,8|0,3:2|0:0,0:0:0:0:
289,181,23554,1,0,3:0:0:0:
136,183,23713,1,0,3:0:0:0:
370,180,23873,2,0,P|445:137|445:76,1,150,8|0,3:2|0:0,0:0:0:0:
265,76,24192,6,0,L|159:75,1,100,0|0,3:0|3:0,0:0:0:0:
397,216,24511,2,0,L|396:90,1,100,8|0,3:2|0:0,0:0:0:0:
140,157,24830,2,0,L|140:42,1,100,0|0,3:0|3:0,0:0:0:0:
366,52,25149,1,8,3:2:0:0:
141,59,25309,6,0,P|71:109|163:151,1,200,0|0,3:0|3:0,0:0:0:0:
372,166,25788,2,0,L|494:168,1,100,8|0,3:2|0:0,0:0:0:0:
230,102,26107,2,0,L|144:104,1,50,0|0,3:0|3:0,0:0:0:0:
371,96,26266,2,0,L|371:37,1,50,0|0,3:0|3:0,0:0:0:0:
174,183,26426,2,0,P|99:137|131:58,1,150,8|0,3:2|0:0,0:0:0:0:
369,78,26745,6,0,L|477:78,1,100,4|0,3:2|0:0,0:0:0:0:
126,268,27064,2,0,P|44:204|64:165,1,150,8|0,3:2|0:0,0:0:0:0:
221,129,27383,2,0,L|89:128,1,100,0|0,3:0|3:0,0:0:0:0:
392,259,27702,2,0,P|461:229|473:158,1,150,8|0,3:2|0:0,0:0:0:0:
196,80,28022,6,0,L|85:82,1,100,0|0,3:0|3:0,0:0:0:0:
407,192,28341,2,0,L|406:72,1,100,8|0,3:2|0:0,0:0:0:0:
155,187,28660,1,0,3:0:0:0:
383,193,28819,2,0,L|456:192,1,50,8|8,3:0|3:0,0:0:0:0:
237,195,28979,2,0,L|177:170,1,50,8|8,3:2|3:0,0:0:0:0:
386,128,29139,2,0,L|384:68,1,50,8|8,3:0|3:0,0:0:0:0:
125,73,29298,6,0,P|61:100|144:173,1,200,4|8,3:2|3:2,0:0:0:0:
355,184,29777,2,0,L|430:184,1,50,8|8,3:2|3:2,0:0:0:0:
207,132,29937,2,0,L|320:133,1,100,8|0,3:2|3:0,0:0:0:0:
430,129,30256,1,0,3:0:0:0:
127,196,30415,6,0,P|66:130|155:86,1,200,4|0,3:2|3:0,0:0:0:0:
200,78,30814,1,0,3:0:0:0:
384,79,30894,1,8,3:2:0:0:
114,200,31054,2,0,L|34:198,1,50,8|8,3:0|3:0,0:0:0:0:
257,196,31213,2,0,P|300:146|267:114,1,100,8|8,3:0|3:0,0:0:0:0:
44,130,31532,1,0,3:0:0:0:
264,133,31692,1,0,3:0:0:0:
35,182,31851,6,0,L|34:70,1,100,4|0,3:2|3:0,0:0:0:0:
198,192,32171,2,0,L|93:176,1,100,0|0,0:0|3:0,0:0:0:0:
149,146,32410,1,0,0:0:0:0:
342,49,32490,2,0,L|165:150,1,200,8|0,3:2|3:0,0:0:0:0:
64,147,32968,1,0,3:0:0:0:
413,248,33128,6,0,L|348:249,1,50
313,189,33288,2,0,L|374:189,1,50,8|0,3:2|0:0,0:0:0:0:
398,187,33447,2,0,L|419:138,1,50,0|0,3:0|0:0,0:0:0:0:
389,98,33607,2,0,L|321:98,1,50,0|0,3:0|0:0,0:0:0:0:
161,98,33766,2,0,P|98:132|98:172,1,100,8|0,3:2|0:0,0:0:0:0:
316,159,34085,1,0,3:0:0:0:
157,159,34245,1,0,3:0:0:0:
388,156,34405,5,4,3:2:0:0:
154,190,34564,1,0,3:0:0:0:
301,183,34724,1,0,3:0:0:0:
443,106,34883,1,0,3:0:0:0:
162,113,35043,1,8,3:2:0:0:
304,113,35202,2,0,L|444:113,2,100,0|0|0,3:0|3:0|3:0,0:0:0:0:
78,116,35681,6,0,L|79:12,1,100,0|8,0:0|3:2,0:0:0:0:
224,117,36000,1,0,3:0:0:0:
78,116,36160,1,0,3:0:0:0:
324,174,36319,2,0,L|432:174,1,100,8|8,3:2|3:2,0:0:0:0:
262,120,36639,2,0,L|129:120,1,100,8|0,3:2|0:0,0:0:0:0:
438,116,36958,6,0,P|413:225|329:234,1,200,4|0,3:2|0:0,0:0:0:0:
188,238,37437,2,0,L|109:237,1,50,0|0,3:0|3:0,0:0:0:0:
404,234,37596,2,0,P|464:154|383:121,1,200,8|0,3:2|3:0,0:0:0:0:
295,113,38075,1,0,3:0:0:0:
49,117,38234,6,0,L|155:116,1,100,0|8,3:0|3:2,0:0:0:0:
295,113,38554,1,0,3:0:0:0:
141,113,38713,1,0,3:0:0:0:
370,194,38873,2,0,P|427:117|349:83,1,200,8|0,3:2|3:0,0:0:0:0:
206,83,39351,1,0,0:0:0:0:
443,186,39511,6,0,L|260:186,1,150,4|0,3:2|0:0,0:0:0:0:
205,188,39830,2,0,L|321:188,1,110.000003356934,0|0,0:0|3:0,0:0:0:0:
373,188,40069,1,0,3:0:0:0:
207,116,40149,2,0,L|79:117,1,100,8|0,3:2|3:0,0:0:0:0:
148,64,40389,1,0,0:0:0:0:
353,62,40468,2,0,L|424:62,1,50,0|0,3:0|0:0,0:0:0:0:
453,62,40628,2,0,L|384:62,1,50,0|0,3:0|0:0,0:0:0:0:
146,260,40788,6,0,P|103:165|134:150,1,150,4|0,3:2|0:0,0:0:0:0:
377,192,41107,2,0,P|432:131|377:116,1,150,4|0,3:2|0:0,0:0:0:0:
193,171,41426,2,0,L|366:160,1,150,4|0,3:2|0:0,0:0:0:0:
148,148,41745,2,0,P|103:113|115:73,1,100,8|0,3:2|3:0,0:0:0:0:
399,122,42064,6,0,L|396:12,1,100,4|0,3:2|3:0,0:0:0:0:
243,46,42383,1,8,3:2:0:0:
396,22,42543,1,0,0:0:0:0:
164,163,42702,2,0,L|163:57,1,100,0|0,3:0|3:0,0:0:0:0:
406,165,43022,2,0,P|460:115|412:62,1,150,8|0,3:2|0:0,0:0:0:0:
208,66,43341,6,0,L|106:113,1,100,0|0,3:0|3:0,0:0:0:0:
276,63,43660,1,8,3:2:0:0:
38,180,43819,2,0,L|152:129,2,100,0|0|0,3:0|0:0|3:0,0:0:0:0:
288,167,44298,2,0,L|345:168,1,50,8|0,3:2|0:0,0:0:0:0:
347,114,44458,2,0,L|297:114,1,50
72,123,44617,6,0,L|73:252,1,100,0|0,3:0|3:0,0:0:0:0:
292,232,44937,2,0,L|403:232,1,100,8|0,3:2|3:0,0:0:0:0:
237,163,45256,1,0,3:0:0:0:
453,160,45415,2,0,L|451:36,1,100,0|8,3:0|3:2,0:0:0:0:
330,56,45734,1,0,3:0:0:0:
86,185,45894,6,0,P|30:128|35:101,1,100,12|0,3:2|3:0,0:0:0:0:
88,75,46133,1,0,3:0:0:0:
296,190,46213,2,0,L|407:191,1,100,8|0,3:2|3:0,0:0:0:0:
395,190,46452,1,0,3:0:0:0:
231,114,46532,2,0,L|324:73,1,100,8|8,3:2|3:0,0:0:0:0:
265,38,46772,1,8,3:0:0:0:
88,195,46851,2,0,L|89:88,1,100,8|8,3:2|3:0,0:0:0:0:
138,86,47091,1,8,3:0:0:0:
360,86,47171,6,0,P|432:133|355:191,1,200,4|0,3:2|0:0,0:0:0:0:
205,199,47649,2,0,L|119:199,1,50,0|0,3:0|3:0,0:0:0:0:
312,200,47809,2,0,L|421:199,1,100,8|0,3:2|0:0,0:0:0:0:
93,146,48128,2,0,L|34:27,1,100,4|0,3:2|0:0,0:0:0:0:
396,128,48447,6,0,L|498:128,2,100,4|0|0,3:2|3:0|0:0,0:0:0:0:
254,126,48926,2,0,L|184:124,1,50,0|0,3:0|3:0,0:0:0:0:
376,128,49085,1,8,3:2:0:0:
123,231,49245,2,0,L|66:230,1,50,8|8,3:0|3:0,0:0:0:0:
43,189,49405,2,0,L|31:120,1,50,0|0,3:0|3:0,0:0:0:0:
62,105,49564,2,0,L|125:104,1,50,0|0,3:0|3:0,0:0:0:0:
263,105,49724,6,0,L|405:105,1,100,4|0,3:2|3:0,0:0:0:0:
464,203,50043,1,0,3:0:0:0:
314,204,50202,2,0,L|255:204,1,50,8|8,3:0|3:0,0:0:0:0:
80,201,50362,2,0,L|80:93,1,100,8|0,3:0|3:0,0:0:0:0:
231,96,50681,1,2,0:0:0:0:
384,96,50841,1,0,3:0:0:0:
145,196,51000,6,0,L|31:193,1,100,8|8,3:2|3:0,0:0:0:0:
265,128,51319,2,0,L|136:62,1,100,8|8,3:2|3:0,0:0:0:0:
432,117,51639,2,0,L|429:14,1,100,8|8,3:2|3:0,0:0:0:0:
147,38,51958,1,8,3:2:0:0:
422,36,52117,1,8,3:0:0:0:
152,209,52277,6,0,L|99:175,1,50,4|0,3:2|0:0,0:0:0:0:
82,148,52437,2,0,L|121:100,1,50,0|0,3:0|0:0,0:0:0:0:
157,103,52596,2,0,L|222:103,1,50,8|0,3:0|0:0,0:0:0:0:
260,104,52756,2,0,L|279:46,1,50,0|0,3:0|0:0,0:0:0:0:
103,273,52915,2,0,L|39:253,1,50,8|8,3:0|3:0,0:0:0:0:
287,259,53075,2,0,L|337:239,1,50,8|8,3:0|3:0,0:0:0:0:
98,158,53234,2,0,L|52:128,1,50,8|8,3:0|3:0,0:0:0:0:
333,137,53394,2,0,L|387:108,1,50,8|8,3:0|3:0,0:0:0:0:
118,205,53554,6,0,P|57:125|136:72,1,200,4|8,3:2|3:2,0:0:0:0:
333,66,54032,2,0,L|441:64,1,100,0|0,3:0|0:0,0:0:0:0:
205,175,54351,2,0,L|92:175,2,100,0|8|0,3:0|3:2|0:0,0:0:0:0:
428,174,54830,5,0,3:0:0:0:
200,186,54990,2,0,L|198:83,1,100,0|8,3:0|3:2,0:0:0:0:
434,78,55309,2,0,L|318:77,1,100,0|0,3:0|0:0,0:0:0:0:
115,78,55628,1,0,3:0:0:0:
261,78,55788,2,0,L|366:78,1,100,8|0,3:2|0:0,0:0:0:0:
86,200,56107,6,0,L|88:87,1,100,0|0,3:0|3:0,0:0:0:0:
331,197,56426,1,12,3:2:0:0:
161,198,56585,1,0,0:0:0:0:
395,199,56745,2,0,L|392:65,1,100,0|0,3:0|3:0,0:0:0:0:
131,197,57064,2,0,L|26:196,1,100,12|0,3:2|0:0,0:0:0:0:
271,131,57383,6,0,L|384:131,1,100,4|0,3:2|3:0,0:0:0:0:
139,127,57702,2,0,L|140:16,1,100,12|0,3:2|3:0,0:0:0:0:
385,128,58022,2,0,L|384:17,1,100,4|0,3:2|3:0,0:0:0:0:
158,211,58341,2,0,L|160:150,1,50,8|8,3:0|3:0,0:0:0:0:
338,183,58500,2,0,L|395:180,1,50,8|8,3:0|3:0,0:0:0:0:
121,184,58660,6,0,P|61:121|141:75,1,200,4|8,3:2|3:2,0:0:0:0:
367,73,59139,2,0,L|107:72,1,239.999992675781,0|0,3:0|3:0,0:0:0:0:
271,132,59617,1,8,3:2:0:0:
105,141,59777,1,0,0:0:0:0:
343,196,59937,5,0,3:0:0:0:
105,216,60096,2,0,L|104:107,1,100,0|8,3:0|3:2,0:0:0:0:
343,196,60415,2,0,P|407:125|335:85,1,200,0|0,3:0|3:0,0:0:0:0:
170,85,60894,2,0,P|72:34|68:6,1,150,8|0,3:2|0:0,0:0:0:0:
242,159,61213,6,0,L|370:154,1,100,0|0,3:0|3:0,0:0:0:0:
117,175,61532,2,0,P|62:128|126:87,1,150,12|0,3:2|0:0,0:0:0:0:
305,89,61851,2,0,L|404:92,1,100,0|0,3:0|3:0,0:0:0:0:
123,178,62171,2,0,L|124:73,1,100,12|0,3:2|0:0,0:0:0:0:
355,184,62490,6,0,L|460:184,1,100,4|8,3:2|3:0,0:0:0:0:
413,127,62729,1,8,3:0:0:0:
240,128,62809,2,0,P|174:96|173:70,1,100,8|8,3:2|3:0,0:0:0:0:
236,40,63048,1,8,3:0:0:0:
441,94,63128,2,0,L|444:205,1,100,8|8,3:2|3:0,0:0:0:0:
391,218,63367,1,8,3:0:0:0:
185,217,63447,2,0,L|125:178,1,50,8|0,3:2|0:0,0:0:0:0:
357,176,63607,2,0,L|406:171,1,50,8|8,3:0|3:0,0:0:0:0:
102,142,63766,6,0,P|94:243|193:260,1,200,4|8,3:2|3:2,0:0:0:0:
408,262,64245,2,0,L|163:263,1,239.999992675781,0|0,3:0|3:0,0:0:0:0:
304,199,64724,2,0,P|371:128|361:71,1,150,8|0,3:2|0:0,0:0:0:0:
157,81,65043,6,0,L|38:81,2,100,0|0|8,3:0|3:0|3:2,0:0:0:0:
377,81,65522,2,0,P|437:128|370:206,1,200,0|0,3:0|3:0,0:0:0:0:
218,207,66000,1,8,3:2:0:0:
374,209,66160,1,0,0:0:0:0:
124,207,66319,6,0,L|125:79,1,100,0|0,3:0|3:0,0:0:0:0:
357,205,66639,1,12,3:2:0:0:
218,207,66798,1,0,0:0:0:0:
435,206,66958,2,0,L|433:75,1,100,0|0,3:0|3:0,0:0:0:0:
191,105,67277,2,0,L|90:57,1,100,12|0,3:2|0:0,0:0:0:0:
349,101,67596,6,0,L|455:99,1,100,4|0,3:2|3:0,0:0:0:0:
223,166,67915,2,0,L|330:102,1,100,12|0,3:2|3:0,0:0:0:0:
83,174,68234,2,0,L|15:172,1,50,8|8,3:2|3:0,0:0:0:0:
83,174,68394,2,0,L|142:175,1,50,8|8,3:0|3:0,0:0:0:0:
323,178,68554,2,0,L|394:176,1,50,8|8,3:2|3:0,0:0:0:0:
164,112,68713,2,0,L|100:73,1,50,8|8,3:0|3:0,0:0:0:0:
356,101,68873,6,0,P|426:157|350:222,1,200,4|8,3:2|3:2,0:0:0:0:
123,227,69351,2,0,L|389:231,1,239.999992675781,0|0,3:0|3:0,0:0:0:0:
223,162,69830,1,8,3:2:0:0:
384,157,69990,1,0,0:0:0:0:
163,109,70149,6,0,L|65:68,2,100,0|0|8,3:0|3:0|3:2,0:0:0:0:
385,100,70628,2,0,P|431:142|436:195,1,100,0|0,3:0|0:0,0:0:0:0:
195,216,70947,2,0,L|79:216,2,100,0|8|0,3:0|3:2|0:0,0:0:0:0:
421,217,71426,6,0,L|419:94,1,100,0|0,3:0|3:0,0:0:0:0:
201,125,71745,2,0,P|141:147|130:226,1,150,12|0,3:2|0:0,0:0:0:0:
291,229,72064,2,0,L|168:229,1,100,0|0,3:0|3:0,0:0:0:0:
434,157,72383,2,0,P|426:86|333:70,1,150,12|0,3:2|0:0,0:0:0:0:
139,160,72702,6,0,L|59:160,1,50,8|0,3:0|3:0,0:0:0:0:
90,129,72862,2,0,L|151:129,1,50,0|0,3:0|3:0,0:0:0:0:
315,124,73022,2,0,L|372:124,1,50,8|0,3:0|3:0,0:0:0:0:
156,78,73181,2,0,L|111:47,1,50,0|0,3:0|3:0,0:0:0:0:
360,194,73341,2,0,L|421:194,1,50,0|0,3:0|3:0,0:0:0:0:
459,194,73500,2,0,L|387:193,1,50,0|0,3:0|3:0,0:0:0:0:
167,199,73660,2,0,P|102:179|113:96,1,150,12|0,3:2|0:0,0:0:0:0:
379,86,73979,6,0,P|444:130|342:181,1,200,4|8,3:2|3:2,0:0:0:0:
214,206,74458,2,0,L|109:203,1,100,0|0,3:0|0:0,0:0:0:0:
275,149,74777,1,0,3:0:0:0:
52,142,74937,2,0,L|55:38,1,100,8|0,3:2|0:0,0:0:0:0:
326,69,75256,6,0,B|402:71|402:71|327:70,1,150.000005722046,0|0,3:0|3:0,0:0:0:0:
96,70,75575,2,0,L|97:176,1,100,8|0,3:2|0:0,0:0:0:0:
328,168,75894,2,0,B|404:166|404:166|317:166,1,150.000005722046,0|0,3:0|3:0,0:0:0:0:
99,168,76213,2,0,P|33:129|89:76,1,150,8|0,3:2|0:0,0:0:0:0:
311,65,76532,6,0,P|381:111|289:180,1,200,4|8,3:2|3:2,0:0:0:0:
163,190,77011,1,0,0:0:0:0:
387,189,77171,2,0,L|386:84,1,100,4|0,3:2|0:0,0:0:0:0:
149,134,77490,2,0,P|109:94|189:47,1,150,8|0,3:2|0:0,0:0:0:0:
361,73,77809,6,0,P|400:130|329:152,1,150,4|0,3:2|0:0,0:0:0:0:
118,191,78128,2,0,P|47:140|120:78,1,200,8|0,3:2|3:0,0:0:0:0:
363,111,78607,2,0,L|431:109,1,50,8|8,3:0|3:0,0:0:0:0:
187,81,78766,2,0,L|186:19,1,50,8|0,3:0|3:0,0:0:0:0:
375,77,78926,2,0,L|435:58,1,50,0|0,3:0|3:0,0:0:0:0:
174,202,79085,6,0,P|121:157|183:134,1,150,4|0,3:2|0:0,0:0:0:0:
371,136,79405,2,0,L|259:134,1,100,8|0,3:2|0:0,0:0:0:0:
118,128,79724,1,0,3:0:0:0:
278,135,79883,1,0,3:0:0:0:
60,217,80043,2,0,L|58:104,1,100,8|0,3:2|3:0,0:0:0:0:
327,222,80362,6,0,L|446:224,1,100,4|0,3:2|3:0,0:0:0:0:
382,167,80601,1,0,3:0:0:0:
164,166,80681,2,0,L|102:166,1,50,8|0,3:0|0:0,0:0:0:0:
110,120,80841,2,0,L|181:118,1,50,0|0,3:0|3:0,0:0:0:0:
373,118,81000,2,0,L|442:115,1,50,0|0,3:0|0:0,0:0:0:0:
472,115,81160,2,0,L|408:115,1,50,0|0,3:0|3:0,0:0:0:0:
183,115,81319,2,0,L|82:76,1,100,8|0,3:2|0:0,0:0:0:0:
377,116,81639,6,0,P|415:197|382:240,1,150,4|0,3:2|0:0,0:0:0:0:
290,244,81958,2,0,L|180:242,1,100
458,244,82277,1,0,0:0:0:0:
165,241,82596,2,0,L|46:240,1,100
335,126,82915,5,8,3:0:0:0:
96,125,83075,1,8,3:0:0:0:
356,88,83234,1,8,3:0:0:0:
91,102,83394,2,0,P|26:175|97:221,1,200,8|0,3:0|3:0,0:0:0:0:
132,224,83793,1,0,3:0:0:0:
336,224,83873,2,0,P|436:184|424:131,1,150,4|0,3:2|0:0,0:0:0:0:
160,140,84192,6,0,L|75:82,1,100,4|8,3:2|3:0,0:0:0:0:
137,65,84431,1,8,3:0:0:0:
317,61,84511,2,0,L|387:62,1,50,8|8,3:0|3:0,0:0:0:0:
153,206,84671,2,0,L|267:207,1,100,12|8,3:0|3:0,0:0:0:0:
75,155,84910,2,0,L|18:154,2,50,8|0|0,3:0|3:0|3:0,0:0:0:0:
253,158,85149,2,0,L|324:157,1,50,0|0,3:0|0:0,0:0:0:0:
91,110,85309,6,0,L|91:2,1,100,2|8,3:0|3:2,0:0:0:0:
355,102,85628,2,0,L|416:103,1,50,8|0,3:0|0:0,0:0:0:0:
453,100,85788,2,0,L|399:101,1,50,8|0,3:2|0:0,0:0:0:0:
177,102,85947,2,0,L|177:52,1,50,8|0,3:0|0:0,0:0:0:0:
361,134,86107,2,0,L|411:133,1,50,2|0,3:0|3:0,0:0:0:0:
410,133,86266,2,0,L|347:132,1,50,0|0,3:0|3:0,0:0:0:0:
161,202,86426,2,0,L|88:199,1,50,2|0,3:0|3:0,0:0:0:0:
76,152,86585,2,0,L|135:152,1,50,0|0,3:0|3:0,0:0:0:0:
348,155,86745,6,0,L|425:154,1,50,12|8,3:0|3:0,0:0:0:0:
183,96,86905,2,0,L|123:69,1,50,8|8,3:0|3:0,0:0:0:0:
409,83,87064,2,0,L|481:66,1,50,8|8,3:0|3:0,0:0:0:0:
124,239,87224,2,0,P|57:197|142:182,1,200,4|0,3:2|0:0,0:0:0:0:
