osu file format v14

[General]
AudioFilename: audio.mp3
AudioLeadIn: 0
PreviewTime: 53155
Countdown: 0
SampleSet: Soft
StackLeniency: 0.7
Mode: 2
LetterboxInBreaks: 0
WidescreenStoryboard: 0

[Editor]
DistanceSpacing: 1.3
BeatDivisor: 4
GridSize: 32
TimelineZoom: 2.1

[Metadata]
Title:COOLEST (TV Size)
TitleUnicode:COOLEST (TV Size)
Artist:CustomiZ
ArtistUnicode:カスタマイZ
Creator:Ascendance
Version:Ah, Virtuous Knight!
Source:坂本ですが?
Tags:op opening anime japanese jrock sakamoto desu ga havent you heard im haven't i'm -joakh jorkseljund bastian -joni- natsuko bigh bighzonda kukkai [_-kukkai-_] greaper jbhyperion jemzuu ajamez
BeatmapID:3601439
BeatmapSetID:1759632

[Difficulty]
HPDrainRate:7
CircleSize:0
OverallDifficulty:9.8
ApproachRate:9.8
SliderMultiplier:2.5
SliderTickRate:2

[Events]
//Background and Video events
0,0,"cropped-1920-1080-759659.jpg",0,0
//Break Periods
//Storyboard Layer 0 (Background)
//Storyboard Layer 1 (Fail)
//Storyboard Layer 2 (Pass)
//Storyboard Layer 3 (Foreground)
//Storyboard Layer 4 (Overlay)
//Storyboard Sound Samples

[TimingPoints]
-63,319.148936170213,4,2,1,80,1,0
3447,-100,4,2,1,80,0,0
3766,-100,4,2,1,80,0,0
6639,-100,4,2,1,80,0,0
10708,-100,4,2,1,5,0,0
10788,-100,4,2,1,80,0,0
11027,-100,4,2,1,5,0,0
11107,-100,4,2,1,80,0,0
11346,-100,4,2,1,5,0,0
11426,-100,4,2,1,70,0,0
11665,-100,4,2,1,5,0,0
11745,-100,4,2,1,70,0,0
14218,-100,4,2,1,5,0,0
14298,-100,4,2,1,70,0,0
17889,-100,4,2,1,5,0,0
17969,-100,4,2,1,70,0,0
19724,-100,4,2,1,70,0,0
20202,-100,4,2,1,70,0,0
20442,-100,4,2,1,5,0,0
20522,-100,4,2,1,70,0,0
21559,-100,4,2,1,5,0,0
21639,-100,4,2,1,70,0,0
24112,-100,4,2,1,5,0,0
24192,-100,4,2,1,70,0,0
26665,-100,4,2,1,5,0,0
26745,-100,4,2,1,70,0,0
27304,-100,4,2,1,5,0,0
27384,-100,4,2,1,70,0,0
27942,-100,4,2,1,5,0,0
28022,-100,4,2,1,70,0,0
41027,-100,4,2,1,5,0,0
41107,-100,4,2,1,75,0,0
41346,-100,4,2,1,5,0,0
41426,-100,4,2,1,80,0,0
41665,-100,4,2,1,5,0,0
41745,-100,4,2,1,85,0,0
41905,-100,4,2,1,70,0,0
43261,-100,4,2,1,5,0,0
43341,-100,4,2,1,70,0,0
53554,-100,4,2,1,90,0,1
58899,-100,4,2,1,5,0,1
58979,-100,4,2,1,90,0,1
64006,-100,4,2,1,5,0,1
64085,-100,4,2,1,90,0,1
71984,-100,4,2,1,5,0,1
72064,-100,4,2,1,90,0,1
72623,-100,4,2,1,5,0,1
72702,-100,4,2,1,90,0,1
73899,-100,4,2,1,5,0,1
73979,-100,4,2,1,80,0,0
76452,-100,4,2,1,5,0,0
76532,-100,4,2,1,80,0,0
78048,-100,4,2,1,5,0,0
78128,-100,4,2,1,80,0,0
79325,-100,4,2,1,5,0,0
79405,-100,4,2,1,80,0,0
81878,-100,4,2,1,5,0,0
81958,-100,4,2,1,80,0,0
84192,-100,4,2,1,90,0,0
87543,-100,4,2,1,5,0,0

[Colours]
Combo1 : 184,113,255
Combo2 : 98,0,196
Combo3 : 73,73,73

[HitObjects]
119,227,575,6,0,L|46:227,1,62.5,8|8,3:0|3:0,0:0:0:0:
380,308,734,2,0,L|444:307,1,62.5,8|8,3:0|3:0,0:0:0:0:
119,227,894,2,0,L|41:226,1,62.5,8|8,3:0|3:0,0:0:0:0:
380,308,1053,2,0,L|444:307,1,62.5,8|8,3:0|3:0,0:0:0:0:
141,359,1213,6,0,P|59:292|144:202,1,250,4|0,3:2|0:0,0:0:0:0:
293,193,1692,1,0,0:0:0:0:
123,84,1851,2,0,L|123:215,1,125
310,203,2171,1,0,0:0:0:0:
53,294,2330,6,0,L|326:294,1,250
122,128,2809,2,0,L|123:264,1,125
314,311,3128,2,0,P|416:267|397:171,1,187.5
170,79,3447,2,0,L|364:53,1,187.5,4|0,3:2|0:0,0:0:0:0:
70,350,3766,6,0,L|68:92,1,250,4|0,3:2|0:0,0:0:0:0:
236,204,4245,1,0,0:0:0:0:
64,265,4405,1,0,0:0:0:0:
271,241,4564,2,0,L|277:369,1,125
104,242,4883,1,0,0:0:0:0:
460,235,5043,5,8,3:2:0:0:
168,98,5202,2,0,L|360:81,1,187.5,4|0,3:2|0:0,0:0:0:0:
96,336,5522,2,0,P|35:292|108:197,1,187.5,4|0,3:2|0:0,0:0:0:0:
357,158,5841,2,0,L|279:136,1,62.5,8|0,3:2|0:0,0:0:0:0:
31,78,6000,2,0,L|120:55,1,62.5,8|0,3:2|0:0,0:0:0:0:
365,182,6160,2,0,L|298:162,1,62.5,8|0,3:2|0:0,0:0:0:0:
49,345,6319,5,8,3:0:0:0:
37,284,6398,1,0,0:0:0:0:
66,230,6478,1,0,0:0:0:0:
122,205,6558,1,0,3:0:0:0:
326,256,6639,2,0,L|332:184,1,62.5,8|0,3:0|3:0,0:0:0:0:
121,103,6798,2,0,L|115:185,1,62.5,0|0,3:0|3:0,0:0:0:0:
356,229,6958,5,8,3:0:0:0:
415,214,7037,1,0,3:0:0:0:
451,165,7117,1,0,3:0:0:0:
445,104,7197,1,0,3:0:0:0:
234,327,7277,2,0,L|234:253,1,62.5,8|0,3:0|3:0,0:0:0:0:
338,273,7437,2,0,L|347:198,1,62.5,0|0,3:0|3:0,0:0:0:0:
108,136,7596,6,0,L|42:127,1,62.5,8|0,3:0|3:0,0:0:0:0:
279,266,7756,2,0,L|342:275,1,62.5,0|0,3:0|3:0,0:0:0:0:
107,162,7915,2,0,L|24:150,1,62.5,8|0,3:0|3:0,0:0:0:0:
295,288,8075,2,0,L|362:300,1,62.5,0|0,3:0|3:0,0:0:0:0:
93,185,8234,2,0,L|29:176,1,62.5,8|0,3:0|3:0,0:0:0:0:
321,314,8394,2,0,L|404:329,1,62.5,0|0,3:0|3:0,0:0:0:0:
99,213,8554,2,0,L|27:201,1,62.5,8|0,3:0|3:0,0:0:0:0:
362,308,8713,2,0,L|447:328,1,62.5,0|0,3:0|3:0,0:0:0:0:
87,343,8873,6,0,L|98:264,1,62.5,4|0,3:2|0:0,0:0:0:0:
358,224,9032,2,0,L|435:226,1,62.5,10|8,3:0|3:0,0:0:0:0:
201,132,9192,2,0,L|131:132,1,62.5,10|8,3:0|3:0,0:0:0:0:
222,153,9351,2,0,L|294:153,1,62.5,4|0,3:2|0:0,0:0:0:0:
70,242,9511,2,0,L|71:320,1,62.5
272,277,9671,2,0,L|406:270,1,125,2|10,3:0|3:0,0:0:0:0:
71,180,9990,1,4,3:2:0:0:
332,236,10149,6,0,L|336:302,1,62.5,8|8,3:0|3:0,0:0:0:0:
114,206,10309,2,0,L|39:207,1,62.5,8|0,3:0|0:0,0:0:0:0:
281,126,10468,2,0,L|474:122,1,187.5,4|0,3:2|0:0,0:0:0:0:
185,332,10788,2,0,P|130:273|206:201,1,187.5,4|0,3:2|0:0,0:0:0:0:
459,89,11107,2,0,L|459:281,1,187.5,2|0,0:0|0:0,0:0:0:0:
147,45,11426,6,0,P|57:102|150:196,1,250,4|8,3:2|3:2,0:0:0:0:
337,171,11905,2,0,L|337:312,1,125,0|0,0:0|3:0,0:0:0:0:
175,185,12224,1,0,3:0:0:0:
353,190,12383,1,8,3:2:0:0:
63,163,12543,6,0,L|322:161,1,250,0|0,3:0|3:0,0:0:0:0:
115,214,13022,2,0,L|109:348,1,125,8|0,3:2|0:0,0:0:0:0:
303,236,13341,2,0,L|311:102,1,125,0|0,3:0|3:0,0:0:0:0:
19,69,13660,2,0,L|40:317,1,187.5,8|0,3:2|0:0,0:0:0:0:
312,346,13979,6,0,P|396:281|323:212,1,187.5,0|0,3:2|0:0,0:0:0:0:
138,206,14298,1,8,3:2:0:0:
288,208,14458,1,0,0:0:0:0:
32,203,14617,2,0,L|169:205,2,125,0|0|8,0:0|3:0|3:2,0:0:0:0:
327,121,15096,6,0,L|326:265,1,125,0|0,3:0|0:0,0:0:0:0:
172,265,15415,1,0,3:0:0:0:
321,265,15575,1,8,3:2:0:0:
158,266,15734,1,0,0:0:0:0:
411,295,15894,2,0,P|481:202|410:161,1,187.5,0|0,3:0|0:0,0:0:0:0:
241,157,16213,2,0,P|171:81|239:29,1,187.5,8|0,3:2|0:0,0:0:0:0:
445,23,16532,6,0,L|445:192,1,125,4|0,3:2|0:0,0:0:0:0:
290,167,16851,1,8,3:2:0:0:
446,183,17011,1,0,0:0:0:0:
246,199,17171,2,0,L|246:326,1,125,0|0,3:0|3:0,0:0:0:0:
397,254,17490,1,8,3:2:0:0:
70,149,17649,6,0,L|235:121,1,125,0|0,3:0|0:0,0:0:0:0:
366,291,17968,2,0,L|233:268,1,125,0|8,3:0|3:2,0:0:0:0:
63,249,18288,1,0,0:0:0:0:
246,199,18447,2,0,L|371:176,1,125,0|0,3:0|3:0,0:0:0:0:
57,73,18766,2,0,L|196:45,1,125,8|0,3:2|0:0,0:0:0:0:
434,258,19085,6,0,L|146:212,1,250,4|8,3:2|3:2,0:0:0:0:
350,114,19564,1,0,0:0:0:0:
60,314,19724,2,0,L|208:288,2,125,0|0|8,3:0|3:0|3:2,0:0:0:0:
463,216,20202,2,0,L|201:151,2,250,0|0|0,3:0|3:0|3:0,0:0:0:0:
306,248,21000,1,0,3:0:0:0:
53,249,21160,5,8,3:2:0:0:
347,248,21319,1,8,3:2:0:0:
53,249,21479,1,0,0:0:0:0:
391,237,21639,6,0,L|136:198,1,250,4|8,3:2|3:2,0:0:0:0:
312,98,22117,1,0,0:0:0:0:
43,189,22277,2,0,L|42:50,1,125,0|0,3:0|3:0,0:0:0:0:
183,32,22596,1,8,3:2:0:0:
443,205,22756,6,0,L|152:204,1,250,0|0,3:0|3:0,0:0:0:0:
458,224,23234,2,0,L|452:354,1,125,8|0,3:2|0:0,0:0:0:0:
118,211,23554,2,0,L|145:80,1,125,0|0,3:0|0:0,0:0:0:0:
318,11,23873,2,0,L|347:224,1,187.5,8|0,3:2|0:0,0:0:0:0:
114,226,24192,6,0,L|89:361,1,125,0|0,3:0|3:0,0:0:0:0:
276,232,24511,1,8,3:2:0:0:
108,173,24671,1,0,0:0:0:0:
390,236,24830,2,0,P|472:165|385:73,1,250,0|8,3:0|3:2,0:0:0:0:
123,54,25309,6,0,L|392:54,1,250,0|0,3:0|3:0,0:0:0:0:
108,171,25788,2,0,L|103:319,1,125,8|0,3:2|0:0,0:0:0:0:
281,230,26107,2,0,L|357:230,1,62.5,0|0,3:0|3:0,0:0:0:0:
108,152,26266,2,0,L|24:151,1,62.5,0|0,3:0|3:0,0:0:0:0:
318,229,26426,2,0,P|383:156|301:93,1,187.5,8|0,3:2|0:0,0:0:0:0:
114,51,26745,6,0,L|346:52,1,187.5,4|0,3:2|0:0,0:0:0:0:
92,252,27064,2,0,P|27:179|109:116,1,187.5,8|0,3:2|0:0,0:0:0:0:
313,104,27383,5,0,3:0:0:0:
164,99,27543,1,0,3:0:0:0:
436,178,27702,2,0,L|437:315,1,125,8|0,3:2|0:0,0:0:0:0:
124,200,28022,2,0,L|125:63,1,125,0|0,3:0|3:0,0:0:0:0:
440,57,28341,6,0,L|306:57,1,125,8|0,3:2|3:0,0:0:0:0:
37,307,28660,2,0,L|36:172,1,125,0|8,3:0|3:0,0:0:0:0:
119,162,28899,1,8,3:0:0:0:
356,162,28979,2,0,L|360:93,1,62.5,8|8,3:2|3:0,0:0:0:0:
112,189,29139,2,0,L|42:189,1,62.5,8|8,3:0|3:0,0:0:0:0:
325,264,29298,6,0,L|459:264,1,125,4|0,3:2|0:0,0:0:0:0:
143,180,29617,1,8,3:2:0:0:
441,174,29777,1,8,3:2:0:0:
245,175,29857,1,8,3:2:0:0:
46,175,29937,1,8,3:2:0:0:
325,179,30096,1,0,3:0:0:0:
46,175,30256,1,0,3:0:0:0:
458,338,30415,6,0,L|457:55,1,250,4|0,3:2|3:0,0:0:0:0:
373,65,30814,1,0,3:0:0:0:
92,201,30894,2,0,L|92:48,1,125,8|8,3:2|3:0,0:0:0:0:
174,50,31133,1,8,3:0:0:0:
432,45,31213,1,8,3:0:0:0:
275,42,31373,1,8,3:0:0:0:
455,64,31532,2,0,L|456:205,1,125,0|0,3:0|3:0,0:0:0:0:
131,335,31851,6,0,P|40:270|115:176,1,250,4|0,3:2|0:0,0:0:0:0:
275,167,32330,2,0,L|275:272,1,62.5,0|0,3:0|0:0,0:0:0:0:
26,80,32490,2,0,L|26:225,1,125,8|0,3:2|0:0,0:0:0:0:
190,222,32809,1,0,3:0:0:0:
33,283,32968,1,0,3:0:0:0:
332,342,33128,5,0,0:0:0:0:
392,328,33207,1,0,0:0:0:0:
441,290,33287,1,8,3:2:0:0:
467,234,33367,1,0,0:0:0:0:
467,172,33447,1,0,3:0:0:0:
440,116,33526,1,0,0:0:0:0:
391,78,33606,1,0,3:0:0:0:
330,65,33686,1,0,0:0:0:0:
65,193,33766,2,0,L|66:38,1,125,8|0,3:2|0:0,0:0:0:0:
335,210,34085,1,0,3:0:0:0:
67,270,34245,1,0,3:0:0:0:
443,343,34405,5,4,3:2:0:0:
99,269,34564,1,0,3:0:0:0:
396,187,34724,1,0,3:0:0:0:
113,283,34883,2,0,L|191:267,1,62.5,0|0,3:0|0:0,0:0:0:0:
448,202,35043,5,8,3:2:0:0:
278,208,35202,1,0,3:0:0:0:
454,226,35362,2,0,L|458:353,1,125,0|0,3:0|3:0,0:0:0:0:
131,202,35681,1,0,0:0:0:0:
292,204,35841,1,8,3:2:0:0:
42,146,36000,2,0,L|41:285,1,125,0|0,3:0|3:0,0:0:0:0:
296,135,36319,5,8,3:2:0:0:
40,127,36479,1,8,3:2:0:0:
300,111,36639,1,8,3:2:0:0:
146,111,36798,1,0,0:0:0:0:
443,112,36958,6,0,L|441:248,1,125,4|0,3:2|0:0,0:0:0:0:
282,258,37277,1,0,0:0:0:0:
465,258,37437,2,0,L|397:247,1,62.5,0|0,3:0|0:0,0:0:0:0:
101,148,37596,2,0,L|370:98,1,250,8|0,3:2|3:0,0:0:0:0:
180,45,38075,1,0,3:0:0:0:
332,91,38234,5,0,3:0:0:0:
44,219,38394,2,0,L|187:197,2,125,8|0|0,3:2|3:0|0:0,0:0:0:0:
382,307,38873,2,0,L|126:274,1,250,8|0,3:2|3:0,0:0:0:0:
111,117,39351,1,0,0:0:0:0:
376,39,39511,6,0,P|453:70|446:201,1,187.5,4|0,3:2|0:0,0:0:0:0:
172,178,39830,2,0,P|95:209|102:340,1,187.5,0|0,0:0|3:0,0:0:0:0:
378,351,40149,2,0,P|450:290|413:198,1,187.5,8|0,3:2|0:0,0:0:0:0:
107,174,40468,2,0,P|34:120|80:28,1,187.5,0|0,3:0|0:0,0:0:0:0:
304,34,40788,6,0,L|493:15,1,187.5,4|0,3:2|0:0,0:0:0:0:
202,212,41107,2,0,L|11:192,1,187.5,4|0,3:2|0:0,0:0:0:0:
315,347,41426,2,0,L|508:326,1,187.5,4|0,3:2|0:0,0:0:0:0:
236,228,41745,2,0,L|83:210,1,125,8|0,3:2|3:0,0:0:0:0:
412,77,42064,6,0,L|420:224,1,125,4|0,3:2|0:0,0:0:0:0:
243,76,42383,1,8,3:2:0:0:
411,47,42543,1,0,0:0:0:0:
162,211,42702,1,0,3:0:0:0:
322,239,42862,1,0,3:0:0:0:
41,247,43022,2,0,L|47:386,1,125,8|0,3:2|0:0,0:0:0:0:
404,215,43341,5,0,3:0:0:0:
243,191,43500,1,0,3:0:0:0:
81,167,43660,1,8,3:2:0:0:
420,217,43819,2,0,L|387:363,1,125,0|0,3:0|0:0,0:0:0:0:
198,352,44139,1,0,3:0:0:0:
488,200,44298,2,0,L|290:163,1,187.5,8|0,3:2|0:0,0:0:0:0:
54,92,44617,6,0,L|189:63,1,125,0|0,3:0|3:0,0:0:0:0:
456,158,44937,1,8,3:2:0:0:
203,105,45096,1,0,3:0:0:0:
343,52,45256,1,0,3:0:0:0:
66,168,45415,2,0,L|38:303,1,125,0|8,3:0|3:2,0:0:0:0:
176,339,45734,1,0,3:0:0:0:
459,334,45894,6,0,L|437:243,1,62.5,12|0,3:2|0:0,0:0:0:0:
218,214,46054,2,0,L|154:189,1,62.5,0|0,3:0|3:0,0:0:0:0:
428,242,46213,2,0,L|397:178,1,62.5,8|0,3:2|0:0,0:0:0:0:
165,173,46373,2,0,L|91:178,1,62.5,0|0,3:0|3:0,0:0:0:0:
338,128,46532,6,0,L|499:108,1,125,8|8,3:2|3:0,0:0:0:0:
385,82,46772,1,8,3:0:0:0:
157,243,46851,2,0,L|-4:223,1,125,8|8,3:2|3:0,0:0:0:0:
110,197,47091,1,8,3:0:0:0:
421,226,47171,5,4,3:2:0:0:
195,304,47490,2,0,L|358:304,1,125,0|0,0:0|3:0,0:0:0:0:
248,265,47729,1,0,3:0:0:0:
37,179,47809,2,0,L|36:324,1,125,8|0,3:2|0:0,0:0:0:0:
324,143,48128,1,4,3:2:0:0:
39,132,48288,1,0,0:0:0:0:
342,172,48447,6,0,L|485:172,2,125,4|0|0,3:2|3:0|0:0,0:0:0:0:
60,173,48926,2,0,L|147:171,1,62.5,0|0,3:0|3:0,0:0:0:0:
359,167,49085,2,0,L|489:164,1,125,8|8,3:2|3:0,0:0:0:0:
428,136,49325,1,8,3:0:0:0:
160,149,49405,2,0,L|161:59,1,62.5,0|0,3:0|3:0,0:0:0:0:
416,197,49564,2,0,L|416:282,1,62.5,0|0,3:0|3:0,0:0:0:0:
177,307,49724,6,0,L|32:306,1,125,4|0,3:2|3:0,0:0:0:0:
331,216,50043,2,0,L|473:217,1,125,0|8,3:0|3:0,0:0:0:0:
384,186,50282,1,8,3:0:0:0:
123,196,50362,2,0,L|121:41,1,125,8|0,3:0|3:0,0:0:0:0:
393,187,50681,1,2,0:0:0:0:
53,185,50841,1,0,3:0:0:0:
325,190,51000,5,8,3:2:0:0:
171,194,51160,1,8,3:0:0:0:
325,190,51319,1,8,3:2:0:0:
171,194,51479,1,8,3:0:0:0:
431,192,51639,2,0,L|500:192,1,62.5,8|0,3:2|0:0,0:0:0:0:
150,194,51798,2,0,L|75:192,1,62.5,8|0,3:0|0:0,0:0:0:0:
425,213,51958,2,0,L|494:211,1,62.5,8|0,3:2|0:0,0:0:0:0:
117,207,52117,2,0,L|47:207,1,62.5,8|0,3:0|0:0,0:0:0:0:
313,331,52277,5,4,3:2:0:0:
343,324,52316,1,0,0:0:0:0:
367,305,52356,1,0,0:0:0:0:
381,278,52396,1,0,0:0:0:0:
382,247,52436,1,0,3:0:0:0:
369,218,52476,1,0,0:0:0:0:
345,199,52516,1,0,0:0:0:0:
315,191,52556,1,0,0:0:0:0:
109,233,52596,5,8,3:0:0:0:
78,226,52635,1,0,0:0:0:0:
54,207,52675,1,0,0:0:0:0:
40,180,52715,1,0,0:0:0:0:
39,149,52755,1,0,3:0:0:0:
52,120,52795,1,0,0:0:0:0:
76,101,52835,1,0,0:0:0:0:
106,93,52875,1,0,0:0:0:0:
345,80,52915,6,0,L|435:79,1,62.5,8|8,3:0|3:0,0:0:0:0:
107,162,53075,2,0,L|38:162,1,62.5,8|8,3:0|3:0,0:0:0:0:
393,110,53234,2,0,L|461:107,1,62.5,8|8,3:0|3:0,0:0:0:0:
101,192,53394,2,0,L|21:192,1,62.5,8|8,3:0|3:0,0:0:0:0:
379,340,53554,6,0,P|473:278|381:170,1,250,4|8,3:2|3:2,0:0:0:0:
94,109,54032,2,0,L|353:84,1,250,0|0,3:0|3:0,0:0:0:0:
72,237,54511,2,0,L|70:373,1,125,8|0,3:2|0:0,0:0:0:0:
349,217,54830,5,0,3:0:0:0:
59,64,54990,2,0,L|63:206,1,125,0|8,3:0|3:2,0:0:0:0:
376,59,55309,2,0,L|117:32,1,250,0|0,3:0|3:0,0:0:0:0:
451,278,55788,2,0,L|459:126,1,125,8|0,3:2|0:0,0:0:0:0:
176,333,56107,6,0,P|103:282|169:201,1,187.5,0|0,3:0|0:0,0:0:0:0:
368,199,56426,1,12,3:2:0:0:
90,195,56585,1,0,0:0:0:0:
390,203,56745,2,0,P|477:147|415:56,1,187.5,0|0,3:0|0:0,0:0:0:0:
121,31,57064,1,12,3:2:0:0:
406,23,57224,1,0,0:0:0:0:
73,67,57383,6,0,L|74:213,1,125,4|0,3:2|3:0,0:0:0:0:
399,228,57702,1,12,3:2:0:0:
73,250,57862,1,0,3:0:0:0:
444,172,58022,2,0,L|446:309,1,125,4|0,3:2|3:0,0:0:0:0:
94,157,58341,2,0,L|23:157,1,62.5,8|8,3:0|3:0,0:0:0:0:
395,139,58500,2,0,L|481:139,1,62.5,8|8,3:0|3:0,0:0:0:0:
114,356,58660,6,0,P|29:285|136:204,1,250,4|8,3:2|3:2,0:0:0:0:
371,131,59139,2,0,L|110:131,1,250,0|0,3:0|3:0,0:0:0:0:
448,239,59617,2,0,L|448:373,1,125,8|0,3:2|0:0,0:0:0:0:
155,217,59937,5,0,3:0:0:0:
446,221,60096,1,0,3:0:0:0:
135,215,60256,1,8,3:2:0:0:
454,151,60415,2,0,L|154:152,1,250,0|0,3:0|3:0,0:0:0:0:
468,243,60894,2,0,L|472:368,1,125,8|0,3:2|0:0,0:0:0:0:
201,169,61213,6,0,P|122:225|146:300,1,187.5,0|0,3:0|0:0,0:0:0:0:
367,330,61532,2,0,L|502:328,1,125,12|0,3:2|0:0,0:0:0:0:
215,252,61851,2,0,P|143:214|203:104,1,187.5,0|0,3:0|0:0,0:0:0:0:
407,82,62171,1,12,3:2:0:0:
143,76,62330,1,0,0:0:0:0:
459,79,62490,5,4,3:2:0:0:
202,81,62649,2,0,L|116:79,1,62.5,8|8,3:0|3:0,0:0:0:0:
397,188,62809,2,0,L|472:187,1,62.5,8|0,3:2|0:0,0:0:0:0:
183,106,62968,2,0,L|93:105,1,62.5,8|8,3:0|3:0,0:0:0:0:
446,212,63128,2,0,L|446:344,1,125,8|8,3:2|3:0,0:0:0:0:
367,361,63367,1,8,3:0:0:0:
96,277,63447,2,0,L|204:275,1,62.5,8|0,3:2|0:0,0:0:0:0:
436,176,63607,2,0,L|336:177,1,62.5,8|8,3:0|3:0,0:0:0:0:
135,183,63766,6,0,P|31:127|90:27,1,250,4|8,3:2|3:2,0:0:0:0:
343,37,64245,2,0,L|84:35,1,250,0|0,3:0|3:0,0:0:0:0:
412,132,64724,2,0,P|465:214|361:253,1,187.5,8|0,3:2|0:0,0:0:0:0:
140,268,65043,5,0,3:0:0:0:
402,266,65202,1,0,3:0:0:0:
140,268,65362,1,8,3:2:0:0:
456,263,65522,2,0,L|181:263,1,250,0|0,3:0|3:0,0:0:0:0:
484,108,66000,2,0,L|485:255,1,125,8|0,3:2|0:0,0:0:0:0:
210,83,66319,6,0,L|11:83,1,187.5,0|0,3:0|0:0,0:0:0:0:
317,212,66639,1,12,3:2:0:0:
57,212,66798,1,0,0:0:0:0:
313,226,66958,2,0,L|509:222,1,187.5,0|0,3:0|0:0,0:0:0:0:
189,332,67277,1,12,3:2:0:0:
466,334,67437,1,0,0:0:0:0:
157,291,67596,6,0,L|14:289,1,125,4|0,3:2|3:0,0:0:0:0:
321,182,67915,1,12,3:2:0:0:
49,177,68075,1,0,3:0:0:0:
358,183,68234,6,0,L|448:181,1,62.5,8|8,3:2|3:0,0:0:0:0:
118,176,68394,2,0,L|39:174,1,62.5,8|8,3:0|3:0,0:0:0:0:
395,206,68554,2,0,L|465:205,1,62.5,8|8,3:2|3:0,0:0:0:0:
100,200,68713,2,0,L|17:198,1,62.5,8|8,3:0|3:0,0:0:0:0:
377,288,68873,6,0,P|456:219|353:137,1,250,4|8,3:2|3:2,0:0:0:0:
118,289,69351,2,0,P|39:220|142:138,1,250,0|0,3:0|3:0,0:0:0:0:
283,135,69830,1,8,3:2:0:0:
120,131,69990,1,0,0:0:0:0:
453,133,70149,5,0,3:0:0:0:
184,132,70309,1,0,3:0:0:0:
453,133,70468,1,8,3:2:0:0:
184,132,70628,2,0,L|469:132,1,250,0|0,3:0|3:0,0:0:0:0:
79,230,71107,2,0,L|78:361,1,125,8|0,3:2|0:0,0:0:0:0:
379,337,71426,6,0,P|455:262|379:192,1,187.5,0|0,3:0|0:0,0:0:0:0:
167,197,71745,1,12,3:2:0:0:
437,200,71905,1,0,0:0:0:0:
126,195,72064,2,0,P|51:105|114:54,1,187.5,0|0,3:0|0:0,0:0:0:0:
346,46,72383,1,12,3:2:0:0:
73,49,72543,1,0,0:0:0:0:
364,71,72702,6,0,L|455:71,1,62.5,8|0,3:0|3:0,0:0:0:0:
121,89,72862,2,0,L|48:89,1,62.5,0|0,3:0|3:0,0:0:0:0:
406,95,73022,2,0,L|478:93,1,62.5,8|0,3:0|3:0,0:0:0:0:
100,123,73181,2,0,L|34:122,1,62.5,0|0,3:0|3:0,0:0:0:0:
388,136,73341,2,0,L|451:134,1,62.5,0|0,3:0|3:0,0:0:0:0:
116,175,73500,2,0,L|46:175,1,62.5,0|0,3:0|3:0,0:0:0:0:
395,173,73660,2,0,P|465:224|366:290,1,187.5,12|0,3:2|0:0,0:0:0:0:
167,339,73979,6,0,P|75:263|161:183,1,250,4|8,3:2|3:2,0:0:0:0:
305,175,74458,2,0,L|308:80,2,62.5,0|0|0,3:0|0:0|0:0,0:0:0:0:
143,187,74777,1,0,3:0:0:0:
425,182,74937,2,0,L|435:340,1,125,8|0,3:2|0:0,0:0:0:0:
173,105,75256,6,0,L|37:83,1,125,0|0,3:0|3:0,0:0:0:0:
326,322,75575,2,0,L|470:298,1,125,8|0,3:2|0:0,0:0:0:0:
109,238,75894,2,0,L|110:367,1,125,0|0,3:0|3:0,0:0:0:0:
431,201,76213,2,0,L|427:62,1,125,8|0,3:2|0:0,0:0:0:0:
162,28,76532,6,0,P|71:58|90:190,1,250,4|8,3:2|3:2,0:0:0:0:
377,300,77011,2,0,B|243:250|270:352|121:330,1,250
415,71,77490,2,0,P|453:157|457:213,1,125,8|0,3:2|0:0,0:0:0:0:
89,57,77809,2,0,L|299:32,1,187.5,4|0,3:2|0:0,0:0:0:0:
50,174,78128,6,0,L|55:369,1,187.5,8|0,3:2|0:0,0:0:0:0:
326,239,78447,2,0,L|498:222,1,125,0|8,3:0|3:0,0:0:0:0:
375,187,78687,1,8,3:0:0:0:
122,155,78766,2,0,L|25:161,1,62.5,8|0,3:0|3:0,0:0:0:0:
345,208,78926,2,0,L|430:196,1,62.5,0|0,3:0|3:0,0:0:0:0:
121,177,79085,2,0,P|69:246|147:304,1,187.5,4|0,3:2|0:0,0:0:0:0:
413,344,79405,6,0,L|411:177,1,125,8|0,3:2|0:0,0:0:0:0:
141,187,79724,1,0,3:0:0:0:
411,189,79883,1,0,3:0:0:0:
110,190,80043,2,0,L|101:48,1,125,8|0,3:2|0:0,0:0:0:0:
376,62,80362,6,0,L|458:56,1,62.5,4|0,3:2|0:0,0:0:0:0:
146,167,80522,2,0,L|75:169,1,62.5,0|0,3:0|3:0,0:0:0:0:
372,96,80681,2,0,L|451:92,1,62.5,8|0,3:0|0:0,0:0:0:0:
135,204,80841,2,0,L|66:208,1,62.5,0|0,3:0|3:0,0:0:0:0:
363,138,81000,2,0,L|427:132,1,62.5,0|0,3:0|0:0,0:0:0:0:
134,249,81160,2,0,L|59:257,1,62.5,0|0,3:0|3:0,0:0:0:0:
417,168,81319,2,0,L|426:307,1,125,8|0,3:2|0:0,0:0:0:0:
70,341,81639,6,0,L|70:203,1,125,4|0,3:2|0:0,0:0:0:0:
249,128,81958,2,0,L|249:278,1,125
430,348,82277,2,0,L|428:217,1,125
275,192,82596,1,0,0:0:0:0:
429,186,82756,1,0,0:0:0:0:
74,178,82915,5,8,3:0:0:0:
402,181,83075,1,8,3:0:0:0:
74,178,83234,1,8,3:0:0:0:
438,54,83394,2,0,L|440:314,1,250,8|0,3:0|3:0,0:0:0:0:
350,316,83793,1,0,3:0:0:0:
90,331,83873,2,0,P|17:264|99:199,1,187.5,4|0,3:2|0:0,0:0:0:0:
325,171,84192,6,0,L|399:168,1,62.5,4|0,3:2|0:0,0:0:0:0:
144,240,84351,2,0,L|73:239,1,62.5,8|8,3:0|3:0,0:0:0:0:
354,198,84511,2,0,L|422:192,1,62.5,8|8,3:0|3:0,0:0:0:0:
114,271,84671,2,0,L|112:94,1,125,12|0,3:0|0:0,0:0:0:0:
192,128,84910,1,8,3:0:0:0:
423,104,84990,2,0,L|351:103,1,62.5,0|0,3:0|3:0,0:0:0:0:
112,108,85149,2,0,L|33:109,1,62.5,0|0,3:0|0:0,0:0:0:0:
263,186,85309,2,0,L|334:186,1,62.5,2|0,3:0|0:0,0:0:0:0:
115,260,85468,6,0,L|45:263,1,62.5
327,218,85628,2,0,L|402:214,1,62.5,8|0,3:0|0:0,0:0:0:0:
97,292,85788,2,0,L|24:294,1,62.5,8|0,3:2|0:0,0:0:0:0:
359,237,85947,2,0,L|429:234,1,62.5,8|0,3:0|0:0,0:0:0:0:
142,337,86107,1,2,3:0:0:0:
86,315,86186,1,0,3:0:0:0:
73,256,86266,1,0,3:0:0:0:
115,213,86346,1,0,3:0:0:0:
320,223,86426,1,2,3:0:0:0:
376,202,86505,1,0,3:0:0:0:
389,143,86585,1,0,3:0:0:0:
347,100,86665,1,0,3:0:0:0:
158,57,86745,6,0,L|68:59,1,62.5,12|8,3:0|3:0,0:0:0:0:
385,115,86905,2,0,L|454:115,1,62.5,8|8,3:0|3:0,0:0:0:0:
96,102,87064,2,0,L|27:102,1,62.5,8|8,3:0|3:0,0:0:0:0:
432,144,87224,5,4,3:2:0:0:
