osu file format v14

[General]
AudioFilename: audio.mp3
AudioLeadIn: 0
PreviewTime: 53101
Countdown: 0
SampleSet: Soft
StackLeniency: 0.7
Mode: 2
LetterboxInBreaks: 0
WidescreenStoryboard: 1

[Editor]
Bookmarks: 47171
DistanceSpacing: 2.6
BeatDivisor: 4
GridSize: 32
TimelineZoom: 2.4

[Metadata]
Title:COOLEST (TV Size)
TitleUnicode:COOLEST (TV Size)
Artist:CustomiZ
ArtistUnicode:カスタマイZ
Creator:Ascendance
Version:ASCENDANCE & BASTIAN'S PLATTER
Source:坂本ですが?
Tags:op opening anime japanese jrock sakamoto desu ga jorkseljund bastian -joni- spectator baron KeRLi_ Greaper havent you heard im haven't i'm
BeatmapID:2615423
BeatmapSetID:1258175

[Difficulty]
HPDrainRate:5
CircleSize:3.5
OverallDifficulty:8
ApproachRate:8
SliderMultiplier:1.7
SliderTickRate:1

[Events]
//Background and Video events
0,0,"cropped-1920-1080-759660.jpg",0,0
//Break Periods
//Storyboard Layer 0 (Background)
//Storyboard Layer 1 (Fail)
//Storyboard Layer 2 (Pass)
//Storyboard Layer 3 (Foreground)
//Storyboard Layer 4 (Overlay)
//Storyboard Sound Samples

[TimingPoints]
-63,319.148936170213,4,2,1,80,1,0
-63,-100,4,2,1,80,0,0
3447,-100,4,2,1,80,0,0
3766,-100,4,2,1,80,0,0
6639,-100,4,2,1,80,0,0
10708,-100,4,2,1,5,0,0
10788,-100,4,2,1,80,0,0
11027,-100,4,2,1,5,0,0
11107,-100,4,2,1,80,0,0
11346,-100,4,2,1,5,0,0
11426,-100,4,2,1,70,0,0
11665,-100,4,2,1,5,0,0
11745,-100,4,2,1,70,0,0
14218,-100,4,2,1,5,0,0
14298,-100,4,2,1,70,0,0
17889,-100,4,2,1,5,0,0
17968,-100,4,2,1,70,0,0
20442,-100,4,2,1,5,0,0
20522,-100,4,2,1,70,0,0
21559,-100,4,2,1,5,0,0
21639,-100,4,2,1,70,0,0
24112,-100,4,2,1,5,0,0
24192,-100,4,2,1,70,0,0
26665,-100,4,2,1,5,0,0
26745,-100,4,2,1,70,0,0
27304,-100,4,2,1,5,0,0
27383,-100,4,2,1,70,0,0
27942,-100,4,2,1,5,0,0
28022,-100,4,2,1,70,0,0
41027,-100,4,2,1,5,0,0
41107,-100,4,2,1,75,0,0
41346,-100,4,2,1,5,0,0
41426,-100,4,2,1,80,0,0
41665,-100,4,2,1,5,0,0
41745,-100,4,2,1,85,0,0
41905,-100,4,2,1,70,0,0
43261,-100,4,2,1,5,0,0
43341,-100,4,2,1,70,0,0
53554,-100,4,2,1,90,0,1
58899,-100,4,2,1,5,0,1
58979,-100,4,2,1,90,0,1
64006,-100,4,2,1,5,0,1
64085,-100,4,2,1,90,0,1
71984,-100,4,2,1,5,0,1
72064,-100,4,2,1,90,0,1
72623,-100,4,2,1,5,0,1
72702,-100,4,2,1,90,0,1
73899,-100,4,2,1,5,0,1
73979,-100,4,2,1,80,0,0
76452,-100,4,2,1,5,0,0
76532,-100,4,2,1,80,0,0
78048,-100,4,2,1,5,0,0
78128,-100,4,2,1,80,0,0
79325,-100,4,2,1,5,0,0
79405,-100,4,2,1,80,0,0
81878,-100,4,2,1,5,0,0
81958,-100,4,2,1,80,0,0
84192,-100,4,2,1,90,0,0
87543,-100,4,2,1,5,0,0

[Colours]
Combo1 : 236,44,44
Combo2 : 236,142,142
Combo3 : 109,102,102

[HitObjects]
139,323,575,5,8,3:0:0:0:
99,307,655,1,8,3:0:0:0:
72,275,734,1,8,3:0:0:0:
62,235,814,1,8,3:0:0:0:
71,194,894,1,8,3:0:0:0:
99,162,974,1,8,3:0:0:0:
138,146,1054,1,8,3:0:0:0:
293,208,1213,6,0,P|357:142|294:69,1,170,4|0,3:2|0:0,0:0:0:0:
231,52,1692,1,0,0:0:0:0:
395,94,2011,2,0,L|501:77,2,85
250,167,2649,2,0,L|163:149,2,85
346,200,3128,2,0,L|346:98,1,85
168,207,3447,2,0,L|66:207,1,85,4|0,3:2|0:0,0:0:0:0:
329,345,3766,6,0,P|385:291|316:229,1,170,4|0,3:2|0:0,0:0:0:0:
235,230,4245,1,0,0:0:0:0:
89,221,4564,2,0,L|196:221,2,85
189,185,5043,5,8,3:2:0:0:
416,189,5202,1,4,3:2:0:0:
262,287,5522,2,0,P|208:233|256:163,1,170,4|8,3:2|3:2,0:0:0:0:
373,103,6000,2,0,L|374:199,1,85,8|8,3:2|3:2,0:0:0:0:
131,344,6319,5,8,3:0:0:0:
91,328,6399,1,0,0:0:0:0:
63,297,6479,1,0,0:0:0:0:
51,257,6559,1,0,3:0:0:0:
59,215,6639,1,8,3:0:0:0:
84,182,6718,1,0,3:0:0:0:
122,163,6798,1,0,3:0:0:0:
233,161,6958,2,0,L|281:171,2,42.5,8|0|0,3:0|3:0|3:0,0:0:0:0:
133,111,7277,2,0,L|85:121,2,42.5,8|0|0,3:0|3:0|3:0,0:0:0:0:
324,21,7596,6,0,L|324:118,1,85,8|0,3:0|3:0,0:0:0:0:
190,104,7915,2,0,L|190:202,1,85,8|0,3:0|3:0,0:0:0:0:
345,119,8234,2,0,L|447:119,1,85,8|0,3:0|3:0,0:0:0:0:
189,45,8554,2,0,L|78:45,1,85,8|0,3:0|3:0,0:0:0:0:
375,144,8873,6,0,L|488:144,1,85,4|10,3:2|3:0,0:0:0:0:
456,101,9112,1,8,3:0:0:0:
447,59,9192,1,10,3:0:0:0:
292,207,9351,2,0,P|226:147|291:76,1,170,4|2,3:2|3:0,0:0:0:0:
349,73,9830,1,10,3:0:0:0:
115,39,9990,5,4,3:2:0:0:
26,97,10149,2,0,L|22:159,2,42.5,8|8|8,3:0|3:0|3:0,0:0:0:0:
196,186,10468,2,0,L|22:176,2,170,4|4|2,3:2|3:2|0:0,0:0:0:0:
462,283,11426,6,0,P|475:216|388:147,1,170,4|8,3:2|3:2,0:0:0:0:
314,147,11905,1,0,0:0:0:0:
148,118,12224,2,0,L|240:103,1,85,0|8,3:0|3:2,0:0:0:0:
328,258,12543,2,0,L|150:244,1,170,0|0,3:0|3:0,0:0:0:0:
251,253,13022,2,0,L|253:344,1,85,8|0,3:2|0:0,0:0:0:0:
159,337,13341,2,0,L|159:238,1,85,0|0,3:0|3:0,0:0:0:0:
344,125,13660,2,0,L|457:125,1,85,8|0,3:2|0:0,0:0:0:0:
236,202,13979,6,0,L|35:201,1,170,0|8,3:2|3:2,0:0:0:0:
155,174,14458,1,0,0:0:0:0:
248,174,14617,2,0,L|354:174,2,85,0|0|8,3:0|3:0|3:2,0:0:0:0:
87,266,15096,6,0,P|31:210|103:130,1,170,0|0,3:0|3:0,0:0:0:0:
159,131,15575,1,8,3:2:0:0:
69,121,15734,1,0,0:0:0:0:
256,232,15894,2,0,L|438:218,1,170,0|8,3:0|3:2,0:0:0:0:
205,340,16532,6,0,L|28:325,1,170,4|8,3:2|3:2,0:0:0:0:
127,308,17011,1,0,0:0:0:0:
220,313,17171,2,0,P|288:264|260:172,1,170,0|8,3:0|3:2,0:0:0:0:
127,117,17649,2,0,L|312:91,2,170,0|0|0,3:0|3:0|0:0,0:0:0:0:
220,120,18447,2,0,L|331:143,1,85,0|0,3:0|3:0,0:0:0:0:
153,274,18766,2,0,L|64:293,1,85,8|0,3:2|0:0,0:0:0:0:
300,358,19085,5,4,3:2:0:0:
369,316,19245,1,0,0:0:0:0:
372,234,19405,1,8,3:2:0:0:
305,188,19564,1,0,0:0:0:0:
153,152,19724,2,0,L|56:174,2,85,0|0|8,3:0|3:0|3:2,0:0:0:0:
305,75,20202,6,0,L|475:95,2,170,0|0|0,3:0|3:0|3:0,0:0:0:0:
212,63,21000,1,0,3:0:0:0:
17,35,21160,2,0,L|116:15,2,85,8|8|0,3:2|3:2|0:0,0:0:0:0:
268,275,21639,6,0,P|334:218|272:135,1,170,4|8,3:2|3:2,0:0:0:0:
220,119,22117,1,0,0:0:0:0:
126,109,22277,2,0,L|35:122,2,85,0|0|8,3:0|3:0|3:2,0:0:0:0:
315,230,22756,6,0,P|366:189|306:112,1,170,0|0,3:0|3:0,0:0:0:0:
204,68,23234,2,0,L|204:165,1,85,8|0,3:2|0:0,0:0:0:0:
313,58,23554,2,0,L|405:58,1,85,0|0,3:0|3:0,0:0:0:0:
216,156,23873,2,0,L|102:156,1,85,8|0,3:2|0:0,0:0:0:0:
386,335,24192,5,0,3:0:0:0:
470,297,24351,1,0,3:0:0:0:
469,213,24511,1,8,3:2:0:0:
396,155,24671,1,0,0:0:0:0:
214,136,24830,2,0,L|213:316,1,170,0|8,3:0|3:2,0:0:0:0:
392,261,25309,6,0,P|458:198|408:124,1,170,0|0,3:0|3:0,0:0:0:0:
340,112,25788,1,8,3:2:0:0:
431,93,25947,1,0,0:0:0:0:
270,176,26107,2,0,L|212:166,2,42.5,0|0|0,3:0|3:0|3:0,0:0:0:0:
426,259,26426,2,0,L|422:161,1,85,8|0,3:2|0:0,0:0:0:0:
153,291,26745,6,0,L|43:280,1,85,4|0,3:2|0:0,0:0:0:0:
248,239,27064,2,0,P|312:176|248:113,1,170,8|0,3:2|3:0,0:0:0:0:
179,105,27543,1,0,3:0:0:0:
86,95,27702,2,0,L|187:78,1,85,8|0,3:2|0:0,0:0:0:0:
263,94,28022,6,0,L|349:83,1,85,0|0,3:0|3:0,0:0:0:0:
177,278,28341,2,0,P|126:232|166:144,1,170,8|0,3:2|3:0,0:0:0:0:
324,172,28819,1,8,3:0:0:0:
360,152,28899,1,8,3:0:0:0:
377,113,28979,1,8,3:2:0:0:
366,73,29059,1,8,3:0:0:0:
332,48,29139,1,8,3:0:0:0:
90,33,29298,5,4,3:2:0:0:
230,36,29617,1,8,3:2:0:0:
144,74,29777,1,8,3:2:0:0:
138,116,29857,1,8,3:2:0:0:
132,158,29937,1,8,3:2:0:0:
236,195,30096,2,0,L|331:212,1,85,0|0,3:0|3:0,0:0:0:0:
43,334,30415,5,4,3:2:0:0:
167,304,30734,2,0,L|178:253,2,42.5,0|0|8,3:0|3:0|3:2,0:0:0:0:
48,240,31054,2,0,L|37:189,2,42.5,8|8|8,3:0|3:0|3:0,0:0:0:0:
145,168,31373,1,8,3:0:0:0:
52,62,31532,2,0,L|38:162,1,85,0|0,3:0|3:0,0:0:0:0:
301,269,31851,6,0,P|367:212|306:130,1,170,4|0,3:2|0:0,0:0:0:0:
257,128,32330,1,0,3:0:0:0:
171,126,32490,2,0,L|259:113,1,85,8|0,3:2|0:0,0:0:0:0:
293,41,32809,2,0,L|199:20,1,85,0|0,3:0|3:0,0:0:0:0:
56,98,33128,6,0,L|47:47,2,42.5,0|0|8,0:0|0:0|3:2,0:0:0:0:
140,111,33447,2,0,L|135:206,1,85,0|0,3:0|3:0,0:0:0:0:
299,98,33766,2,0,L|422:99,1,85,8|0,3:2|0:0,0:0:0:0:
226,181,34085,2,0,L|123:180,1,85,0|0,3:0|3:0,0:0:0:0:
425,324,34405,5,4,3:2:0:0:
495,282,34564,1,0,3:0:0:0:
497,201,34724,1,0,3:0:0:0:
430,156,34883,1,0,3:0:0:0:
259,154,35043,1,8,3:2:0:0:
157,156,35202,2,0,L|144:53,2,85,0|0|0,3:0|3:0|3:0,0:0:0:0:
265,174,35681,6,0,L|360:174,1,85,0|8,0:0|3:2,0:0:0:0:
164,312,36000,2,0,P|106:266|163:180,1,170,0|8,3:0|3:2,0:0:0:0:
238,182,36479,1,8,3:2:0:0:
132,184,36639,2,0,L|38:185,1,85,8|0,3:2|0:0,0:0:0:0:
307,337,36958,6,0,P|387:254|281:154,1,255,4|0,3:2|3:0,0:0:0:0:
130,152,37596,1,8,3:2:0:0:
279,155,37915,2,0,L|371:155,1,85,0|0,3:0|3:0,0:0:0:0:
273,245,38234,6,0,L|158:244,1,85,0|8,3:0|3:2,0:0:0:0:
365,327,38713,1,0,3:0:0:0:
210,346,38873,2,0,P|131:269|227:170,1,255,8|0,3:2|0:0,0:0:0:0:
389,219,39511,6,0,P|445:154|377:86,1,170,4|0,3:2|0:0,0:0:0:0:
180,51,40149,2,0,L|371:44,1,170,8|0,3:2|3:0,0:0:0:0:
346,152,40628,1,0,3:0:0:0:
66,333,40788,6,0,P|12:278|74:194,1,170,4|4,3:2|3:2,0:0:0:0:
243,128,41426,2,0,L|34:121,1,170,4|8,3:2|3:2,0:0:0:0:
68,30,41905,1,0,3:0:0:0:
313,244,42064,6,0,P|380:188|336:108,1,170,4|8,3:2|3:2,0:0:0:0:
246,80,42543,2,0,L|127:85,2,85,0|0|0,0:0|3:0|3:0,0:0:0:0:
409,138,43022,2,0,L|415:31,1,85,8|0,3:2|0:0,0:0:0:0:
184,185,43341,6,0,L|83:196,2,85,0|0|8,3:0|3:0|3:2,0:0:0:0:
331,257,43819,2,0,P|384:204|310:137,1,170,0|0,3:0|3:0,0:0:0:0:
235,132,44298,2,0,L|148:132,1,85,8|0,3:2|0:0,0:0:0:0:
379,339,44617,5,0,3:0:0:0:
451,300,44777,1,0,3:0:0:0:
464,219,44937,1,8,3:2:0:0:
408,160,45096,1,0,3:0:0:0:
250,155,45256,1,0,3:0:0:0:
421,162,45415,2,0,P|480:119|433:36,1,170,0|0,3:0|3:0,0:0:0:0:
260,11,45894,6,0,L|55:12,1,170,12|8,3:2|3:2,0:0:0:0:
271,167,46532,1,8,3:2:0:0:
275,124,46612,1,0,0:0:0:0:
279,82,46692,1,8,3:0:0:0:
159,295,46851,1,8,3:2:0:0:
154,252,46931,1,0,0:0:0:0:
149,210,47011,1,8,3:0:0:0:
371,210,47171,6,0,P|425:162|367:102,1,170,4|0,3:2|0:0,0:0:0:0:
286,101,47649,1,0,3:0:0:0:
114,100,47809,2,0,P|58:125|42:245,1,170,8|4,3:2|3:2,0:0:0:0:
117,223,48288,1,0,0:0:0:0:
286,223,48447,6,0,L|382:223,1,85,4|0,3:2|3:0,0:0:0:0:
285,223,48766,2,0,L|381:223,1,85,0|0,0:0|3:0,0:0:0:0:
199,223,49085,2,0,L|164:133,1,85,8|8,3:2|3:0,0:0:0:0:
339,143,49405,2,0,L|412:143,2,42.5,0|0|0,3:0|3:0|3:0,0:0:0:0:
117,143,49724,6,0,L|90:228,1,85,4|0,3:2|3:0,0:0:0:0:
176,224,50043,2,0,L|282:224,1,85,0|8,3:0|3:0,0:0:0:0:
90,224,50362,2,0,L|68:311,1,85,8|0,3:0|3:0,0:0:0:0:
239,306,50681,2,0,L|356:306,1,85,2|0,0:0|3:0,0:0:0:0:
102,306,51000,6,0,L|75:202,1,85,8|8,3:2|3:0,0:0:0:0:
165,223,51319,2,0,L|70:223,1,85,8|8,3:2|3:0,0:0:0:0:
251,223,51639,2,0,L|342:223,1,85,8|8,3:2|3:0,0:0:0:0:
250,223,51958,2,0,L|220:139,1,85,8|8,3:2|3:0,0:0:0:0:
391,142,52277,6,0,P|443:87|370:38,1,170,4|8,3:2|3:0,0:0:0:0:
301,34,52756,1,0,3:0:0:0:
80,34,52915,1,8,3:0:0:0:
46,59,52995,1,8,3:0:0:0:
27,97,53075,1,8,3:0:0:0:
25,139,53155,1,8,3:0:0:0:
42,177,53234,1,8,3:0:0:0:
74,205,53314,1,8,3:0:0:0:
114,217,53394,1,8,3:0:0:0:
336,217,53554,6,0,P|377:265|310:340,1,170,4|8,3:2|3:2,0:0:0:0:
152,339,54032,2,0,P|102:300|163:233,1,170,0|0,3:0|3:0,0:0:0:0:
327,232,54511,2,0,L|358:149,1,85,8|0,3:2|0:0,0:0:0:0:
186,152,54830,6,0,L|87:152,2,85,0|0|8,3:0|3:0|3:2,0:0:0:0:
356,152,55309,2,0,P|359:218|261:259,1,170,0|0,3:0|3:0,0:0:0:0:
446,263,55788,2,0,L|477:172,1,85,8|0,3:2|0:0,0:0:0:0:
251,182,56107,6,0,L|79:97,1,170,0|12,3:0|3:2,0:0:0:0:
183,106,56585,1,0,0:0:0:0:
353,106,56745,2,0,P|408:111|452:223,1,170,0|12,3:0|3:2,0:0:0:0:
372,204,57224,1,0,0:0:0:0:
202,204,57383,6,0,L|156:298,1,85,4|0,3:2|3:0,0:0:0:0:
334,280,57702,2,0,L|371:203,1,85,12|0,3:2|3:0,0:0:0:0:
285,203,58022,2,0,L|381:203,1,85,4|0,3:2|3:0,0:0:0:0:
199,203,58341,1,8,3:0:0:0:
156,203,58421,1,8,3:0:0:0:
114,203,58500,1,8,3:0:0:0:
335,203,58660,6,0,P|388:261|321:315,1,170,4|8,3:2|3:2,0:0:0:0:
164,315,59139,2,0,L|317:228,1,170,0|0,3:0|3:0,0:0:0:0:
142,230,59617,2,0,L|90:160,1,85,8|0,3:2|0:0,0:0:0:0:
262,161,59937,5,0,3:0:0:0:
333,207,60096,1,0,3:0:0:0:
404,253,60256,1,8,3:2:0:0:
235,253,60415,2,0,P|183:200|242:142,1,170,0|0,3:0|3:0,0:0:0:0:
408,142,60894,2,0,L|419:53,1,85,8|0,3:2|0:0,0:0:0:0:
196,57,61213,6,0,P|174:126|254:193,1,170,0|12,3:0|3:2,0:0:0:0:
320,190,61692,1,0,0:0:0:0:
150,190,61851,2,0,L|117:286,1,85,0|0,3:0|3:0,0:0:0:0:
293,270,62171,2,0,L|369:331,1,85,12|0,3:2|0:0,0:0:0:0:
137,323,62490,6,0,L|83:246,1,85,4|8,3:2|3:0,0:0:0:0:
173,253,62729,1,8,3:0:0:0:
258,253,62809,2,0,L|306:173,1,85,8|8,3:2|3:0,0:0:0:0:
131,180,63128,2,0,L|100:80,1,85,8|8,3:2|3:0,0:0:0:0:
276,98,63447,1,8,3:2:0:0:
318,97,63527,1,0,0:0:0:0:
360,97,63607,1,8,3:0:0:0:
139,97,63766,6,0,P|65:99|24:200,1,170,4|8,3:2|3:2,0:0:0:0:
190,175,64245,2,0,L|368:251,1,170,0|0,3:0|3:0,0:0:0:0:
175,241,64724,2,0,L|140:324,1,85,8|0,3:2|0:0,0:0:0:0:
312,319,65043,6,0,L|417:319,2,85,0|0|8,3:0|3:0|3:2,0:0:0:0:
141,319,65522,2,0,P|140:271|251:210,1,170,0|0,3:0|3:0,0:0:0:0:
61,206,66000,2,0,L|34:118,1,85,8|0,3:2|0:0,0:0:0:0:
257,124,66319,6,0,L|417:200,1,170,0|12,3:0|3:2,0:0:0:0:
325,196,66798,1,0,0:0:0:0:
154,196,66958,2,0,P|99:247|163:309,1,170,0|12,3:0|3:2,0:0:0:0:
234,309,67437,1,0,0:0:0:0:
403,309,67596,6,0,L|428:218,1,85,4|0,3:2|3:0,0:0:0:0:
340,227,67915,2,0,L|255:227,1,85,12|0,3:2|3:0,0:0:0:0:
84,227,68234,1,8,3:2:0:0:
60,191,68314,1,8,3:0:0:0:
52,150,68394,1,8,3:0:0:0:
62,109,68474,1,8,3:0:0:0:
87,75,68554,1,8,3:2:0:0:
124,54,68633,1,8,3:0:0:0:
166,50,68713,1,8,3:0:0:0:
389,50,68873,6,0,L|443:222,1,170,4|8,3:2|3:2,0:0:0:0:
270,212,69351,2,0,P|217:215|203:331,1,170,0|0,3:0|3:0,0:0:0:0:
358,313,69830,2,0,L|470:312,1,85,8|0,3:2|0:0,0:0:0:0:
272,312,70149,5,0,3:0:0:0:
201,264,70309,1,0,3:0:0:0:
131,216,70468,1,8,3:2:0:0:
301,216,70628,2,0,P|312:144|226:98,1,170,0|0,3:0|3:0,0:0:0:0:
67,96,71107,2,0,L|26:15,1,85,8|0,3:2|0:0,0:0:0:0:
250,20,71426,6,0,P|346:51|353:126,1,170,0|12,3:0|3:2,0:0:0:0:
272,109,71905,1,0,0:0:0:0:
102,109,72064,2,0,L|72:202,1,85,0|0,3:0|3:0,0:0:0:0:
246,189,72383,2,0,L|365:189,1,85,12|0,3:2|0:0,0:0:0:0:
109,189,72702,5,8,3:0:0:0:
70,173,72782,1,0,3:0:0:0:
55,135,72862,1,0,3:0:0:0:
71,97,72942,1,0,3:0:0:0:
110,83,73022,1,8,3:0:0:0:
280,83,73181,1,0,3:0:0:0:
109,83,73341,2,0,L|13:87,2,85,0|0|12,3:0|3:0|3:2,0:0:0:0:
489,92,73979,6,0,P|502:154|397:200,1,170,4|8,3:2|3:2,0:0:0:0:
322,212,74458,1,0,3:0:0:0:
219,208,74617,2,0,L|125:208,1,85,0|0,0:0|3:0,0:0:0:0:
305,208,74937,2,0,L|339:125,1,85,8|0,3:2|0:0,0:0:0:0:
166,129,75256,6,0,P|110:172|163:244,1,170,0|8,3:0|3:2,0:0:0:0:
358,243,75894,2,0,L|454:82,1,170,0|8,3:0|3:2,0:0:0:0:
359,96,76373,1,0,0:0:0:0:
138,96,76532,6,0,P|85:148|157:209,1,170,4|8,3:2|3:2,0:0:0:0:
306,210,77011,2,0,L|329:295,1,85,0|4,0:0|3:2,0:0:0:0:
242,292,77330,2,0,L|157:318,2,85,0|8|0,0:0|3:2|0:0,0:0:0:0:
463,292,77809,6,0,L|494:186,1,85,4|0,3:2|0:0,0:0:0:0:
316,210,78128,2,0,L|211:189,1,85,8|0,3:2|3:0,0:0:0:0:
317,193,78447,2,0,L|346:109,1,85,0|8,3:0|3:0,0:0:0:0:
174,112,78766,2,0,L|91:111,2,42.5,8|0|0,3:0|3:0|3:0,0:0:0:0:
395,112,79085,6,0,P|407:177|316:229,1,170,4|8,3:2|3:2,0:0:0:0:
245,231,79564,1,0,0:0:0:0:
415,231,79724,2,0,L|499:206,1,85,0|0,3:0|3:0,0:0:0:0:
415,232,80043,2,0,L|499:207,1,85,8|0,3:2|3:0,0:0:0:0:
326,207,80362,6,0,L|231:184,1,85,4|0,3:2|3:0,0:0:0:0:
413,186,80681,2,0,L|429:91,1,85,8|0,3:0|3:0,0:0:0:0:
256,102,81000,2,0,L|80:56,1,170,0|8,3:0|3:2,0:0:0:0:
176,59,81479,1,0,0:0:0:0:
397,59,81639,6,0,P|424:141|346:195,1,170,4|0,3:2|0:0,0:0:0:0:
166,192,82277,2,0,L|306:77,1,170
212,84,82756,1,0,0:0:0:0:
381,84,82915,6,0,L|469:88,2,85,8|8|8,3:0|3:0|3:0,0:0:0:0:
210,84,83394,2,0,P|154:142|224:200,1,170,8|0,3:0|3:0,0:0:0:0:
371,199,83873,2,0,L|402:286,1,85,4|0,3:2|0:0,0:0:0:0:
177,279,84192,6,0,L|117:201,1,85,4|8,3:2|3:0,0:0:0:0:
185,151,84431,1,8,3:0:0:0:
245,90,84511,1,8,3:0:0:0:
415,90,84671,2,0,P|474:146|460:226,1,170,12|0,3:0|3:0,0:0:0:0:
374,226,85149,1,0,3:0:0:0:
152,226,85309,6,0,L|66:202,2,85,2|8|8,3:0|3:2|3:0,0:0:0:0:
322,226,85788,1,8,3:2:0:0:
360,209,85867,1,0,0:0:0:0:
375,171,85947,1,8,3:0:0:0:
358,133,86027,1,0,0:0:0:0:
320,117,86107,1,2,3:0:0:0:
150,117,86266,2,0,L|55:117,2,85,0|2|0,3:0|3:0|3:0,0:0:0:0:
320,117,86745,6,0,L|397:117,2,42.5,12|8|8,3:0|3:0|3:0,0:0:0:0:
237,117,87064,1,8,3:0:0:0:
476,118,87224,1,4,3:2:0:0:
