osu file format v14

[General]
AudioFilename: audio.mp3
AudioLeadIn: 0
PreviewTime: 53254
Countdown: 0
SampleSet: Soft
StackLeniency: 0.3
Mode: 0
LetterboxInBreaks: 0
WidescreenStoryboard: 1

[Editor]
DistanceSpacing: 0.9
BeatDivisor: 2
GridSize: 4
TimelineZoom: 1

[Metadata]
Title:COOLEST
TitleUnicode:COOLEST
Artist:CustomiZ
ArtistUnicode:カスタマイZ
Creator:Start
Version:Normal
Source:坂本ですが?
Tags:GEEKS Sakamoto Desu Ga? OP opening tv size Hama Goro Daichi Hiroki Stardust Kin Mei
BeatmapID:959113
BeatmapSetID:443002

[Difficulty]
HPDrainRate:4
CircleSize:3.5
OverallDifficulty:4
ApproachRate:5
SliderMultiplier:1.1
SliderTickRate:1

[Events]
//Background and Video events
0,0,"banben.jpg",0,0
Video,0,"OP.flv"
//Break Periods
//Storyboard Layer 0 (Background)
//Storyboard Layer 1 (Fail)
//Storyboard Layer 2 (Pass)
//Storyboard Layer 3 (Foreground)
//Storyboard Sound Samples

[TimingPoints]
1233,319.148936170213,4,2,2,50,1,0
11445,-100,4,2,2,50,0,0
17669,-100,4,2,1,50,0,0
19105,-100,4,2,2,60,0,0
36977,-100,4,2,1,50,0,0
53573,-100,4,2,2,60,0,1
54052,-100,4,2,1,60,0,1
58679,-100,4,2,2,60,0,1
59158,-100,4,2,1,60,0,1
63786,-100,4,2,2,60,0,1
64264,-100,4,2,1,60,0,1
68892,-100,4,2,2,60,0,1
69371,-100,4,2,1,60,0,1
79105,-100,4,2,2,60,0,1
79743,-100,4,2,1,60,0,1
81658,-100,4,2,1,70,0,0

[Colours]
Combo1 : 255,128,0
Combo2 : 0,128,255
Combo3 : 128,0,255
Combo4 : 0,128,0

[HitObjects]
116,132,1233,5,12,0:0:0:0:
283,297,3467,2,0,B|234:275|234:275|159:278,1,110,12|4,0:0|0:0,0:0:0:0:
368,173,5062,6,0,L|332:125,1,55,8|0,0:0|0:0,0:0:0:0:
256,72,5541,1,8,0:0:0:0:
176,129,5860,2,0,L|144:173,2,55,8|8|8,0:0|0:0|0:0,0:0:0:0:
256,192,6339,12,8,8892,0:0:0:0:
40,144,11126,5,0,0:0:0:0:
40,144,11445,2,0,L|68:252,1,110,4|8,0:0|0:0,0:0:0:0:
164,272,12084,2,0,L|132:160,1,110,0|8,0:0|0:0,0:0:0:0:
165,128,12562,1,0,0:0:0:0:
192,88,12722,2,0,P|128:68|80:80,2,110,0|8|0,0:0|0:0|0:0,0:0:0:0:
284,51,13679,1,8,0:0:0:0:
382,47,13998,6,0,L|432:150,1,110,2|8,0:0|0:0,0:0:0:0:
351,206,14637,2,0,B|320:138|320:138|290:115,1,110,0|8,0:0|0:0,0:0:0:0:
245,133,15115,2,0,B|216:149|216:149|202:190|202:190|154:208,1,110
123,218,15594,1,8,0:0:0:0:
140,315,15913,2,0,B|205:298|205:298|258:335,1,110,0|8,0:0|0:0,0:0:0:0:
330,280,16552,6,0,L|241:214,2,110,4|8|0,0:0|0:0|0:0,0:0:0:0:
428,266,17509,1,8,0:0:0:0:
428,266,17669,2,0,B|425:217|425:217|375:178|375:178|373:124,1,165,0|8,0:0|0:0,0:0:0:0:
396,81,18307,1,0,0:0:0:0:
372,37,18467,2,0,P|314:51|249:41,1,110,0|8,0:0|0:0,0:0:0:0:
166,38,19105,6,0,P|183:86|106:157,1,165,2|0,0:0|0:0,0:0:0:0:
61,146,19743,2,0,B|82:197|82:197|61:262,1,110,0|8,0:0|0:0,0:0:0:0:
49,296,20222,1,0,0:0:0:0:
131,350,20541,2,0,B|148:298|148:298|203:311,1,110
230,269,21020,2,0,L|250:208,1,55,0|8,0:0|0:0,0:0:0:0:
269,172,21339,2,0,L|212:157,1,55,8|8,0:0|0:0,0:0:0:0:
168,142,21658,6,0,P|100:150|124:70,1,165,4|0,0:0|0:0,0:0:0:0:
137,35,22296,2,0,L|70:11,2,55,0|0|8,0:0|0:0|0:0,0:0:0:0:
182,55,22775,2,0,B|210:44|210:44|235:50|256:43|256:43|297:57,1,110
328,28,23254,2,0,L|375:58,1,55,8|0,0:0|0:0,0:0:0:0:
419,79,23573,1,0,0:0:0:0:
444,174,23892,5,8,0:0:0:0:
392,258,24211,2,0,L|450:282,2,55,0|0|8,0:0|0:0|0:0,0:0:0:0:
345,276,24690,1,0,0:0:0:0:
323,320,24850,2,0,P|266:280|209:282,1,110,0|8,0:0|0:0,0:0:0:0:
180,292,25328,1,0,0:0:0:0:
184,197,25647,2,0,L|122:208,2,55,0|8|0,0:0|0:0|0:0,0:0:0:0:
216,159,26126,2,0,L|325:188,1,110,0|8,0:0|0:0,0:0:0:0:
417,158,26764,5,4,0:0:0:0:
431,59,27084,2,0,L|312:82,1,110,8|0,0:0|0:0,0:0:0:0:
230,44,27722,1,8,0:0:0:0:
174,125,28041,2,0,B|141:105|141:105|129:65|129:65|100:52,2,110,0|8|0,0:0|0:0|0:0,0:0:0:0:
166,174,28839,6,0,L|40:199,1,110,8|8,0:0|0:0,0:0:0:0:
46,243,29318,1,4,0:0:0:0:
103,323,29637,2,8,L|35:336,2,55
121,277,30115,2,0,L|194:263,1,55,8|8,0:0|0:0,0:0:0:0:
206,228,30435,2,0,B|226:253|220:289|220:289|247:302|272:318,1,110,4|0,0:0|0:0,0:0:0:0:
304,332,30913,1,8,0:0:0:0:
352,328,31073,2,0,P|364:272|348:184,1,110,8|8,0:0|0:0,0:0:0:0:
352,172,31552,1,8,0:0:0:0:
452,184,31871,6,0,L|410:83,1,110,12|0,0:0|0:0,0:0:0:0:
364,60,32350,1,0,0:0:0:0:
325,83,32509,2,0,B|250:92|250:92|212:84,1,110,8|0,0:0|0:0,0:0:0:0:
103,45,33147,5,0,0:0:0:0:
103,45,33307,2,0,L|136:112,2,55,8|0|0,0:0|0:0|0:0,0:0:0:0:
53,49,33786,2,0,B|34:100|34:100|70:169,1,110,8|0,0:0|0:0,0:0:0:0:
40,192,34264,1,0,0:0:0:0:
15,238,34424,2,0,B|46:291|46:291|30:338,2,110,12|0|8,0:0|0:0|0:0,0:0:0:0:
112,223,35381,2,0,L|184:216,1,55
204,185,35701,2,0,B|228:142|228:142|214:74,1,110,0|8,0:0|0:0,0:0:0:0:
123,121,36339,2,0,B|100:163|100:163|112:223,1,110,8|0,0:0|0:0,0:0:0:0:
149,315,36977,6,0,P|198:271|299:290,1,165,4|0,0:0|0:0,0:0:0:0:
318,324,37615,2,0,B|327:346|327:346|385:360|385:360|428:320|428:320|424:291,1,165,8|0,0:0|0:0,0:0:0:0:
397,255,38254,2,0,L|370:205,2,55,2|8|0,0:0|0:0|0:0,0:0:0:0:
483,206,38892,2,0,L|432:98,1,110,8|0,0:0|0:0,0:0:0:0:
429,7,39530,6,0,B|375:14|347:64|347:64|286:96|237:48,1,220,4|8,0:0|0:0,0:0:0:0:
141,62,40488,1,8,0:0:0:0:
209,133,40807,2,0,B|243:159|299:167|338:157|338:157|330:200|330:200|352:248,1,220,4|2,0:0|0:0,0:0:0:0:
431,295,41764,5,8,0:0:0:0:
335,333,42084,2,0,B|283:316|283:316|258:265,2,110,0|8|0,0:0|0:0|0:0,0:0:0:0:
431,295,43041,1,8,0:0:0:0:
439,196,43360,2,0,P|388:206|347:244,1,110,0|8,0:0|0:0,0:0:0:0:
274,312,43998,2,0,P|231:342|161:327,1,110,0|8,0:0|0:0,0:0:0:0:
110,261,44637,6,0,B|81:309|81:309|84:371,2,110,0|8|2,0:0|0:0|0:0,0:0:0:0:
43,188,45594,1,8,0:0:0:0:
102,108,45913,1,8,0:0:0:0:
72,13,46233,2,0,L|126:33,1,55,8|0,0:0|0:0,0:0:0:0:
170,47,46552,1,8,0:0:0:0:
210,137,46871,2,0,L|270:118,1,55,8|0,0:0|0:0,0:0:0:0:
309,105,47190,6,0,P|323:75|366:143,2,165,4|8|4,0:0|0:3|0:0,0:0:0:0:
321,203,48467,2,0,P|382:220|460:153,2,165,4|8|4,0:0|0:3|0:0,0:0:0:0:
227,236,49743,2,0,P|239:259|271:280,1,55,4|0,0:0|0:0,0:0:0:0:
304,301,50062,2,0,P|332:311|364:314,1,55
406,313,50381,2,0,P|441:286|447:272,1,55,2|0,0:0|0:0,0:0:0:0:
466,232,50701,2,0,P|458:201|441:167,1,55
256,192,51020,12,8,52296,0:0:0:0:
108,113,53573,6,0,B|119:195|119:195|45:242,2,165,4|0|8,0:0|0:0|0:0,0:0:0:0:
178,43,54850,1,2,0:0:0:0:
220,132,55169,1,8,0:0:0:0:
303,79,55488,1,0,0:0:0:0:
346,168,55807,1,8,0:0:0:0:
434,123,56126,6,0,B|421:182|421:182|440:227,1,110,2|12,0:0|0:0,0:0:0:0:
423,274,56605,1,0,0:0:0:0:
374,279,56764,2,0,L|327:178,1,110,2|12,0:0|0:0,0:0:0:0:
330,129,57243,1,0,0:0:0:0:
328,80,57403,6,0,P|274:99|237:147,1,110,2|8,0:0|0:0,0:0:0:0:
257,237,58041,2,0,L|303:340,1,110,2|8,0:0|0:0,0:0:0:0:
396,367,58679,6,0,P|457:323|455:238,2,165,4|0|8,0:0|0:0|0:0,0:0:0:0:
374,279,59956,1,2,0:0:0:0:
283,318,60275,1,8,0:0:0:0:
266,220,60594,1,0,0:0:0:0:
173,254,60913,1,8,0:0:0:0:
105,326,61233,6,0,L|90:271,1,55,2|0,0:0|0:0,0:0:0:0:
80,224,61552,1,12,0:0:0:0:
0,158,61871,2,0,L|19:98,1,55,2|0,0:0|0:0,0:0:0:0:
30,58,62190,1,12,0:0:0:0:
117,104,62509,5,4,0:0:0:0:
189,36,62828,2,0,L|245:35,1,55,8|0,0:0|0:0,0:0:0:0:
264,80,63147,2,0,L|321:80,1,55,8|0,0:0|0:0,0:0:0:0:
345,122,63467,2,0,L|405:122,1,55,8|0,0:0|0:0,0:0:0:0:
448,113,63786,6,0,P|407:173|423:260,2,165,4|0|8,0:0|0:0|0:0,0:0:0:0:
361,65,65062,1,2,0:0:0:0:
263,50,65381,1,8,0:0:0:0:
293,144,65701,1,0,0:0:0:0:
361,65,66020,1,8,0:0:0:0:
263,50,66339,6,0,L|206:62,2,55,2|0|12,0:0|0:0|0:0,0:0:0:0:
292,144,66977,2,0,L|234:184,2,55,2|0|12,0:0|0:0|0:0,0:0:0:0:
386,114,67615,5,2,0:0:0:0:
452,187,67935,1,8,0:0:0:0:
446,285,68254,1,8,0:0:0:0:
375,353,68573,1,8,0:0:0:0:
282,317,68892,6,0,B|284:269|254:239|254:239|283:219|283:219|309:173,2,165,4|0|8,0:0|0:0|0:0,0:0:0:0:
183,308,70169,2,0,L|190:364,2,55,2|0|8,0:0|0:0|0:0,0:0:0:0:
145,275,70647,2,0,P|93:302|46:285,1,110,0|0,0:0|0:0,0:0:0:0:
3,262,71126,2,0,L|15:207,1,55,8|0,0:0|0:0,0:0:0:0:
43,167,71445,6,0,L|110:149,2,55,2|0|12,0:0|0:0|0:0,0:0:0:0:
14,71,72084,2,0,L|120:44,1,110,2|4,0:0|0:0,0:0:0:0:
191,113,72722,5,12,0:0:0:0:
191,113,72881,2,0,L|316:79,1,110,0|2,0:0|0:0,0:0:0:0:
311,131,73360,2,0,L|369:111,1,55,8|0,0:0|3:0,0:0:0:0:
383,158,73679,2,0,L|439:146,1,55,8|0,0:0|3:0,0:0:0:0:
477,175,73998,6,0,L|500:67,2,110,4|8|0,0:0|0:0|0:0,0:0:0:0:
491,273,74956,1,8,0:0:0:0:
401,229,75275,2,0,L|297:182,2,110,2|8|2,0:0|0:0|0:0,0:0:0:0:
491,273,76233,1,8,0:0:0:0:
418,340,76552,6,0,P|389:346|361:346,1,55,2|0,0:0|0:0,0:0:0:0:
315,333,76871,1,8,0:0:0:0:
257,252,77190,2,0,L|226:304,1,55,2|0,0:0|0:0,0:0:0:0:
207,343,77509,1,8,0:0:0:0:
141,268,77828,2,0,P|112:317|115:378,2,110,4|8|0,0:0|0:0|0:0,0:0:0:0:
53,223,78786,1,8,0:0:0:0:
12,132,79105,6,0,P|44:80|127:167,1,220,4|0,0:0|0:0,0:0:0:0:
53,223,80062,1,8,0:0:0:0:
145,259,80381,2,0,P|195:238|228:177,2,110,8|8|8,0:0|0:0|0:0,0:0:0:0:
153,87,81498,6,0,L|220:113,1,55,0|4,0:0|0:0,0:0:0:0:
297,140,81977,1,2,0:0:0:0:
389,174,82296,1,2,0:0:0:0:
312,237,82615,2,0,L|258:271,1,55,2|0,0:0|0:0,0:0:0:0:
221,290,82935,2,0,L|162:269,2,55,8|8|8,0:0|0:0|0:0,0:0:0:0:
228,338,83413,1,8,0:0:0:0:
326,347,83733,2,0,L|385:306,1,55,8|4,0:0|0:0,0:0:0:0:
450,257,84211,6,0,P|445:177|366:173,1,165,4|4,0:0|0:0,0:0:0:0:
315,248,85009,2,0,L|243:273,1,55
213,261,85328,2,0,P|186:174|250:156,1,165,4|4,0:0|0:0,0:0:0:0:
276,124,85967,1,0,0:0:0:0:
313,87,86126,2,4,P|250:57|195:64,1,110
120,100,86764,2,0,L|92:45,2,55,4|8|8,0:0|0:0|0:0,0:0:0:0:
105,147,87243,1,4,0:0:0:0:
