osu file format v14

[General]
AudioFilename: audio.mp3
AudioLeadIn: 0
PreviewTime: 53254
Countdown: 0
SampleSet: Soft
StackLeniency: 0.3
Mode: 0
LetterboxInBreaks: 0
WidescreenStoryboard: 1

[Editor]
DistanceSpacing: 1
BeatDivisor: 4
GridSize: 4
TimelineZoom: 1

[Metadata]
Title:COOLEST
TitleUnicode:COOLEST
Artist:CustomiZ
ArtistUnicode:カスタマイZ
Creator:Start
Version:Easy
Source:坂本ですが?
Tags:GEEKS Sakamoto Desu Ga? OP opening tv size Hama Goro Daichi Hiroki Stardust Kin Mei
BeatmapID:959112
BeatmapSetID:443002

[Difficulty]
HPDrainRate:2
CircleSize:3
OverallDifficulty:2
ApproachRate:3
SliderMultiplier:0.899999999999999
SliderTickRate:1

[Events]
//Background and Video events
0,0,"banben.jpg",0,0
Video,0,"OP.flv"
//Break Periods
//Storyboard Layer 0 (Background)
//Storyboard Layer 1 (Fail)
//Storyboard Layer 2 (Pass)
//Storyboard Layer 3 (Foreground)
//Storyboard Sound Samples

[TimingPoints]
1233,319.148936170213,4,2,1,50,1,0
11445,-100,4,2,2,50,0,0
31552,-100,4,2,1,50,0,0
33147,-100,4,2,2,50,0,0
34424,-100,4,2,1,50,0,0
35701,-100,4,2,2,50,0,0
39530,-100,4,2,1,50,0,0
53573,-100,4,2,2,60,0,1
54052,-100,4,2,1,60,0,1
54850,-100,4,2,2,60,0,1
55328,-100,4,2,1,60,0,1
58679,-100,4,2,2,60,0,1
59158,-100,4,2,1,60,0,1
59956,-100,4,2,2,60,0,1
60435,-100,4,2,1,60,0,1
63786,-100,4,2,2,60,0,1
64264,-100,4,2,1,60,0,1
65062,-100,4,2,2,60,0,1
65541,-100,4,2,1,60,0,1
67615,-100,4,2,2,60,0,1
69371,-100,4,2,1,60,0,1
70169,-100,4,2,2,60,0,1
70647,-100,4,2,1,60,0,1
73998,-100,4,2,2,60,0,1
81658,-100,4,2,2,70,0,0

[Colours]
Combo1 : 255,128,0
Combo2 : 0,128,255
Combo3 : 128,0,255
Combo4 : 0,128,0

[HitObjects]
140,104,1233,5,12,0:0:0:0:
396,120,3467,2,0,L|368:208,1,89.9999999999999,12|4,0:0|0:0,0:0:0:0:
200,264,5062,6,0,P|144:220|136:152,1,135,8|8,0:0|0:0,0:0:0:0:
220,128,5860,2,0,B|256:152|256:152|264:200,1,89.9999999999999,8|0,0:0|0:0,0:0:0:0:
256,192,6339,12,8,8892,0:0:0:0:
220,108,11445,6,0,P|284:80|376:144,2,180,4|0|0,0:0|0:0|0:0,0:0:0:0:
156,44,13041,1,8,0:0:0:0:
133,132,13360,1,0,0:0:0:0:
199,195,13679,1,8,0:0:0:0:
287,176,13998,6,0,L|336:351,2,180,2|0|0,0:0|0:0|0:0,0:0:0:0:
347,109,15594,1,8,0:0:0:0:
258,90,15913,2,0,P|225:109|196:160,1,89.9999999999999,0|8,0:0|0:0,0:0:0:0:
127,208,16552,6,0,L|24:183,2,89.9999999999999,4|8|0,0:0|0:0|0:0,0:0:0:0:
87,288,17509,1,8,0:0:0:0:
176,298,17828,2,0,P|225:220|195:136,1,180,0|0,0:0|0:0,0:0:0:0:
130,84,18786,1,8,0:0:0:0:
215,55,19105,6,0,L|396:38,1,180,2|0,0:0|0:0,0:0:0:0:
366,123,20062,1,8,0:0:0:0:
453,143,20381,2,0,P|432:189|383:211,1,89.9999999999999,0|8,0:0|0:0,0:0:0:0:
310,195,21020,2,0,L|338:295,1,89.9999999999999,0|8,0:0|0:0,0:0:0:0:
249,311,21658,6,0,L|174:135,1,180,4|0,0:0|0:0,0:0:0:0:
260,112,22615,1,8,0:0:0:0:
336,164,22935,2,0,L|424:128,2,89.9999999999999,0|8|0,0:0|0:0|0:0,0:0:0:0:
280,236,23892,1,8,0:0:0:0:
216,296,24211,6,0,P|256:324|312:320,1,89.9999999999999,0|8,0:0|0:0,0:0:0:0:
384,352,24850,2,0,L|376:252,1,89.9999999999999,0|8,0:0|0:0,0:0:0:0:
465,278,25488,2,0,B|494:229|468:177|468:177,1,89.9999999999999,0|8,0:0|0:0,0:0:0:0:
503,106,26126,1,0,0:0:0:0:
424,60,26445,6,0,L|332:32,1,89.9999999999999,8|4,0:0|0:0,0:0:0:0:
308,120,27084,2,0,L|216:92,1,89.9999999999999,8|0,0:0|0:0,0:0:0:0:
136,64,27722,1,8,0:0:0:0:
68,124,28041,2,0,L|24:44,2,89.9999999999999,0|8|0,0:0|0:0|0:0,0:0:0:0:
12,192,28998,1,8,0:0:0:0:
96,236,29318,6,0,P|56:328|176:304,1,270,12|8,0:0|0:0,0:0:0:0:
200,276,30435,2,0,P|248:248|300:312,1,135,4|8,0:0|0:0,0:0:0:0:
372,352,31233,2,0,L|420:272,1,89.9999999999999,8|2,0:0|0:0,0:0:0:0:
476,208,31871,6,0,B|436:176|396:188|396:188|400:148|400:148|356:112,1,180,12|8,0:0|0:0,0:0:0:0:
180,96,33147,2,0,P|204:164|316:176,1,180,0|8,0:0|0:0,0:0:0:0:
268,100,34105,1,2,0:0:0:0:
340,40,34424,2,0,P|385:37|352:124,1,180,12|8,0:0|0:0,0:0:0:0:
268,100,35381,1,2,0:0:0:0:
184,68,35701,2,0,L|0:36,1,180,0|8,0:0|0:0,0:0:0:0:
24,124,36658,1,2,0:0:0:0:
8,212,36977,6,0,L|112:192,1,89.9999999999999,4|0,0:0|0:0,0:0:0:0:
180,228,37615,2,0,L|208:328,1,89.9999999999999,8|0,0:0|0:0,0:0:0:0:
296,316,38254,2,0,B|320:352|320:352|376:360,1,89.9999999999999,2|0,0:0|0:0,0:0:0:0:
372,268,38892,2,0,P|396:228|392:168,1,89.9999999999999,8|0,0:0|0:0,0:0:0:0:
312,204,39530,6,0,P|196:192|264:104,1,270,4|0,0:0|0:0,0:0:0:0:
292,20,40807,2,0,P|392:88|408:148,1,180,4|2,0:0|0:0,0:0:0:0:
400,228,41764,1,8,0:0:0:0:
436,312,42084,6,0,L|336:332,1,89.9999999999999,0|8,0:0|0:0,0:0:0:0:
288,260,42722,2,0,B|332:244|332:244|344:196,1,89.9999999999999,0|8,0:0|0:0,0:0:0:0:
252,176,43360,2,0,L|160:136,2,89.9999999999999,0|8|0,0:0|0:0|0:0,0:0:0:0:
196,248,44318,1,8,0:0:0:0:
132,308,44637,6,0,L|32:324,1,89.9999999999999,0|8,0:0|0:0,0:0:0:0:
20,236,45275,2,0,P|72:212|96:172,1,89.9999999999999,2|8,0:0|0:0,0:0:0:0:
8,148,45913,2,0,P|4:76|88:104,1,180,8|8,0:0|0:0,0:0:0:0:
90,186,46871,1,8,0:0:0:0:
44,264,47190,6,0,B|96:288|116:340|116:340|164:312|164:312|200:308,1,180,4|8,0:0|0:0,0:0:0:0:
270,317,48147,1,4,0:0:0:0:
315,236,48467,2,0,L|124:194,1,180,4|8,0:0|0:0,0:0:0:0:
92,120,49424,1,8,0:0:0:0:
256,192,49743,12,4,51020,0:0:0:0:
346,93,53573,6,0,P|405:123|423:194,2,135,4|0|8,0:0|0:0|0:0,0:0:0:0:
334,182,54850,2,0,B|333:217|306:242|306:242|345:240|379:258,2,135,2|0|8,0:0|0:0|0:0,0:0:0:0:
244,169,56126,6,0,L|176:94,1,89.9999999999999,2|12,0:0|0:0,0:0:0:0:
150,18,56764,2,0,P|103:56|93:100,1,89.9999999999999,2|12,0:0|0:0,0:0:0:0:
63,166,57403,2,0,P|45:160|4:90,2,89.9999999999999,2|8|2,0:0|0:0|0:0,0:0:0:0:
144,206,58360,1,8,0:0:0:0:
146,295,58679,6,0,L|1:258,2,135,4|0|8,0:0|0:0|0:0,0:0:0:0:
210,357,59956,2,0,P|271:310|330:328,2,135,2|0|8,0:0|0:0|0:0,0:0:0:0:
121,374,61233,6,0,P|85:352|21:342,1,89.9999999999999,2|12,0:0|0:0,0:0:0:0:
80,261,61871,2,0,L|180:239,1,89.9999999999999,2|12,0:0|0:0,0:0:0:0:
234,181,62509,1,4,0:0:0:0:
300,240,62828,2,0,L|395:217,2,89.9999999999999,8|8|8,0:0|0:0|0:0,0:0:0:0:
309,330,63786,6,0,L|454:311,2,135,4|0|8,0:0|0:0|0:0,0:0:0:0:
300,240,65062,2,0,P|237:237|225:315,2,135,2|0|8,0:0|0:0|0:0,0:0:0:0:
392,236,66339,6,0,L|415:145,1,89.9999999999999,2|12,0:0|0:0,0:0:0:0:
504,136,66977,2,0,L|476:36,1,89.9999999999999,2|12,0:0|0:0,0:0:0:0:
389,53,67615,2,0,B|348:55|318:91|318:91|287:60|287:60|220:56,1,180,2|8,0:0|0:0,0:0:0:0:
144,45,68573,1,8,0:0:0:0:
105,126,68892,6,0,L|244:154,2,135,4|0|8,0:0|0:0|0:0,0:0:0:0:
127,213,70169,2,0,B|94:213|65:238|65:238|58:205|29:173,2,135,2|0|8,0:0|0:0|0:0,0:0:0:0:
131,302,71445,6,0,L|217:337,1,89.9999999999999,2|12,0:0|0:0,0:0:0:0:
291,289,72084,2,0,L|212:233,2,89.9999999999999,2|4|8,0:0|0:0|0:0,0:0:0:0:
368,332,73041,1,8,0:0:0:0:
451,294,73360,2,0,L|470:194,1,89.9999999999999,8|8,0:0|0:0,0:0:0:0:
500,121,73998,6,0,B|452:106|411:131|411:131|393:89|393:89|347:64,1,180,4|0,0:0|0:0,0:0:0:0:
268,50,74956,1,8,0:0:0:0:
208,117,75275,2,0,P|242:188|293:125,1,180,2|2,0:0|0:0,0:0:0:0:
268,50,76232,1,8,0:0:0:0:
179,33,76552,6,0,L|76:13,1,89.9999999999999,2|8,0:0|0:0,0:0:0:0:
26,79,77190,2,0,L|54:172,1,89.9999999999999,2|8,0:0|0:0,0:0:0:0:
139,187,77828,2,0,L|210:110,2,89.9999999999999,4|8|0,0:0|0:0|0:0,0:0:0:0:
72,247,78786,1,8,0:0:0:0:
37,330,79105,6,0,B|85:346|123:318|123:318|172:325|172:325|220:304,1,180,4|0,0:0|0:0,0:0:0:0:
276,249,80062,1,8,0:0:0:0:
326,323,80381,2,0,L|254:381,2,89.9999999999999,8|8|8,0:0|0:0|0:0,0:0:0:0:
416,324,81339,1,0,0:0:0:0:
452,240,81658,5,12,0:0:0:0:
392,168,81977,2,0,L|332:80,1,89.9999999999999,2|8,0:0|0:0,0:0:0:0:
262,42,82615,1,2,0:0:0:0:
182,84,82935,2,0,B|128:156|128:156|156:200,1,135,8|0,0:0|0:0,0:0:0:0:
256,280,83892,5,4,0:0:0:0:
256,192,84211,12,4,87243,0:0:0:0:
