osu file format v14

[General]
AudioFilename: audio.mp3
AudioLeadIn: 0
PreviewTime: 53254
Countdown: 0
SampleSet: Soft
StackLeniency: 0.3
Mode: 0
LetterboxInBreaks: 0
WidescreenStoryboard: 1

[Editor]
DistanceSpacing: 0.5
BeatDivisor: 4
GridSize: 4
TimelineZoom: 1

[Metadata]
Title:COOLEST
TitleUnicode:COOLEST
Artist:CustomiZ
ArtistUnicode:カスタマイZ
Creator:Start
Version:Cooler! (Extra)
Source:坂本ですが?
Tags:GEEKS Sakamoto Desu Ga? OP opening tv size Hama Goro Daichi Hiroki Stardust Kin Mei
BeatmapID:953952
BeatmapSetID:443002

[Difficulty]
HPDrainRate:6
CircleSize:4
OverallDifficulty:8.5
ApproachRate:9.2
SliderMultiplier:1.6
SliderTickRate:1

[Events]
//Background and Video events
0,0,"banben.jpg",0,0
Video,0,"OP.flv"
//Break Periods
//Storyboard Layer 0 (Background)
//Storyboard Layer 1 (Fail)
//Storyboard Layer 2 (Pass)
//Storyboard Layer 3 (Foreground)
//Storyboard Sound Samples

[TimingPoints]
1233,319.148936170213,4,2,1,50,1,0
11445,-100,4,2,1,50,0,0
53573,-66.6666666666667,4,2,1,60,0,1
81658,-100,4,2,1,70,0,0

[Colours]
Combo1 : 255,128,0
Combo2 : 0,128,255
Combo3 : 128,0,255
Combo4 : 0,128,0

[HitObjects]
300,120,1233,5,8,0:0:0:0:
160,156,3467,5,12,0:0:0:0:
160,156,3786,1,4,0:0:0:0:
328,160,5062,6,0,L|384:240,1,80,8|0,0:0|0:0,0:0:0:0:
312,324,5541,1,8,0:0:0:0:
188,64,5860,1,8,0:0:0:0:
140,156,6020,1,8,0:0:0:0:
84,68,6179,1,8,0:0:0:0:
40,168,6339,6,0,L|-20:188,3,40,12|0|0|0,0:0|0:0|0:0|0:0,0:0:0:0:
120,228,6658,2,0,L|60:248,3,40,8|0|0|0,0:0|0:0|0:0|0:0,0:0:0:0:
200,288,6977,2,0,L|140:308,3,40,8|0|0|0,0:0|0:0|0:0|0:0,0:0:0:0:
280,348,7296,2,0,L|220:368,3,40,8|0|0|0,0:0|0:0|0:0|0:0,0:0:0:0:
436,272,7615,6,0,L|492:276,3,40,8|0|0|0,0:0|0:0|0:0|0:0,0:0:0:0:
416,180,7935,2,0,L|460:160,3,40,8|0|0|0,0:0|0:0|0:0|0:0,0:0:0:0:
352,108,8254,2,0,L|384:72,3,40,8|0|0|0,0:0|0:0|0:0|0:0,0:0:0:0:
272,76,8573,2,0,L|276:36,3,40,8|0|0|0,0:0|0:0|0:0|0:0,0:0:0:0:
172,68,8892,5,8,0:0:0:0:
224,192,9052,1,8,0:0:0:0:
224,192,9131,1,8,0:0:0:0:
224,192,9211,1,0,0:0:0:0:
224,192,9291,1,0,0:0:0:0:
224,192,9371,1,0,0:0:0:0:
118,214,9530,5,8,0:0:0:0:
118,214,9610,1,8,0:0:0:0:
118,214,9690,1,0,0:0:0:0:
12,236,9850,5,0,0:0:0:0:
12,236,9929,1,0,0:0:0:0:
12,236,10009,1,4,0:0:0:0:
57,313,10169,5,8,0:0:0:0:
70,295,10248,1,0,0:0:0:0:
140,346,10328,5,8,0:0:0:0:
143,325,10408,1,0,0:0:0:0:
224,324,10488,6,0,P|288:312|344:344,1,120,4|0,0:0|0:0,0:0:0:0:
420,376,10807,2,0,L|440:284,1,80,4|0,0:0|0:0,0:0:0:0:
376,108,11126,2,0,L|356:204,1,80
192,244,11445,6,0,L|216:144,2,80,4|0|8,0:0|0:0|0:0,0:0:0:0:
62,328,11924,1,0,0:0:0:0:
201,167,12084,1,0,0:0:0:0:
274,364,12243,1,0,0:0:0:0:
191,167,12403,1,8,0:0:0:0:
51,328,12562,1,0,0:0:0:0:
263,364,12722,5,0,0:0:0:0:
41,328,12881,1,0,0:0:0:0:
180,167,13041,1,8,0:0:0:0:
253,364,13201,1,0,0:0:0:0:
428,276,13360,2,0,L|324:248,1,80
196,124,13679,2,0,L|304:152,1,80,8|0,0:0|0:0,0:0:0:0:
512,112,13998,6,0,P|416:112|372:176,1,160,2|8,0:0|0:0,0:0:0:0:
352,256,14477,1,0,0:0:0:0:
468,196,14637,1,0,0:0:0:0:
298,146,14796,1,0,0:0:0:0:
352,256,14956,1,8,0:0:0:0:
193,234,15115,1,0,0:0:0:0:
128,94,15275,5,0,0:0:0:0:
193,234,15435,1,0,0:0:0:0:
298,146,15594,1,8,0:0:0:0:
352,256,15754,1,0,0:0:0:0:
408,360,15913,2,0,L|464:288,1,80,0|0,0:0|0:0,0:0:0:0:
368,177,16233,2,0,L|352:256,1,80,8|0,0:0|0:0,0:0:0:0:
240,184,16552,6,0,L|220:100,1,80,4|0,0:0|0:0,0:0:0:0:
96,168,16871,1,8,0:0:0:0:
120,48,17030,1,0,0:0:0:0:
8,232,17190,2,0,L|72:304,1,80,0|0,0:0|0:0,0:0:0:0:
137,381,17509,1,8,0:0:0:0:
296,160,17669,6,0,P|244:212|272:292,1,160
161,261,18147,1,8,0:0:0:0:
277,368,18307,1,0,0:0:0:0:
396,264,18467,2,0,L|320:232,1,80,0|0,0:0|0:0,0:0:0:0:
493,179,18786,1,8,0:0:0:0:
370,91,18945,1,0,0:0:0:0:
456,48,19105,6,0,B|380:72|380:72|300:64,1,160,2|8,0:0|0:0,0:0:0:0:
216,0,19584,1,0,0:0:0:0:
72,76,19743,2,0,L|168:88,1,80,0|0,0:0|0:0,0:0:0:0:
280,152,20062,1,8,0:0:0:0:
124,180,20222,1,0,0:0:0:0:
236,240,20381,6,0,B|208:248|172:244|172:244|152:256|128:296,1,120
36,324,20701,1,8,0:0:0:0:
216,332,20860,1,0,0:0:0:0:
200,152,21020,5,0,0:0:0:0:
104,208,21179,1,8,0:0:0:0:
168,304,21339,1,8,0:0:0:0:
260,240,21498,1,8,0:0:0:0:
352,176,21658,6,0,P|288:236|296:304,1,160,4|8,0:0|0:0,0:0:0:0:
368,364,22137,1,0,0:0:0:0:
204,320,22296,2,0,L|116:308,2,80,0|0|8,0:0|0:0|0:0,0:0:0:0:
372,260,22775,2,0,L|451:270,2,80
444,116,23254,2,0,B|400:112|400:112|364:124|364:124|344:88|300:76,1,160,8|0,0:0|0:0,0:0:0:0:
128,68,23733,1,0,0:0:0:0:
284,164,23892,6,0,L|200:184,1,80,8|0,0:0|0:0,0:0:0:0:
92,264,24211,1,0,0:0:0:0:
284,164,24371,1,0,0:0:0:0:
92,264,24530,1,8,0:0:0:0:
232,280,24690,1,0,0:0:0:0:
368,296,24850,2,0,L|388:208,1,80,0|0,0:0|0:0,0:0:0:0:
232,280,25169,1,8,0:0:0:0:
456,276,25328,6,0,B|468:232|468:232|472:180|432:148,1,120
328,52,25647,1,0,0:0:0:0:
385,217,25807,1,8,0:0:0:0:
500,88,25967,1,0,0:0:0:0:
328,52,26126,1,0,0:0:0:0:
312,60,26233,1,0,0:0:0:0:
296,64,26339,1,0,0:0:0:0:
280,64,26445,6,0,P|328:92|348:136,1,80,8|0,0:0|0:0,0:0:0:0:
228,216,26764,2,0,L|264:140,1,80,4|0,0:0|0:0,0:0:0:0:
128,8,27084,2,0,L|152:96,1,80,8|0,0:0|0:0,0:0:0:0:
16,176,27403,1,0,0:0:0:0:
136,240,27562,1,0,0:0:0:0:
72,348,27722,2,0,B|112:336|112:336|168:340,1,80,8|0,0:0|0:0,0:0:0:0:
352,320,28041,6,0,L|256:308,1,80
476,256,28360,1,8,0:0:0:0:
356,192,28519,1,0,0:0:0:0:
236,128,28679,2,0,L|320:112,1,80,0|8,0:0|0:0,0:0:0:0:
328,104,28919,1,8,0:0:0:0:
340,96,28998,1,8,0:0:0:0:
136,52,29158,5,8,0:0:0:0:
124,64,29238,1,8,0:0:0:0:
112,76,29318,2,0,L|140:168,1,80,12|0,0:0|0:0,0:0:0:0:
56,248,29637,1,8,0:0:0:0:
152,328,29796,1,8,0:0:0:0:
168,332,29876,1,8,0:0:0:0:
184,336,29956,2,0,L|232:348,1,40,8|0,0:0|0:0,0:0:0:0:
384,360,30115,2,0,L|336:348,1,40,8|0,0:0|0:0,0:0:0:0:
244,256,30275,2,0,L|292:268,1,40,8|0,0:0|0:0,0:0:0:0:
456,208,30435,6,0,P|408:256|360:184,1,160,4|0,0:0|0:0,0:0:0:0:
404,56,30913,1,8,0:0:0:0:
348,120,31073,1,8,0:0:0:0:
328,128,31153,1,8,0:0:0:0:
304,128,31233,1,8,0:0:0:0:
188,84,31392,1,8,0:0:0:0:
104,176,31552,1,2,0:0:0:0:
304,128,31711,1,2,0:0:0:0:
188,84,31871,6,0,B|144:72|144:72|88:80|88:80|32:64,1,160,12|0,0:0|0:0,0:0:0:0:
136,164,32350,1,0,0:0:0:0:
304,128,32509,2,0,P|232:168|232:264,1,160,8|0,0:0|0:0,0:0:0:0:
388,264,32988,2,0,P|356:296|296:308,1,80
420,68,33307,5,8,0:0:0:0:
308,216,33467,1,0,0:0:0:0:
308,104,33626,1,0,0:0:0:0:
492,160,33786,1,8,0:0:0:0:
420,252,33946,1,0,0:0:0:0:
348,344,34105,5,0,0:0:0:0:
180,122,34265,1,0,0:0:0:0:
456,206,34424,2,0,L|352:224,1,80,12|0,0:0|0:0,0:0:0:0:
86,268,34743,1,0,0:0:0:0:
245,316,34903,1,0,0:0:0:0:
148,188,35063,1,8,0:0:0:0:
52,60,35222,5,0,0:0:0:0:
141,102,35381,1,0,0:0:0:0:
214,50,35541,1,0,0:0:0:0:
266,153,35701,2,0,L|283:233,1,80,0|8,0:0|0:0,0:0:0:0:
373,36,36020,2,0,L|390:115,1,80,0|0,0:0|0:0,0:0:0:0:
477,240,36339,2,0,L|456:160,2,80,8|0|0,0:0|0:0|0:0,0:0:0:0:
396,320,36818,1,0,0:0:0:0:
352,224,36977,6,0,B|312:236|292:284|292:284|248:284|248:284|200:308,1,160,4|0,0:0|0:0,0:0:0:0:
120,248,37456,1,0,0:0:0:0:
292,160,37615,2,0,P|360:136|432:192,1,160,8|0,0:0|0:0,0:0:0:0:
396,320,38094,1,0,0:0:0:0:
208,208,38254,2,0,L|188:120,2,80,2|0|0,0:0|0:0|0:0,0:0:0:0:
120,248,38733,1,0,0:0:0:0:
184,44,38892,2,0,B|256:48|272:120|272:120|268:144|268:144|272:168,1,160,8|0,0:0|0:0,0:0:0:0:
252,288,39371,1,0,0:0:0:0:
256,192,39530,12,0,40488,0:0:0:0:
308,152,40807,6,0,B|368:148|368:148|412:220,1,120,2|0,0:0|0:0,0:0:0:0:
324,288,41126,2,0,B|264:292|264:292|232:240,1,120,0|0,0:0|0:0,0:0:0:0:
164,124,41445,2,0,P|112:128|128:192,1,120,2|0,0:0|0:0,0:0:0:0:
124,304,41764,1,8,0:0:0:0:
232,240,41924,1,0,0:0:0:0:
308,152,42084,5,0,0:0:0:0:
324,288,42243,1,0,0:0:0:0:
324,288,42323,1,0,0:0:0:0:
324,288,42403,2,0,L|436:308,1,80,8|0,0:0|0:0,0:0:0:0:
448,168,42722,1,0,0:0:0:0:
424,16,42881,1,0,0:0:0:0:
308,152,43041,2,0,L|229:137,1,80,8|0,0:0|0:0,0:0:0:0:
48,156,43360,5,0,0:0:0:0:
72,308,43519,1,0,0:0:0:0:
144,216,43679,2,0,L|240:236,1,80,8|0,0:0|0:0,0:0:0:0:
336,316,43998,2,0,L|252:336,1,80,0|0,0:0|0:0,0:0:0:0:
384,96,44318,2,0,L|404:192,1,80,8|0,0:0|0:0,0:0:0:0:
456,280,44637,5,0,0:0:0:0:
280,144,44796,1,0,0:0:0:0:
324,268,44956,2,0,L|216:232,1,80,8|0,0:0|0:0,0:0:0:0:
136,292,45275,1,2,0:0:0:0:
60,156,45435,1,0,0:0:0:0:
12,320,45594,1,8,0:0:0:0:
80,196,45754,1,0,0:0:0:0:
148,72,45913,1,8,0:0:0:0:
288,132,46073,5,0,0:0:0:0:
268,136,46153,1,0,0:0:0:0:
248,140,46233,1,8,0:0:0:0:
424,188,46392,1,0,0:0:0:0:
404,192,46472,1,0,0:0:0:0:
384,196,46552,2,0,L|344:204,1,40,8|0,0:0|0:0,0:0:0:0:
264,220,46711,2,0,L|200:232,1,40,0|0,0:0|0:0,0:0:0:0:
488,264,46871,2,0,L|448:272,1,40,8|0,0:0|0:0,0:0:0:0:
328,312,47030,2,0,L|264:324,1,40,0|0,0:0|0:0,0:0:0:0:
160,364,47190,1,4,0:0:0:0:
92,60,47509,5,0,0:0:0:0:
135,252,47669,1,0,0:0:0:0:
135,252,47748,1,0,0:0:0:0:
135,252,47828,1,8,0:0:0:0:
284,0,48147,5,4,0:0:0:0:
248,164,48307,1,0,0:0:0:0:
188,68,48467,1,4,0:0:0:0:
296,232,48626,1,0,0:0:0:0:
448,168,48786,1,0,0:0:0:0:
220,264,48945,1,0,0:0:0:0:
220,264,49025,1,0,0:0:0:0:
220,264,49105,2,0,L|208:328,1,40,8|0,0:0|0:0,0:0:0:0:
372,200,49264,1,0,0:0:0:0:
372,200,49344,1,0,0:0:0:0:
372,200,49424,6,0,L|384:256,1,40,8|0,0:0|0:0,0:0:0:0:
276,104,49584,2,0,L|264:164,1,40,8|0,0:0|0:0,0:0:0:0:
352,20,49743,1,4,0:0:0:0:
372,200,49903,1,0,0:0:0:0:
248,20,50062,1,2,0:0:0:0:
476,196,50222,1,0,0:0:0:0:
268,120,50381,1,2,0:0:0:0:
452,100,50541,1,0,0:0:0:0:
272,224,50701,1,2,0:0:0:0:
452,4,50860,1,0,0:0:0:0:
256,80,51020,5,8,0:0:0:0:
411,235,51179,1,8,0:0:0:0:
195,90,51339,1,8,0:0:0:0:
399,174,51498,1,8,0:0:0:0:
143,125,51658,1,8,0:0:0:0:
366,125,51818,1,8,0:0:0:0:
110,174,51977,1,8,0:0:0:0:
314,90,52137,1,8,0:0:0:0:
99,235,52296,1,8,0:0:0:0:
248,214,52456,1,0,0:0:0:0:
264,198,52536,1,0,0:0:0:0:
280,182,52615,1,8,0:0:0:0:
280,60,52775,5,0,0:0:0:0:
260,64,52855,1,0,0:0:0:0:
240,68,52935,2,0,L|196:76,1,40,8|0,0:0|0:0,0:0:0:0:
172,192,53094,2,0,L|128:200,1,40,0|0,0:0|0:0,0:0:0:0:
412,108,53254,2,0,L|368:116,1,40,8|0,0:0|0:0,0:0:0:0:
332,232,53413,2,0,L|288:240,1,40,0|0,0:0|0:0,0:0:0:0:
96,308,53573,6,0,B|128:320|168:308|168:308|184:344|224:360|224:360|208:316|228:272,1,240.000009155274,4|8,0:0|0:0,0:0:0:0:
376,356,54052,2,0,P|308:348|372:280,1,180.000006866455,0|0,0:0|0:0,0:0:0:0:
400,152,54371,1,0,0:0:0:0:
472,296,54530,1,8,0:0:0:0:
512,144,54690,1,0,0:0:0:0:
256,88,54850,5,2,0:0:0:0:
344,272,55009,1,0,0:0:0:0:
400,76,55169,1,8,0:0:0:0:
140,16,55328,2,0,B|136:36|148:56|148:56|128:84|128:84|144:112|144:112|120:144|124:192,1,180.000006866455
236,292,55647,5,0,0:0:0:0:
216,172,55807,1,8,0:0:0:0:
92,256,55967,1,0,0:0:0:0:
332,316,56126,5,2,0:0:0:0:
314,213,56286,1,0,0:0:0:0:
314,213,56365,1,0,0:0:0:0:
314,213,56445,1,12,0:0:0:0:
296,112,56605,1,0,0:0:0:0:
384,52,56764,1,2,0:0:0:0:
314,213,56924,1,0,0:0:0:0:
314,213,57004,1,0,0:0:0:0:
314,213,57084,1,12,0:0:0:0:
484,188,57243,5,0,0:0:0:0:
296,112,57403,1,2,0:0:0:0:
404,232,57562,1,0,0:0:0:0:
356,32,57722,1,8,0:0:0:0:
204,168,57881,1,0,0:0:0:0:
112,84,58041,1,2,0:0:0:0:
296,112,58201,1,0,0:0:0:0:
268,292,58360,1,8,0:0:0:0:
88,264,58520,1,0,0:0:0:0:
220,204,58679,6,0,B|268:184|316:208|316:208|364:188|384:140|384:140|392:188,1,240.000009155274,4|8,0:0|0:0,0:0:0:0:
470,209,59158,2,0,P|400:264|306:180,1,180.000006866455
296,112,59477,1,0,0:0:0:0:
268,292,59637,1,8,0:0:0:0:
390,181,59796,1,0,0:0:0:0:
404,360,59956,5,2,0:0:0:0:
296,112,60115,1,0,0:0:0:0:
252,384,60275,1,8,0:0:0:0:
120,256,60435,2,0,P|136:188|200:268,1,180.000006866455,0|0,0:0|0:0,0:0:0:0:
188,320,60754,5,0,0:0:0:0:
432,268,60913,1,8,0:0:0:0:
288,192,61073,1,0,0:0:0:0:
324,344,61233,5,2,0:0:0:0:
352,112,61392,1,0,0:0:0:0:
216,224,61552,2,0,P|256:268|320:264,1,120.000004577637,12|0,0:0|0:0,0:0:0:0:
432,268,61871,1,2,0:0:0:0:
252,40,62030,1,0,0:0:0:0:
132,196,62190,2,0,P|140:260|176:312,1,120.000004577637,12|0,0:0|0:0,0:0:0:0:
312,268,62509,5,4,0:0:0:0:
340,72,62669,2,0,L|360:136,1,60.0000022888184,0|0,0:0|0:0,0:0:0:0:
380,200,62828,1,8,0:0:0:0:
200,48,62988,2,0,L|244:116,1,60.0000022888184,0|0,0:0|0:0,0:0:0:0:
280,164,63147,1,8,0:0:0:0:
16,176,63307,2,0,L|84:164,1,60.0000022888184,0|0,0:0|0:0,0:0:0:0:
168,148,63467,1,8,0:0:0:0:
252,256,63626,2,0,L|172:272,1,60.0000022888184,0|0,0:0|0:0,0:0:0:0:
60,292,63786,6,0,B|120:276|168:300|184:351|184:351|212:336|212:336|284:340,1,240.000009155274,4|8,0:0|0:0,0:0:0:0:
266,339,64264,2,0,B|312:328|328:288|328:288|356:312|392:324|392:324|416:292|408:244,1,240.000009155274,0|0,0:0|0:0,0:0:0:0:
408,245,64743,2,0,B|392:232|360:212|360:212|384:188|384:156,1,120.000004577637,8|0,0:0|0:0,0:0:0:0:
296,148,65062,1,2,0:0:0:0:
480,192,65222,1,0,0:0:0:0:
384,8,65381,1,8,0:0:0:0:
320,120,65541,1,0,0:0:0:0:
208,336,65860,5,0,0:0:0:0:
112,152,66019,1,8,0:0:0:0:
48,264,66179,1,0,0:0:0:0:
84,72,66339,6,0,L|112:8,2,60.0000022888184,2|0|0,0:0|0:0|0:0,0:0:0:0:
236,212,66658,1,12,0:0:0:0:
16,184,66818,1,0,0:0:0:0:
180,92,66977,2,0,L|208:28,2,60.0000022888184,2|0|0,0:0|0:0|0:0,0:0:0:0:
252,304,67296,5,12,0:0:0:0:
284,80,67455,1,0,0:0:0:0:
152,264,67615,1,2,0:0:0:0:
352,160,67775,1,0,0:0:0:0:
128,172,67934,1,8,0:0:0:0:
340,256,68094,1,0,0:0:0:0:
180,92,68253,1,8,0:0:0:0:
180,92,68334,1,0,0:0:0:0:
180,92,68413,1,0,0:0:0:0:
124,308,68573,1,8,0:0:0:0:
124,308,68653,1,0,0:0:0:0:
124,308,68733,1,0,0:0:0:0:
124,308,68812,1,0,0:0:0:0:
124,308,68892,6,0,P|96:244|192:288,1,240.000009155274,4|8,0:0|0:0,0:0:0:0:
198,272,69371,2,0,B|224:304|268:288|268:288|292:256|280:228|280:228|304:220|316:200,1,180.000006866455,0|0,0:0|0:0,0:0:0:0:
420,120,69690,1,0,0:0:0:0:
364,272,69850,1,8,0:0:0:0:
252,148,70009,1,0,0:0:0:0:
76,240,70169,5,2,0:0:0:0:
136,160,70328,1,0,0:0:0:0:
180,248,70488,1,8,0:0:0:0:
228,332,70647,2,0,P|232:272|316:308,1,180.000006866455,0|0,0:0|0:0,0:0:0:0:
416,276,70967,5,0,0:0:0:0:
308,380,71126,1,8,0:0:0:0:
284,184,71286,1,0,0:0:0:0:
480,168,71445,5,2,0:0:0:0:
504,364,71605,1,0,0:0:0:0:
504,364,71685,1,0,0:0:0:0:
504,364,71764,1,12,0:0:0:0:
308,380,71924,1,0,0:0:0:0:
480,168,72084,1,2,0:0:0:0:
504,364,72244,1,0,0:0:0:0:
504,364,72324,1,0,0:0:0:0:
504,364,72403,1,12,0:0:0:0:
308,380,72562,1,0,0:0:0:0:
340,200,72722,5,8,0:0:0:0:
336,184,72802,1,0,0:0:0:0:
332,168,72881,1,0,0:0:0:0:
216,268,73041,1,8,0:0:0:0:
212,284,73121,1,0,0:0:0:0:
208,300,73201,1,0,0:0:0:0:
112,160,73360,5,8,0:0:0:0:
97,149,73440,1,0,3:0:0:0:
94,131,73520,1,0,3:0:0:0:
105,117,73600,1,0,0:0:0:0:
123,114,73679,1,8,0:0:0:0:
137,125,73759,1,0,3:0:0:0:
140,142,73839,1,0,3:0:0:0:
129,157,73919,1,0,3:0:0:0:
112,160,73998,6,0,P|216:140|272:204,1,180.000006866455,4|0,0:0|0:0,0:0:0:0:
276,208,74318,2,0,B|276:184|296:160|296:160|240:176|168:232,1,180.000006866455,8|0,0:0|0:0,0:0:0:0:
352,212,74637,1,0,0:0:0:0:
184,219,74796,1,0,0:0:0:0:
280,80,74956,1,8,0:0:0:0:
312,284,75115,1,0,0:0:0:0:
172,148,75275,5,2,0:0:0:0:
376,228,75435,1,0,0:0:0:0:
160,228,75594,1,8,0:0:0:0:
316,172,75754,1,0,0:0:0:0:
148,308,75913,1,2,0:0:0:0:
252,120,76073,1,0,0:0:0:0:
224,280,76233,1,8,0:0:0:0:
184,68,76392,1,0,0:0:0:0:
300,252,76552,5,2,0:0:0:0:
172,148,76711,1,0,0:0:0:0:
336,128,76871,1,8,0:0:0:0:
168,228,77030,1,0,0:0:0:0:
336,128,77190,1,2,0:0:0:0:
112,84,77350,1,0,0:0:0:0:
192,304,77509,1,8,0:0:0:0:
212,172,77669,1,0,0:0:0:0:
232,40,77828,6,0,P|248:112|332:72,1,180.000006866455,4|0,0:0|0:0,0:0:0:0:
384,160,78147,2,0,P|416:144|400:224,1,180.000006866455,8|0,0:0|0:0,0:0:0:0:
376,304,78467,2,0,P|288:248|216:276,1,180.000006866455,0|0,0:0|0:0,0:0:0:0:
156,332,78786,2,0,B|132:304|136:264|136:264|144:240|144:240|120:212|120:212|132:156,1,180.000006866455,8|0,0:0|0:0,0:0:0:0:
232,40,79105,1,0,0:0:0:0:
256,192,79185,12,8,80062,0:0:0:0:
236,132,80381,6,0,B|244:192|192:232|192:232|248:260|248:260|308:240,2,240.000009155274,8|8|8,0:0|0:0|0:0,0:0:0:0:
140,144,81498,5,0,0:0:0:0:
416,120,81658,1,4,0:0:0:0:
416,120,81977,1,2,0:0:0:0:
416,120,82296,1,2,0:0:0:0:
416,120,82615,5,2,0:0:0:0:
280,224,82775,1,0,0:0:0:0:
144,328,82935,1,8,0:0:0:0:
144,328,83095,1,8,0:0:0:0:
336,360,83254,1,8,0:0:0:0:
336,360,83413,2,0,P|364:288|296:304,1,160,8|0,0:0|0:0,0:0:0:0:
232,328,83812,1,0,0:0:0:0:
232,328,83892,2,0,L|204:216,1,80,4|0,0:0|0:0,0:0:0:0:
120,88,84211,5,4,0:0:0:0:
72,200,84371,1,0,0:0:0:0:
72,200,84451,1,0,0:0:0:0:
72,200,84530,1,0,0:0:0:0:
200,180,84690,1,4,0:0:0:0:
248,56,84850,2,0,L|260:104,1,40,0|0,0:0|0:0,0:0:0:0:
324,260,85009,1,0,0:0:0:0:
324,260,85169,1,0,0:0:0:0:
324,260,85328,1,4,0:0:0:0:
424,132,85488,5,0,0:0:0:0:
424,132,85647,1,0,0:0:0:0:
484,228,85807,1,4,0:0:0:0:
484,228,85967,1,0,0:0:0:0:
448,328,86126,1,4,0:0:0:0:
448,328,86286,2,0,L|416:272,1,40,0|0,0:0|0:0,0:0:0:0:
368,176,86445,1,6,0:0:0:0:
368,176,86605,1,0,0:0:0:0:
288,20,86764,5,4,0:0:0:0:
176,272,86924,1,0,0:0:0:0:
176,272,87004,1,0,0:0:0:0:
176,272,87084,1,0,0:0:0:0:
32,60,87243,1,4,0:0:0:0:
