osu file format v14

[General]
AudioFilename: audio.mp3
AudioLeadIn: 0
PreviewTime: 53254
Countdown: 0
SampleSet: Soft
StackLeniency: 0.3
Mode: 0
LetterboxInBreaks: 0
WidescreenStoryboard: 1

[Editor]
DistanceSpacing: 1
BeatDivisor: 4
GridSize: 4
TimelineZoom: 2.1

[Metadata]
Title:COOLEST
TitleUnicode:COOLEST
Artist:CustomiZ
ArtistUnicode:カスタマイZ
Creator:Start
Version:COOLEST!
Source:坂本ですが?
Tags:GEEKS Sakamoto Desu Ga? OP opening tv size Hama Goro Daichi Hiroki Stardust Kin Mei
BeatmapID:952563
BeatmapSetID:443002

[Difficulty]
HPDrainRate:7
CircleSize:4.5
OverallDifficulty:9
ApproachRate:9.3
SliderMultiplier:1.8
SliderTickRate:1

[Events]
//Background and Video events
0,0,"banben.jpg",0,0
Video,0,"OP.flv"
//Break Periods
//Storyboard Layer 0 (Background)
//Storyboard Layer 1 (Fail)
//Storyboard Layer 2 (Pass)
//Storyboard Layer 3 (Foreground)
//Storyboard Sound Samples

[TimingPoints]
1233,319.148936170213,4,2,1,50,1,0
11445,-100,4,2,1,50,0,0
53573,-66.6666666666667,4,2,1,60,0,1
80381,-200,4,2,1,70,0,0
80701,-100,4,2,1,70,0,0
81020,-66.6666666666667,4,2,1,70,0,0
81658,-100,4,2,1,70,0,0

[Colours]
Combo1 : 255,128,0
Combo2 : 0,128,255
Combo3 : 128,0,255
Combo4 : 0,128,0

[HitObjects]
100,108,1233,5,12,0:0:0:0:
344,168,3467,5,12,0:0:0:0:
344,168,3786,1,4,0:0:0:0:
160,256,5062,6,0,L|84:320,1,90,8|0,0:0|0:0,0:0:0:0:
180,264,5541,1,8,0:0:0:0:
200,268,5861,5,8,0:0:0:0:
216,272,6020,1,8,0:0:0:0:
232,276,6179,1,8,0:0:0:0:
232,300,6339,6,0,P|308:272|360:304,1,135,12|0,0:0|0:0,0:0:0:0:
360,328,6658,2,0,L|412:324,1,45,8|0,0:0|0:0,0:0:0:0:
340,208,6818,2,0,L|292:228,1,45
452,108,6977,6,0,L|412:84,1,45,8|0,0:0|0:0,0:0:0:0:
388,109,7137,1,0,0:0:0:0:
356,126,7217,1,0,0:0:0:0:
325,143,7297,1,8,0:0:0:0:
292,130,7377,1,0,0:0:0:0:
259,115,7456,1,0,0:0:0:0:
226,101,7536,1,0,0:0:0:0:
208,48,7615,6,0,P|184:44|152:44,1,45,8|0,0:0|0:0,0:0:0:0:
124,60,7776,1,0,0:0:0:0:
105,89,7856,1,0,0:0:0:0:
98,124,7936,1,8,0:0:0:0:
102,157,8015,1,0,0:0:0:0:
118,191,8095,1,0,0:0:0:0:
144,217,8175,1,0,0:0:0:0:
152,263,8254,6,0,P|176:253|203:247,1,45,8|0,0:0|0:0,0:0:0:0:
239,250,8414,1,0,0:0:0:0:
278,280,8494,1,0,0:0:0:0:
282,328,8573,1,8,0:0:0:0:
245,365,8653,1,0,0:0:0:0:
192,370,8733,1,0,0:0:0:0:
145,351,8813,1,0,0:0:0:0:
68,298,8892,5,8,0:0:0:0:
102,88,9053,1,0,0:0:0:0:
102,88,9132,1,0,0:0:0:0:
102,88,9211,2,0,L|92:138,1,45
68,298,9371,1,0,0:0:0:0:
152,263,9531,5,0,0:0:0:0:
152,263,9611,1,0,0:0:0:0:
152,263,9690,2,0,L|164:195,1,45
300,65,9850,2,0,L|286:132,1,45
252,287,10009,1,4,0:0:0:0:
252,287,10168,6,0,L|300:279,1,45
492,319,10328,2,0,L|447:326,1,45
312,199,10487,2,0,P|372:251|360:331,1,135,4|0,0:0|0:0,0:0:0:0:
256,368,10807,2,0,L|360:380,1,90,4|0,0:0|0:0,0:0:0:0:
92,304,11126,2,0,L|188:248,1,90
266,230,11445,5,4,0:0:0:0:
169,258,11605,1,0,0:0:0:0:
283,262,11764,1,8,0:0:0:0:
149,228,11924,1,0,0:0:0:0:
314,286,12084,1,0,0:0:0:0:
125,200,12243,1,0,0:0:0:0:
293,316,12403,5,8,0:0:0:0:
145,166,12562,1,0,0:0:0:0:
276,355,12722,1,0,0:0:0:0:
156,127,12881,1,0,0:0:0:0:
293,316,13041,1,8,0:0:0:0:
145,166,13200,1,0,0:0:0:0:
314,286,13360,1,0,0:0:0:0:
125,200,13519,1,0,0:0:0:0:
349,272,13679,1,8,0:0:0:0:
98,228,13839,1,0,0:0:0:0:
336,96,13998,6,0,L|268:192,1,90,2|0,0:0|0:0,0:0:0:0:
168,228,14318,1,8,0:0:0:0:
380,201,14477,1,0,0:0:0:0:
233,311,14637,1,0,0:0:0:0:
311,109,14796,1,0,0:0:0:0:
338,297,14956,1,8,0:0:0:0:
200,122,15115,1,0,0:0:0:0:
250,290,15275,5,0,0:0:0:0:
352,185,15434,1,0,0:0:0:0:
208,148,15594,1,8,0:0:0:0:
331,266,15754,1,0,0:0:0:0:
232,40,15914,1,0,0:0:0:0:
188,233,16074,1,0,0:0:0:0:
285,121,16233,1,8,0:0:0:0:
276,328,16392,1,0,0:0:0:0:
416,192,16552,6,0,L|348:80,1,90,4|0,0:0|0:0,0:0:0:0:
260,168,16871,1,8,0:0:0:0:
324,324,17030,1,0,0:0:0:0:
424,130,17190,6,0,L|344:74,1,90
372,320,17509,1,8,0:0:0:0:
408,69,17669,6,0,L|288:57,2,90
216,14,18147,1,8,0:0:0:0:
73,127,18307,1,0,0:0:0:0:
216,192,18467,5,0,0:0:0:0:
104,48,18626,1,0,0:0:0:0:
276,264,18786,1,8,0:0:0:0:
156,120,18945,1,0,0:0:0:0:
68,268,19105,2,0,P|124:344|228:312,1,180,2|8,0:0|0:0,0:0:0:0:
276,124,19584,5,0,0:0:0:0:
156,260,19743,1,0,0:0:0:0:
216,192,19903,1,0,0:0:0:0:
340,56,20062,1,8,0:0:0:0:
276,124,20222,1,0,0:0:0:0:
412,196,20381,5,0,0:0:0:0:
340,56,20541,1,0,0:0:0:0:
320,208,20701,1,8,0:0:0:0:
428,104,20860,1,0,0:0:0:0:
276,124,21020,1,0,0:0:0:0:
320,208,21179,1,8,0:0:0:0:
412,196,21339,1,8,0:0:0:0:
428,104,21498,1,8,0:0:0:0:
340,56,21658,6,0,P|284:32|204:72,1,135,4|0,0:0|0:0,0:0:0:0:
186,129,21977,2,0,P|151:103|125:66,1,90,8|0,0:0|0:0,0:0:0:0:
36,160,22296,2,0,P|28:224|104:228,1,135
160,216,22615,1,8,0:0:0:0:
332,152,22775,6,0,P|332:220|228:208,1,180
187,130,23254,2,0,L|155:230,1,90,8|0,0:0|0:0,0:0:0:0:
288,332,23573,2,0,L|377:315,1,90
458,100,23892,2,0,P|456:145|469:188,1,90,8|0,0:0|0:0,0:0:0:0:
377,315,24211,5,0,0:0:0:0:
302,125,24371,1,0,0:0:0:0:
134,61,24530,1,8,0:0:0:0:
381,67,24690,1,0,0:0:0:0:
470,189,24850,1,0,0:0:0:0:
317,238,25009,1,0,0:0:0:0:
223,183,25169,1,8,0:0:0:0:
291,328,25328,1,0,0:0:0:0:
291,328,25488,1,0,0:0:0:0:
144,294,25647,5,0,0:0:0:0:
271,81,25807,1,8,0:0:0:0:
291,328,25967,1,0,0:0:0:0:
130,140,26126,2,0,P|152:132|176:128,1,45
371,196,26286,2,0,P|349:204|325:208,1,45
231,266,26445,2,0,B|185:246|178:198|178:198|203:197|222:184,1,135,8|0,0:0|0:0,0:0:0:0:
372,104,26764,6,0,P|332:120|285:116,1,90,4|0,0:0|0:0,0:0:0:0:
496,244,27084,2,0,B|516:332|516:332|473:314,1,135,8|0,0:0|0:0,0:0:0:0:
389,284,27403,2,0,L|368:185,1,90
224,22,27722,2,0,B|285:26|324:0|324:0|308:44,1,135,8|0,0:0|0:0,0:0:0:0:
130,140,28041,6,0,P|170:136|222:116,1,90
32,272,28360,2,0,B|2:245|2:245|37:211|89:217,1,135,8|0,0:0|0:0,0:0:0:0:
166,321,28679,2,0,P|124:338|78:342,1,90
190,309,28919,5,8,0:0:0:0:
214,297,28998,1,8,0:0:0:0:
452,252,29158,1,8,0:0:0:0:
428,248,29238,1,8,0:0:0:0:
404,236,29318,2,0,P|380:224|340:176,1,90,12|0,0:0|0:0,0:0:0:0:
183,134,29637,2,0,L|251:126,1,45,8|0,0:0|0:0,0:0:0:0:
440,16,29796,1,8,0:0:0:0:
412,32,29876,1,8,0:0:0:0:
384,52,29956,6,0,L|360:104,1,45,8|0,0:0|0:0,0:0:0:0:
332,287,30115,2,0,L|332:235,1,45,8|0,0:0|0:0,0:0:0:0:
152,100,30275,2,0,L|185:136,1,45,8|0,0:0|0:0,0:0:0:0:
144,264,30435,2,0,P|64:260|108:332,1,180,4|0,0:0|0:0,0:0:0:0:
224,332,30913,5,8,0:0:0:0:
204,184,31073,1,8,0:0:0:0:
180,164,31153,1,8,0:0:0:0:
148,148,31233,1,8,0:0:0:0:
8,176,31392,1,8,0:0:0:0:
144,264,31552,1,2,0:0:0:0:
152,100,31711,1,2,0:0:0:0:
72,108,31871,6,0,P|96:164|220:144,1,180,12|0,0:0|0:0,0:0:0:0:
232,92,32350,1,0,0:0:0:0:
376,188,32509,2,0,P|320:196|272:208,1,90,8|0,0:0|0:0,0:0:0:0:
216,272,32828,1,0,0:0:0:0:
285,131,32988,1,0,0:0:0:0:
294,357,33147,1,0,0:0:0:0:
365,220,33307,5,8,0:0:0:0:
422,321,33467,1,0,0:0:0:0:
493,184,33627,1,0,0:0:0:0:
449,65,33786,1,8,0:0:0:0:
396,160,33945,1,0,0:0:0:0:
281,383,34105,5,0,0:0:0:0:
184,123,34264,1,0,0:0:0:0:
78,339,34424,2,0,L|104:244,1,90,12|0,0:0|0:0,0:0:0:0:
104,156,34743,1,0,0:0:0:0:
159,300,34902,1,0,0:0:0:0:
212,204,35062,1,8,0:0:0:0:
330,3,35222,5,0,0:0:0:0:
382,146,35381,1,0,0:0:0:0:
436,49,35541,1,0,0:0:0:0:
444,216,35701,2,0,P|391:200|328:213,1,90,0|8,0:0|0:0,0:0:0:0:
240,349,36020,2,0,P|280:321|296:257,1,90
240,108,36339,2,0,P|232:156|272:208,2,90,8|0|0,0:0|0:0|0:0,0:0:0:0:
129,242,36818,5,0,0:0:0:0:
164,64,36977,2,0,P|208:28|320:72,1,180,4|0,0:0|0:0,0:0:0:0:
346,160,37456,1,0,0:0:0:0:
192,152,37615,2,0,B|140:160|104:132|104:132|80:168|80:168|31:175,1,180,8|0,0:0|0:0,0:0:0:0:
129,242,38094,1,0,0:0:0:0:
322,236,38254,6,0,B|346:248|370:240|370:240|382:288|402:296|402:296|454:272|458:212,1,180,2|0,0:0|0:0,0:0:0:0:
346,160,38733,1,0,0:0:0:0:
353,357,38892,2,0,B|338:348|322:320|322:320|274:315|240:280|240:280|241:230,1,180,8|0,0:0|0:0,0:0:0:0:
256,104,39371,1,0,0:0:0:0:
256,192,39530,12,0,40488,0:0:0:0:
302,39,40807,6,0,P|356:46|340:116,1,135,2|0,0:0|0:0,0:0:0:0:
510,238,41126,2,0,P|442:238|370:206,1,135
200,224,41445,2,0,P|272:227|268:186,1,135,2|0,0:0|0:0,0:0:0:0:
128,80,41764,1,8,0:0:0:0:
136,264,41924,1,0,0:0:0:0:
236,104,42084,5,0,0:0:0:0:
55,223,42243,1,0,0:0:0:0:
55,223,42323,1,0,0:0:0:0:
55,223,42403,2,0,L|136:264,1,90,8|0,0:0|0:0,0:0:0:0:
276,236,42722,1,0,0:0:0:0:
168,348,42881,1,0,0:0:0:0:
394,293,43041,2,0,L|486:273,1,90,8|0,0:0|0:0,0:0:0:0:
252,380,43360,5,0,0:0:0:0:
196,196,43520,1,0,0:0:0:0:
324,64,43679,2,0,L|312:180,1,90,8|0,0:0|0:0,0:0:0:0:
394,293,43998,1,0,0:0:0:0:
254,240,44158,1,0,0:0:0:0:
107,181,44318,2,0,L|207:197,1,90,8|0,0:0|0:0,0:0:0:0:
384,108,44637,6,0,L|272:96,2,90,0|0|8,0:0|0:0|0:0,0:0:0:0:
232,52,45115,1,0,0:0:0:0:
64,108,45275,1,2,0:0:0:0:
64,108,45435,2,0,P|136:112|184:180,1,135
188,244,45754,1,0,0:0:0:0:
188,244,45913,6,0,B|228:224|228:224|275:246,1,90,8|0,0:0|0:0,0:0:0:0:
468,144,46233,2,0,B|446:148|446:148|428:164|428:164|408:156|385:156,1,90,8|0,0:0|0:0,0:0:0:0:
392,265,46552,2,0,B|390:310|392:360,1,90,8|0,0:0|0:0,0:0:0:0:
266,156,46871,2,0,B|272:116|268:60,1,90,8|0,0:0|0:0,0:0:0:0:
134,234,47190,2,0,L|128:324,1,90,4|0,0:0|0:0,0:0:0:0:
207,116,47509,5,0,0:0:0:0:
240,341,47669,1,0,0:0:0:0:
240,341,47748,1,0,0:0:0:0:
240,341,47828,1,8,0:0:0:0:
369,131,48147,5,4,0:0:0:0:
280,67,48307,1,0,0:0:0:0:
54,177,48467,1,4,0:0:0:0:
122,90,48627,1,0,0:0:0:0:
223,228,48786,1,0,0:0:0:0:
207,116,48945,2,0,L|199:60,1,45
191,4,49105,1,8,0:0:0:0:
484,248,49264,5,0,0:0:0:0:
484,248,49344,1,0,0:0:0:0:
484,248,49424,2,0,L|430:226,1,45
280,228,49584,2,0,L|356:260,1,45
400,340,49743,6,0,L|344:316,1,45,4|0,0:0|0:0,0:0:0:0:
316,124,49903,2,0,L|372:148,1,45
196,252,50062,2,0,L|140:228,1,45,2|0,0:0|0:0,0:0:0:0:
112,36,50222,2,0,L|168:60,1,45
280,292,50381,6,0,L|300:248,1,45,2|0,0:0|0:0,0:0:0:0:
232,92,50541,2,0,L|212:136,1,45
52,206,50701,2,0,L|72:162,1,45,2|0,0:0|0:0,0:0:0:0:
460,178,50860,2,0,L|440:222,1,45
253,40,51020,5,8,0:0:0:0:
31,264,51179,1,8,0:0:0:0:
460,178,51339,1,8,0:0:0:0:
168,56,51498,1,8,0:0:0:0:
47,178,51658,1,8,0:0:0:0:
476,264,51818,1,8,0:0:0:0:
339,57,51977,1,8,0:0:0:0:
96,105,52137,1,8,0:0:0:0:
411,105,52296,1,8,0:0:0:0:
224,204,52456,5,0,0:0:0:0:
236,180,52535,1,0,0:0:0:0:
248,156,52615,1,8,0:0:0:0:
128,172,52775,6,0,L|128:216,1,45
139,260,52934,1,8,0:0:0:0:
165,296,53014,1,0,0:0:0:0:
206,318,53094,1,0,0:0:0:0:
250,310,53174,1,0,0:0:0:0:
291,326,53254,5,8,0:0:0:0:
322,307,53334,1,0,0:0:0:0:
357,312,53413,1,0,0:0:0:0:
386,291,53493,1,0,0:0:0:0:
424,292,53573,6,0,B|404:252|404:252|408:224|408:224|328:188|312:108|312:108|404:128,1,270.000010299683,4|8,0:0|0:0,0:0:0:0:
424,128,54052,2,0,B|440:136|440:136|424:144|424:144|408:184|364:200|324:192|324:192|286:204|286:204|288:176,1,202.500007724762
164,132,54371,1,0,0:0:0:0:
332,272,54530,1,8,0:0:0:0:
200,256,54690,1,0,0:0:0:0:
504,24,54850,5,2,0:0:0:0:
332,272,55009,1,0,0:0:0:0:
308,88,55169,1,8,0:0:0:0:
200,256,55328,2,0,B|192:240|184:228|184:228|168:228|152:248|152:248|136:224|136:224|108:232|108:232|80:220|36:224,1,202.500007724762
97,149,55647,5,0,0:0:0:0:
168,340,55807,1,8,0:0:0:0:
260,208,55967,1,0,0:0:0:0:
352,72,56126,1,2,0:0:0:0:
260,208,56286,1,0,0:0:0:0:
252,192,56365,1,0,0:0:0:0:
244,176,56445,5,12,0:0:0:0:
476,284,56605,1,0,0:0:0:0:
352,44,56765,1,2,0:0:0:0:
260,208,56924,1,0,0:0:0:0:
268,224,57003,1,0,0:0:0:0:
276,240,57083,5,12,0:0:0:0:
32,68,57243,1,0,0:0:0:0:
187,310,57403,1,2,0:0:0:0:
216,128,57562,1,0,0:0:0:0:
140,48,57722,1,8,0:0:0:0:
4,228,57881,1,0,0:0:0:0:
341,237,58041,5,2,0:0:0:0:
248,28,58201,1,0,0:0:0:0:
61,336,58360,2,0,L|127:324,1,67.5000025749208
512,256,58520,2,0,L|444:252,1,67.5000025749208
276,192,58679,6,0,B|240:192|240:192|208:216|208:216|164:152|104:144|104:144|108:176|144:212,1,270.000010299683,4|8,0:0|0:0,0:0:0:0:
196,292,59158,2,0,B|208:296|228:296|228:296|264:268|264:268|299:268|319:260|340:236|340:236|347:256|388:264,1,202.500007724762
512,256,59477,1,0,0:0:0:0:
404,192,59637,1,8,0:0:0:0:
344,332,59796,1,0,0:0:0:0:
168,12,59956,5,2,0:0:0:0:
0,256,60115,1,0,0:0:0:0:
108,192,60275,1,8,0:0:0:0:
168,332,60435,2,0,B|164:348|164:348|194:326|194:326|219:331|239:326|260:308|260:308|276:340|312:348|312:348|332:344,1,202.500007724762
448,312,60754,5,0,0:0:0:0:
332,268,60913,1,8,0:0:0:0:
296,112,61073,1,0,0:0:0:0:
208,248,61233,1,2,0:0:0:0:
440,184,61392,1,0,0:0:0:0:
264,28,61552,6,0,P|216:68|224:164,1,135.000005149842,12|0,0:0|0:0,0:0:0:0:
292,344,61871,1,2,0:0:0:0:
412,32,62030,1,0,0:0:0:0:
116,80,62190,2,0,P|124:168|180:252,1,135.000005149842,12|0,0:0|0:0,0:0:0:0:
408,304,62509,5,4,0:0:0:0:
272,216,62669,1,0,0:0:0:0:
264,196,62748,1,0,0:0:0:0:
256,172,62828,1,8,0:0:0:0:
440,76,62988,5,0,0:0:0:0:
424,113,63067,1,0,0:0:0:0:
408,150,63147,1,8,0:0:0:0:
317,248,63307,5,0,0:0:0:0:
374,216,63387,1,0,0:0:0:0:
440,228,63466,1,8,0:0:0:0:
232,320,63626,5,0,0:0:0:0:
156,320,63706,1,0,0:0:0:0:
93,276,63786,2,0,P|48:240|156:232,1,270.000010299683,4|8,0:0|0:0,0:0:0:0:
155,232,64264,2,0,B|216:188|300:208|336:272|336:272|364:236|416:244,1,270.000010299683
387,243,64743,2,0,P|422:289|446:229,1,135.000005149842,8|0,0:0|0:0,0:0:0:0:
456,36,65062,5,2,0:0:0:0:
325,349,65222,1,0,0:0:0:0:
264,120,65381,1,8,0:0:0:0:
181,326,65541,2,0,P|244:296|272:228,1,135.000005149842
73,10,65860,1,0,0:0:0:0:
181,326,66020,1,8,0:0:0:0:
264,120,66179,1,0,0:0:0:0:
16,265,66339,6,0,L|4:341,2,67.5000025749208,2|0|0,0:0|0:0|0:0,0:0:0:0:
272,240,66658,1,12,0:0:0:0:
73,10,66818,1,0,0:0:0:0:
16,265,66977,2,0,L|4:341,2,67.5000025749208,2|0|0,0:0|0:0|0:0,0:0:0:0:
364,136,67296,1,12,0:0:0:0:
152,80,67456,1,0,0:0:0:0:
152,296,67615,5,2,0:0:0:0:
372,252,67775,1,0,0:0:0:0:
280,56,67935,1,8,0:0:0:0:
96,180,68094,1,0,0:0:0:0:
272,328,68254,5,8,0:0:0:0:
272,328,68334,1,0,0:0:0:0:
272,328,68413,1,0,0:0:0:0:
320,104,68573,1,8,0:0:0:0:
300,128,68653,1,0,0:0:0:0:
272,144,68733,1,0,0:0:0:0:
244,148,68812,1,0,0:0:0:0:
216,144,68892,6,0,B|288:152|328:176|368:248|368:248|320:216|276:208,1,270.000010299683,4|8,0:0|0:0,0:0:0:0:
300,301,69371,2,0,B|240:293|216:241|216:241|252:249|284:233|284:233|299:214,1,202.500007724762
396,80,69690,1,0,0:0:0:0:
244,56,69850,1,8,0:0:0:0:
299,213,70009,1,0,0:0:0:0:
85,87,70169,5,2,0:0:0:0:
428,240,70328,1,0,0:0:0:0:
220,242,70488,1,8,0:0:0:0:
14,245,70647,2,0,B|39:267|39:267|60:262|60:262|86:282|86:282|108:273|132:274|132:274|145:311|181:327,1,202.500007724762
428,240,70967,1,0,0:0:0:0:
308,372,71126,1,8,0:0:0:0:
200,172,71286,1,0,0:0:0:0:
400,72,71445,5,2,0:0:0:0:
504,268,71605,1,0,0:0:0:0:
504,268,71685,1,0,0:0:0:0:
504,268,71764,1,12,0:0:0:0:
308,372,71924,1,0,0:0:0:0:
400,72,72084,5,2,0:0:0:0:
504,268,72243,1,0,0:0:0:0:
504,268,72323,1,0,0:0:0:0:
504,268,72402,1,12,0:0:0:0:
308,372,72562,1,0,0:0:0:0:
236,184,72722,5,8,0:0:0:0:
232,164,72802,1,0,0:0:0:0:
228,144,72881,1,0,0:0:0:0:
96,96,73041,5,8,0:0:0:0:
105,75,73121,1,0,0:0:0:0:
116,52,73200,1,0,0:0:0:0:
340,72,73360,5,8,0:0:0:0:
367,58,73440,1,0,3:0:0:0:
396,44,73519,1,0,3:0:0:0:
228,144,73679,5,8,0:0:0:0:
268,152,73759,1,0,3:0:0:0:
312,160,73838,1,0,3:0:0:0:
352,168,73919,1,0,3:0:0:0:
391,175,73998,6,0,B|311:179|311:179|234:225|234:225|271:233,1,202.500007724762
312,240,74318,2,0,P|184:168|160:188,1,202.500007724762,8|0,0:0|0:0,0:0:0:0:
180,276,74637,1,0,0:0:0:0:
300,68,74796,1,0,0:0:0:0:
116,360,74956,1,8,0:0:0:0:
147,140,75115,1,0,0:0:0:0:
318,278,75275,5,2,0:0:0:0:
188,33,75435,1,0,0:0:0:0:
443,241,75594,1,8,0:0:0:0:
147,140,75754,1,0,0:0:0:0:
358,173,75913,1,2,0:0:0:0:
106,246,76073,1,0,0:0:0:0:
273,105,76232,1,8,0:0:0:0:
65,352,76392,1,0,0:0:0:0:
188,33,76551,5,2,0:0:0:0:
193,315,76711,1,0,0:0:0:0:
434,175,76871,1,8,0:0:0:0:
73,289,77030,1,0,0:0:0:0:
348,24,77190,1,2,0:0:0:0:
434,369,77350,1,0,0:0:0:0:
148,208,77509,1,8,0:0:0:0:
314,341,77669,1,0,0:0:0:0:
352,169,77828,6,0,B|346:104|434:52|498:116,1,202.500007724762,4|0,0:0|0:0,0:0:0:0:
392,292,78147,2,0,P|317:228|219:241,1,202.500007724762,8|0,0:0|0:0,0:0:0:0:
96,256,78467,2,0,P|144:352|192:324,1,135.000005149842
211,315,78706,1,0,0:0:0:0:
219,240,78786,2,0,L|208:173,1,67.5000025749208
126,152,78945,2,0,L|118:84,1,67.5000025749208
256,192,79105,12,8,80062,0:0:0:0:
316,200,80381,6,0,L|344:136,1,67.5,8|0,0:0|0:0,0:0:0:0:
176,260,80701,6,0,B|156:220|156:220|124:188|124:188|104:140,1,135,8|0,0:0|0:0,0:0:0:0:
247,63,81020,6,0,B|232:100|248:136|248:136|212:168|212:168|228:204|204:244,1,202.500007724762,8|0,0:0|0:0,0:0:0:0:
240,36,81339,5,2,0:0:0:0:
76,204,81498,1,0,0:0:0:0:
428,120,81658,1,4,0:0:0:0:
364,264,81977,5,2,0:0:0:0:
220,60,82137,1,2,0:0:0:0:
144,276,82296,1,2,0:0:0:0:
220,60,82615,6,0,L|264:168,1,90,2|0,0:0|0:0,0:0:0:0:
244,329,82935,1,8,0:0:0:0:
89,211,83094,1,8,0:0:0:0:
307,226,83254,1,8,0:0:0:0:
56,132,83413,2,0,P|11:177|100:196,1,180,8|0,0:0|0:0,0:0:0:0:
140,164,83812,1,0,0:0:0:0:
208,144,83892,1,4,0:0:0:0:
308,344,84211,5,4,0:0:0:0:
208,144,84371,1,0,0:0:0:0:
208,144,84451,1,0,0:0:0:0:
208,144,84530,2,0,L|268:148,1,45
436,160,84690,1,4,0:0:0:0:
268,248,84850,5,0,0:0:0:0:
268,248,84929,1,0,0:0:0:0:
268,248,85009,2,0,L|320:220,1,45
368,52,85169,2,0,L|308:88,1,45
436,160,85327,1,4,0:0:0:0:
216,22,85488,5,0,0:0:0:0:
216,22,85647,2,0,L|160:48,1,45
46,181,85807,1,4,0:0:0:0:
46,181,85967,2,0,L|108:223,1,45
268,248,86126,6,0,L|272:187,1,45,4|0,0:0|0:0,0:0:0:0:
188,124,86286,2,0,L|192:193,1,45
187,357,86445,2,0,L|237:323,1,45,6|0,0:0|0:0,0:0:0:0:
398,233,86605,2,0,L|353:211,1,45
175,41,86764,5,4,0:0:0:0:
76,324,86924,1,0,0:0:0:0:
76,324,87004,1,0,0:0:0:0:
76,324,87084,1,0,0:0:0:0:
175,41,87243,1,4,0:0:0:0:
