osu file format v14

[General]
AudioFilename: imcoolman.mp3
AudioLeadIn: 0
PreviewTime: 53189
Countdown: 0
SampleSet: Soft
StackLeniency: 0.7
Mode: 0
LetterboxInBreaks: 0
WidescreenStoryboard: 0

[Editor]
Bookmarks: 1798,3394,4989,42011,49670,80308,83819
DistanceSpacing: 1
BeatDivisor: 4
GridSize: 4
TimelineZoom: 1.5

[Metadata]
Title:COOLEST
TitleUnicode:COOLEST
Artist:CustomiZ
ArtistUnicode:カスタマイZ
Creator:Cerulean Veyron
Version:Normal
Source:坂本ですが?
Tags:OP Opening TV SIZE jrock Haven't You Heard? I'm Sakamoto desu ga? Voli MrSergio
BeatmapID:1054406
BeatmapSetID:494716

[Difficulty]
HPDrainRate:3
CircleSize:3
OverallDifficulty:3
ApproachRate:5
SliderMultiplier:1.2
SliderTickRate:1

[Events]
//Background and Video events
0,0,"sakamoto.jpg",0,0
//Break Periods
2,1368,2202
2,81793,82627
//Storyboard Layer 0 (Background)
//Storyboard Layer 1 (Fail)
//Storyboard Layer 2 (Pass)
//Storyboard Layer 3 (Foreground)
//Storyboard Sound Samples

[TimingPoints]
1168,319.148936170213,4,1,1,70,1,0
11061,-100,4,2,1,50,0,0
21593,-100,4,3,1,60,0,0
31806,-100,4,3,1,50,0,0
43614,-100,4,2,1,50,0,0
43694,-100,4,3,1,50,0,0
47125,-100,4,2,1,50,0,0
53508,-100,4,1,1,85,0,1
72976,-100,4,1,0,85,0,1
73136,-100,4,1,1,85,0,1
81593,-100,4,1,1,75,0,0
84146,-100,4,3,1,60,0,0
86699,-100,4,1,1,80,0,0
87497,-100,4,2,1,10,0,0

[Colours]
Combo1 : 128,128,192
Combo2 : 158,158,158
Combo3 : 159,203,255
Combo4 : 255,149,98

[HitObjects]
81,222,1168,5,8,0:2:0:0:
348,305,3402,6,0,P|395:272|400:211,1,120,4|8,0:0|0:2,0:0:0:0:
162,178,4997,5,0,0:0:0:0:
162,178,5157,2,0,L|41:213,2,120,8|8|8,0:2|0:2|0:2,0:0:0:0:
221,189,5955,2,0,P|236:218|239:255,1,60,8|8,0:2|0:2,0:0:0:0:
228,304,6274,6,0,P|294:358|418:284,1,240,4|8,0:0|1:3,0:0:0:0:
498,66,7550,2,0,L|248:98,1,240,4|4,0:3|0:3,0:0:0:0:
146,56,8508,1,2,0:3:0:0:
175,172,8827,6,0,P|183:210|172:251,2,60,12|8|2,0:2|0:2|0:3,0:0:0:0:
125,136,9306,2,0,P|67:146|22:184,1,120,12|8,0:2|0:2,0:0:0:0:
37,243,9785,1,8,0:2:0:0:
37,243,9944,2,0,P|122:238|204:301,1,180,12|12,0:2|0:2,0:0:0:0:
310,333,10742,1,12,0:2:0:0:
413,272,11061,1,2,0:2:0:0:
482,174,11380,6,0,P|457:133|396:93,1,120,4|8,0:0|0:2,0:0:0:0:
339,83,11859,1,2,0:0:0:0:
283,105,12019,2,0,B|205:125|205:125|156:120,1,120,0|10,0:0|0:2,0:0:0:0:
107,108,12497,1,0,0:0:0:0:
17,27,12816,1,2,0:0:0:0:
17,27,12976,2,0,P|-9:74|0:164,1,120,8|2,0:2|0:0,0:0:0:0:
93,200,13614,1,10,0:2:0:0:
196,139,13933,6,0,P|256:111|329:119,1,120,2|8,0:0|0:2,0:0:0:0:
368,125,14412,1,2,0:0:0:0:
412,166,14572,2,0,P|437:227|427:300,1,120,0|10,0:0|0:2,0:0:0:0:
402,330,15050,2,0,B|321:323|321:323|279:282,1,120,0|2,0:0|0:0,0:0:0:0:
253,251,15529,2,0,L|177:244,1,60,8|0,0:2|0:0,0:0:0:0:
135,261,15848,1,2,0:0:0:0:
62,356,16168,1,10,0:2:0:0:
8,249,16487,6,0,L|29:129,1,120,4|8,0:0|0:2,0:0:0:0:
44,73,16965,1,2,0:0:0:0:
95,41,17125,2,0,P|153:29|213:31,1,120,0|10,0:0|0:2,0:0:0:0:
270,51,17604,1,0,0:0:0:0:
203,150,17923,1,2,0:0:0:0:
203,150,18082,2,0,P|261:168|320:158,1,120,8|2,0:2|0:0,0:0:0:0:
427,108,18721,1,10,0:2:0:0:
506,198,19040,6,0,P|490:255|458:305,1,120,6|8,0:0|0:2,0:0:0:0:
403,331,19519,1,2,0:0:0:0:
350,303,19678,2,0,B|312:297|312:297|225:315,1,120,0|10,0:0|0:2,0:0:0:0:
185,351,20157,2,0,P|133:332|89:272,1,120,0|2,0:0|0:0,0:0:0:0:
82,224,20636,2,0,P|74:191|53:164,1,60,8|0,0:2|0:0,0:0:0:0:
6,142,20955,1,2,0:0:0:0:
17,22,21274,1,8,0:3:0:0:
122,78,21593,6,0,P|184:77|258:63,1,120,4|8,0:2|0:2,0:0:0:0:
289,31,22072,1,0,0:0:0:0:
343,56,22231,2,0,L|369:181,1,120,0|8,0:0|0:2,0:0:0:0:
421,201,22710,2,0,P|354:210|303:248,1,120,0|0,0:0|0:0,0:0:0:0:
253,224,23189,2,0,P|284:274|290:333,1,120,8|0,0:2|0:0,0:0:0:0:
179,379,23827,1,8,0:2:0:0:
93,295,24146,6,0,P|62:245|56:186,1,120,0|8,0:0|0:2,0:0:0:0:
78,129,24625,1,0,0:0:0:0:
128,96,24785,2,0,P|199:87|255:101,1,120,0|8,0:0|0:2,0:0:0:0:
305,93,25263,2,0,P|254:125|221:174,1,120,0|0,0:0|0:0,0:0:0:0:
167,200,25742,2,0,L|308:234,1,120,8|0,0:2|0:0,0:0:0:0:
358,323,26380,1,8,0:2:0:0:
459,259,26699,6,0,L|475:127,1,120,4|8,0:2|0:2,0:0:0:0:
371,76,27338,2,0,L|355:208,1,120,4|8,0:2|0:2,0:0:0:0:
250,250,27976,2,0,B|240:206|240:206|250:124,1,120,4|8,0:2|0:2,0:0:0:0:
143,75,28614,2,0,B|153:119|153:119|143:201,1,120,4|8,0:2|0:3,0:0:0:0:
45,261,29253,6,0,P|150:308|250:250,1,240,4|4,0:2|0:3,0:0:0:0:
281,134,30210,1,4,0:3:0:0:
281,134,30370,2,0,B|319:141|355:177|365:213|365:213|386:232|427:231,1,180,4|2,0:2|0:3,0:0:0:0:
488,132,31168,1,8,0:0:0:0:
409,41,31487,1,8,0:2:0:0:
409,41,31646,1,8,0:2:0:0:
409,41,31806,6,0,P|292:27|183:74,1,240,4|8,0:2|0:2,0:0:0:0:
65,101,32763,1,2,0:2:0:0:
80,220,33082,2,0,P|131:249|190:253,1,120,0|2,0:0|0:2,0:0:0:0:
268,161,33721,2,0,P|327:164|378:194,1,120,8|2,0:2|0:2,0:0:0:0:
401,250,34199,1,0,0:0:0:0:
379,306,34359,6,0,B|285:329|285:329|262:324,1,120,4|2,0:2|0:2,0:0:0:0:
213,290,34838,1,0,0:0:0:0:
156,308,34997,2,0,B|133:301|133:301|61:236,1,120,12|2,0:2|0:2,0:0:0:0:
45,179,35476,1,0,0:0:0:0:
73,125,35636,2,0,P|71:67|102:10,2,120,0|2|12,0:0|0:2|3:2,0:0:0:0:
188,93,36593,1,2,0:2:0:0:
288,26,36912,6,0,P|387:33|479:148,1,240,4|12,0:2|0:2,0:0:0:0:
492,253,37870,1,2,0:2:0:0:
380,209,38189,2,0,P|281:216|189:331,1,240,4|8,0:2|0:2,0:0:0:0:
79,357,39146,1,2,0:2:0:0:
79,357,39465,6,0,L|54:231,1,120,4|2,0:2|0:2,0:0:0:0:
173,214,40104,2,0,L|192:87,1,120,8|2,0:2|0:2,0:0:0:0:
300,144,40742,2,0,L|361:31,2,120,4|4|4,0:2|0:2|0:2,0:0:0:0:
399,211,41699,1,8,0:2:0:0:
399,211,41859,1,8,0:2:0:0:
399,211,42019,6,0,P|345:255|281:261,1,120,4|8,0:2|0:2,0:0:0:0:
239,247,42497,1,0,0:0:0:0:
181,230,42657,2,0,P|122:242|78:281,1,120,0|8,0:0|0:2,0:0:0:0:
176,350,43295,2,0,B|125:203|125:203|139:119,1,240,4|0,0:2|0:0,0:0:0:0:
204,18,44253,1,8,0:2:0:0:
282,109,44572,6,0,P|344:113|401:95,1,120,4|8,0:2|0:2,0:0:0:0:
441,54,45050,1,0,0:0:0:0:
491,87,45210,2,0,L|481:219,1,120,4|8,0:2|0:2,0:0:0:0:
362,197,45848,2,0,L|352:329,1,120,12|12,0:2|0:2,0:0:0:0:
248,258,46487,1,12,0:2:0:0:
248,258,46806,2,0,P|190:270|131:262,1,120,12|4,0:2|0:2,0:0:0:0:
80,152,47444,5,8,0:0:0:0:
80,152,47604,1,0,0:0:0:0:
80,152,47763,2,0,P|138:140|197:148,1,120,8|4,0:0|0:0,0:0:0:0:
309,103,48402,2,0,B|344:110|344:110|428:91,1,120,4|8,0:0|0:0,0:0:0:0:
469,50,48880,1,0,0:0:0:0:
502,99,49040,2,0,P|497:173|481:222,1,120,8|8,0:0|0:0,0:0:0:0:
256,192,49678,12,4,52231,0:2:0:0:
397,123,53508,6,0,P|420:196|300:288,1,240,4|0,0:0|0:0,0:0:0:0:
197,246,54465,1,8,0:2:0:0:
103,322,54785,2,0,L|69:203,1,120,0|8,0:0|0:2,0:0:0:0:
16,181,55263,2,0,P|56:145|138:131,1,120,2|2,0:3|0:3,0:0:0:0:
177,145,55742,1,8,0:2:0:0:
244,45,56061,6,0,P|317:70|369:71,1,120,0|12,0:0|0:2,0:0:0:0:
289,169,56699,2,0,P|328:235|368:269,1,120,0|12,0:0|0:2,0:0:0:0:
478,284,57338,2,0,P|383:352|267:334,1,240,0|0,0:0|0:0,0:0:0:0:
209,229,58295,1,8,0:2:0:0:
156,337,58614,6,0,B|93:306|78:238|97:184|97:184|107:151|95:125,1,240,4|0,0:0|0:0,0:0:0:0:
22,29,59572,1,8,0:2:0:0:
142,36,59891,2,0,P|198:59|242:104,1,120,0|8,0:0|0:2,0:0:0:0:
262,156,60370,2,0,B|286:118|286:118|375:87,1,120,2|2,0:3|0:3,0:0:0:0:
415,106,60848,1,8,0:2:0:0:
463,216,61168,6,0,L|496:337,1,120,0|12,0:0|0:2,0:0:0:0:
375,320,61806,2,0,L|342:199,1,120,0|12,0:0|0:2,0:0:0:0:
253,284,62444,2,0,B|226:361|226:361|137:366|71:278,1,240,0|8,0:0|0:2,0:0:0:0:
39,187,63402,1,8,0:2:0:0:
158,177,63721,6,0,B|194:150|245:143|245:143|294:197|386:183,1,240,4|0,0:0|0:0,0:0:0:0:
481,123,64678,1,8,0:2:0:0:
397,36,64997,2,0,L|271:22,1,120,0|8,0:0|0:2,0:0:0:0:
232,62,65476,2,0,L|106:76,1,120,2|2,0:3|0:3,0:0:0:0:
58,50,65955,1,8,0:2:0:0:
35,167,66274,6,0,B|35:246|35:246|48:286,1,120,0|12,0:0|0:2,0:0:0:0:
158,238,66912,2,0,P|217:235|273:255,1,120,0|12,0:0|0:2,0:0:0:0:
352,346,67550,2,0,B|395:348|433:332|433:332|470:252|451:178,1,240,0|8,0:0|0:3,0:0:0:0:
394,73,68508,1,4,0:3:0:0:
290,132,68827,6,0,B|234:153|175:118|175:118|116:85|60:111,1,240,4|0,0:0|0:0,0:0:0:0:
110,220,69785,1,8,0:2:0:0:
43,320,70104,2,0,P|98:339|159:328,1,120,0|8,0:0|0:2,0:0:0:0:
203,290,70582,2,0,B|294:284|294:284|321:290,1,120,2|2,0:3|0:3,0:0:0:0:
370,327,71061,1,8,0:2:0:0:
466,255,71380,6,0,P|494:182|488:118,1,120,0|12,0:0|0:2,0:0:0:0:
377,171,72019,2,0,P|348:118|302:80,1,120,0|12,0:0|0:2,0:0:0:0:
193,32,72657,2,0,P|254:47|178:147,1,240,8|8,0:3|0:3,0:0:0:0:
86,86,73614,1,4,0:3:0:0:
28,191,73933,6,0,P|36:275|174:299,1,240,4|0,0:0|0:0,0:0:0:0:
231,199,74891,1,8,0:2:0:0:
311,288,75210,2,0,P|385:303|433:285,1,120,0|8,0:0|0:2,0:0:0:0:
370,183,75848,2,0,P|385:109|367:61,1,120,0|8,0:0|0:2,0:0:0:0:
266,127,76487,6,0,P|199:131|145:113,1,120,4|8,0:0|0:2,0:0:0:0:
117,65,76965,2,0,B|34:87|34:87|17:120,1,120,0|0,0:0|0:0,0:0:0:0:
9,177,77444,1,8,0:2:0:0:
123,213,77763,2,0,P|138:270|138:332,1,120,4|8,0:0|0:2,0:0:0:0:
242,270,78402,2,0,P|298:285|352:316,1,120,0|8,0:0|0:2,0:0:0:0:
470,335,79040,6,0,P|441:246|330:139,1,240,4|0,0:0|0:0,0:0:0:0:
222,117,79997,1,8,0:2:0:0:
139,30,80316,2,0,L|107:160,1,120,12|8,0:2|0:2,0:0:0:0:
37,242,80955,2,0,P|107:249|163:271,1,120,12|8,0:2|0:2,0:0:0:0:
248,339,81593,5,4,0:0:0:0:
423,162,83827,5,4,0:0:0:0:
334,81,84146,2,0,P|265:78|203:92,1,120,12|2,0:2|0:3,0:0:0:0:
159,67,84625,2,0,L|208:188,1,120,12|8,0:2|0:2,0:0:0:0:
231,232,85104,1,8,0:2:0:0:
278,269,85264,2,0,P|336:279|396:275,1,120,12|8,0:2|0:2,0:0:0:0:
447,242,85742,1,2,0:3:0:0:
445,122,86061,2,0,P|386:111|326:115,1,120,8|8,0:3|0:2,0:0:0:0:
221,173,86699,6,0,L|232:235,2,60,4|8|8,0:2|0:2|0:2,0:0:0:0:
177,132,87178,2,0,B|94:106|94:106|75:65,1,120,4|0,0:0|0:0,0:0:0:0:
