osu file format v14

[General]
AudioFilename: imcoolman.mp3
AudioLeadIn: 0
PreviewTime: 53189
Countdown: 0
SampleSet: Soft
StackLeniency: 0.7
Mode: 0
LetterboxInBreaks: 0
WidescreenStoryboard: 0

[Editor]
Bookmarks: 1798,3394,4989,42011,49670,80308,83819
DistanceSpacing: 1.2
BeatDivisor: 4
GridSize: 4
TimelineZoom: 1.5

[Metadata]
Title:COOLEST
TitleUnicode:COOLEST
Artist:CustomiZ
ArtistUnicode:カスタマイZ
Creator:Cerulean Veyron
Version:Hard
Source:坂本ですが?
Tags:OP Opening TV SIZE jrock Haven't You Heard? I'm Sakamoto desu ga? Voli MrSergio
BeatmapID:1054892
BeatmapSetID:494716

[Difficulty]
HPDrainRate:5
CircleSize:4
OverallDifficulty:5.5
ApproachRate:8
SliderMultiplier:1.4
SliderTickRate:1

[Events]
//Background and Video events
0,0,"sakamoto.jpg",0,0
//Break Periods
2,1368,2652
2,81793,82918
//Storyboard Layer 0 (Background)
//Storyboard Layer 1 (Fail)
//Storyboard Layer 2 (Pass)
//Storyboard Layer 3 (Foreground)
//Storyboard Sound Samples

[TimingPoints]
1168,319.148936170213,4,1,1,70,1,0
11061,-100,4,2,1,50,0,0
21593,-100,4,3,1,60,0,0
31806,-100,4,3,1,50,0,0
47125,-100,4,2,1,50,0,0
53508,-100,4,1,1,85,0,1
81593,-100,4,1,1,75,0,0
84146,-100,4,3,1,60,0,0
86699,-100,4,1,1,80,0,0
87497,-100,4,2,1,10,0,0

[Colours]
Combo1 : 128,128,192
Combo2 : 158,158,158
Combo3 : 159,203,255
Combo4 : 255,149,98

[HitObjects]
394,179,529,6,0,L|392:141,7,35
386,102,1168,5,8,0:2:0:0:
184,311,3402,5,4,0:0:0:0:
88,226,3721,1,8,0:2:0:0:
94,61,4997,5,0,0:0:0:0:
94,61,5157,2,0,L|182:91,1,70,8|0,0:2|0:0,0:0:0:0:
238,52,5476,2,0,L|326:82,1,70,8|0,0:2|0:0,0:0:0:0:
385,48,5796,1,8,0:2:0:0:
439,112,5955,1,8,0:2:0:0:
431,195,6114,1,8,0:2:0:0:
497,246,6274,6,0,L|339:226,1,140,4|8,0:0|1:3,0:0:0:0:
293,175,6753,1,8,1:3:0:0:
262,251,6912,2,0,P|242:281|212:298,1,70,8|8,1:3|1:3,0:0:0:0:
176,374,7231,2,0,P|146:354|129:324,1,70,4|4,0:3|0:3,0:0:0:0:
74,262,7550,2,0,L|70:225,3,35,4|0|4|0,0:3|0:0|0:3|0:0,0:0:0:0:
97,194,7870,2,0,L|101:157,3,35,4|0|4|0,0:3|0:0|0:3|0:0,0:0:0:0:
142,151,8189,2,0,L|155:116,3,35,4|0|4|0,0:3|0:0|0:3|0:0,0:0:0:0:
196,114,8508,2,0,L|257:60,1,70,2|2,0:3|0:3,0:0:0:0:
327,39,8827,5,12,0:2:0:0:
327,39,8987,2,0,P|362:44|395:55,1,70,8|2,0:2|0:3,0:0:0:0:
477,74,9306,2,0,P|418:107|393:201,1,140,12|8,0:2|0:2,0:0:0:0:
335,234,9785,1,8,0:2:0:0:
414,261,9944,2,0,L|277:292,1,140,12|8,0:2|0:3,0:0:0:0:
212,345,10423,2,0,B|233:297|233:297|201:206,1,140,12|12,0:2|0:2,0:0:0:0:
66,117,11061,1,2,0:2:0:0:
66,117,11380,6,0,P|147:92|216:103,1,140,4|8,0:0|0:2,0:0:0:0:
277,134,11859,1,2,0:0:0:0:
337,74,12019,2,0,P|376:40|401:31,1,70,0|0,0:0|0:0,0:0:0:0:
442,101,12338,1,10,0:2:0:0:
442,101,12497,2,0,P|428:176|437:248,1,140,0|2,0:0|0:0,0:0:0:0:
496,297,12976,2,0,P|430:275|343:282,1,140,8|2,0:2|0:0,0:0:0:0:
291,325,13455,1,0,0:0:0:0:
233,265,13614,2,0,L|224:189,1,70,10|0,0:2|0:0,0:0:0:0:
212,56,13933,6,0,B|188:110|188:110|147:100|109:120,1,140,2|8,0:0|0:2,0:0:0:0:
59,187,14412,1,2,0:0:0:0:
88,266,14572,2,0,B|110:310|110:310|136:329,1,70,0|0,0:0|0:0,0:0:0:0:
204,289,14891,1,10,0:2:0:0:
204,289,15050,2,0,B|312:280|312:280|335:258,1,140,0|2,0:0|0:0,0:0:0:0:
353,176,15529,2,0,P|386:177|426:167,1,70,8|0,0:2|0:0,0:0:0:0:
449,89,15848,2,0,L|377:69,1,70,2|0,0:0|0:0,0:0:0:0:
240,67,16168,2,0,L|307:85,1,70,10|8,0:2|0:2,0:0:0:0:
168,20,16487,6,0,P|157:91|209:146,1,140,4|8,0:0|0:2,0:0:0:0:
279,159,16965,1,2,0:0:0:0:
339,218,17125,2,0,P|346:253|337:293,1,70,0|0,0:0|0:0,0:0:0:0:
263,252,17444,1,10,0:2:0:0:
263,252,17604,2,0,P|205:280|124:283,1,140,0|2,0:0|0:0,0:0:0:0:
62,332,18082,1,8,0:2:0:0:
49,249,18242,1,0,0:0:0:0:
49,249,18402,2,0,P|48:192|57:160,1,70,2|0,0:0|0:0,0:0:0:0:
127,144,18721,2,0,P|131:109|128:74,1,70,10|0,0:2|0:0,0:0:0:0:
123,222,19040,6,0,P|178:200|201:121,1,140,6|8,0:0|0:2,0:0:0:0:
261,67,19519,1,2,0:0:0:0:
343,50,19678,2,0,P|366:76|397:95,1,70,0|0,0:0|0:0,0:0:0:0:
476,120,19997,1,10,0:2:0:0:
476,120,20157,2,0,P|426:120|339:146,1,140,0|2,0:0|0:0,0:0:0:0:
270,192,20636,1,8,0:2:0:0:
336,244,20795,1,0,0:0:0:0:
336,244,20955,2,0,P|307:276|274:293,1,70,2|4,0:0|0:3,0:0:0:0:
144,301,21274,2,0,P|173:269|206:252,1,70,8|4,0:3|0:3,0:0:0:0:
118,381,21593,6,0,L|78:246,1,140,4|8,0:2|0:2,0:0:0:0:
20,186,22072,1,0,0:0:0:0:
100,161,22231,2,0,L|128:68,2,70,0|0|8,0:0|0:0|0:2,0:0:0:0:
71,24,22710,2,0,B|142:14|142:14|200:54,1,140
230,130,23189,2,0,P|232:165|247:197,1,70,8|0,0:2|0:0,0:0:0:0:
367,199,23508,2,0,B|302:220|302:220|254:275,1,140,0|8,0:0|0:2,0:0:0:0:
96,327,24146,5,0,0:0:0:0:
59,251,24306,1,0,0:0:0:0:
130,207,24465,2,0,P|135:172|129:138,1,70,8|0,0:2|0:0,0:0:0:0:
168,282,24785,2,0,P|201:253|238:154,1,140,0|8,0:0|0:2,0:0:0:0:
224,83,25263,2,0,P|237:48|320:80,1,140,0|0,0:0|0:0,0:0:0:0:
333,151,25742,1,8,0:2:0:0:
400,100,25902,2,0,B|432:87|432:87|467:86,1,70,0|0,0:0|0:0,0:0:0:0:
448,168,26221,1,0,0:0:0:0:
428,249,26380,2,0,B|463:248|463:248|495:235,1,70,8|0,0:2|0:0,0:0:0:0:
348,237,26699,6,0,P|399:264|417:342,1,140,4|8,0:2|0:2,0:0:0:0:
338,367,27178,1,0,0:0:0:0:
291,297,27338,2,0,P|265:233|295:173,1,140,4|8,0:2|0:2,0:0:0:0:
378,159,27816,1,0,0:0:0:0:
378,159,27976,2,0,B|267:154|267:154|225:132,1,140,4|8,0:2|0:2,0:0:0:0:
187,75,28455,2,0,L|104:71,1,70,0|4,0:0|0:2,0:0:0:0:
37,41,28774,2,0,P|93:81|101:148,1,140,8|4,0:3|0:3,0:0:0:0:
45,211,29253,6,0,P|79:222|108:249,1,70,4|0,0:2|0:0,0:0:0:0:
142,320,29572,2,0,P|176:311|204:282,1,70,8|8,0:3|0:3,0:0:0:0:
225,207,29891,1,4,0:3:0:0:
203,126,30050,1,0,0:0:0:0:
143,185,30210,1,4,0:3:0:0:
285,146,30370,2,0,P|341:182|342:250,1,140,4|0,0:2|0:0,0:0:0:0:
302,323,30848,2,0,L|309:362,3,35,2|0|8|0,0:0|0:0|0:0|0:0,0:0:0:0:
345,336,31168,2,0,P|379:330|414:336,1,70,8|4,0:0|0:0,0:0:0:0:
462,267,31487,2,0,L|448:192,1,70,8|8,0:2|0:2,0:0:0:0:
478,61,31806,6,0,P|422:101|353:107,1,140,4|2,0:2|0:2,0:0:0:0:
279,66,32285,1,0,0:0:0:0:
195,68,32444,2,0,L|182:148,1,70,8|0,0:2|0:0,0:0:0:0:
101,121,32763,2,0,L|114:201,1,70,2|0,0:2|0:0,0:0:0:0:
162,257,33082,1,0,0:0:0:0:
165,341,33242,2,0,P|127:334|97:309,2,70,0|2|0,0:0|0:2|0:0,0:0:0:0:
105,195,33721,2,0,P|157:175|233:212,1,140,8|2,0:2|0:2,0:0:0:0:
162,257,34199,1,0,0:0:0:0:
315,343,34359,6,0,P|349:343|383:334,1,70,4|0,0:2|0:0,0:0:0:0:
437,269,34678,1,2,0:2:0:0:
430,185,34838,1,0,0:0:0:0:
292,244,34997,2,0,P|326:244|360:235,1,70,12|0,0:2|0:0,0:0:0:0:
414,170,35316,1,2,0:2:0:0:
408,86,35476,1,0,0:0:0:0:
274,148,35636,2,0,P|308:148|342:139,2,70,0|0|2,0:0|0:0|0:2,0:0:0:0:
191,135,36114,1,0,0:0:0:0:
298,68,36274,2,0,L|321:215,1,140,12|2,3:2|0:2,0:0:0:0:
192,316,36912,6,0,L|215:169,1,140,4|2,0:2|0:2,0:0:0:0:
187,98,37391,1,0,0:0:0:0:
144,26,37550,2,0,P|106:84|124:151,1,140,12|2,0:2|0:2,0:0:0:0:
79,221,38029,1,0,0:0:0:0:
79,221,38189,2,0,P|98:286|62:343,1,140,4|2,0:2|0:2,0:0:0:0:
15,274,38668,1,0,0:0:0:0:
15,274,38827,2,0,L|146:344,1,140,8|2,0:2|0:2,0:0:0:0:
208,292,39306,1,0,0:0:0:0:
208,292,39465,6,0,L|307:305,1,70,4|0,0:2|0:0,0:0:0:0:
305,221,39785,2,0,L|401:207,1,70,2|0,0:2|0:0,0:0:0:0:
381,127,40104,2,0,L|473:88,1,70,8|0,0:2|0:0,0:0:0:0:
347,53,40423,2,0,L|254:15,1,70,2|0,0:2|0:0,0:0:0:0:
177,90,40742,2,0,P|161:128|155:168,1,70,4|0,0:2|0:0,0:0:0:0:
289,200,41061,2,0,P|264:167|232:141,1,70,4|0,0:2|0:0,0:0:0:0:
137,241,41380,2,0,P|177:235|215:221,1,70,4|0,0:2|0:0,0:0:0:0:
67,253,41699,1,8,0:2:0:0:
115,322,41859,1,8,0:2:0:0:
67,253,42019,6,0,P|141:251|201:298,1,140,4|8,0:2|0:2,0:0:0:0:
227,364,42497,1,0,0:0:0:0:
288,306,42657,2,0,B|320:269|320:269|359:252,1,70,0|0,0:0|0:0,0:0:0:0:
418,290,42976,2,0,B|437:281|437:281|469:244,1,70,8|0,0:2|0:0,0:0:0:0:
446,163,43295,1,4,0:2:0:0:
415,85,43455,1,0,0:0:0:0:
362,150,43614,1,8,0:2:0:0:
492,100,43774,2,0,P|476:34|415:4,1,140,0|0,0:0|0:0,0:0:0:0:
339,41,44253,2,0,L|247:66,1,70,8|0,0:2|0:0,0:0:0:0:
139,106,44572,6,0,L|206:124,1,70,4|0,0:2|0:0,0:0:0:0:
243,200,44891,1,8,0:2:0:0:
309,148,45050,1,0,0:0:0:0:
243,200,45210,2,0,P|209:209|175:203,1,70,4|0,0:2|0:0,0:0:0:0:
156,285,45529,2,0,P|123:272|100:245,1,70,8|0,0:2|0:0,0:0:0:0:
194,351,45848,2,0,B|220:325|220:325|230:292,1,70,12|0,0:2|0:0,0:0:0:0:
371,293,46168,2,0,B|345:267|345:267|312:257,1,70,12|0,0:2|0:0,0:0:0:0:
308,117,46487,2,0,B|282:143|282:143|272:176,1,70,12|0,0:2|0:0,0:0:0:0:
356,187,46806,1,12,0:2:0:0:
393,112,46965,1,8,0:2:0:0:
271,42,47125,5,4,0:2:0:0:
271,42,47444,2,0,P|241:60|207:67,1,70,8|0,0:0|0:0,0:0:0:0:
93,137,47763,2,0,P|122:155|156:162,1,70,8|0,0:0|0:0,0:0:0:0:
240,152,48082,1,4,0:0:0:0:
214,232,48242,1,0,0:0:0:0:
323,168,48402,2,0,P|364:158|405:162,1,70,4|0,0:0|0:0,0:0:0:0:
431,234,48721,2,0,P|472:238|510:256,1,70,8|0,0:0|0:0,0:0:0:0:
427,336,49040,2,0,P|394:348|359:349,1,70,8|0,0:0|0:0,0:0:0:0:
298,292,49359,1,8,0:0:0:0:
169,305,49519,1,4,0:3:0:0:
169,305,49678,6,0,L|140:221,1,70,4|0,0:2|0:0,0:0:0:0:
229,225,49997,2,0,L|223:142,1,70,8|0,0:2|0:0,0:0:0:0:
308,149,50316,2,0,L|337:65,1,70,4|0,0:2|0:0,0:0:0:0:
415,92,50636,2,0,L|386:176,1,70,8|0,0:0|0:0,0:0:0:0:
256,192,50955,12,4,52231,0:2:0:0:
328,244,52870,6,0,L|339:204,3,35,10|8|10|8,0:3|0:3|0:3|0:3,0:0:0:0:
336,168,53189,2,0,L|325:128,3,35,6|4|6|4,0:3|0:3|0:3|0:3,0:0:0:0:
350,99,53508,6,0,P|296:122|213:114,1,140,4|8,0:0|0:2,0:0:0:0:
154,59,53987,1,2,0:3:0:0:
78,94,54146,1,0,0:0:0:0:
78,94,54306,2,0,L|71:171,1,70,2|8,0:3|0:2,0:0:0:0:
38,241,54625,1,2,0:3:0:0:
160,171,54785,2,0,P|206:166|250:173,1,70,0|2,0:0|0:3,0:0:0:0:
300,214,55104,1,8,0:2:0:0:
160,171,55263,2,0,P|192:118|269:75,1,140,2|2,0:3|0:3,0:0:0:0:
339,89,55742,2,0,P|371:104|406:108,1,70,8|2,0:2|0:3,0:0:0:0:
474,158,56061,6,0,B|476:211|476:211|466:248,1,70,0|2,0:0|0:3,0:0:0:0:
379,333,56380,1,12,0:2:0:0:
364,250,56540,1,2,0:3:0:0:
458,147,56699,2,0,B|460:200|460:200|450:237,1,70,0|2,0:0|0:3,0:0:0:0:
363,322,57018,1,12,0:2:0:0:
348,239,57178,1,2,0:3:0:0:
442,135,57338,2,0,P|413:114|380:104,1,70,0|2,0:0|0:3,0:0:0:0:
304,139,57657,2,0,P|270:129|242:108,1,70,8|2,0:2|0:3,0:0:0:0:
187,45,57976,2,0,L|105:32,1,70,0|2,0:0|0:3,0:0:0:0:
40,66,58295,1,8,0:2:0:0:
92,132,58455,1,8,0:2:0:0:
92,132,58535,1,8,0:2:0:0:
92,132,58614,6,0,P|112:212|73:270,1,140,4|8,0:0|0:2,0:0:0:0:
17,308,59093,1,2,0:3:0:0:
93,344,59253,1,0,0:0:0:0:
93,344,59412,2,0,B|142:336|142:336|162:338,1,70,2|8,0:3|0:2,0:0:0:0:
245,352,59731,1,2,0:3:0:0:
333,243,59891,2,0,P|330:277|318:310,1,70,0|2,0:0|0:3,0:0:0:0:
245,352,60210,1,8,0:2:0:0:
333,243,60370,2,0,P|266:228|232:162,1,140,2|2,0:3|0:3,0:0:0:0:
316,160,60848,2,0,L|384:175,1,70,8|2,0:2|0:3,0:0:0:0:
422,251,61168,6,0,L|386:311,1,70,0|2,0:0|0:3,0:0:0:0:
250,345,61487,1,12,0:2:0:0:
259,262,61646,1,2,0:3:0:0:
397,237,61806,2,0,L|361:297,1,70,0|2,0:0|0:3,0:0:0:0:
225,331,62125,1,12,0:2:0:0:
234,248,62284,1,2,0:3:0:0:
372,222,62444,2,0,P|346:184|340:148,1,70,0|8,0:0|0:2,0:0:0:0:
354,78,62763,1,8,0:2:0:0:
277,44,62923,2,0,L|140:91,1,140,8|8,0:2|0:2,0:0:0:0:
61,75,63402,1,8,0:2:0:0:
24,150,63561,1,8,0:2:0:0:
24,150,63641,1,8,0:2:0:0:
24,150,63721,6,0,B|52:202|52:202|134:253,1,140,4|8,0:0|0:2,0:0:0:0:
157,320,64199,1,2,0:3:0:0:
230,278,64359,1,0,0:0:0:0:
230,278,64519,2,0,P|263:258|289:224,1,70,2|8,0:3|0:2,0:0:0:0:
292,151,64838,1,2,0:3:0:0:
424,196,64997,2,0,P|431:163|429:119,1,70,0|2,0:0|0:3,0:0:0:0:
292,151,65316,1,8,0:2:0:0:
425,196,65476,2,0,P|465:251|445:329,1,140,2|2,0:3|0:3,0:0:0:0:
383,271,65955,2,0,P|348:257|308:257,1,70,8|2,0:2|0:3,0:0:0:0:
237,284,66274,6,0,P|202:269|174:240,1,70,0|2,0:0|0:3,0:0:0:0:
104,129,66593,1,12,0:2:0:0:
187,142,66753,1,2,0:3:0:0:
256,263,66912,2,0,P|221:248|193:219,1,70,0|2,0:0|0:3,0:0:0:0:
123,108,67231,1,12,0:2:0:0:
206,121,67391,1,2,0:3:0:0:
273,243,67550,2,0,B|315:231|315:231|341:210,1,70,0|2,0:0|0:3,0:0:0:0:
420,220,67870,2,0,B|408:178|408:178|387:152,1,70,8|2,0:2|0:3,0:0:0:0:
403,74,68189,2,0,L|358:63,3,35,8|8|8|8,0:3|0:3|0:3|0:3,0:0:0:0:
329,79,68508,2,0,L|284:68,3,35,4|4|4|4,0:3|0:3|0:3|0:3,0:0:0:0:
270,37,68827,6,0,P|282:96|219:166,1,140,4|8,0:0|0:2,0:0:0:0:
199,84,69306,1,2,0:3:0:0:
129,130,69465,1,0,0:0:0:0:
129,130,69625,2,0,L|134:199,1,70,2|8,0:3|0:2,0:0:0:0:
83,267,69944,1,2,0:3:0:0:
212,322,70104,2,0,P|245:332|280:333,1,70,0|2,0:0|0:3,0:0:0:0:
345,280,70423,1,8,0:2:0:0:
212,322,70582,2,0,P|250:278|246:186,1,140,2|2,0:3|0:3,0:0:0:0:
208,126,71061,2,0,P|182:150|168:182,1,70,8|2,0:2|0:3,0:0:0:0:
149,264,71380,6,0,P|116:250|93:224,1,70,0|2,0:0|0:3,0:0:0:0:
28,101,71699,1,12,0:2:0:0:
106,132,71859,1,2,0:3:0:0:
176,254,72019,2,0,P|159:223|158:188,1,70,0|2,0:0|0:3,0:0:0:0:
188,51,72338,1,12,0:2:0:0:
228,125,72498,1,2,0:3:0:0:
206,263,72657,2,0,P|213:229|234:201,1,70,8|8,0:3|0:3,0:0:0:0:
305,156,72976,2,0,L|389:133,1,70,4|4,0:3|0:3,0:0:0:0:
451,165,73295,2,0,L|473:206,3,35,8|8|8|8,0:3|0:3|0:3|0:3,0:0:0:0:
448,233,73614,2,0,L|426:274,3,35,4|4|4|4,0:3|0:3|0:3|0:3,0:0:0:0:
460,295,73933,6,0,P|390:273|317:272,1,140,4|8,0:0|0:2,0:0:0:0:
241,288,74412,1,0,0:0:0:0:
166,327,74572,1,0,0:0:0:0:
114,261,74731,2,0,P|74:247|37:247,2,70,0|8|0,0:0|0:2|0:0,0:0:0:0:
166,327,75210,2,0,L|186:177,1,140,0|8,0:0|0:2,0:0:0:0:
269,43,75848,2,0,L|289:193,1,140,0|8,0:0|0:2,0:0:0:0:
358,228,76327,1,0,0:0:0:0:
358,228,76487,6,0,P|270:220|202:255,1,140,4|8,0:0|0:2,0:0:0:0:
164,298,76965,1,0,0:0:0:0:
83,274,77125,2,0,L|67:195,1,70,0|0,0:0|0:0,0:0:0:0:
9,146,77444,2,0,P|37:125|71:121,1,70,8|0,0:2|0:0,0:0:0:0:
174,26,77763,2,0,P|174:106|216:146,1,140,4|8,0:0|0:2,0:0:0:0:
379,175,78402,1,0,0:0:0:0:
264,297,78721,1,8,0:2:0:0:
423,245,79040,6,0,P|461:189|440:118,1,140,4|8,0:0|0:2,0:0:0:0:
368,87,79519,1,0,0:0:0:0:
289,115,79678,2,0,P|254:118|219:116,1,70,0|0,0:0|0:0,0:0:0:0:
142,84,79997,2,0,P|139:118|143:153,1,70,8|0,0:2|0:0,0:0:0:0:
215,198,80316,2,0,P|197:228|185:261,1,70,12|8,0:2|0:3,0:0:0:0:
265,290,80636,2,0,P|270:324|282:357,1,70,8|8,0:2|0:3,0:0:0:0:
352,309,80955,2,0,P|378:331|408:349,1,70,12|8,0:2|0:3,0:0:0:0:
445,273,81274,1,8,0:2:0:0:
467,192,81433,1,4,0:3:0:0:
332,154,81593,5,4,0:0:0:0:
332,154,83668,5,4,0:3:0:0:
332,154,83747,1,4,0:3:0:0:
332,154,83827,2,0,P|297:160|262:160,1,70,4|0,0:0|0:0,0:0:0:0:
201,103,84146,5,12,0:2:0:0:
118,118,84306,2,0,P|93:142|73:171,1,70,8|2,0:2|0:3,0:0:0:0:
0,213,84625,2,0,L|156:235,1,140,12|8,0:2|0:2,0:0:0:0:
213,193,85104,1,8,0:2:0:0:
213,193,85263,2,0,P|174:264|196:323,1,140,12|8,0:2|0:2,0:0:0:0:
257,264,85742,1,2,0:3:0:0:
309,198,85902,1,8,0:2:0:0:
257,264,86061,2,0,L|281:351,1,70,8|4,0:3|0:3,0:0:0:0:
355,305,86380,2,0,L|373:237,1,70,8|0,0:2|0:0,0:0:0:0:
447,118,86699,5,4,0:2:0:0:
315,70,86859,1,8,0:2:0:0:
447,118,87019,1,8,0:2:0:0:
333,198,87178,2,0,B|296:220|264:220|264:220|236:202|223:167,1,140,4|0,0:0|0:0,0:0:0:0:
