osu file format v14

[General]
AudioFilename: imcoolman.mp3
AudioLeadIn: 0
PreviewTime: 53189
Countdown: 0
SampleSet: Normal
StackLeniency: 0.7
Mode: 0
LetterboxInBreaks: 0
WidescreenStoryboard: 0

[Editor]
Bookmarks: 1806,3721,6274,21593,31806,47125,87178
DistanceSpacing: 0.6
BeatDivisor: 4
GridSize: 4
TimelineZoom: 1.3

[Metadata]
Title:COOLEST
TitleUnicode:COOLEST
Artist:CustomiZ
ArtistUnicode:カスタマイZ
Creator:Cerulean Veyron
Version:Cool!
Source:坂本ですが?
Tags:OP Opening TV SIZE jrock Haven't You Heard? I'm Sakamoto desu ga? Voli MrSergio
BeatmapID:1053339
BeatmapSetID:494716

[Difficulty]
HPDrainRate:7
CircleSize:5.5
OverallDifficulty:8.5
ApproachRate:9.5
SliderMultiplier:1.8
SliderTickRate:1

[Events]
//Background and Video events
0,0,"sakamoto.jpg",0,0
//Break Periods
//Storyboard Layer 0 (Background)
//Storyboard Layer 1 (Fail)
//Storyboard Layer 2 (Pass)
//Storyboard Layer 3 (Foreground)
//Storyboard Sound Samples

[TimingPoints]
1168,319.148936170213,4,1,1,70,1,0
3641,-100,4,1,1,5,0,0
3721,-100,4,1,1,70,0,0
11061,-125,4,2,1,50,0,0
15848,-100,4,2,1,50,0,0
16487,-125,4,2,1,50,0,0
21593,-111.111111111111,4,3,1,60,0,0
31806,-125,4,3,1,50,0,0
42019,-111.111111111111,4,3,1,60,0,0
47125,-142.857142857143,4,2,1,50,0,0
50316,-125,4,2,1,50,0,0
50955,-100,4,2,1,50,0,0
52231,-125,4,3,1,80,0,0
52870,-100,4,3,1,80,0,0
53508,-83.3333333333333,4,1,1,85,0,1
81593,-100,4,1,1,75,0,0
83827,-166.666666666667,4,1,1,75,0,0
84146,-100,4,3,1,60,0,0
86699,-76.9230769230769,4,1,1,80,0,0
87497,-76.9230769230769,4,3,1,10,0,0

[Colours]
Combo1 : 128,128,192
Combo2 : 158,158,158
Combo3 : 159,203,255
Combo4 : 255,149,98

[HitObjects]
500,139,529,5,0,0:0:0:0:
478,110,608,1,0,0:0:0:0:
446,96,688,1,0,0:0:0:0:
410,96,768,1,0,0:0:0:0:
378,111,848,1,0,0:0:0:0:
356,139,927,1,0,0:0:0:0:
348,174,1007,1,0,0:0:0:0:
314,161,1087,1,0,0:0:0:0:
279,170,1167,5,8,0:2:0:0:
66,314,3402,6,0,P|134:324|165:264,1,135,4|0,0:0|0:0,0:0:0:0:
107,271,3721,1,8,0:2:0:0:
187,67,4997,5,0,0:0:0:0:
52,73,5157,2,0,P|59:119|82:158,1,90,8|0,0:2|0:0,0:0:0:0:
109,334,5476,2,0,P|130:294|137:250,1,90,8|0,0:2|0:0,0:0:0:0:
119,25,5795,1,8,0:2:0:0:
337,166,5955,1,8,0:2:0:0:
80,156,6114,1,8,0:2:0:0:
444,90,6274,6,0,L|500:96,3,45,4|0|0|0,0:0|0:0|0:0|0:0,0:0:0:0:
381,161,6593,2,0,L|336:166,3,45,8|8|8|8,1:3|1:3|1:3|1:3,0:0:0:0:
452,217,6912,5,8,1:3:0:0:
462,241,6991,1,8,1:3:0:0:
465,268,7071,1,8,1:3:0:0:
461,295,7151,1,8,1:3:0:0:
450,320,7231,1,4,0:3:0:0:
433,341,7310,1,4,0:3:0:0:
412,357,7390,1,4,0:3:0:0:
387,366,7470,1,4,0:3:0:0:
351,366,7550,5,4,0:3:0:0:
315,362,7629,1,0,0:0:0:0:
279,358,7709,1,4,0:3:0:0:
243,355,7789,1,0,0:0:0:0:
215,331,7870,1,4,0:3:0:0:
179,335,7949,1,0,0:0:0:0:
143,339,8029,1,4,0:3:0:0:
107,342,8109,1,0,0:0:0:0:
62,338,8189,5,4,0:3:0:0:
106,335,8268,1,0,0:0:0:0:
146,316,8348,1,4,0:3:0:0:
175,281,8428,1,0,0:0:0:0:
187,239,8508,1,2,0:3:0:0:
182,194,8587,1,2,0:3:0:0:
159,156,8667,1,2,0:3:0:0:
122,130,8747,1,2,0:3:0:0:
77,126,8827,6,0,L|127:118,1,45,12|0,0:2|0:0,0:0:0:0:
284,41,8987,2,0,L|227:31,1,45,8|0,0:2|0:0,0:0:0:0:
182,22,9146,1,2,0:3:0:0:
421,70,9306,2,0,B|356:83|356:83|349:111,1,90,12|0,0:2|0:0,0:0:0:0:
308,147,9545,1,0,0:0:0:0:
308,147,9625,2,0,L|288:237,1,90,8|8,0:2|0:2,0:0:0:0:
431,345,9944,2,0,L|411:257,1,90,12|8,0:2|0:3,0:0:0:0:
418,222,10183,1,8,0:3:0:0:
380,246,10262,1,8,0:3:0:0:
337,258,10342,1,0,0:0:0:0:
292,257,10423,6,0,P|239:244|204:227,1,90,12|0,0:2|0:0,0:0:0:0:
62,336,10742,2,0,P|115:323|150:306,1,90,12|0,0:2|0:0,0:0:0:0:
48,188,11061,1,2,0:2:0:0:
59,169,11380,6,0,P|116:128|187:125,1,144,4|8,0:0|0:2,0:0:0:0:
277,153,11859,1,2,0:0:0:0:
389,244,12019,2,0,L|312:233,1,72,0|0,0:0|0:0,0:0:0:0:
178,309,12338,2,0,L|255:298,1,72,10|0,0:2|0:0,0:0:0:0:
93,272,12657,5,0,0:0:0:0:
337,332,12816,1,2,0:0:0:0:
73,285,12976,2,0,P|47:259|38:224,1,72,8|0,0:2|0:0,0:0:0:0:
194,136,13295,2,0,P|184:172|158:198,1,72,2|0,0:0|0:0,0:0:0:0:
68,63,13614,2,0,L|191:75,1,108,10|0,0:2|0:0,0:0:0:0:
291,133,13933,6,0,P|237:71|253:12,1,144,2|8,0:0|0:2,0:0:0:0:
338,50,14412,1,2,0:0:0:0:
224,190,14572,2,0,L|289:160,1,72,0|0,0:0|0:0,0:0:0:0:
407,297,14891,2,0,L|397:210,1,72,10|0,0:2|0:0,0:0:0:0:
216,303,15210,5,0,0:0:0:0:
299,361,15370,1,2,0:0:0:0:
115,281,15529,2,0,P|80:287|48:304,1,72,8|0,0:2|0:0,0:0:0:0:
182,170,15848,6,0,P|164:138|123:102,1,90,2|0,0:0|0:0,0:0:0:0:
318,204,16168,2,0,P|341:176|359:124,1,90,10|8,0:2|0:2,0:0:0:0:
242,269,16407,1,8,0:0:0:0:
242,269,16487,6,0,P|297:299|384:277,1,144,4|8,0:0|0:2,0:0:0:0:
416,201,16965,1,2,0:0:0:0:
251,241,17125,2,0,L|171:253,1,72,0|0,0:0|0:0,0:0:0:0:
98,333,17444,1,10,0:2:0:0:
179,172,17604,6,0,P|243:203|314:207,1,144,0|2,0:0|0:0,0:0:0:0:
417,155,18082,1,8,0:2:0:0:
300,283,18242,1,0,0:0:0:0:
411,123,18402,2,0,L|396:46,1,72,2|0,0:0|0:0,0:0:0:0:
294,251,18721,2,0,B|307:323|307:323|278:304,1,108,10|0,0:2|0:0,0:0:0:0:
206,204,19040,6,0,P|257:156|341:162,1,144,6|8,0:0|0:2,0:0:0:0:
294,251,19519,1,2,0:0:0:0:
277,75,19678,1,0,0:0:0:0:
409,191,19838,1,0,0:0:0:0:
138,159,19997,1,10,0:2:0:0:
240,23,20157,6,0,P|308:21|340:84,1,144,0|2,0:0|0:0,0:0:0:0:
329,226,20636,1,8,0:2:0:0:
195,150,20795,1,0,0:0:0:0:
195,150,20875,1,0,0:0:0:0:
195,150,20955,2,0,P|187:115|188:79,1,72,2|4,0:0|0:3,0:0:0:0:
323,28,21274,1,8,0:3:0:0:
66,52,21433,1,4,0:3:0:0:
185,265,21593,6,0,P|294:279|357:259,1,161.999995056153,4|8,0:2|0:2,0:0:0:0:
424,198,22072,1,0,0:0:0:0:
300,93,22231,2,0,P|293:132|300:172,1,80.9999975280763,0|0,0:0|0:0,0:0:0:0:
367,255,22550,1,8,0:2:0:0:
233,47,22710,6,0,P|213:155|233:218,1,161.999995056153,0|0,0:0|0:0,0:0:0:0:
402,327,23189,2,0,L|314:308,1,80.9999975280763,8|0,0:2|0:0,0:0:0:0:
133,291,23508,2,0,L|221:272,1,80.9999975280763,0|0,0:0|0:0,0:0:0:0:
321,176,23827,1,8,0:2:0:0:
121,315,23987,1,0,0:0:0:0:
22,116,24146,6,0,P|36:79|66:44,1,80.9999975280763,0|0,0:0|0:0,0:0:0:0:
221,187,24465,1,8,0:2:0:0:
114,268,24625,1,0,0:0:0:0:
62,47,24785,2,0,P|135:20|203:30,1,121.499996292114,0|0,0:0|0:0,0:0:0:0:
197,28,25104,1,8,0:2:0:0:
375,167,25263,6,0,P|303:139|281:59,1,161.999995056153,0|0,0:0|0:0,0:0:0:0:
457,45,25741,1,8,0:2:0:0:
448,229,25902,1,0,0:0:0:0:
206,129,26061,1,0,0:0:0:0:
201,126,26141,1,0,0:0:0:0:
197,123,26220,1,0,0:0:0:0:
193,121,26300,1,0,0:0:0:0:
189,119,26380,2,0,P|149:110|107:109,1,80.9999975280763,8|0,0:2|0:0,0:0:0:0:
43,309,26699,5,4,0:2:0:0:
171,289,26859,1,0,0:0:0:0:
282,119,27019,2,0,P|242:110|201:109,1,80.9999975280763,8|0,0:2|0:0,0:0:0:0:
134,310,27338,1,4,0:2:0:0:
262,290,27498,1,0,0:0:0:0:
372,121,27657,2,0,P|332:112|291:111,1,80.9999975280763,8|0,0:2|0:0,0:0:0:0:
224,312,27976,5,4,0:2:0:0:
352,292,28136,1,0,0:0:0:0:
155,271,28295,1,8,0:2:0:0:
439,320,28455,1,0,0:0:0:0:
225,235,28614,2,0,P|203:191|197:155,1,80.9999975280763,4|8,0:2|0:3,0:0:0:0:
196,119,28854,1,8,0:3:0:0:
162,140,28933,1,8,0:3:0:0:
124,131,29013,1,8,0:3:0:0:
103,97,29093,1,4,0:3:0:0:
113,59,29173,1,4,0:3:0:0:
148,39,29253,6,0,L|311:49,1,161.999995056153,4|8,0:2|0:3,0:0:0:0:
460,107,29731,1,8,0:3:0:0:
460,107,29811,1,8,0:3:0:0:
460,107,29891,2,0,P|443:143|441:183,1,80.9999975280763,4|0,0:3|0:0,0:0:0:0:
486,279,30210,1,4,0:3:0:0:
406,138,30370,6,0,P|323:155|245:202,1,161.999995056153,4|0,0:2|0:0,0:0:0:0:
169,319,30848,1,2,0:3:0:0:
75,180,31007,1,8,0:0:0:0:
75,180,31088,1,0,0:0:0:0:
75,180,31168,2,0,L|84:263,1,80.9999975280763,8|4,0:0|0:0,0:0:0:0:
17,121,31487,1,8,0:2:0:0:
204,90,31646,1,8,0:2:0:0:
254,202,31806,6,0,P|235:131|267:58,1,144,4|2,0:2|0:2,0:0:0:0:
350,139,32285,1,0,0:0:0:0:
260,294,32444,2,0,P|241:224|167:206,1,144,8|2,0:2|0:2,0:0:0:0:
133,321,32923,2,0,L|188:275,1,72,0|0,0:0|0:0,0:0:0:0:
244,134,33242,5,0,0:0:0:0:
299,347,33402,2,0,P|266:358|230:353,1,72,2|0,0:2|0:0,0:0:0:0:
326,159,33721,2,0,P|359:148|395:153,1,72,8|0,0:2|0:0,0:0:0:0:
249,259,34040,1,2,0:2:0:0:
227,99,34199,1,0,0:0:0:0:
443,250,34359,6,0,L|371:234,1,72,4|0,0:2|0:0,0:0:0:0:
169,173,34678,1,2,0:2:0:0:
191,13,34837,1,0,0:0:0:0:
396,143,34997,2,0,L|324:158,1,72,12|0,0:2|0:0,0:0:0:0:
67,78,35316,1,2,0:2:0:0:
227,99,35475,1,0,0:0:0:0:
77,272,35636,6,0,P|81:236|93:202,1,72,0|0,0:0|0:0,0:0:0:0:
307,238,35955,2,0,P|302:273|292:307,1,72,2|0,0:2|0:0,0:0:0:0:
183,188,36274,1,12,3:2:0:0:
206,256,36433,1,0,0:0:0:0:
168,317,36593,1,2,0:2:0:0:
161,329,36912,6,0,B|183:288|183:288|271:233,1,144,4|0,0:2|0:0,0:0:0:0:
394,214,37391,1,0,0:0:0:0:
256,154,37550,2,0,P|202:202|204:274,1,144,12|2,0:2|0:2,0:0:0:0:
306,320,38029,1,0,0:0:0:0:
342,158,38189,6,0,L|187:127,1,144,4|2,0:2|0:2,0:0:0:0:
100,73,38668,1,0,0:0:0:0:
70,221,38827,2,0,L|81:301,1,72,8|0,0:2|0:0,0:0:0:0:
247,225,39146,2,0,L|258:145,1,72,2|0,0:2|0:0,0:0:0:0:
426,72,39465,6,0,P|390:72|357:86,1,72,4|0,0:2|0:0,0:0:0:0:
216,11,39785,2,0,P|205:45|208:80,1,72,2|0,0:2|0:0,0:0:0:0:
93,190,40104,2,0,P|122:210|157:218,1,72,8|0,0:2|0:0,0:0:0:0:
225,362,40423,2,0,P|253:340|272:309,1,72,2|0,0:2|0:0,0:0:0:0:
429,287,40742,5,4,0:2:0:0:
379,216,40902,1,0,0:0:0:0:
134,270,41061,1,4,0:2:0:0:
220,262,41221,1,0,0:0:0:0:
298,23,41380,1,4,0:2:0:0:
261,101,41540,1,0,0:0:0:0:
287,286,41699,2,0,P|320:298|356:295,1,72,8|8,0:2|0:2,0:0:0:0:
141,177,42019,6,0,P|103:165|64:170,1,80.9999975280763,4|0,0:2|0:0,0:0:0:0:
179,267,42338,1,8,0:2:0:0:
215,135,42497,1,0,0:0:0:0:
232,309,42657,2,0,P|199:332|159:331,1,80.9999975280763,0|0,0:0|0:0,0:0:0:0:
27,157,42976,2,0,P|66:156|99:179,1,80.9999975280763,8|0,0:2|0:0,0:0:0:0:
34,262,43295,5,4,0:2:0:0:
72,87,43455,1,0,0:0:0:0:
204,206,43614,1,8,0:2:0:0:
34,262,43774,2,0,P|53:220|85:186,1,80.9999975280763,0|0,0:0|0:0,0:0:0:0:
159,129,44093,1,0,0:0:0:0:
204,273,44253,2,0,P|148:241|142:178,1,121.499996292114,8|0,0:2|0:0,0:0:0:0:
159,129,44572,6,0,L|260:142,1,80.9999975280763,4|0,0:2|0:0,0:0:0:0:
429,186,44891,1,8,0:2:0:0:
249,258,45050,1,0,0:0:0:0:
349,91,45210,1,4,0:2:0:0:
364,285,45370,1,0,0:0:0:0:
318,76,45529,2,0,P|368:69|403:76,1,80.9999975280763,8|0,0:2|0:0,0:0:0:0:
424,300,45848,6,0,P|384:305|344:298,1,80.9999975280763,12|0,0:2|0:0,0:0:0:0:
228,340,46088,1,0,0:0:0:0:
228,340,46168,2,0,P|198:312|178:277,1,80.9999975280763,12|0,0:2|0:0,0:0:0:0:
75,213,46407,1,0,0:0:0:0:
75,213,46487,2,0,P|76:172|90:134,1,80.9999975280763,12|0,0:2|0:0,0:0:0:0:
233,35,46726,1,0,0:0:0:0:
233,35,46806,2,0,P|246:71|249:112,1,80.9999975280763,12|8,0:2|0:2,0:0:0:0:
200,225,47045,1,0,0:0:0:0:
200,225,47125,5,12,0:2:0:0:
443,160,47444,2,0,L|357:145,1,62.9999980773926,8|0,0:0|0:0,0:0:0:0:
288,246,47683,1,0,0:0:0:0:
288,246,47763,2,0,L|374:231,1,62.9999980773926,8|0,0:0|0:0,0:0:0:0:
161,174,48082,1,4,0:0:0:0:
168,319,48242,1,0,0:0:0:0:
227,93,48402,5,4,0:0:0:0:
82,108,48561,1,0,0:0:0:0:
98,252,48721,1,8,0:0:0:0:
242,237,48880,1,0,0:0:0:0:
242,237,48960,1,0,0:0:0:0:
242,237,49040,2,0,P|274:234|305:219,1,62.9999980773926,8|0,0:0|0:0,0:0:0:0:
381,226,49279,1,0,0:0:0:0:
377,196,49359,1,8,0:0:0:0:
362,169,49439,1,0,0:0:0:0:
336,149,49519,1,4,0:3:0:0:
305,143,49598,1,4,0:3:0:0:
274,147,49678,6,0,P|243:157|216:176,1,62.9999980773926,4|0,0:2|0:0,0:0:0:0:
17,120,49997,2,0,P|46:132|77:135,1,62.9999980773926,8|0,0:2|0:0,0:0:0:0:
167,89,50237,1,0,0:0:0:0:
167,89,50316,6,0,L|170:11,1,72,4|0,0:2|0:0,0:0:0:0:
163,220,50636,2,0,L|160:298,1,72,8|0,0:0|0:0,0:0:0:0:
100,75,50955,5,8,0:3:0:0:
319,122,51114,1,8,0:3:0:0:
62,67,51274,1,4,0:3:0:0:
356,129,51433,1,4,0:3:0:0:
123,202,51593,5,8,0:3:0:0:
426,155,51753,1,8,0:3:0:0:
80,208,51912,1,8,0:3:0:0:
468,148,52072,1,8,0:3:0:0:
128,337,52231,6,0,P|132:303|146:268,1,72,4|0,0:2|0:0,0:0:0:0:
363,348,52550,2,0,P|327:344|295:330,1,72,2|2,0:3|0:3,0:0:0:0:
414,192,52870,5,10,0:3:0:0:
374,198,52949,1,8,0:3:0:0:
333,193,53029,1,10,0:3:0:0:
296,178,53109,1,8,0:3:0:0:
274,144,53189,1,6,0:3:0:0:
234,137,53268,1,0,0:0:0:0:
193,142,53348,1,0,0:0:0:0:
156,157,53428,1,4,0:3:0:0:
130,184,53508,6,0,P|81:184|44:49,1,215.999993408203,4|8,0:0|0:2,0:0:0:0:
94,320,53987,2,0,L|104:105,1,215.999993408203,2|2,0:3|0:3,0:0:0:0:
344,226,54465,1,8,0:2:0:0:
193,218,54625,1,2,0:3:0:0:
475,154,54785,5,0,0:0:0:0:
444,345,54944,2,0,P|392:362|339:360,1,107.999996704102,2|8,0:3|0:2,0:0:0:0:
162,206,55263,2,0,P|213:222|266:220,1,107.999996704102,2|0,0:3|0:0,0:0:0:0:
233,28,55582,1,2,0:3:0:0:
42,188,55742,1,8,0:2:0:0:
323,174,55902,1,2,0:3:0:0:
37,193,56061,6,0,P|13:234|3:295,1,107.999996704102,0|2,0:0|0:3,0:0:0:0:
269,270,56380,1,12,0:2:0:0:
236,144,56540,1,2,0:3:0:0:
77,291,56699,2,0,P|93:336|133:382,1,107.999996704102,0|2,0:0|0:3,0:0:0:0:
302,160,57018,1,12,0:2:0:0:
184,104,57178,1,2,0:3:0:0:
212,319,57338,5,0,0:0:0:0:
269,50,57497,1,2,0:3:0:0:
375,213,57657,1,8,0:2:0:0:
106,155,57816,1,2,0:3:0:0:
386,296,57976,1,0,0:0:0:0:
365,91,58136,1,2,0:3:0:0:
442,264,58295,1,8,0:2:0:0:
449,289,58374,1,8,0:2:0:0:
447,316,58454,1,8,0:2:0:0:
434,339,58534,1,8,0:2:0:0:
412,355,58614,6,0,P|349:349|377:233,1,215.999993408203,4|8,0:0|0:2,0:0:0:0:
170,289,59093,2,0,L|386:296,1,215.999993408203,2|2,0:3|0:3,0:0:0:0:
123,181,59572,1,8,0:2:0:0:
77,358,59731,1,2,0:3:0:0:
287,224,59891,5,0,0:0:0:0:
30,202,60050,2,0,P|52:250|105:279,1,107.999996704102,2|8,0:3|0:2,0:0:0:0:
271,93,60370,2,0,P|163:93|123:181,1,215.999993408203,2|2,0:3|0:3,0:0:0:0:
259,243,60848,1,8,0:2:0:0:
85,35,61008,1,2,0:3:0:0:
443,120,61168,6,0,B|368:131|368:131|335:127,1,107.999996704102,0|2,0:0|0:3,0:0:0:0:
85,35,61487,1,12,0:2:0:0:
214,38,61646,1,2,0:3:0:0:
384,220,61806,2,0,P|340:220|271:191,1,107.999996704102,0|2,0:0|0:3,0:0:0:0:
141,5,62125,1,12,0:2:0:0:
270,8,62284,1,2,0:3:0:0:
487,161,62444,5,0,0:0:0:0:
358,158,62603,1,8,0:2:0:0:
358,158,62683,1,8,0:2:0:0:
358,158,62763,2,0,L|251:175,1,107.999996704102,8|8,0:2|0:2,0:0:0:0:
78,94,63003,1,8,0:2:0:0:
78,94,63082,2,0,L|185:112,1,107.999996704102,8|8,0:2|0:2,0:0:0:0:
358,287,63322,1,8,0:2:0:0:
358,287,63402,2,0,L|251:269,1,107.999996704102,8|8,0:2|0:2,0:0:0:0:
84,275,63641,1,8,0:2:0:0:
84,275,63721,6,0,P|145:199|243:242,1,215.999993408203,4|8,0:0|0:2,0:0:0:0:
113,93,64199,2,0,B|113:140|113:140|180:315,1,215.999993408203,2|2,0:3|0:3,0:0:0:0:
324,143,64678,1,8,0:2:0:0:
195,125,64838,1,2,0:3:0:0:
290,348,64997,5,0,0:0:0:0:
335,109,65157,2,0,L|356:0,1,107.999996704102,2|8,0:3|0:2,0:0:0:0:
224,277,65476,2,0,L|183:60,1,215.999993408203,2|2,0:3|0:3,0:0:0:0:
397,195,65955,1,8,0:2:0:0:
67,149,66114,1,2,0:3:0:0:
397,195,66274,6,0,L|292:216,1,107.999996704102,0|2,0:0|0:3,0:0:0:0:
72,278,66593,1,12,0:2:0:0:
196,315,66753,1,2,0:3:0:0:
321,47,66912,2,0,L|254:130,1,107.999996704102,0|2,0:0|0:3,0:0:0:0:
125,319,67231,1,12,0:2:0:0:
244,268,67391,1,2,0:3:0:0:
36,115,67550,5,0,0:0:0:0:
20,243,67710,1,2,0:3:0:0:
259,140,67870,1,8,0:2:0:0:
156,62,68030,1,2,0:3:0:0:
282,323,68189,1,8,0:3:0:0:
314,319,68268,1,8,0:3:0:0:
346,316,68348,1,8,0:3:0:0:
378,312,68428,1,8,0:3:0:0:
411,308,68508,1,4,0:3:0:0:
369,297,68587,1,4,0:3:0:0:
337,269,68667,1,4,0:3:0:0:
319,229,68747,1,4,0:3:0:0:
323,186,68827,6,0,P|268:97|166:68,1,215.999993408203,4|8,0:0|0:2,0:0:0:0:
91,328,69306,2,0,P|174:280|210:169,1,215.999993408203,2|2,0:3|0:3,0:0:0:0:
63,43,69785,1,8,0:2:0:0:
54,172,69944,1,2,0:3:0:0:
342,97,70104,5,0,0:0:0:0:
170,107,70263,1,2,0:3:0:0:
265,252,70423,1,8,0:2:0:0:
250,36,70582,2,0,L|265:252,1,215.999993408203,2|2,0:3|0:3,0:0:0:0:
131,160,71061,1,8,0:2:0:0:
390,143,71221,1,2,0:3:0:0:
89,341,71380,6,0,P|76:286|94:221,1,107.999996704102,0|2,0:0|0:3,0:0:0:0:
328,108,71699,1,12,0:2:0:0:
200,126,71859,1,2,0:3:0:0:
220,367,72019,2,0,P|174:333|146:271,1,107.999996704102,0|2,0:0|0:3,0:0:0:0:
406,200,72338,1,12,0:2:0:0:
278,182,72498,1,2,0:3:0:0:
445,318,72657,6,0,L|451:375,3,53.9999983520508,8|8|8|8,0:3|0:3|0:3|0:3,0:0:0:0:
330,284,72976,2,0,L|336:341,3,53.9999983520508,4|4|4|4,0:3|0:3|0:3|0:3,0:0:0:0:
466,144,73295,1,8,0:3:0:0:
462,159,73374,1,8,0:3:0:0:
458,175,73454,1,8,0:3:0:0:
454,191,73534,1,8,0:3:0:0:
450,206,73614,6,0,B|461:81|461:81|438:113,1,161.999995056153,4|0,0:3|0:0,0:0:0:0:
383,161,73933,6,0,B|339:143|278:165|259:209|259:209|225:219|191:200,1,215.999993408203,4|8,0:0|0:2,0:0:0:0:
373,90,74412,2,0,P|319:94|268:112,1,107.999996704102,0|0,0:0|0:0,0:0:0:0:
347,260,74731,1,0,0:0:0:0:
152,262,74891,2,0,P|202:280|256:284,1,107.999996704102,8|0,0:2|0:0,0:0:0:0:
450,185,75210,6,0,L|394:32,1,161.999995056153,0|0,0:0|0:0,0:0:0:0:
481,130,75529,2,0,P|405:139|394:216,1,161.999995056153,8|0,0:2|0:0,0:0:0:0:
437,320,75848,2,0,B|377:228|377:228|327:213,1,161.999995056153,0|0,0:0|0:0,0:0:0:0:
226,332,76168,2,0,P|288:322|326:297,1,107.999996704102,8|0,0:2|0:0,0:0:0:0:
273,65,76487,6,0,P|215:150|248:249,1,215.999993408203,4|8,0:0|0:2,0:0:0:0:
89,185,76965,2,0,P|142:194|196:173,1,107.999996704102,0|0,0:0|0:0,0:0:0:0:
139,46,77284,1,0,0:0:0:0:
26,256,77444,2,0,P|46:306|92:332,1,107.999996704102,8|0,0:2|0:0,0:0:0:0:
318,277,77763,6,0,P|221:237|112:248,1,215.999993408203,4|8,0:0|0:2,0:0:0:0:
227,348,78242,1,0,0:0:0:0:
172,127,78402,2,0,L|156:15,1,107.999996704102,0|8,0:0|0:3,0:0:0:0:
462,78,78721,1,8,0:2:0:0:
429,82,78800,1,8,0:2:0:0:
397,87,78880,1,8,0:2:0:0:
365,91,78960,1,8,0:2:0:0:
333,97,79040,6,0,B|294:115|279:140|279:140|297:180|297:180|248:202|197:184,1,215.999993408203,4|8,0:0|0:2,0:0:0:0:
89,113,79519,1,0,0:0:0:0:
293,272,79678,2,0,P|238:276|180:267,1,107.999996704102,0|0,0:0|0:0,0:0:0:0:
466,169,79997,2,0,P|411:165|353:174,1,107.999996704102,8|0,0:2|0:0,0:0:0:0:
415,313,80316,5,12,0:2:0:0:
266,176,80476,1,8,0:3:0:0:
266,176,80556,1,4,0:3:0:0:
266,176,80636,5,8,0:2:0:0:
258,144,80715,1,0,0:0:0:0:
251,112,80795,1,8,0:3:0:0:
244,81,80875,1,4,0:3:0:0:
234,50,80955,5,12,0:2:0:0:
184,30,81034,1,4,0:3:0:0:
131,34,81114,1,8,0:3:0:0:
85,63,81194,1,4,0:3:0:0:
58,109,81274,1,8,0:2:0:0:
120,248,81433,1,4,0:3:0:0:
344,80,81593,5,4,0:0:0:0:
245,301,82870,5,8,0:2:0:0:
406,145,83029,1,8,0:2:0:0:
331,348,83189,1,8,0:2:0:0:
358,80,83348,2,0,P|397:64|450:76,1,90,8|0,0:2|0:0,0:0:0:0:
209,212,83668,1,4,0:3:0:0:
209,212,83747,1,4,0:3:0:0:
209,212,83827,6,0,P|219:173|201:121,1,80.9999975280763,4|0,0:0|0:0,0:0:0:0:
60,168,84146,6,0,L|162:177,1,90,12|8,0:2|0:2,0:0:0:0:
289,239,84465,1,2,0:3:0:0:
122,328,84625,2,0,P|100:272|102:231,1,90,12|2,0:2|0:3,0:0:0:0:
100,243,84864,1,0,0:0:0:0:
100,243,84944,1,8,0:2:0:0:
244,328,85104,1,8,0:2:0:0:
220,196,85263,6,0,P|233:141|363:89,1,180,12|8,0:2|0:2,0:0:0:0:
327,192,85742,1,2,0:3:0:0:
126,139,85902,1,8,0:2:0:0:
325,260,86061,1,8,0:3:0:0:
347,257,86140,1,0,0:0:0:0:
367,248,86220,1,4,0:3:0:0:
382,232,86300,1,4,0:3:0:0:
391,211,86380,2,0,P|387:160|353:129,1,90,8|0,0:2|0:0,0:0:0:0:
195,79,86699,5,4,0:2:0:0:
191,108,86779,1,8,0:2:0:0:
187,137,86859,1,8,0:2:0:0:
75,272,87019,1,8,0:2:0:0:
386,318,87178,2,0,B|323:250|233:242|233:242|241:273|265:289,1,233.999989288331,4|0,0:0|0:0,0:0:0:0:
