osu file format v14

[General]
AudioFilename: audio.mp3
AudioLeadIn: 0
PreviewTime: 53100
Countdown: 0
SampleSet: Soft
StackLeniency: 0.7
Mode: 2
LetterboxInBreaks: 0
WidescreenStoryboard: 1

[Editor]
DistanceSpacing: 2.4
BeatDivisor: 4
GridSize: 32
TimelineZoom: 2.4

[Metadata]
Title:COOLEST
TitleUnicode:COOLEST
Artist:CustomiZ
ArtistUnicode:カスタマイZ
Creator:Ascendance
Version:Salad
Source:坂本ですが?
Tags:Haven't You Heard? I'm Sakamoto Opening ENDO. (GEEKS) Koji Miyashita Sakamoto desuka? P_i_k_u piku JBHyperion Spectator
BeatmapID:1498722
BeatmapSetID:502512

[Difficulty]
HPDrainRate:4
CircleSize:3
OverallDifficulty:7
ApproachRate:7
SliderMultiplier:1.4
SliderTickRate:2

[Events]
//Background and Video events
0,0,"maxresdefault (1).jpg",0,0
//Break Periods
//Storyboard Layer 0 (Background)
//Storyboard Layer 1 (Fail)
//Storyboard Layer 2 (Pass)
//Storyboard Layer 3 (Foreground)
//Storyboard Sound Samples

[TimingPoints]
-122,319.174402212942,4,2,1,60,1,0
4984,-100,4,2,1,40,0,0
5143,-100,4,2,1,40,0,0
6261,-100,4,2,1,50,0,0
6580,-100,4,2,1,55,0,0
6899,-100,4,2,1,60,0,0
7219,-100,4,2,1,65,0,0
10091,-100,4,2,1,70,0,0
39452,-100,4,2,1,70,0,0
40729,-100,4,2,1,70,0,0
52222,-100,4,2,1,80,0,1
52262,-100,4,2,1,80,0,0
52541,-100,4,2,1,80,0,1
52581,-100,4,2,1,80,0,0
52860,-100,4,2,1,80,0,1
53419,-100,4,2,1,80,0,0
53499,-100,4,2,1,80,0,1
72649,-100,4,2,1,60,0,0
73607,-100,4,2,1,60,0,0
73926,-100,4,2,1,60,0,0

[Colours]
Combo1 : 248,170,92
Combo2 : 92,170,248
Combo3 : 248,120,92

[HitObjects]
281,358,516,5,0,0:0:0:0:
314,348,596,1,0,0:0:0:0:
337,322,675,1,0,0:0:0:0:
345,289,755,1,0,0:0:0:0:
334,256,835,1,0,0:0:0:0:
309,233,915,1,0,0:0:0:0:
275,225,995,1,0,0:0:0:0:
92,323,1154,6,0,P|61:230|140:157,1,210,4|2,0:0|0:0,0:0:0:0:
294,164,1952,2,0,L|377:174,2,70,0|0|2,0:0|0:0|0:0,0:0:0:0:
118,227,2590,1,0,0:0:0:0:
82,168,2750,1,0,0:0:0:0:
101,103,2910,1,0,0:0:0:0:
163,74,3069,1,2,0:0:0:0:
351,88,3388,1,0,1:0:0:0:
61,54,3708,6,0,P|182:77|283:42,1,210,0|2,1:0|0:0,0:0:0:0:
135,134,4506,2,0,L|35:125,2,70,0|0|0,0:0|0:0|0:0,0:0:0:0:
314,253,4984,6,0,L|336:174,1,70,0|0,1:0|1:0,0:0:0:0:
97,309,5463,2,0,L|258:321,1,140,0|0,1:0|0:0,0:0:0:0:
364,379,5942,2,0,L|379:295,1,70,8|8,1:2|1:2,0:0:0:0:
192,263,6261,6,0,L|41:243,1,140,0|0,1:0|1:0,0:0:0:0:
218,170,6899,2,0,L|375:152,1,140,0|0,1:0|0:0,0:0:0:0:
81,270,7538,2,0,L|61:118,1,140,0|0,1:0|1:0,0:0:0:0:
211,74,8176,2,0,L|58:52,1,140,0|0,1:0|1:0,0:0:0:0:
362,44,8814,6,0,P|403:79|369:165,1,140,4|0,1:0|0:0,0:0:0:0:
288,191,9293,1,4,3:0:0:0:
135,227,9612,2,0,L|59:225,2,70,0|4|0,0:0|3:0|0:0,0:0:0:0:
326,292,10251,6,0,L|404:292,1,70,4|4,3:0|3:0,0:0:0:0:
177,335,10729,1,4,3:0:0:0:
474,359,11049,1,0,0:0:0:0:
336,297,11368,6,0,L|355:78,1,210,4|0,1:2|0:0,0:0:0:0:
450,61,12166,1,0,1:0:0:0:
380,56,12325,1,8,0:0:0:0:
310,51,12485,1,0,1:0:0:0:
164,177,12804,2,0,L|252:168,1,70,0|8,1:0|1:2,0:0:0:0:
405,255,13283,2,0,L|263:239,1,140,0|0,1:0|0:0,0:0:0:0:
165,361,13921,6,0,L|385:345,1,210,0|0,1:0|0:0,0:0:0:0:
266,306,14560,2,0,P|248:247|307:172,1,140,0|8,1:0|1:2,0:0:0:0:
389,168,15038,1,0,1:0:0:0:
193,110,15357,2,0,L|106:99,1,70,0|8,1:0|1:2,0:0:0:0:
242,223,15836,2,0,L|399:202,1,140,0|8,1:0|1:2,0:0:0:0:
143,63,16475,6,0,L|-9:53,2,140,4|8|0,0:0|1:2|1:0,0:0:0:0:
308,175,17432,2,0,L|323:103,1,70,8|0,0:0|1:0,0:0:0:0:
179,288,17911,2,0,L|162:208,1,70,0|0,1:0|0:0,0:0:0:0:
337,344,18390,2,0,L|505:337,1,140,0|8,1:0|0:0,0:0:0:0:
198,357,19028,6,0,P|157:287|245:198,1,210,0|0,1:0|0:0,0:0:0:0:
342,209,19666,2,0,L|424:221,2,70,0|0|8,1:0|1:0|0:0,0:0:0:0:
161,143,20145,2,0,L|21:154,2,140,0|0|0,1:0|1:0|1:0,0:0:0:0:
268,134,20943,1,0,1:0:0:0:
451,117,21262,1,8,1:2:0:0:
163,317,21581,6,0,P|129:260|207:139,1,210,4|0,1:0|0:0,0:0:0:0:
301,140,22220,2,0,L|134:131,1,140,0|0,1:0|0:0,0:0:0:0:
51,127,22698,1,0,1:0:0:0:
246,262,23018,2,0,L|261:186,1,70,0|8,1:0|1:2,0:0:0:0:
89,127,23496,2,0,L|258:110,1,140,0|8,1:0|1:2,0:0:0:0:
400,77,24135,6,0,L|492:89,2,70,0|0|0,1:0|0:0|0:0,0:0:0:0:
234,186,24773,2,0,L|383:176,1,140,0|8,1:0|0:0,0:0:0:0:
311,279,25252,2,0,L|161:267,1,140,0|0,1:0|1:0,0:0:0:0:
73,257,25731,1,0,1:0:0:0:
232,258,26050,1,4,0:3:0:0:
73,257,26369,1,8,1:2:0:0:
361,257,26688,5,4,1:0:0:0:
505,257,27007,1,8,1:2:0:0:
361,257,27326,1,0,1:0:0:0:
505,257,27646,1,8,1:2:0:0:
212,316,27965,6,0,L|195:172,1,140,4|0,1:0|0:0,0:0:0:0:
359,111,28603,1,0,1:0:0:0:
180,130,28922,2,0,L|169:51,1,70,8|8,0:0|0:0,0:0:0:0:
351,52,29242,6,0,P|418:98|356:207,1,210,12|8,0:0|0:0,0:0:0:0:
252,243,29880,2,0,L|176:243,2,70,8|0|0,0:0|0:0|0:0,0:0:0:0:
435,345,30359,2,0,P|483:263|393:179,1,210,4|8,1:2|0:0,0:0:0:0:
267,171,31157,1,4,3:0:0:0:
336,165,31316,1,4,3:0:0:0:
406,160,31476,1,8,3:0:0:0:
171,68,31795,6,0,P|111:111|172:226,1,210,0|0,1:0|0:0,0:0:0:0:
328,357,32433,2,0,P|368:311|286:199,1,210,10|2,0:0|0:0,0:0:0:0:
208,193,33072,5,2,1:2:0:0:
64,196,33391,1,2,0:0:0:0:
258,204,33710,2,0,L|335:210,1,70,10|0,1:2|0:0,0:0:0:0:
428,270,34029,2,0,L|442:194,1,70,2|0,1:2|1:0,0:0:0:0:
252,221,34348,5,4,1:2:0:0:
223,158,34508,1,8,0:0:0:0:
235,90,34668,1,0,1:0:0:0:
283,41,34827,1,0,1:0:0:0:
351,28,34987,1,8,0:0:0:0:
166,23,35306,1,2,0:0:0:0:
359,132,35625,6,0,L|207:132,1,140,2|2,0:0|1:2,0:0:0:0:
66,208,36263,2,0,L|74:283,1,70,10|0,1:2|1:0,0:0:0:0:
162,309,36583,1,10,1:2:0:0:
464,367,36902,6,0,P|494:283|386:200,1,210,0|0,1:2|1:0,0:0:0:0:
235,260,37540,2,0,P|215:186|318:96,1,210,8|8,1:2|1:2,0:0:0:0:
412,93,38178,5,0,1:0:0:0:
235,99,38498,2,0,L|158:99,1,70,0|0,1:0|0:0,0:0:0:0:
329,135,38817,2,0,P|392:207|320:302,1,210,8|8,1:2|1:2,0:0:0:0:
176,292,39455,6,0,P|119:276|33:298,1,140,0|0,1:0|0:0,0:0:0:0:
204,213,40093,2,0,P|260:229|345:210,1,140,8|0,1:2|0:0,0:0:0:0:
69,187,40732,2,0,L|59:38,1,140,4|0,1:2|0:0,0:0:0:0:
202,116,41370,1,4,1:2:0:0:
321,194,41689,2,0,L|331:119,1,70,12|0,1:2|0:0,0:0:0:0:
147,53,42009,6,0,L|4:66,2,140,4|8|0,1:2|1:2|1:0,0:0:0:0:
303,32,42966,1,8,0:0:0:0:
141,117,43285,2,0,L|371:145,2,210,0|0|8,1:0|1:0|1:2,0:0:0:0:
382,289,44562,5,0,1:0:0:0:
390,219,44722,1,0,1:0:0:0:
399,150,44881,1,8,0:0:0:0:
221,201,45200,1,0,1:0:0:0:
211,131,45360,1,0,1:0:0:0:
201,62,45519,1,8,0:0:0:0:
404,70,45839,6,0,L|234:89,2,140,8|8|4,3:0|3:0|1:2,0:0:0:0:
204,164,46796,2,0,L|193:84,1,70,8|8,1:2|0:0,0:0:0:0:
356,46,47115,5,6,1:2:0:0:
206,163,47434,2,0,L|129:159,2,70,0|0|0,0:0|1:0|0:0,0:0:0:0:
354,259,48073,2,0,L|365:174,1,70,0|0,1:0|0:0,0:0:0:0:
170,343,48392,5,12,1:2:0:0:
143,279,48552,1,0,0:0:0:0:
157,211,48711,1,0,1:0:0:0:
206,163,48871,1,0,0:0:0:0:
274,151,49030,1,8,1:2:0:0:
458,162,49350,2,0,L|382:163,1,70,8|8,0:0|0:0,0:0:0:0:
201,268,49669,5,0,1:0:0:0:
175,204,49828,1,0,1:0:0:0:
198,139,49988,1,8,0:0:0:0:
258,106,50147,1,8,0:0:0:0:
364,270,50307,1,0,1:0:0:0:
390,206,50467,1,4,0:3:0:0:
367,141,50626,1,8,0:3:0:0:
307,108,50786,1,4,0:3:0:0:
146,102,50945,6,0,L|53:121,2,70,12|8|8,0:0|0:0|0:0,0:0:0:0:
248,101,51424,2,0,L|327:121,2,70,8|8|8,0:0|0:0|0:0,0:0:0:0:
139,78,51903,1,8,0:0:0:0:
256,192,52222,12,8,53180,0:0:0:0:
287,296,53499,6,0,L|314:154,1,140,4|8,1:0|0:0,0:0:0:0:
206,204,53978,2,0,L|59:194,1,140,0|0,1:0|1:0,0:0:0:0:
145,154,54456,1,8,1:2:0:0:
382,81,54775,2,0,P|277:110|156:72,2,210,0|0|8,1:0|1:0|1:2,0:0:0:0:
474,29,55893,1,0,0:0:0:0:
330,116,56052,6,0,P|260:88|184:109,1,140,4|0,1:0|0:0,0:0:0:0:
104,156,56531,1,0,0:0:0:0:
143,259,56691,2,0,P|213:287|289:266,1,140,0|12,1:0|1:2,0:0:0:0:
369,224,57169,1,0,0:0:0:0:
270,145,57329,6,0,L|102:159,1,140,0|8,1:0|1:2,0:0:0:0:
286,54,57967,2,0,L|441:68,1,140,0|0,0:0|0:0,0:0:0:0:
136,323,58606,6,0,P|113:257|179:205,1,140,4|8,1:0|0:0,0:0:0:0:
269,204,59084,2,0,P|302:162|252:78,1,140,0|0,1:0|1:0,0:0:0:0:
182,71,59563,1,8,1:2:0:0:
422,112,59882,2,0,P|358:103|226:170,2,210,4|0|0,1:0|1:0|0:0,0:0:0:0:
333,70,60999,1,0,1:0:0:0:
162,70,61159,6,0,P|122:134|163:199,1,140,0|12,0:0|1:2,0:0:0:0:
234,217,61638,1,0,0:0:0:0:
337,218,61797,2,0,L|492:218,1,140,0|12,1:0|1:2,0:0:0:0:
209,298,62436,2,0,L|121:297,2,70,0|8|0,1:0|0:0|0:0,0:0:0:0:
383,343,62914,2,0,P|417:292|342:181,1,210,8|8,0:0|0:0,0:0:0:0:
236,195,63553,1,8,0:0:0:0:
48,261,63712,6,0,P|34:210|107:133,1,140,4|8,1:0|0:0,0:0:0:0:
183,127,64191,2,0,L|352:127,1,140,0|0,1:0|1:0,0:0:0:0:
414,126,64670,1,8,1:2:0:0:
193,75,64989,6,0,L|106:75,2,70,4|0|8,1:0|1:0|1:2,0:0:0:0:
372,35,65468,2,0,L|381:184,1,140,0|0,1:0|1:0,0:0:0:0:
272,201,65947,2,0,L|195:193,1,70,8|0,1:2|0:0,0:0:0:0:
358,344,66266,6,0,P|387:274|325:230,1,140,0|12,1:0|1:2,0:0:0:0:
258,228,66745,1,0,0:0:0:0:
181,305,66904,2,0,L|169:143,1,140,0|0,1:0|0:0,0:0:0:0:
300,128,67383,1,0,0:0:0:0:
398,100,67542,6,0,L|239:93,1,140,0|8,1:0|1:2,0:0:0:0:
92,207,68181,2,0,L|256:200,1,140,4|4,0:3|0:3,0:0:0:0:
483,323,68819,6,0,L|320:319,1,140,4|8,1:0|0:0,0:0:0:0:
232,359,69298,2,0,L|224:214,1,140,0|0,1:0|1:0,0:0:0:0:
330,182,69777,1,8,1:2:0:0:
64,117,70096,2,0,P|129:93|266:143,2,210,4|0|8,1:0|1:0|1:2,0:0:0:0:
143,63,71213,1,0,0:0:0:0:
334,204,71373,6,0,L|358:49,1,140,0|0,1:0|0:0,0:0:0:0:
240,55,71851,1,0,0:0:0:0:
142,55,72011,2,0,L|311:57,1,140,0|12,1:0|1:2,0:0:0:0:
83,142,72649,6,0,L|5:142,1,70,4|4,1:3|0:3,0:0:0:0:
122,173,72968,2,0,L|281:172,2,140,4|0|0,1:3|0:0|0:0,0:0:0:0:
397,331,73926,6,0,P|446:259|336:128,1,280,4|0,1:0|0:0,0:0:0:0:
183,185,74883,1,8,1:2:0:0:
367,278,75203,2,0,L|388:132,1,140,0|8,1:0|1:2,0:0:0:0:
216,179,75841,2,0,L|196:31,1,140,0|8,1:0|1:2,0:0:0:0:
473,59,76479,6,0,P|403:38|312:64,1,140,4|8,1:0|0:0,0:0:0:0:
254,124,76958,2,0,P|191:139|120:110,1,140,0|0,0:0|1:0,0:0:0:0:
34,127,77437,1,8,1:2:0:0:
226,68,77756,1,4,1:2:0:0:
34,127,78075,2,0,L|189:131,2,140,0|0|4,0:0|1:0|0:3,0:0:0:0:
293,219,79033,5,4,1:0:0:0:
114,305,79352,1,8,1:2:0:0:
93,239,79512,1,0,0:0:0:0:
111,172,79671,1,0,1:0:0:0:
162,125,79831,1,0,1:0:0:0:
230,113,79990,1,8,1:2:0:0:
443,97,80309,2,0,L|288:111,2,140,8|8|8,0:3|0:3|0:3,0:0:0:0:
316,181,81267,2,0,L|231:174,1,70,8|0,3:0|0:0,0:0:0:0:
65,265,81586,6,0,L|54:121,1,140,4|0,1:0|0:0,0:0:0:0:
202,51,82224,2,0,L|47:35,1,140,0|0,0:0|0:0,0:0:0:0:
204,159,82863,1,8,0:0:0:0:
273,152,83022,1,8,0:0:0:0:
343,145,83182,1,8,0:0:0:0:
204,159,83342,2,0,P|171:202|216:291,1,140,8|4,0:0|0:3,0:0:0:0:
360,305,83820,1,8,0:0:0:0:
271,276,84140,6,0,P|250:214|296:143,1,140,4|4,0:0|0:3,0:0:0:0:
364,125,84618,2,0,L|205:113,1,140,4|0,0:0|0:0,0:0:0:0:
138,110,85097,2,0,L|60:105,1,70,4|4,0:3|0:0,0:0:0:0:
267,223,85576,6,0,L|346:218,2,70,8|8|8,0:0|0:0|0:2,0:0:0:0:
155,258,86055,2,0,L|312:267,1,140,8|0,0:3|0:0,0:0:0:0:
78,340,86693,2,0,L|71:258,1,70,8|4,0:0|0:3,0:0:0:0:
158,230,87012,1,4,0:3:0:0:
357,195,87172,5,4,0:0:0:0:
