osu file format v14

[General]
AudioFilename: audio.mp3
AudioLeadIn: 0
PreviewTime: 53100
Countdown: 0
SampleSet: Soft
StackLeniency: 0.7
Mode: 2
LetterboxInBreaks: 0
WidescreenStoryboard: 0

[Editor]
Bookmarks: 1148,6254,11361,21574,31786,41999,52212,53489,63701,73914,84127
DistanceSpacing: 1
BeatDivisor: 4
GridSize: 4
TimelineZoom: 2.4

[Metadata]
Title:COOLEST
TitleUnicode:COOLEST
Artist:CustomiZ
ArtistUnicode:カスタマイZ
Creator:Ascendance
Version:Hyperion's Cup
Source:坂本ですが?
Tags:Haven't You Heard? I'm Sakamoto Opening ENDO. (GEEKS) Koji Miyashita Sakamoto desuka? P_i_k_u piku JBHyperion Spectator
BeatmapID:1498004
BeatmapSetID:502512

[Difficulty]
HPDrainRate:3
CircleSize:2.5
OverallDifficulty:6
ApproachRate:6
SliderMultiplier:1.4
SliderTickRate:1

[Events]
//Background and Video events
0,0,"maxresdefault (1).jpg",0,0
//Break Periods
2,1354,2338
//Storyboard Layer 0 (Background)
//Storyboard Layer 1 (Fail)
//Storyboard Layer 2 (Pass)
//Storyboard Layer 3 (Foreground)
//Storyboard Sound Samples

[TimingPoints]
-122,319.174402212942,4,2,1,60,1,0
4984,-100,4,2,1,40,0,0
5143,-100,4,2,1,40,0,0
6261,-100,4,2,1,50,0,0
6580,-100,4,2,1,55,0,0
6899,-100,4,2,1,60,0,0
7219,-100,4,2,1,65,0,0
10091,-100,4,2,1,70,0,0
39452,-100,4,2,1,70,0,0
40729,-100,4,2,1,70,0,0
52222,-100,4,2,1,80,0,1
52262,-100,4,2,1,80,0,0
52541,-100,4,2,1,80,0,1
52581,-100,4,2,1,80,0,0
52860,-100,4,2,1,80,0,1
53419,-100,4,2,1,80,0,0
53499,-100,4,2,1,80,0,1
72649,-100,4,2,1,60,0,0
73607,-100,4,2,1,60,0,0
73926,-100,4,2,1,60,0,0

[Colours]
Combo1 : 248,170,92
Combo2 : 92,170,248
Combo3 : 248,120,92

[HitObjects]
368,192,516,5,0,0:0:0:0:
312,192,675,1,0,0:0:0:0:
256,192,835,1,0,0:0:0:0:
200,192,995,1,0,0:0:0:0:
144,192,1154,1,4,0:0:0:0:
328,192,3388,5,0,1:0:0:0:
160,192,3708,1,0,1:0:0:0:
216,192,4984,5,0,1:0:0:0:
300,192,5144,2,0,P|372:160|392:104,2,140,0|0|8,1:0|1:0|1:2,0:0:0:0:
196,192,5942,1,8,1:2:0:0:
256,192,6261,12,0,8495,1:0:0:0:
220,192,8814,6,0,L|284:152,2,70,4|4|0,1:0|3:0|0:0,0:0:0:0:
136,192,9293,2,0,L|280:192,1,140,4|0,3:0|0:0,0:0:0:0:
444,192,9931,6,0,P|432:252|360:284,1,140,0|0,3:0|0:0,0:0:0:0:
280,284,10410,1,4,3:0:0:0:
448,284,10729,1,4,3:0:0:0:
196,284,11368,6,0,L|180:140,1,140,4|8,1:2|0:0,0:0:0:0:
320,144,12006,1,0,1:0:0:0:
388,120,12166,1,0,1:0:0:0:
416,56,12325,1,8,0:0:0:0:
388,120,12485,6,0,P|320:144|292:224,1,140,0|0,1:0|0:0,0:0:0:0:
376,208,12964,2,0,P|412:264|376:320,1,140,8|0,1:2|0:0,0:0:0:0:
224,320,13602,1,8,0:0:0:0:
392,320,13921,5,0,1:0:0:0:
204,320,14400,1,0,0:0:0:0:
128,320,14560,2,0,L|88:256,2,70,0|0|8,1:0|1:0|1:2,0:0:0:0:
204,320,15038,6,0,P|256:300|288:220,1,140,0|0,1:0|1:0,0:0:0:0:
212,224,15517,2,0,L|208:148,1,70,8|0,1:2|0:0,0:0:0:0:
292,156,15836,1,0,1:0:0:0:
140,152,16155,1,8,1:2:0:0:
308,156,16475,6,0,L|444:192,1,140,4|8,0:0|1:2,0:0:0:0:
372,192,16953,1,0,0:0:0:0:
300,192,17113,2,0,P|240:216|216:284,1,140,0|0,1:0|0:0,0:0:0:0:
300,276,17592,6,0,P|360:252|384:184,1,140,0|0,1:0|1:0,0:0:0:0:
300,192,18070,1,0,0:0:0:0:
148,192,18390,2,0,L|276:118,1,140,0|8,1:0|0:0,0:0:0:0:
116,120,19028,5,0,1:0:0:0:
328,124,19507,1,0,0:0:0:0:
244,123,19666,2,0,L|174:83,2,70,0|0|8,1:0|1:0|0:0,0:0:0:0:
328,124,20145,6,0,P|372:132|424:212,1,140,0|0,1:0|1:0,0:0:0:0:
284,204,20783,1,0,1:0:0:0:
208,204,20943,1,0,1:0:0:0:
360,204,21262,1,8,1:2:0:0:
192,204,21581,6,0,B|120:204|120:204|64:264,1,140,4|8,1:0|1:2,0:0:0:0:
240,252,22220,1,0,1:0:0:0:
168,252,22379,1,0,1:0:0:0:
100,252,22539,1,8,1:2:0:0:
168,252,22698,6,0,L|320:252,1,140,0|0,1:0|1:0,0:0:0:0:
376,252,23177,1,8,1:2:0:0:
208,252,23496,1,0,1:0:0:0:
348,252,23816,1,8,1:2:0:0:
500,192,24135,6,0,P|492:152|412:104,1,140,0|0,1:0|0:0,0:0:0:0:
340,104,24614,1,0,0:0:0:0:
272,104,24773,1,0,1:0:0:0:
128,104,25092,1,8,0:0:0:0:
200,104,25252,6,0,L|348:104,1,140,0|0,1:0|1:0,0:0:0:0:
272,104,25731,1,0,1:0:0:0:
212,136,25890,1,0,1:0:0:0:
204,204,26050,1,4,0:3:0:0:
356,204,26369,6,0,L|364:348,1,140,8|0,1:2|0:0,0:0:0:0:
204,204,27007,2,0,L|212:348,1,140,8|0,1:2|1:0,0:0:0:0:
280,344,27486,1,0,1:0:0:0:
348,344,27646,6,0,L|469:274,1,140,8|4,1:2|1:0,0:0:0:0:
300,272,28284,2,0,L|178:202,1,140,8|0,1:2|0:0,0:0:0:0:
264,204,28763,2,0,P|328:180|352:112,1,140,8|8,0:0|0:0,0:0:0:0:
268,120,29242,5,12,0:0:0:0:
128,120,29561,1,8,0:0:0:0:
200,120,29720,1,8,0:0:0:0:
268,120,29880,2,0,L|332:76,2,70,8|0|0,0:0|0:0|0:0,0:0:0:0:
200,120,30359,6,0,P|140:196|200:280,1,210,4|8,1:2|0:0,0:0:0:0:
336,276,31157,2,0,L|344:348,1,70,4|4,3:0|3:0,0:0:0:0:
272,348,31476,1,8,3:0:0:0:
343,345,31635,1,4,3:0:0:0:
412,344,31795,6,0,P|464:324|496:248,1,140,0|0,1:0|0:0,0:0:0:0:
424,252,32274,1,0,0:0:0:0:
352,252,32433,2,0,P|264:224|224:120,1,210,10|2,0:0|0:0,0:0:0:0:
340,120,33231,5,0,0:0:0:0:
412,120,33391,1,2,0:0:0:0:
412,52,33550,1,0,0:0:0:0:
340,52,33710,1,10,1:2:0:0:
172,52,34029,2,0,L|88:52,1,70,2|0,1:2|1:0,0:0:0:0:
188,52,34348,5,4,1:2:0:0:
64,148,34668,1,0,1:0:0:0:
132,148,34827,1,0,1:0:0:0:
204,148,34987,1,8,0:0:0:0:
344,148,35306,2,0,L|348:224,1,70,2|8,0:0|1:2,0:0:0:0:
272,216,35625,6,0,P|200:248|184:304,1,140,2|2,0:0|1:2,0:0:0:0:
336,300,36263,1,10,1:2:0:0:
196,300,36583,1,10,1:2:0:0:
44,300,36902,6,0,P|12:240|100:152,1,210,0|0,1:2|1:0,0:0:0:0:
176,152,37540,1,8,1:2:0:0:
316,152,37859,2,0,L|360:96,1,70,0|8,1:0|1:2,0:0:0:0:
316,152,38178,6,0,L|172:152,1,140,0|0,1:0|1:0,0:0:0:0:
20,56,38817,2,0,L|164:56,1,140,8|0,1:2|0:0,0:0:0:0:
228,56,39296,1,8,1:2:0:0:
300,56,39455,6,0,P|336:116|320:184,1,140,0|0,1:0|0:0,0:0:0:0:
168,184,40093,2,0,P|132:242|146:309,1,140,8|0,1:2|0:0,0:0:0:0:
316,308,40732,6,0,L|444:244,2,140,4|0|0,1:2|0:0|0:0,0:0:0:0:
176,308,41689,1,12,1:2:0:0:
112,308,41849,1,0,0:0:0:0:
176,308,42009,6,0,P|240:280|264:208,1,140,4|8,1:2|1:2,0:0:0:0:
196,216,42487,1,0,0:0:0:0:
128,216,42647,2,0,L|56:192,2,70,0|0|8,1:0|1:0|0:0,0:0:0:0:
284,216,43285,6,0,L|424:192,1,140,0|8,1:0|1:2,0:0:0:0:
340,192,43764,2,0,P|288:216|264:292,1,140,0|0,1:0|1:0,0:0:0:0:
348,276,44243,1,8,1:2:0:0:
196,276,44562,6,0,B|124:276|124:276|100:208,1,140,0|8,1:0|0:0,0:0:0:0:
172,212,45041,1,0,1:0:0:0:
228,172,45200,1,0,1:0:0:0:
236,104,45360,2,0,P|184:64|128:104,1,140,0|0,1:0|0:0,0:0:0:0:
212,172,45839,6,0,L|364:172,1,140,8|8,3:0|3:0,0:0:0:0:
184,280,46477,2,0,L|32:280,1,140,4|8,1:2|1:2,0:0:0:0:
204,280,47115,6,0,P|240:228|204:168,1,140,6|0,1:2|0:0,0:0:0:0:
136,168,47594,1,0,1:0:0:0:
64,168,47754,2,0,L|208:168,1,140,10|0,0:0|1:0,0:0:0:0:
344,168,48392,6,0,L|352:88,1,70,12|0,1:2|0:0,0:0:0:0:
268,96,48711,2,0,L|260:16,1,70,0|0,1:0|0:0,0:0:0:0:
176,24,49030,2,0,L|37:104,1,140,8|8,1:2|0:0,0:0:0:0:
256,192,49669,12,8,51903,0:0:0:0:
284,192,52222,6,0,L|276:44,1,140,8|0,0:0|0:0,0:0:0:0:
136,52,52860,1,8,0:0:0:0:
296,52,53180,1,8,0:0:0:0:
212,52,53339,1,8,0:0:0:0:
128,52,53499,6,0,P|64:124|128:200,1,210,4|0,1:0|1:0,0:0:0:0:
280,200,54297,2,0,L|324:136,2,70,0|8|0,1:0|1:2|0:0,0:0:0:0:
204,200,54775,6,0,L|128:200,1,70,0|0,1:0|1:0,0:0:0:0:
288,200,55254,2,0,P|348:216|380:300,1,140,0|0,1:0|1:0,0:0:0:0:
316,260,55733,1,8,1:2:0:0:
287,199,55893,1,0,0:0:0:0:
372,200,56052,6,0,P|412:152|368:88,1,140,4|0,1:0|0:0,0:0:0:0:
300,92,56531,1,0,0:0:0:0:
224,92,56691,2,0,L|152:92,1,70,0|0,1:0|0:0,0:0:0:0:
224,192,57010,2,0,L|296:192,1,70,12|0,1:2|0:0,0:0:0:0:
208,192,57329,6,0,P|156:216|124:288,1,140,0|8,1:0|1:2,0:0:0:0:
208,288,57808,1,0,0:0:0:0:
292,288,57967,1,0,0:0:0:0:
124,288,58286,1,8,1:2:0:0:
308,288,58606,6,0,P|276:200|176:152,1,210,4|0,1:0|1:0,0:0:0:0:
48,152,59404,2,0,L|4:216,2,70,0|8|0,1:0|1:2|0:0,0:0:0:0:
118,152,59882,6,0,L|46:152,1,70,4|0,1:0|1:0,0:0:0:0:
204,152,60361,2,0,P|264:136|296:52,1,140,0|0,1:0|1:0,0:0:0:0:
216,68,60840,2,0,L|140:68,1,70,8|0,1:2|1:0,0:0:0:0:
76,68,61159,5,0,0:0:0:0:
228,68,61478,1,12,1:2:0:0:
88,68,61797,1,0,1:0:0:0:
256,68,62117,2,0,L|264:144,1,70,12|0,1:2|0:0,0:0:0:0:
180,140,62436,5,0,1:0:0:0:
124,204,62595,1,8,0:0:0:0:
124,288,62755,1,8,0:0:0:0:
180,352,62914,2,0,L|336:352,1,140,8|8,0:0|0:0,0:0:0:0:
392,352,63393,1,8,0:0:0:0:
212,352,63712,6,0,P|124:320|76:220,1,210,4|0,1:0|1:0,0:0:0:0:
288,220,64670,1,8,1:2:0:0:
136,220,64989,6,0,L|208:220,1,70,4|0,1:0|1:0,0:0:0:0:
276,220,65308,1,8,1:2:0:0:
206,220,65468,2,0,P|146:204|114:120,1,140,0|0,1:0|1:0,0:0:0:0:
194,136,65947,2,0,L|270:136,1,70,8|0,1:2|0:0,0:0:0:0:
340,136,66266,6,0,P|380:184|336:248,1,140,0|12,1:0|1:2,0:0:0:0:
268,244,66745,1,0,0:0:0:0:
192,244,66904,2,0,L|356:244,1,140,0|0,1:0|0:0,0:0:0:0:
388,300,67383,1,0,0:0:0:0:
332,352,67542,6,0,L|248:352,2,70,0|0|8,1:0|1:0|1:2,0:0:0:0:
388,300,68021,1,0,0:0:0:0:
304,232,68181,1,4,0:3:0:0:
472,232,68500,1,4,0:3:0:0:
288,232,68819,6,0,P|224:160|288:84,1,210,4|0,1:0|1:0,0:0:0:0:
440,84,69617,2,0,L|484:148,2,70,0|8|0,1:0|1:2|0:0,0:0:0:0:
364,84,70096,5,4,1:0:0:0:
292,84,70255,1,0,1:0:0:0:
224,84,70415,1,8,1:2:0:0:
292,84,70575,2,0,P|352:100|384:184,1,140,0|0,1:0|1:0,0:0:0:0:
304,168,71053,2,0,L|228:168,1,70,8|0,1:2|0:0,0:0:0:0:
304,168,71373,5,0,1:0:0:0:
152,168,71692,1,12,1:2:0:0:
292,168,72011,1,0,1:0:0:0:
124,168,72330,2,0,L|116:244,1,70,12|0,1:2|0:0,0:0:0:0:
204,168,72649,5,4,1:3:0:0:
268,224,72809,1,4,0:3:0:0:
268,308,72968,1,4,1:3:0:0:
204,372,73128,1,4,0:3:0:0:
120,372,73288,2,0,L|276:372,1,140,4|0,1:3|0:0,0:0:0:0:
440,372,73926,6,0,P|346:283|260:372,1,280,4|0,1:0|0:0,0:0:0:0:
400,192,74883,1,8,1:2:0:0:
324,192,75043,1,0,0:0:0:0:
248,192,75203,6,0,L|119:118,1,140,0|8,1:0|1:2,0:0:0:0:
279,122,75841,2,0,L|400:192,1,140,0|8,1:0|1:2,0:0:0:0:
248,192,76479,6,0,L|146:293,1,140,4|8,1:0|0:0,0:0:0:0:
72,192,76958,2,0,L|174:293,1,140,0|0,0:0|1:0,0:0:0:0:
256,292,77437,1,8,1:2:0:0:
88,292,77756,5,4,1:2:0:0:
228,292,78075,2,0,P|296:264|320:204,2,140,0|0|4,0:0|1:0|0:3,0:0:0:0:
76,292,79033,5,4,1:0:0:0:
236,292,79352,2,0,L|116:216,2,140,8|0|0,1:2|0:0|0:0,0:0:0:0:
388,292,80309,6,0,L|396:144,1,140,8|8,0:3|0:3,0:0:0:0:
240,152,80948,2,0,L|120:76,1,140,8|8,0:3|3:0,0:0:0:0:
200,76,81427,1,0,0:0:0:0:
276,76,81586,6,0,L|416:76,2,140,4|0|0,1:0|0:0|0:0,0:0:0:0:
124,76,82544,1,0,0:0:0:0:
88,144,82703,1,2,0:0:0:0:
172,144,82863,5,8,0:0:0:0:
236,196,83022,1,8,0:0:0:0:
252,280,83182,1,8,0:0:0:0:
176,280,83342,2,0,P|108:268|68:200,1,140,8|4,0:0|0:3,0:0:0:0:
87,144,83820,1,8,0:0:0:0:
256,144,84140,6,0,L|312:192,2,70,4|8|4,0:0|0:3|0:3,0:0:0:0:
184,144,84618,2,0,P|124:164|92:232,1,140,4|0,0:0|0:0,0:0:0:0:
160,229,85097,1,4,0:3:0:0:
232,229,85257,6,0,L|92:229,1,140,4|8,0:0|0:0,0:0:0:0:
160,229,85735,2,0,L|244:229,1,70,8|8,0:0|0:2,0:0:0:0:
300,228,86055,2,0,P|328:284|300:352,1,140,8|0,0:3|0:0,0:0:0:0:
132,352,86693,5,8,0:0:0:0:
216,352,86853,1,4,0:3:0:0:
300,352,87012,1,4,0:3:0:0:
384,352,87172,1,4,0:0:0:0:
