osu file format v14

[General]
AudioFilename: audio.mp3
AudioLeadIn: 0
PreviewTime: 53100
Countdown: 0
SampleSet: Soft
StackLeniency: 0.7
Mode: 2
LetterboxInBreaks: 0
WidescreenStoryboard: 1

[Editor]
DistanceSpacing: 0.8
BeatDivisor: 4
GridSize: 32
TimelineZoom: 2.799999

[Metadata]
Title:COOLEST
TitleUnicode:COOLEST
Artist:CustomiZ
ArtistUnicode:カスタマイZ
Creator:Ascendance
Version:Deluge
Source:坂本ですが?
Tags:Haven't You Heard? I'm Sakamoto Opening ENDO. (GEEKS) Koji Miyashita Sakamoto desuka? P_i_k_u piku JBHyperion Spectator
BeatmapID:1449978
BeatmapSetID:502512

[Difficulty]
HPDrainRate:7
CircleSize:4.4
OverallDifficulty:9.4
ApproachRate:9.4
SliderMultiplier:1.92
SliderTickRate:2

[Events]
//Background and Video events
0,0,"maxresdefault (1).jpg",0,0
//Break Periods
//Storyboard Layer 0 (Background)
//Storyboard Layer 1 (Fail)
//Storyboard Layer 2 (Pass)
//Storyboard Layer 3 (Foreground)
//Storyboard Sound Samples

[TimingPoints]
-122,319.174402212942,4,2,1,60,1,0
4984,-100,4,2,1,40,0,0
5143,-83.3333333333333,4,2,1,40,0,0
6261,-100,4,2,1,50,0,0
6580,-100,4,2,1,55,0,0
6899,-100,4,2,1,60,0,0
7219,-100,4,2,1,65,0,0
10091,-100,4,2,1,70,0,0
39452,-100,4,2,1,70,0,0
40729,-100,4,2,1,70,0,0
52222,-100,4,2,1,80,0,1
52262,-100,4,2,1,80,0,0
52541,-83.3333333333333,4,2,1,80,0,1
52581,-83.3333333333333,4,2,1,80,0,0
52860,-83.3333333333333,4,2,1,80,0,1
53419,-83.3333333333333,4,2,1,80,0,0
53499,-83.3333333333333,4,2,1,80,0,1
72649,-100,4,2,1,60,0,0
73607,-100,4,2,1,60,0,0
73926,-100,4,2,1,60,0,0

[Colours]
Combo1 : 248,170,92
Combo2 : 92,170,248
Combo3 : 248,120,92

[HitObjects]
115,230,516,6,0,L|209:229,1,48,0|0,0:0|0:0,0:0:0:0:
332,225,675,2,0,L|394:225,1,48,0|0,0:0|0:0,0:0:0:0:
132,174,835,2,0,L|226:173,1,48,0|0,0:0|0:0,0:0:0:0:
349,169,995,2,0,L|411:169,1,48,0|0,0:0|0:0,0:0:0:0:
126,356,1154,6,0,P|81:291|155:198,1,192,4|0,0:0|0:0,0:0:0:0:
264,194,1633,2,0,L|51:180,1,192,2|0,0:0|0:0,0:0:0:0:
170,128,2112,1,0,0:0:0:0:
416,262,2271,6,0,P|465:189|380:98,1,192,2|0,0:0|0:0,0:0:0:0:
283,76,2750,2,0,L|170:77,1,96,0|0,0:0|0:0,0:0:0:0:
345,163,3069,2,0,L|443:158,1,96,2|0,0:0|0:0,0:0:0:0:
158,330,3388,2,0,P|118:265|182:220,1,144,0|0,1:0|0:0,0:0:0:0:
375,250,3708,6,0,L|160:238,1,192,0|0,1:0|0:0,0:0:0:0:
308,338,4186,2,0,P|364:258|286:173,1,192,2|0,0:0|0:0,0:0:0:0:
194,142,4665,2,0,L|83:145,1,96,0|0,0:0|0:0,0:0:0:0:
424,64,4984,5,0,1:0:0:0:
193,142,5144,2,0,L|192:273,1,115.199996484375,0|0,1:0|0:0,0:0:0:0:
488,317,5463,2,0,L|242:316,1,230.39999296875,0|0,1:0|0:0,0:0:0:0:
40,345,5942,1,8,1:2:0:0:
356,232,6101,1,8,1:2:0:0:
111,249,6261,5,0,1:0:0:0:
69,210,6341,1,0,0:0:0:0:
71,162,6421,1,0,0:0:0:0:
116,127,6500,1,0,0:0:0:0:
295,61,6580,2,0,L|294:139,1,48,0|0,1:0|0:0,0:0:0:0:
219,179,6740,2,0,L|302:195,1,48,0|0,0:0|0:0,0:0:0:0:
459,226,6899,6,0,L|455:280,1,48,0|0,1:0|0:0,0:0:0:0:
255,316,7059,2,0,L|192:325,1,48,0|0,0:0|0:0,0:0:0:0:
386,205,7219,2,0,L|454:217,1,48,0|0,1:0|0:0,0:0:0:0:
174,179,7378,2,0,L|170:111,1,48,0|0,0:0|0:0,0:0:0:0:
396,60,7538,6,0,L|458:60,1,48,0|0,1:0|0:0,0:0:0:0:
396,60,7697,2,0,L|332:60,1,48,0|0,0:0|0:0,0:0:0:0:
118,56,7857,2,0,L|58:57,1,48,0|0,1:0|0:0,0:0:0:0:
118,56,8016,2,0,L|179:57,1,48,0|0,0:0|0:0,0:0:0:0:
380,152,8176,6,0,L|375:213,1,48,0|0,1:0|0:0,0:0:0:0:
194,253,8336,2,0,L|138:256,1,48,0|0,0:0|0:0,0:0:0:0:
426,231,8495,2,0,L|417:300,1,48,0|0,1:0|0:0,0:0:0:0:
123,321,8655,2,0,L|56:325,1,48,0|0,0:0|0:0,0:0:0:0:
361,340,8814,5,4,1:0:0:0:
268,296,8974,1,4,3:0:0:0:
219,249,9054,1,4,3:0:0:0:
220,197,9134,1,4,3:0:0:0:
270,160,9213,1,0,0:0:0:0:
494,193,9293,2,0,L|369:183,1,96,4|8,3:0|3:0,0:0:0:0:
91,257,9612,1,0,0:0:0:0:
88,209,9692,1,4,3:0:0:0:
86,161,9772,1,4,3:0:0:0:
350,77,9931,6,0,L|142:90,1,192,0|0,3:0|0:0,0:0:0:0:
461,254,10410,2,0,P|487:187|423:123,1,144,4|0,3:0|0:0,0:0:0:0:
233,99,10729,1,4,3:0:0:0:
479,36,11049,1,0,0:0:0:0:
57,88,11368,6,0,P|4:160|71:251,1,192,4|8,1:2|0:0,0:0:0:0:
342,292,11847,2,0,P|232:271|147:317,1,192,0|0,0:0|1:0,0:0:0:0:
53,280,12325,1,8,0:0:0:0:
341,359,12485,6,0,P|382:288|298:195,1,192,0|0,1:0|0:0,0:0:0:0:
185,252,12964,2,0,L|184:137,1,96,8|0,1:2|0:0,0:0:0:0:
311,127,13283,2,0,L|429:117,1,96,0|0,1:0|1:0,0:0:0:0:
107,62,13602,2,0,L|2:53,1,96,8|0,0:0|0:0,0:0:0:0:
358,232,13921,6,0,L|144:240,1,192,0|8,1:0|1:2,0:0:0:0:
302,322,14400,1,0,0:0:0:0:
43,179,14560,2,0,L|152:174,2,96,0|0|8,1:0|1:0|1:2,0:0:0:0:
364,251,15038,6,0,P|416:183|327:90,1,192,0|0,1:0|1:0,0:0:0:0:
227,70,15517,2,0,L|109:76,1,96,8|0,1:2|0:0,0:0:0:0:
405,335,15836,2,0,P|460:286|457:189,1,144,0|0,1:0|0:0,0:0:0:0:
205,211,16155,2,0,L|92:211,1,96,8|0,1:2|0:0,0:0:0:0:
156,177,16395,1,0,0:0:0:0:
376,80,16475,6,0,L|157:80,1,192,4|8,0:0|1:2,0:0:0:0:
304,176,16953,1,0,0:0:0:0:
149,282,17113,2,0,L|144:176,1,96,0|0,1:0|1:0,0:0:0:0:
262,172,17432,1,8,0:0:0:0:
138,78,17592,6,0,L|30:88,1,96,0|0,1:0|0:0,0:0:0:0:
273,86,17911,2,0,L|370:102,2,96,0|0|0,1:0|0:0|0:0,0:0:0:0:
158,211,18390,2,0,L|284:203,1,96,0|0,1:0|1:0,0:0:0:0:
104,292,18709,2,0,P|42:241|60:162,1,144,8|0,0:0|0:0,0:0:0:0:
261,282,19028,5,0,1:0:0:0:
361,220,19188,1,0,0:0:0:0:
343,110,19347,1,8,1:2:0:0:
228,70,19507,1,0,0:0:0:0:
478,48,19666,2,0,L|348:56,2,96,0|0|8,1:0|1:0|0:0,0:0:0:0:
205,109,20145,6,0,P|143:161|204:240,1,192,0|0,1:0|1:0,0:0:0:0:
301,257,20624,2,0,L|197:257,1,96,8|0,0:0|1:0,0:0:0:0:
438,339,20943,2,0,L|461:213,1,96,0|8,1:0|1:2,0:0:0:0:
86,236,21262,2,0,L|80:129,1,96,8|8,1:2|0:0,0:0:0:0:
391,59,21581,6,0,L|175:70,1,192,4|8,1:0|1:2,0:0:0:0:
72,75,22060,1,0,0:0:0:0:
413,286,22220,2,0,L|420:169,1,96,0|0,1:0|1:0,0:0:0:0:
299,146,22539,1,8,1:2:0:0:
45,312,22698,6,0,L|280:296,1,192,0|0,1:0|1:0,0:0:0:0:
419,350,23177,2,0,L|434:247,1,96,8|0,1:2|0:0,0:0:0:0:
88,176,23496,2,0,L|211:166,1,96,0|0,1:0|0:0,0:0:0:0:
457,210,23816,2,0,P|491:137|434:68,1,144,8|0,1:2|0:0,0:0:0:0:
240,33,24135,6,0,L|118:41,1,96,0|0,1:0|0:0,0:0:0:0:
285,133,24454,2,0,L|397:122,1,96,8|0,1:2|0:0,0:0:0:0:
121,332,24773,2,0,P|88:257|191:172,1,192,0|8,1:0|0:0,0:0:0:0:
411,341,25252,6,0,L|184:325,1,192,0|0,1:0|1:0,0:0:0:0:
381,166,25731,2,0,L|361:278,1,96,0|0,1:0|1:0,0:0:0:0:
26,194,26050,1,4,0:3:0:0:
73,190,26130,1,4,0:3:0:0:
121,187,26209,1,4,0:3:0:0:
169,183,26289,1,4,0:3:0:0:
423,279,26369,2,0,L|455:123,1,144,8|0,1:2|0:0,0:0:0:0:
159,90,26688,6,0,L|40:83,1,96,4|0,1:0|0:0,0:0:0:0:
338,226,27007,2,0,L|160:218,1,144,8|0,1:2|0:0,0:0:0:0:
471,349,27326,2,0,L|484:234,1,96,0|0,1:0|1:0,0:0:0:0:
206,322,27646,2,0,L|307:312,1,96,8|0,1:2|0:0,0:0:0:0:
64,258,27965,6,0,L|60:159,1,96,4|0,1:0|0:0,0:0:0:0:
320,130,28284,2,0,L|147:123,1,144,8|0,1:2|0:0,0:0:0:0:
432,242,28603,2,0,L|451:107,1,96,0|8,1:0|0:0,0:0:0:0:
371,105,28843,1,8,0:0:0:0:
91,102,28922,2,0,L|168:101,1,48,8|8,0:0|0:0,0:0:0:0:
406,214,29082,2,0,L|313:213,1,48,8|8,0:0|0:0,0:0:0:0:
131,339,29242,6,0,P|96:258|164:192,1,192,12|8,0:0|0:0,0:0:0:0:
468,136,29720,2,0,L|389:136,1,48,8|8,0:0|0:0,0:0:0:0:
81,136,29880,2,0,L|212:135,1,96,8|0,0:0|0:0,0:0:0:0:
465,218,30199,1,8,3:0:0:0:
151,332,30359,6,0,P|110:268|179:176,1,192,4|0,1:2|0:0,0:0:0:0:
217,180,30758,1,0,0:0:0:0:
411,236,30837,2,0,L|415:117,1,96,8|4,0:0|3:0,0:0:0:0:
361,122,31077,1,4,3:0:0:0:
135,48,31157,5,4,3:0:0:0:
270,93,31316,1,4,3:0:0:0:
136,147,31476,1,8,3:0:0:0:
271,186,31635,1,4,3:0:0:0:
16,325,31795,6,0,L|218:313,1,192,0|0,1:0|0:0,0:0:0:0:
88,239,32274,1,0,0:0:0:0:
336,351,32433,2,0,P|381:282|303:202,1,192,10|2,0:0|0:0,0:0:0:0:
173,201,32912,1,2,0:0:0:0:
416,248,33072,5,2,1:2:0:0:
456,223,33151,1,0,0:0:0:0:
483,183,33231,1,8,1:2:0:0:
489,136,33311,1,0,0:0:0:0:
475,91,33391,1,2,0:0:0:0:
442,56,33471,1,0,0:0:0:0:
398,39,33550,1,0,0:0:0:0:
152,30,33710,2,0,L|29:31,1,96,10|0,1:2|0:0,0:0:0:0:
343,138,34029,1,2,1:2:0:0:
104,140,34189,1,0,1:0:0:0:
343,138,34348,5,4,1:2:0:0:
40,258,34508,2,0,L|136:258,2,96,8|0|0,0:0|1:0|1:0,0:0:0:0:
416,347,34987,1,8,0:0:0:0:
282,278,35146,1,0,1:0:0:0:
287,230,35226,1,0,0:0:0:0:
293,182,35306,1,2,0:0:0:0:
439,157,35465,2,0,L|433:88,1,48,8|0,1:2|0:0,0:0:0:0:
226,36,35625,6,0,L|111:41,1,96,2|8,0:0|1:2,0:0:0:0:
375,195,35944,2,0,L|161:182,1,192,2|10,1:2|1:2,0:0:0:0:
308,103,36423,1,0,1:0:0:0:
81,329,36583,2,0,L|65:218,1,96,10|0,1:2|0:0,0:0:0:0:
378,228,36902,6,0,P|274:192|185:239,1,192,0|0,1:2|0:0,0:0:0:0:
120,300,37380,1,0,1:0:0:0:
446,309,37540,2,0,P|481:242|412:156,1,192,8|0,1:2|1:0,0:0:0:0:
301,161,38019,1,8,1:2:0:0:
66,69,38178,6,0,P|147:90|259:50,1,192,0|0,1:0|1:0,0:0:0:0:
356,87,38657,1,0,0:0:0:0:
86,287,38817,2,0,P|50:218|144:141,1,192,8|0,1:2|0:0,0:0:0:0:
247,188,39296,2,0,L|263:136,1,48,8|0,1:2|0:0,0:0:0:0:
21,42,39455,6,0,L|183:48,1,144,0|0,1:0|0:0,0:0:0:0:
409,191,39774,2,0,P|440:118|382:66,1,144,0|0,0:0|0:0,0:0:0:0:
213,56,40093,2,0,L|48:72,1,144,8|0,1:2|0:0,0:0:0:0:
220,149,40413,2,0,L|387:169,1,144,0|0,0:0|0:0,0:0:0:0:
70,351,40732,6,0,L|60:217,1,96,4|0,1:2|0:0,0:0:0:0:
339,252,41051,2,0,L|458:238,1,96,12|0,1:2|0:0,0:0:0:0:
139,58,41370,2,0,L|356:69,1,192,4|0,1:2|0:0,0:0:0:0:
459,76,41849,1,0,0:0:0:0:
142,298,42009,6,0,P|91:214|165:146,1,192,4|8,1:2|1:2,0:0:0:0:
271,148,42487,1,0,0:0:0:0:
146,73,42647,2,0,L|41:72,1,96,0|0,1:0|1:0,0:0:0:0:
209,19,42966,2,0,L|326:18,1,96,8|0,0:0|0:0,0:0:0:0:
38,231,43285,6,0,L|164:230,2,96,0|0|8,1:0|0:0|1:2,0:0:0:0:
275,346,43764,2,0,P|328:271|248:195,1,192,0|0,1:0|1:0,0:0:0:0:
142,164,44243,2,0,L|303:155,1,144,8|0,1:2|0:0,0:0:0:0:
68,283,44562,6,0,L|61:177,1,96,0|0,1:0|1:0,0:0:0:0:
212,222,44881,2,0,L|316:213,1,96,8|0,0:0|0:0,0:0:0:0:
141,152,45200,1,0,1:0:0:0:
456,90,45360,2,0,L|441:310,1,192,0|0,1:0|0:0,0:0:0:0:
188,352,45839,6,0,L|186:302,1,48,8|4,3:0|3:0,0:0:0:0:
261,271,45998,2,0,L|259:218,1,48,4|4,3:0|3:0,0:0:0:0:
55,248,46158,2,0,L|53:198,1,48,8|4,3:0|3:0,0:0:0:0:
112,150,46317,2,0,L|161:128,1,48,4|4,3:0|3:0,0:0:0:0:
390,97,46477,6,0,L|318:96,1,48,4|0,1:2|0:0,0:0:0:0:
179,48,46637,2,0,L|108:44,1,48,8|8,0:0|0:0,0:0:0:0:
390,97,46796,1,8,1:2:0:0:
286,150,46956,2,0,L|286:232,1,48,8|8,0:0|0:0,0:0:0:0:
452,349,47115,5,6,1:2:0:0:
276,289,47434,2,0,L|164:296,1,96,0|0,0:0|1:0,0:0:0:0:
435,253,47754,2,0,P|481:188|403:105,1,192,10|0,0:0|1:0,0:0:0:0:
289,102,48232,1,0,0:0:0:0:
37,97,48392,6,0,L|142:98,1,96,12|0,1:2|0:0,0:0:0:0:
244,182,48711,2,0,L|126:182,1,96,0|0,1:0|0:0,0:0:0:0:
379,319,49030,1,8,1:2:0:0:
425,286,49110,1,0,0:0:0:0:
423,239,49190,1,8,0:0:0:0:
376,209,49270,1,8,0:0:0:0:
188,216,49350,2,0,L|180:158,1,48,8|8,0:0|0:0,0:0:0:0:
344,119,49509,2,0,L|431:111,1,48,8|8,0:0|0:0,0:0:0:0:
201,64,49669,6,0,L|82:56,1,96,0|0,1:0|1:0,0:0:0:0:
370,220,49988,2,0,L|477:211,1,96,8|8,0:0|0:0,0:0:0:0:
199,309,50307,1,0,1:0:0:0:
326,309,50467,1,4,0:3:0:0:
60,235,50626,2,0,L|52:109,1,96,8|4,0:3|0:3,0:0:0:0:
294,58,50945,6,0,L|309:118,1,48,12|0,0:0|0:0,0:0:0:0:
219,60,51105,2,0,L|202:114,1,48,8|0,0:0|0:0,0:0:0:0:
346,142,51265,2,0,L|394:149,1,48,8|0,0:0|0:0,0:0:0:0:
166,142,51424,2,0,L|118:149,1,48,8|0,0:0|0:0,0:0:0:0:
442,188,51584,2,0,L|438:244,1,48,8|0,0:0|0:0,0:0:0:0:
70,188,51743,2,0,L|74:244,1,48,8|0,0:0|0:0,0:0:0:0:
490,280,51903,2,0,L|430:282,1,48,8|0,0:0|0:0,0:0:0:0:
22,280,52063,2,0,L|82:282,1,48,8|0,0:0|0:0,0:0:0:0:
350,341,52222,5,8,0:0:0:0:
368,325,52262,1,0,0:0:0:0:
379,304,52302,1,0,0:0:0:0:
383,281,52342,1,0,0:0:0:0:
378,257,52382,1,0,0:0:0:0:
365,237,52422,1,0,0:0:0:0:
346,223,52461,1,0,0:0:0:0:
181,192,52541,2,0,L|113:192,1,57.5999982421876,8|0,0:0|0:0,0:0:0:0:
361,110,52701,2,0,L|291:108,1,57.5999982421876,0|0,0:0|0:0,0:0:0:0:
114,36,52860,6,0,L|116:104,1,57.5999982421876,8|8,0:0|0:0,0:0:0:0:
416,248,53020,2,0,L|354:250,1,57.5999982421876,8|8,0:0|0:0,0:0:0:0:
118,341,53180,2,0,L|202:335,1,57.5999982421876,8|8,0:0|0:0,0:0:0:0:
473,178,53339,2,0,L|484:94,1,57.5999982421876,8|8,0:0|0:0,0:0:0:0:
131,145,53499,6,0,L|371:132,1,230.39999296875,4|8,1:0|0:0,0:0:0:0:
74,253,53978,2,0,L|320:239,1,230.39999296875,0|0,1:0|1:0,0:0:0:0:
37,78,54456,2,0,L|47:196,1,115.199996484375,8|0,1:2|0:0,0:0:0:0:
359,304,54775,5,0,1:0:0:0:
223,259,54935,2,0,L|213:123,1,115.199996484375,0|8,1:0|0:0,0:0:0:0:
460,64,55254,2,0,L|199:77,1,230.39999296875,0|0,1:0|1:0,0:0:0:0:
391,202,55733,2,0,L|399:76,1,115.199996484375,8|0,1:2|0:0,0:0:0:0:
144,295,56052,6,0,P|85:235|127:146,1,172.799994726563,4|0,1:0|0:0,0:0:0:0:
311,122,56371,1,4,1:2:0:0:
189,125,56531,1,0,0:0:0:0:
311,122,56691,6,0,P|370:182|328:271,1,172.799994726563,0|0,1:0|0:0,0:0:0:0:
144,295,57010,1,12,1:2:0:0:
266,292,57169,1,0,0:0:0:0:
36,214,57329,6,0,L|31:77,1,115.199996484375,0|0,1:0|1:0,0:0:0:0:
320,188,57648,2,0,L|178:184,1,115.199996484375,8|0,1:2|0:0,0:0:0:0:
446,109,57967,1,0,0:0:0:0:
490,142,58047,1,0,0:0:0:0:
493,198,58127,1,0,1:0:0:0:
454,237,58207,1,0,0:0:0:0:
230,290,58286,2,0,L|156:290,1,57.5999982421876,8|0,1:2|0:0,0:0:0:0:
427,351,58446,2,0,L|363:351,1,57.5999982421876,8|8,0:0|0:0,0:0:0:0:
131,346,58606,6,0,P|85:275|174:166,1,230.39999296875,4|8,1:0|0:0,0:0:0:0:
411,260,59084,2,0,P|458:177|369:93,1,230.39999296875,0|0,1:0|1:0,0:0:0:0:
56,202,59563,2,0,L|49:74,1,115.199996484375,8|0,1:2|0:0,0:0:0:0:
369,72,59882,5,4,1:0:0:0:
245,198,60042,2,0,L|373:196,1,115.199996484375,0|8,1:0|0:0,0:0:0:0:
114,313,60361,2,0,L|352:311,1,230.39999296875,0|0,1:0|1:0,0:0:0:0:
187,285,60840,2,0,P|173:198|236:143,1,172.799994726563,8|0,1:2|0:0,0:0:0:0:
442,178,61159,6,0,P|486:109|418:42,1,172.799994726563,0|4,0:0|0:0,0:0:0:0:
191,50,61478,2,0,L|308:51,1,115.199996484375,12|0,1:2|0:0,0:0:0:0:
191,50,61797,2,0,P|121:85|143:202,1,172.799994726563,0|0,1:0|0:0,0:0:0:0:
342,264,62117,2,0,L|206:261,1,115.199996484375,12|0,1:2|0:0,0:0:0:0:
454,334,62436,5,0,1:0:0:0:
161,182,62595,1,8,0:0:0:0:
103,185,62675,1,8,0:0:0:0:
46,189,62755,1,8,0:0:0:0:
306,80,62914,1,8,0:0:0:0:
248,83,62994,1,8,0:0:0:0:
191,87,63074,1,8,0:0:0:0:
457,22,63234,2,0,L|391:25,1,57.5999982421876,8|8,0:0|0:0,0:0:0:0:
154,141,63393,2,0,L|161:212,1,57.5999982421876,8|0,0:0|0:0,0:0:0:0:
389,267,63553,2,0,L|468:280,1,57.5999982421876,8|8,0:0|0:0,0:0:0:0:
149,360,63712,6,0,L|383:348,1,230.39999296875,4|8,1:0|0:0,0:0:0:0:
136,82,64191,2,0,P|69:170|166:262,1,230.39999296875,0|0,1:0|1:0,0:0:0:0:
419,303,64670,2,0,L|281:317,1,115.199996484375,8|0,1:2|0:0,0:0:0:0:
51,178,64989,5,4,1:0:0:0:
196,194,65149,1,0,1:0:0:0:
345,221,65308,1,8,1:2:0:0:
80,341,65468,2,0,L|75:99,1,230.39999296875,0|0,1:0|1:0,0:0:0:0:
207,227,65947,2,0,L|56:239,1,115.199996484375,8|0,1:2|0:0,0:0:0:0:
372,337,66266,6,0,P|417:254|335:188,1,172.799994726563,0|0,1:0|0:0,0:0:0:0:
143,220,66585,2,0,P|124:163|151:114,1,115.199996484375,12|0,1:2|0:0,0:0:0:0:
257,81,66904,2,0,P|165:108|61:59,1,172.799994726563,0|0,1:0|0:0,0:0:0:0:
310,169,67223,2,0,L|430:165,1,115.199996484375,12|0,1:2|0:0,0:0:0:0:
112,280,67542,6,0,L|266:279,2,115.199996484375,0|0|8,1:0|1:0|1:2,0:0:0:0:
363,344,68021,1,0,0:0:0:0:
143,348,68181,1,4,0:3:0:0:
91,324,68261,1,4,0:3:0:0:
61,276,68340,1,4,0:3:0:0:
63,219,68420,1,4,0:3:0:0:
96,173,68500,1,4,0:3:0:0:
149,153,68580,1,4,0:3:0:0:
360,200,68660,2,0,L|376:120,1,57.5999982421876,4|4,0:3|0:3,0:0:0:0:
171,61,68819,6,0,P|250:93|377:29,1,230.39999296875,4|8,1:0|0:0,0:0:0:0:
100,95,69298,2,0,P|42:149|110:272,1,230.39999296875,0|0,1:0|1:0,0:0:0:0:
349,339,69777,2,0,L|473:329,1,115.199996484375,8|0,1:2|0:0,0:0:0:0:
173,177,70096,5,4,1:0:0:0:
307,196,70255,1,0,1:0:0:0:
173,177,70415,1,8,1:2:0:0:
426,88,70575,2,0,P|501:169|411:241,1,230.39999296875,0|0,1:0|1:0,0:0:0:0:
301,330,71053,2,0,L|426:329,1,115.199996484375,8|0,1:2|0:0,0:0:0:0:
122,363,71373,6,0,P|77:274|148:212,1,172.799994726563,0|0,1:0|0:0,0:0:0:0:
357,236,71692,2,0,L|365:116,1,115.199996484375,12|0,1:2|0:0,0:0:0:0:
243,175,72011,2,0,L|57:167,1,172.799994726563,0|0,1:0|0:0,0:0:0:0:
330,171,72330,2,0,L|354:57,1,115.199996484375,12|0,1:2|0:0,0:0:0:0:
66,58,72649,6,0,L|66:134,1,48,4|4,1:3|0:3,0:0:0:0:
117,151,72809,2,0,L|165:154,1,48,4|4,0:3|0:3,0:0:0:0:
333,193,72968,2,0,L|400:193,1,48,4|4,1:3|0:3,0:0:0:0:
397,293,73128,2,0,L|342:294,1,48,4|4,0:3|0:3,0:0:0:0:
172,280,73288,2,0,L|234:278,1,48,4|4,1:3|0:3,0:0:0:0:
423,239,73447,2,0,L|483:239,1,48,4|4,0:3|0:3,0:0:0:0:
213,206,73607,2,0,P|174:132|239:74,1,144,12|0,1:2|0:0,0:0:0:0:
384,35,73926,6,0,P|446:90|361:158,1,192,4|8,1:0|1:2,0:0:0:0:
242,177,74405,1,0,1:0:0:0:
244,224,74485,1,0,0:0:0:0:
247,272,74564,1,0,0:0:0:0:
404,299,74724,1,0,0:0:0:0:
175,139,74883,2,0,L|46:148,1,96,8|0,1:2|0:0,0:0:0:0:
467,172,75203,6,0,P|386:190|257:149,2,192,0|8|0,1:0|1:2|0:0,0:0:0:0:
368,230,76001,1,0,0:0:0:0:
232,305,76160,2,0,L|226:185,1,96,8|0,1:2|0:0,0:0:0:0:
453,62,76479,6,0,L|336:77,2,96,4|0|8,1:0|0:0|0:0,0:0:0:0:
178,161,76958,2,0,L|382:176,1,192,0|0,0:0|1:0,0:0:0:0:
80,318,77437,2,0,L|64:207,1,96,8|0,1:2|0:0,0:0:0:0:
449,156,77756,5,4,1:2:0:0:
291,105,78075,2,0,L|113:104,1,144,0|0,0:0|0:0,0:0:0:0:
319,189,78394,2,0,L|469:189,1,144,0|4,1:0|0:3,0:0:0:0:
218,275,78714,2,0,L|72:276,1,144,4|4,0:3|0:3,0:0:0:0:
364,363,79033,6,0,P|405:299|335:214,1,192,4|8,1:0|1:2,0:0:0:0:
206,281,79512,1,0,0:0:0:0:
203,233,79591,1,0,0:0:0:0:
200,185,79671,1,0,1:0:0:0:
340,218,79831,1,0,1:0:0:0:
43,106,79990,2,0,L|160:97,1,96,8|0,1:2|0:0,0:0:0:0:
452,81,80309,6,0,L|391:82,1,48,8|0,0:3|0:0,0:0:0:0:
241,64,80469,2,0,L|171:63,1,48,4|4,0:3|0:3,0:0:0:0:
382,150,80629,2,0,L|321:151,1,48,8|0,0:3|0:3,0:0:0:0:
171,133,80788,2,0,L|101:132,1,48,4|4,0:3|0:3,0:0:0:0:
383,321,80948,1,8,0:3:0:0:
429,285,81028,1,0,0:3:0:0:
427,238,81107,1,4,0:3:0:0:
379,207,81187,1,4,0:3:0:0:
186,185,81267,2,0,L|81:182,1,96,8|0,3:0|0:0,0:0:0:0:
356,51,81586,6,0,L|142:67,2,192,4|0|0,1:0|0:0|0:0,0:0:0:0:
141,216,82544,2,0,L|133:114,1,96,0|2,0:0|0:0,0:0:0:0:
371,168,82863,5,8,0:0:0:0:
141,215,83022,1,8,0:0:0:0:
371,168,83182,1,8,0:0:0:0:
141,215,83342,2,0,L|346:229,1,192,8|4,0:0|0:3,0:0:0:0:
379,233,83741,1,4,0:3:0:0:
184,295,83820,2,0,L|69:283,1,96,8|0,0:0|0:0,0:0:0:0:
460,117,84140,5,4,0:0:0:0:
211,72,84299,1,8,0:3:0:0:
169,95,84379,1,8,0:3:0:0:
151,138,84459,1,4,0:3:0:0:
164,184,84539,1,0,0:0:0:0:
353,264,84618,2,0,L|146:276,1,192,4|0,0:0|0:0,0:0:0:0:
417,342,85097,1,4,0:3:0:0:
177,336,85257,6,0,P|133:270|210:181,1,192,4|8,0:0|0:0,0:0:0:0:
356,184,85735,1,8,0:0:0:0:
399,148,85815,1,0,0:0:0:0:
397,101,85895,1,8,0:2:0:0:
351,70,85975,1,0,0:0:0:0:
162,51,86055,2,0,P|81:59|15:21,1,144,8|0,0:3|0:0,0:0:0:0:
235,139,86374,2,0,L|344:132,1,96,4|0,0:3|0:0,0:0:0:0:
58,180,86693,5,8,0:0:0:0:
326,227,86853,1,4,0:3:0:0:
58,180,87012,1,4,0:3:0:0:
450,88,87172,5,4,0:0:0:0:
