osu file format v14

[General]
AudioFilename: audio.mp3
AudioLeadIn: 0
PreviewTime: 53095
Countdown: 0
SampleSet: Soft
StackLeniency: 0.4
Mode: 0
LetterboxInBreaks: 0
WidescreenStoryboard: 0

[Editor]
DistanceSpacing: 1.8
BeatDivisor: 4
GridSize: 16
TimelineZoom: 2.3

[Metadata]
Title:COOLEST
TitleUnicode:COOLEST
Artist:CustomiZ
ArtistUnicode:カスタマイZ
Creator:[Crz]Makii
Version:Insane?
Source:坂本ですが?
Tags:across jump Abhor
BeatmapID:1201493
BeatmapSetID:545358

[Difficulty]
HPDrainRate:6
CircleSize:3.8
OverallDifficulty:8
ApproachRate:9
SliderMultiplier:1.6
SliderTickRate:1

[Events]
//Background and Video events
0,0,"BG.jpeg",0,0
//Break Periods
//Storyboard Layer 0 (Background)
//Storyboard Layer 1 (Fail)
//Storyboard Layer 2 (Pass)
//Storyboard Layer 3 (Foreground)
//Storyboard Layer 4 (Overlay)
//Storyboard Sound Samples

[TimingPoints]
1154,319.148936170213,4,2,1,50,1,0
26685,-125,4,2,1,50,0,0
27005,-83.3333333333333,4,2,1,50,0,0
27324,-125,4,2,1,50,0,0
27643,-83.3333333333333,4,2,1,50,0,0
27962,-125,4,2,1,50,0,0
28281,-83.3333333333333,4,2,1,50,0,0
28600,-100,4,2,1,50,0,0
53494,-90.9090909090909,4,2,1,50,0,1
56366,-71.4285714285714,4,2,1,50,0,1
56685,-90.9090909090909,4,2,1,50,0,1
57005,-71.4285714285714,4,2,1,50,0,1
57324,-90.9090909090909,4,2,1,50,0,1
61473,-71.4285714285714,4,2,1,50,0,1
61792,-90.9090909090909,4,2,1,50,0,1
62111,-71.4285714285714,4,2,1,50,0,1
62430,-90.9090909090909,4,2,1,50,0,1
66579,-71.4285714285714,4,2,1,50,0,1
66898,-90.9090909090909,4,2,1,50,0,1
67217,-71.4285714285714,4,2,1,50,0,1
67536,-90.9090909090909,4,2,1,50,0,1
71685,-71.4285714285714,4,2,1,50,0,1
72005,-90.9090909090909,4,2,1,50,0,1
72324,-71.4285714285714,4,2,1,50,0,1
72643,-90.9090909090909,4,2,1,50,0,1
81579,-100,4,2,1,50,0,0

[Colours]
Combo1 : 255,94,174
Combo2 : 38,255,38
Combo3 : 255,102,28
Combo4 : 0,118,174

[HitObjects]
89,90,515,6,0,L|84:43,3,40
151,180,834,2,0,L|157:134,3,40
36,260,1154,6,0,B|77:238|112:262|112:262|145:283|188:262,1,160
332,192,1632,1,0,0:0:0:0:
332,192,1792,2,0,P|332:257|322:271,1,80
249,102,2111,1,0,0:0:0:0:
403,82,2271,6,0,B|447:114|440:158|440:158|432:212|479:242,1,160
420,337,2749,1,0,0:0:0:0:
307,295,2909,1,0,0:0:0:0:
202,353,3068,2,0,L|123:336,1,80
114,179,3388,2,0,L|193:196,1,80
42,257,3707,6,0,B|11:210|34:171|34:171|21:127|49:95,1,160
169,55,4185,1,0,0:0:0:0:
169,55,4345,2,0,L|259:60,1,80
341,120,4664,1,0,0:0:0:0:
461,47,4824,2,0,L|468:140,1,80
253,229,5143,5,0,0:0:0:0:
466,217,5462,1,0,0:0:0:0:
321,45,5781,5,0,0:0:0:0:
323,64,5941,1,0,0:0:0:0:
326,84,6100,1,0,0:0:0:0:
341,219,6260,6,0,L|348:274,3,40
281,297,6579,2,0,L|257:331,3,40
183,305,6898,2,0,L|140:297,3,40
112,226,7217,2,0,L|103:183,3,40
88,93,7536,5,0,0:0:0:0:
121,113,7615,1,0,0:0:0:0:
161,119,7696,1,0,0:0:0:0:
199,110,7775,1,0,0:0:0:0:
231,86,7856,2,0,L|262:52,3,40
336,42,8175,5,0,0:0:0:0:
356,74,8254,1,0,0:0:0:0:
390,97,8334,1,0,0:0:0:0:
428,105,8414,1,0,0:0:0:0:
467,98,8495,2,0,L|492:60,3,40
425,202,8813,5,0,0:0:0:0:
461,328,8973,2,0,L|488:364,2,40
322,299,9292,2,0,L|262:311,1,40
180,279,9451,1,0,0:0:0:0:
171,317,9530,1,0,0:0:0:0:
144,346,9610,1,0,0:0:0:0:
105,356,9690,1,0,0:0:0:0:
67,345,9771,2,0,L|58:265,1,80
43,158,10090,5,0,0:0:0:0:
70,126,10169,1,0,0:0:0:0:
58,87,10249,1,0,0:0:0:0:
89,62,10329,1,0,0:0:0:0:
76,23,10409,1,0,0:0:0:0:
354,60,10728,1,0,0:0:0:0:
281,343,11366,6,0,B|222:325|222:325|176:345|176:345|127:332|127:331,1,160
30,313,11845,1,0,0:0:0:0:
30,313,12005,2,0,L|28:227,1,80
146,50,12324,1,0,0:0:0:0:
43,100,12483,6,0,P|99:154|183:156,1,160
336,50,12962,2,0,P|387:42|437:56,1,80
346,265,13281,1,0,0:0:0:0:
306,139,13441,1,0,0:0:0:0:
432,167,13600,1,0,0:0:0:0:
432,167,13760,1,0,0:0:0:0:
464,353,13919,6,0,B|421:326|382:341|382:341|332:360|296:332,1,160
241,218,14398,1,0,0:0:0:0:
241,218,14558,2,0,L|236:135,1,80
126,55,14877,1,0,0:0:0:0:
46,179,15036,6,0,P|38:270|88:331,1,160
241,218,15515,2,0,L|321:201,2,80
138,117,15994,1,0,0:0:0:0:
259,36,16154,1,0,0:0:0:0:
386,102,16313,1,0,0:0:0:0:
403,112,16393,1,0,0:0:0:0:
420,123,16473,6,0,P|424:175|421:210,1,80
296,350,16792,2,0,P|291:307|295:263,1,80
221,93,17111,2,0,P|196:169|118:178,1,160
69,320,17590,1,0,0:0:0:0:
69,320,17749,6,0,P|114:319|165:323,1,80
282,347,18068,2,0,P|321:347|361:345,1,80
447,216,18388,1,0,0:0:0:0:
352,132,18547,1,0,0:0:0:0:
331,253,18707,2,0,P|286:258|247:256,1,80
201,63,19026,6,0,P|170:100|47:106,1,160
105,276,19505,1,0,0:0:0:0:
231,186,19664,2,0,P|289:182|321:186,1,80
393,329,19983,1,0,0:0:0:0:
481,230,20143,1,0,0:0:0:0:
428,99,20302,6,0,P|378:95|330:98,1,80
284,231,20622,2,0,P|234:235|186:232,2,80
187,60,21100,5,0,0:0:0:0:
121,215,21260,1,0,0:0:0:0:
57,47,21419,1,0,0:0:0:0:
64,305,21579,6,0,P|137:323|213:267,1,160
241,142,22058,1,0,0:0:0:0:
241,142,22217,2,0,P|301:135|337:140,1,80
306,291,22536,1,0,0:0:0:0:
180,230,22696,2,0,P|122:173|138:91,1,160
272,41,23175,6,0,L|366:49,1,80
423,135,23494,1,0,0:0:0:0:
355,230,23654,1,0,0:0:0:0:
418,336,23813,2,0,L|324:328,1,80
208,232,24132,6,0,P|206:173|210:140,1,80
334,73,24451,2,0,P|336:132|332:165,1,80
199,54,24771,2,0,B|119:32|127:78|42:52,1,160
51,235,25249,2,0,B|131:213|123:259|208:233,1,160
297,119,25728,6,0,P|356:117|391:119,1,80
444,236,26047,1,0,0:0:0:0:
442,245,26126,1,0,0:0:0:0:
441,255,26206,1,0,0:0:0:0:
440,265,26286,1,0,0:0:0:0:
439,275,26366,1,0,0:0:0:0:
440,274,26685,6,0,P|377:266|316:278,1,96
327,262,27005,2,0,L|326:161,1,95.9999970703126
283,47,27324,6,0,P|220:55|159:43,1,96
170,59,27644,2,0,L|169:160,1,95.9999970703126
144,301,27962,6,0,P|81:293|20:305,1,96
31,289,28282,2,0,L|30:188,1,95.9999970703126
88,61,28600,1,0,0:0:0:0:
176,133,28760,1,0,0:0:0:0:
195,141,28839,1,0,0:0:0:0:
214,144,28919,1,0,0:0:0:0:
234,143,28999,1,0,0:0:0:0:
253,137,29079,1,0,0:0:0:0:
270,126,29158,1,0,0:0:0:0:
285,112,29239,5,0,0:0:0:0:
285,112,29558,1,0,0:0:0:0:
380,203,29717,2,0,L|433:200,2,40
314,324,30036,2,0,P|274:323|226:330,1,80
120,236,30356,2,0,P|74:179|121:95,1,160
226,41,30834,5,0,0:0:0:0:
319,127,30994,2,0,L|322:175,2,40
424,53,31313,1,0,0:0:0:0:
424,53,31473,2,0,P|430:103|423:143,1,80
361,292,31792,6,0,P|309:279|189:281,1,160
68,223,32271,1,0,0:0:0:0:
68,223,32350,1,0,0:0:0:0:
68,223,32430,2,0,P|71:151|119:80,1,160
246,85,32909,1,0,0:0:0:0:
453,325,33228,5,0,0:0:0:0:
362,233,33388,1,0,0:0:0:0:
326,359,33547,1,0,0:0:0:0:
238,260,33707,2,0,P|185:259|149:257,1,80
35,350,34026,1,0,0:0:0:0:
83,274,34185,1,0,0:0:0:0:
33,201,34345,5,0,0:0:0:0:
33,201,34505,2,0,P|38:134|39:103,1,80
157,47,34824,2,0,L|199:52,2,40
170,174,35143,1,0,0:0:0:0:
264,95,35302,2,0,L|357:99,1,80
453,194,35622,5,0,0:0:0:0:
410,312,35781,1,0,0:0:0:0:
332,229,35941,2,0,L|241:242,1,80
171,347,36260,1,0,0:0:0:0:
45,239,36419,1,0,0:0:0:0:
169,135,36579,1,0,0:0:0:0:
169,135,36898,6,0,L|271:128,1,80
335,231,37217,1,0,0:0:0:0:
421,149,37377,2,0,L|468:153,2,40
349,71,37696,1,0,0:0:0:0:
429,159,37856,2,0,P|427:203|412:240,1,80
313,332,38175,6,0,P|238:309|130:318,1,160
40,356,38654,1,0,0:0:0:0:
40,231,38813,2,0,P|36:191|36:147,1,80
176,33,39132,2,0,P|180:73|180:117,1,80
239,278,39451,6,0,P|255:328|254:371,1,80
310,192,39771,2,0,P|362:192|403:206,1,80
251,97,40090,2,0,P|267:47|293:12,1,80
142,124,40409,2,0,P|99:92|75:57,1,80
135,236,40728,5,0,0:0:0:0:
246,191,41047,5,0,0:0:0:0:
291,302,41366,5,0,0:0:0:0:
179,347,41685,5,0,0:0:0:0:
66,126,42005,6,0,B|150:91|144:145|224:116,1,160
332,36,42483,1,0,0:0:0:0:
403,139,42643,2,0,P|404:194|397:233,1,80
273,326,42962,2,0,P|272:271|279:232,1,80
421,326,43281,5,0,0:0:0:0:
421,326,43441,1,0,0:0:0:0:
361,192,43600,1,0,0:0:0:0:
361,192,43760,1,0,0:0:0:0:
261,300,43919,2,0,P|211:306|164:300,1,80
85,227,44239,2,0,P|77:182|90:102,1,120
114,87,44558,6,0,L|199:84,1,80
292,223,44877,2,0,L|207:220,1,80
326,86,45196,2,0,L|411:83,1,80
464,202,45515,1,0,0:0:0:0:
394,325,45675,1,0,0:0:0:0:
394,325,45755,1,0,0:0:0:0:
394,325,45834,5,0,0:0:0:0:
287,243,45994,2,0,L|287:199,2,40
190,324,46313,2,0,L|190:368,2,40
94,265,46632,1,0,0:0:0:0:
93,251,46711,1,0,0:0:0:0:
93,238,46791,1,0,0:0:0:0:
92,225,46871,1,0,0:0:0:0:
92,211,46951,1,0,0:0:0:0:
91,198,47030,1,0,0:0:0:0:
90,183,47111,6,0,P|176:174|251:182,1,160
326,274,47590,2,0,L|374:278,2,40
403,163,47909,1,0,0:0:0:0:
339,66,48068,2,0,L|249:63,1,80
105,48,48388,6,0,P|100:94|103:127,1,80
239,237,48707,1,0,0:0:0:0:
221,94,48866,2,0,L|227:54,2,40
105,219,49185,1,0,0:0:0:0:
105,232,49264,1,0,0:0:0:0:
106,245,49344,1,0,0:0:0:0:
106,258,49424,1,0,0:0:0:0:
107,272,49504,1,0,0:0:0:0:
108,285,49583,1,0,0:0:0:0:
107,299,49664,6,0,P|171:306|206:296,1,80
284,198,49983,1,0,0:0:0:0:
196,85,50143,2,0,L|149:90,2,40
324,37,50462,1,0,0:0:0:0:
414,116,50622,2,0,L|407:204,1,80
358,353,50941,5,0,0:0:0:0:
358,353,51100,1,0,0:0:0:0:
249,220,51260,1,0,0:0:0:0:
249,220,51419,1,0,0:0:0:0:
163,371,51579,1,0,0:0:0:0:
163,371,51738,1,0,0:0:0:0:
65,233,51898,1,0,0:0:0:0:
65,233,52057,1,0,0:0:0:0:
161,134,52217,6,0,L|204:138,3,40
88,37,52536,2,0,L|45:41,3,40
265,66,52856,1,0,0:0:0:0:
295,91,52935,1,0,0:0:0:0:
333,100,53015,1,0,0:0:0:0:
372,92,53095,1,0,0:0:0:0:
403,67,53175,2,0,L|400:24,3,40
461,151,53494,6,0,P|458:204|341:241,1,176.000005371094
167,33,53973,2,0,P|170:86|287:123,1,176.000005371094
216,299,54451,2,0,P|168:303|122:303,1,88.000002685547
47,114,54771,5,0,0:0:0:0:
47,114,54930,2,0,P|123:107|159:113,1,88.000002685547
226,223,55249,2,0,P|269:224|313:217,1,88.000002685547
461,37,55568,1,0,0:0:0:0:
338,141,55728,1,0,0:0:0:0:
449,249,55888,1,0,0:0:0:0:
356,346,56047,6,0,P|302:337|199:344,1,132.00000402832
206,314,56366,2,0,P|204:258|207:194,1,111.999996582031
293,61,56685,2,0,P|347:70|450:63,1,132.00000402832
443,93,57005,2,0,P|445:149|442:213,1,111.999996582031
298,349,57324,5,0,0:0:0:0:
172,176,57483,1,0,0:0:0:0:
375,242,57643,1,0,0:0:0:0:
172,308,57802,1,0,0:0:0:0:
298,135,57962,2,0,P|355:133|401:140,1,88.000002685547
226,44,58281,1,0,0:0:0:0:
215,43,58360,1,0,0:0:0:0:
204,42,58440,1,0,0:0:0:0:
193,41,58520,1,0,0:0:0:0:
181,43,58600,6,0,P|143:130|191:201,1,176.000005371094
362,353,59079,2,0,P|323:277|361:201,1,176.000005371094
451,63,59558,2,0,L|357:60,1,88.000002685547
258,143,59877,5,0,0:0:0:0:
258,143,60036,2,0,P|194:154|164:143,1,88.000002685547
28,43,60356,2,0,P|92:32|122:43,1,88.000002685547
51,219,60675,1,0,0:0:0:0:
145,354,60834,1,0,0:0:0:0:
263,244,60994,1,0,0:0:0:0:
357,350,61154,6,0,P|404:345|492:359,1,132.00000402832
497,343,61473,2,0,P|496:288|501:222,1,111.999996582031
458,60,61792,2,0,P|411:65|323:51,1,132.00000402832
318,67,62111,2,0,P|319:122|313:181,1,111.999996582031
229,315,62430,5,0,0:0:0:0:
97,222,62590,2,0,L|46:233,2,44.0000013427735
220,125,62909,1,0,0:0:0:0:
220,125,62989,1,0,0:0:0:0:
220,125,63068,1,0,0:0:0:0:
105,30,63228,2,0,L|50:24,2,44.0000013427735
272,37,63547,1,0,0:0:0:0:
272,37,63627,1,0,0:0:0:0:
272,37,63707,6,0,P|328:66|448:47,1,176.000005371094
466,249,64185,2,0,P|410:278|290:259,1,176.000005371094
102,344,64664,2,0,P|162:338|196:345,1,88.000002685547
231,208,64983,5,0,0:0:0:0:
231,208,65143,2,0,P|239:156|232:118,1,88.000002685547
106,33,65462,2,0,P|98:85|105:123,1,88.000002685547
291,58,65781,1,0,0:0:0:0:
377,179,65941,1,0,0:0:0:0:
425,19,66100,1,0,0:0:0:0:
451,246,66260,6,0,P|424:289|334:285,1,132.00000402832
331,259,66579,2,0,P|260:260|208:264,1,111.999996582031
79,125,66898,2,0,P|106:82|196:86,1,132.00000402832
199,112,67217,2,0,P|269:110|322:107,1,111.999996582031
454,37,67536,5,0,0:0:0:0:
379,160,67696,1,0,0:0:0:0:
450,290,67856,2,0,P|387:294|347:290,1,88.000002685547
253,222,68175,2,0,L|240:171,3,44.0000013427735
181,300,68494,1,0,0:0:0:0:
145,325,68573,1,0,0:0:0:0:
102,327,68653,1,0,0:0:0:0:
65,304,68733,1,0,0:0:0:0:
47,264,68813,6,0,B|22:162|89:188|56:93,1,176.000005371094
214,53,69292,2,0,B|316:27|290:94|385:61,1,176.000005371094
463,158,69771,2,0,P|468:207|463:249,1,88.000002685547
348,346,70090,5,0,0:0:0:0:
348,346,70249,2,0,L|251:351,1,88.000002685547
176,212,70568,2,0,L|273:207,1,88.000002685547
156,338,70888,1,0,0:0:0:0:
38,232,71047,1,0,0:0:0:0:
138,115,71207,1,0,0:0:0:0:
260,212,71366,6,0,P|315:237|401:212,1,132.00000402832
400,189,71685,2,0,P|401:122|396:69,1,111.999996582031
228,48,72005,2,0,P|173:23|87:48,1,132.00000402832
88,71,72324,2,0,P|87:138|92:191,1,111.999996582031
156,316,72643,6,0,P|209:305|263:305,1,88.000002685547
362,258,72962,1,0,0:0:0:0:
391,225,73041,1,0,0:0:0:0:
402,183,73121,1,0,0:0:0:0:
394,140,73201,1,0,0:0:0:0:
362,104,73281,2,0,L|294:104,4,44.0000013427735
191,35,73919,6,0,P|174:83|50:105,1,176.000005371094
89,249,74398,2,0,P|132:321|217:326,1,176.000005371094
312,238,74877,1,0,0:0:0:0:
399,337,75036,1,0,0:0:0:0:
454,230,75196,6,0,P|457:163|450:124,1,88.000002685547
317,32,75515,2,0,P|314:99|321:138,1,88.000002685547
193,245,75834,2,0,P|196:178|189:139,1,88.000002685547
56,47,76153,2,0,P|53:114|60:153,1,88.000002685547
43,329,76473,6,0,P|113:326|229:343,1,176.000005371094
390,340,76951,1,0,0:0:0:0:
390,340,77111,2,0,B|351:227|423:280|382:155,1,176.000005371094
294,44,77590,1,0,0:0:0:0:
205,127,77749,6,0,P|143:130|13:145,2,176.000005371094
326,195,78547,1,0,0:0:0:0:
325,209,78626,1,0,0:0:0:0:
325,224,78706,1,0,0:0:0:0:
324,238,78786,1,0,0:0:0:0:
324,253,78866,1,0,0:0:0:0:
323,268,78945,1,0,0:0:0:0:
324,284,79026,6,0,P|266:308|219:289,1,88.000002685547
82,198,79345,1,0,0:0:0:0:
82,198,79505,1,0,0:0:0:0:
201,66,79664,1,0,0:0:0:0:
201,66,79824,1,0,0:0:0:0:
311,208,79983,1,0,0:0:0:0:
311,208,80143,1,0,0:0:0:0:
378,64,80302,6,0,P|430:54|478:58,1,88.000002685547
311,208,80622,2,0,P|259:198|211:202,1,88.000002685547
375,347,80941,1,0,0:0:0:0:
396,341,81020,1,0,0:0:0:0:
417,337,81100,1,0,0:0:0:0:
439,336,81180,1,0,0:0:0:0:
461,338,81260,1,0,0:0:0:0:
461,338,81579,5,0,0:0:0:0:
350,56,82856,1,0,0:0:0:0:
276,215,83015,1,0,0:0:0:0:
222,25,83175,1,0,0:0:0:0:
362,271,83334,2,0,P|335:301|211:295,1,160
217,281,83733,1,0,0:0:0:0:
213,260,83813,1,0,0:0:0:0:
395,56,84132,5,0,0:0:0:0:
462,161,84292,2,0,L|507:164,2,40
345,261,84611,1,0,0:0:0:0:
280,146,84771,1,0,0:0:0:0:
278,126,84850,1,0,0:0:0:0:
277,106,84930,1,0,0:0:0:0:
276,86,85010,1,0,0:0:0:0:
276,64,85090,2,0,P|223:54|166:64,1,80
56,150,85409,5,0,0:0:0:0:
56,150,85568,1,0,0:0:0:0:
165,245,85728,1,0,0:0:0:0:
165,245,85888,1,0,0:0:0:0:
59,358,86047,2,0,P|118:354|154:360,1,80
289,303,86366,1,0,0:0:0:0:
298,303,86445,1,0,0:0:0:0:
308,304,86525,1,0,0:0:0:0:
318,305,86605,1,0,0:0:0:0:
327,308,86685,6,0,L|373:311,2,40
239,132,87005,1,0,0:0:0:0:
415,32,87164,1,0,0:0:0:0:
