osu file format v14

[General]
AudioFilename: audio.mp3
AudioLeadIn: 0
PreviewTime: 53095
Countdown: 0
SampleSet: Soft
StackLeniency: 0.3
Mode: 0
LetterboxInBreaks: 0
WidescreenStoryboard: 0

[Editor]
DistanceSpacing: 1.1
BeatDivisor: 4
GridSize: 16
TimelineZoom: 2

[Metadata]
Title:COOLEST
TitleUnicode:COOLEST
Artist:CustomiZ
ArtistUnicode:カスタマイZ
Creator:[Crz]Makii
Version:Extra?
Source:坂本ですが?
Tags:across jump Abhor
BeatmapID:1155431
BeatmapSetID:545358

[Difficulty]
HPDrainRate:6.5
CircleSize:4
OverallDifficulty:9
ApproachRate:9.3
SliderMultiplier:1.9
SliderTickRate:1

[Events]
//Background and Video events
0,0,"BG.jpeg",0,0
//Break Periods
//Storyboard Layer 0 (Background)
//Storyboard Layer 1 (Fail)
//Storyboard Layer 2 (Pass)
//Storyboard Layer 3 (Foreground)
//Storyboard Layer 4 (Overlay)
//Storyboard Sound Samples

[TimingPoints]
1154,319.148936170213,4,2,1,50,1,0
31792,-133.333333333333,4,2,1,50,0,0
42005,-100,4,2,1,50,0,0
47749,-133.333333333333,4,2,1,50,0,0
48068,-100,4,2,1,50,0,0
53494,-90.9090909090909,4,2,1,50,0,1
56366,-80,4,2,1,50,0,1
56685,-90.9090909090909,4,2,1,50,0,1
57005,-80,4,2,1,50,0,1
57324,-90.9090909090909,4,2,1,50,0,1
61473,-80,4,2,1,50,0,1
61792,-90.9090909090909,4,2,1,50,0,1
62111,-80,4,2,1,50,0,1
62430,-90.9090909090909,4,2,1,50,0,1
66579,-80,4,2,1,50,0,1
66898,-90.9090909090909,4,2,1,50,0,1
67217,-80,4,2,1,50,0,1
67536,-90.9090909090909,4,2,1,50,0,1
71685,-80,4,2,1,50,0,1
72005,-90.9090909090909,4,2,1,50,0,1
72324,-80,4,2,1,50,0,1
72643,-90.9090909090909,4,2,1,50,0,1
81579,-100,4,2,1,50,0,0

[Colours]
Combo1 : 255,94,174
Combo2 : 38,255,38
Combo3 : 255,102,28
Combo4 : 0,118,174

[HitObjects]
58,171,515,5,8,0:0:0:0:
58,184,594,1,8,0:0:0:0:
58,198,674,1,8,0:0:0:0:
58,211,754,1,8,0:0:0:0:
59,225,834,1,8,0:0:0:0:
59,238,913,1,8,0:0:0:0:
59,252,993,1,8,0:0:0:0:
59,265,1073,1,8,0:0:0:0:
60,278,1154,6,0,P|124:332|223:283,1,190,12|0,0:0|0:0,0:0:0:0:
260,203,1632,1,0,0:0:0:0:
335,289,1792,2,0,L|345:387,1,95
445,242,2111,1,0,0:0:0:0:
326,113,2271,2,0,B|471:81|471:81|442:124,1,190
340,270,2749,5,0,0:0:0:0:
220,112,2909,1,0,0:0:0:0:
138,269,3068,2,0,P|196:271|229:237,1,95,12|0,0:0|0:0,0:0:0:0:
239,26,3388,2,0,P|181:24|148:58,1,95,12|0,0:0|0:0,0:0:0:0:
59,148,3707,6,0,P|68:245|73:346,1,190,4|0,0:0|0:0,0:0:0:0:
209,234,4185,1,0,0:0:0:0:
331,327,4345,2,0,P|390:333|421:308,1,95
320,75,4664,1,0,0:0:0:0:
362,212,4824,1,0,0:0:0:0:
410,37,4983,1,12,0:0:0:0:
362,212,5143,5,4,0:0:0:0:
75,137,5462,1,4,0:0:0:0:
329,50,5781,5,8,0:2:0:0:
327,73,5940,1,8,0:2:0:0:
325,97,6100,1,8,0:2:0:0:
281,274,6260,6,0,L|294:373,1,95,6|0,0:0|0:0,0:0:0:0:
406,254,6579,1,2,0:0:0:0:
412,216,6659,1,0,0:0:0:0:
418,178,6739,1,0,0:0:0:0:
302,103,6898,2,0,L|289:55,2,47.5,2|0|0,0:0|0:0|0:0,0:0:0:0:
149,155,7217,1,2,0:0:0:0:
112,144,7297,1,0,0:0:0:0:
75,132,7377,1,0,0:0:0:0:
60,275,7536,5,2,0:0:0:0:
97,304,7616,1,0,0:0:0:0:
142,317,7696,1,0,0:0:0:0:
186,299,7776,1,0,0:0:0:0:
225,272,7856,1,2,0:0:0:0:
245,229,7935,1,0,0:0:0:0:
246,181,8015,1,0,0:0:0:0:
235,134,8095,1,0,0:0:0:0:
245,87,8175,6,0,L|260:31,1,47.5,2|0,0:0|0:0,0:0:0:0:
348,125,8334,2,0,L|381:89,1,47.5
402,226,8494,2,0,L|458:215,1,47.5,2|0,0:0|0:0,0:0:0:0:
374,332,8654,2,0,L|422:359,1,47.5
219,271,8813,6,0,L|276:267,1,47.5,4|0,0:0|0:0,0:0:0:0:
97,232,8973,1,0,0:0:0:0:
94,278,9052,1,0,0:0:0:0:
102,324,9132,2,0,L|117:370,1,47.5
253,180,9292,6,0,L|249:128,1,47.5,4|0,0:0|0:0,0:0:0:0:
173,44,9451,1,0,0:0:0:0:
125,50,9531,1,0,0:0:0:0:
77,56,9611,2,0,L|22:66,1,47.5
107,187,9771,2,0,L|162:177,1,47.5
265,86,9930,2,0,L|298:44,1,47.5,4|0,0:0|0:0,0:0:0:0:
388,179,10090,5,0,0:0:0:0:
398,224,10169,1,0,0:0:0:0:
400,271,10249,1,0,0:0:0:0:
394,318,10329,1,0,0:0:0:0:
374,361,10409,1,4,0:0:0:0:
294,48,10728,1,4,0:0:0:0:
42,114,11366,6,0,L|58:305,1,190,4|8,0:0|0:0,0:0:0:0:
233,183,11845,1,0,0:0:0:0:
136,152,12005,2,0,L|146:264,1,95
264,54,12324,1,8,0:0:0:0:
394,127,12483,2,0,P|407:186|354:305,1,190
117,189,12962,5,8,0:0:0:0:
299,178,13122,1,0,0:0:0:0:
24,158,13281,2,0,P|22:227|58:270,1,95
214,357,13600,2,0,L|217:259,1,95,8|0,0:0|0:0,0:0:0:0:
394,32,13919,6,0,P|395:109|389:224,1,190,4|8,0:0|0:0,0:0:0:0:
169,83,14398,1,0,0:0:0:0:
305,119,14558,1,0,0:0:0:0:
94,238,14717,1,0,0:0:0:0:
230,202,14877,1,8,0:0:0:0:
38,170,15036,2,0,P|11:266|82:325,1,190
331,278,15515,5,8,0:0:0:0:
170,159,15675,1,0,0:0:0:0:
357,64,15834,2,0,L|366:159,1,95
212,350,16154,2,0,L|203:255,1,95,8|0,0:0|0:0,0:0:0:0:
448,107,16473,6,0,L|467:303,1,190,4|8,0:0|0:0,0:0:0:0:
243,168,16951,1,0,0:0:0:0:
284,331,17111,2,0,P|338:315|364:273,1,95
309,67,17430,1,8,0:0:0:0:
94,103,17590,2,0,P|74:192|121:280,1,190
400,223,18068,5,8,0:0:0:0:
171,177,18228,1,0,0:0:0:0:
262,318,18388,1,0,0:0:0:0:
307,89,18548,1,0,0:0:0:0:
78,128,18707,1,8,0:0:0:0:
78,128,19026,6,0,L|91:325,1,190,4|8,0:0|0:0,0:0:0:0:
342,244,19505,1,0,0:0:0:0:
218,145,19664,1,0,0:0:0:0:
378,106,19824,1,0,0:0:0:0:
186,310,19983,1,8,0:0:0:0:
376,346,20143,2,0,P|441:333|439:217,1,190
248,157,20622,5,8,0:0:0:0:
420,108,20781,1,0,0:0:0:0:
169,120,20941,1,0,0:0:0:0:
245,264,21100,1,8,0:0:0:0:
225,14,21260,1,8,0:0:0:0:
33,136,21419,1,8,0:0:0:0:
274,220,21579,6,0,B|289:290|291:368|291:368|307:313,1,190,4|8,0:3|0:0,0:0:0:0:
462,198,22058,1,0,0:0:0:0:
408,46,22217,2,0,L|314:64,1,95
193,201,22536,1,8,0:0:0:0:
308,313,22696,2,0,P|355:227|324:146,1,190
102,121,23175,5,8,0:0:0:0:
301,81,23334,1,0,0:0:0:0:
34,242,23494,1,0,0:0:0:0:
234,275,23653,1,0,0:0:0:0:
198,96,23813,2,0,L|167:191,1,95,8|0,0:0|0:0,0:0:0:0:
76,365,24132,5,0,0:0:0:0:
179,303,24292,1,0,0:0:0:0:
272,362,24451,1,8,0:0:0:0:
369,304,24611,1,0,0:0:0:0:
302,186,24771,2,0,L|314:71,1,95
416,151,25090,1,8,0:0:0:0:
180,219,25249,2,0,L|200:25,1,190
102,127,25728,5,8,0:0:0:0:
336,101,25888,1,0,0:0:0:0:
173,331,26047,1,8,0:0:0:0:
143,293,26127,1,8,0:0:0:0:
170,254,26207,1,8,0:0:0:0:
215,267,26286,1,8,0:0:0:0:
217,314,26366,1,12,0:0:0:0:
479,223,26685,6,0,L|471:124,1,95,2|0,0:0|0:0,0:0:0:0:
463,34,27005,1,2,0:0:0:0:
33,161,27324,6,0,L|41:260,1,95,2|0,0:0|0:0,0:0:0:0:
49,350,27644,1,2,0:0:0:0:
236,50,27962,6,0,L|140:42,1,95,2|0,0:0|0:0,0:0:0:0:
47,32,28281,1,2,0:0:0:0:
155,350,28600,5,2,0:0:0:0:
354,326,28760,1,8,0:0:0:0:
398,309,28839,1,8,0:0:0:0:
430,275,28919,1,8,0:0:0:0:
443,229,28999,1,8,0:0:0:0:
434,183,29079,1,8,0:0:0:0:
405,146,29158,1,8,0:0:0:0:
362,126,29239,5,12,0:0:0:0:
58,87,29558,1,8,0:0:0:0:
105,227,29717,1,8,0:0:0:0:
112,249,29796,1,8,0:0:0:0:
120,272,29876,1,8,0:0:0:0:
362,126,30036,1,0,0:0:0:0:
199,66,30196,1,8,0:0:0:0:
284,329,30356,1,4,0:0:0:0:
429,234,30675,6,8,L|441:179,2,47.5
416,88,30994,2,8,L|409:33,2,47.5
303,133,31313,1,8,0:0:0:0:
199,66,31473,1,8,0:0:0:0:
118,166,31632,1,8,0:0:0:0:
39,99,31792,6,0,P|15:170|60:250,1,142.500005435944,4|0,0:0|0:0,0:0:0:0:
197,294,32271,1,0,0:0:0:0:
214,297,32350,1,0,0:0:0:0:
232,299,32430,2,0,L|373:316,1,142.500005435944,8|0,0:0|0:0,0:0:0:0:
454,214,32909,1,0,0:0:0:0:
202,109,33228,5,2,0:0:0:0:
288,66,33388,1,2,0:0:0:0:
281,162,33547,1,2,0:0:0:0:
110,107,33707,5,2,0:0:0:0:
24,64,33867,1,2,0:0:0:0:
31,160,34026,5,2,0:0:0:0:
33,176,34185,1,2,0:0:0:0:
35,192,34345,2,0,L|50:337,1,142.500005435944,6|0,0:0|0:0,0:0:0:0:
181,248,34824,5,0,0:0:0:0:
182,230,34903,1,0,0:0:0:0:
185,213,34983,2,0,L|199:71,1,142.500005435944,8|0,0:0|0:0,0:0:0:0:
358,119,35462,1,0,0:0:0:0:
413,305,35781,6,0,L|493:285,2,71.2500027179719
240,187,36260,1,6,0:0:0:0:
193,374,36419,1,6,0:0:0:0:
39,244,36579,1,6,0:0:0:0:
347,125,36898,5,4,0:0:0:0:
347,125,37058,2,0,P|368:196|336:270,1,142.500005435944
326,274,37457,1,0,0:0:0:0:
304,286,37536,2,0,L|156:287,1,142.500005435944,8|0,0:0|0:0,0:0:0:0:
55,213,38015,1,0,0:0:0:0:
73,365,38175,6,0,L|90:283,1,71.2500027179719,2|0,0:0|0:0,0:0:0:0:
90,128,38494,2,0,L|74:54,1,71.2500027179719,2|0,0:0|0:0,0:0:0:0:
319,27,38813,2,0,B|395:34|481:24|481:24|442:67,1,213.750008153916,2|0,0:0|0:0,0:0:0:0:
241,345,39451,6,0,P|271:290|269:265,1,71.2500027179719,4|0,0:0|0:0,0:0:0:0:
343,63,39771,1,0,0:0:0:0:
100,232,39930,2,0,L|65:260,2,35.625001358986
394,241,40249,2,0,L|429:269,2,35.625001358986
158,56,40568,5,8,0:0:0:0:
158,56,40648,1,8,0:0:0:0:
158,56,40728,1,12,0:0:0:0:
178,163,41047,1,4,0:0:0:0:
118,260,41366,1,4,0:0:0:0:
136,366,41685,1,4,0:0:0:0:
455,356,42005,6,0,P|459:258|456:165,1,190,4|8,0:0|0:0,0:0:0:0:
239,87,42483,1,0,0:0:0:0:
405,46,42643,1,0,0:0:0:0:
158,231,42802,1,0,0:0:0:0:
342,265,42962,2,0,L|345:158,1,95,8|0,0:0|0:0,0:0:0:0:
114,74,43281,5,0,0:0:0:0:
50,295,43441,1,0,0:0:0:0:
238,191,43600,1,8,0:0:0:0:
38,27,43760,2,0,L|45:220,1,190
192,344,44239,2,0,L|292:332,1,95,8|0,0:0|0:0,0:0:0:0:
446,248,44558,5,8,0:0:0:0:
225,192,44717,1,8,0:0:0:0:
371,72,44877,5,8,0:0:0:0:
150,128,45036,1,8,0:0:0:0:
410,176,45196,5,8,0:0:0:0:
105,235,45356,1,8,0:0:0:0:
227,46,45515,1,8,0:0:0:0:
281,337,45675,1,8,0:0:0:0:
410,176,45834,5,4,0:0:0:0:
293,115,45994,5,8,0:0:0:0:
296,91,46073,1,8,0:0:0:0:
299,67,46153,1,8,0:0:0:0:
153,137,46313,5,8,0:0:0:0:
144,114,46392,1,8,0:0:0:0:
136,92,46472,1,8,0:0:0:0:
60,184,46632,5,2,0:0:0:0:
59,207,46711,1,2,0:0:0:0:
58,231,46791,1,10,0:0:0:0:
58,255,46871,1,2,0:0:0:0:
57,278,46951,1,2,0:0:0:0:
56,302,47030,1,2,0:0:0:0:
56,326,47110,5,6,0:0:0:0:
366,376,47590,1,0,0:0:0:0:
363,352,47669,1,0,0:0:0:0:
359,327,47749,2,0,B|346:212,1,106.875004076958
224,93,48068,5,4,0:0:0:0:
396,52,48228,1,8,0:0:0:0:
74,56,48388,6,0,P|66:154|141:203,1,190,4|0,0:0|0:0,0:0:0:0:
353,179,48866,1,0,0:0:0:0:
376,174,48945,1,0,0:0:0:0:
399,169,49025,1,8,0:0:0:0:
242,106,49185,5,8,0:0:0:0:
229,134,49264,1,8,0:0:0:0:
222,165,49344,1,8,0:0:0:0:
222,197,49424,1,8,0:0:0:0:
228,228,49504,1,8,0:0:0:0:
241,257,49583,1,8,0:0:0:0:
259,283,49663,5,12,0:0:0:0:
444,232,49824,1,0,0:0:0:0:
183,96,49983,5,0,0:0:0:0:
367,147,50143,1,0,0:0:0:0:
389,152,50222,1,0,0:0:0:0:
412,158,50302,5,12,0:0:0:0:
134,122,50462,1,8,0:0:0:0:
364,242,50622,5,12,0:0:0:0:
86,278,50782,1,8,0:0:0:0:
398,54,50941,5,12,0:0:0:0:
81,124,51100,1,8,0:0:0:0:
442,147,51260,5,12,0:0:0:0:
66,184,51419,1,8,0:0:0:0:
441,255,51579,5,12,0:0:0:0:
69,243,51739,1,8,0:0:0:0:
399,353,51898,5,12,0:0:0:0:
82,292,52058,1,8,0:0:0:0:
312,74,52217,6,2,L|306:27,3,47.5,6|2|2|2,0:0|0:0|0:0|0:0,0:0:0:0:
355,193,52536,2,2,L|363:147,3,47.5
276,265,52856,1,8,0:0:0:0:
253,306,52935,1,8,0:0:0:0:
217,337,53015,1,8,0:0:0:0:
173,353,53095,1,8,0:0:0:0:
125,352,53175,1,8,0:0:0:0:
81,334,53254,1,8,0:0:0:0:
47,303,53334,1,8,0:0:0:0:
25,260,53414,1,8,0:0:0:0:
20,213,53494,6,0,B|36:57|36:57|61:106,1,209.000006378174,4|8,0:0|0:0,0:0:0:0:
140,228,53973,2,0,P|192:248|243:218,1,104.500003189087
368,41,54292,1,0,0:0:0:0:
185,112,54451,1,8,0:0:0:0:
405,265,54611,1,0,0:0:0:0:
231,228,54771,5,4,0:0:0:0:
483,203,54930,2,0,P|512:276|427:371,1,209.000006378174
212,163,55409,1,0,0:0:0:0:
285,342,55568,1,0,0:0:0:0:
372,206,55728,1,8,0:0:0:0:
127,305,55888,1,0,0:0:0:0:
440,131,56047,6,0,P|473:192|438:290,1,156.750004783631,4|0,0:0|0:0,0:0:0:0:
339,285,56366,6,0,L|217:294,1,118.75,8|0,0:0|0:0,0:0:0:0:
53,222,56685,6,0,P|18:161|69:88,1,156.750004783631,4|0,0:0|0:0,0:0:0:0:
180,60,57005,6,0,L|309:55,1,118.75,8|0,0:0|0:0,0:0:0:0:
289,364,57324,5,4,0:0:0:0:
108,116,57483,1,0,0:0:0:0:
400,210,57643,1,8,0:0:0:0:
108,306,57802,1,0,0:0:0:0:
289,57,57962,6,2,L|310:6,3,52.2500015945435,6|2|2|2,0:0|0:0|0:0|0:0,0:0:0:0:
263,144,58281,1,8,0:0:0:0:
285,191,58361,1,8,0:0:0:0:
256,234,58441,1,8,0:0:0:0:
282,279,58521,1,8,0:0:0:0:
255,323,58600,6,0,P|119:313|108:256,1,209.000006378174,4|8,0:0|0:0,0:0:0:0:
199,96,59079,1,0,0:0:0:0:
402,142,59239,1,0,0:0:0:0:
246,289,59398,1,0,0:0:0:0:
315,58,59558,1,8,0:0:0:0:
376,235,59717,1,0,0:0:0:0:
170,185,59877,5,4,0:0:0:0:
400,333,60036,2,0,P|454:299|431:158,1,209.000006378174
145,110,60515,1,0,0:0:0:0:
347,150,60675,1,0,0:0:0:0:
111,307,60834,1,8,0:0:0:0:
322,264,60994,1,0,0:0:0:0:
60,54,61154,6,0,L|64:237,1,156.750004783631,4|0,0:0|0:0,0:0:0:0:
111,307,61473,6,0,P|177:330|234:280,1,118.75,8|0,0:0|0:0,0:0:0:0:
242,90,61792,6,0,L|412:120,1,156.750004783631,4|0,0:0|0:0,0:0:0:0:
425,327,62111,6,0,P|379:296|371:230,1,118.75,8|0,0:0|0:0,0:0:0:0:
484,66,62430,5,4,0:0:0:0:
456,200,62590,5,8,0:0:0:0:
449,225,62669,1,8,0:0:0:0:
442,250,62749,1,12,0:0:0:0:
267,278,62909,5,8,0:0:0:0:
235,305,62989,1,8,0:0:0:0:
200,328,63068,1,12,0:0:0:0:
149,179,63228,5,8,0:0:0:0:
95,158,63308,1,8,0:0:0:0:
41,136,63388,1,12,0:0:0:0:
209,71,63547,2,0,L|261:61,1,52.2500015945435
454,16,63707,6,0,P|455:105|448:231,1,209.000006378174,12|8,0:0|0:0,0:0:0:0:
104,339,64185,2,0,P|99:268|104:233,1,104.500003189087
341,122,64505,1,0,0:0:0:0:
204,301,64664,1,8,0:0:0:0:
140,131,64824,1,0,0:0:0:0:
387,287,64983,5,4,0:0:0:0:
116,331,65143,1,0,0:0:0:0:
342,142,65302,1,8,0:0:0:0:
66,95,65462,2,0,P|56:148|185:195,1,209.000006378174
385,76,65941,5,8,0:0:0:0:
140,44,66100,1,0,0:0:0:0:
473,38,66260,6,0,P|481:106|402:173,1,156.750004783631,4|0,0:0|0:0,0:0:0:0:
283,155,66579,6,0,L|156:142,1,118.75,8|0,0:0|0:0,0:0:0:0:
61,312,66898,6,0,L|240:331,1,156.750004783631,4|0,0:0|0:0,0:0:0:0:
375,342,67217,6,0,P|432:298|417:245,1,118.75,8|0,0:0|0:0,0:0:0:0:
119,72,67536,1,4,0:0:0:0:
294,342,67696,1,0,0:0:0:0:
311,21,67856,1,8,0:0:0:0:
109,271,68015,1,0,0:0:0:0:
419,187,68175,5,12,0:0:0:0:
439,159,68254,1,8,0:0:0:0:
439,125,68334,1,8,0:0:0:0:
419,97,68414,1,8,0:0:0:0:
385,99,68494,5,8,0:0:0:0:
333,105,68573,1,8,0:0:0:0:
281,112,68653,1,8,0:0:0:0:
229,118,68733,1,8,0:0:0:0:
176,127,68813,6,0,B|16:152|16:152|91:170,1,209.000006378174,4|8,0:0|0:0,0:0:0:0:
257,237,69292,1,0,0:0:0:0:
86,345,69451,2,0,P|60:299|77:251,1,104.500003189087
373,168,69771,1,8,0:0:0:0:
298,353,69930,1,0,0:0:0:0:
126,114,70090,5,4,0:0:0:0:
368,71,70249,1,0,0:0:0:0:
167,262,70409,1,8,0:0:0:0:
412,311,70568,2,0,P|454:242|339:178,1,209.000006378174
104,183,71047,1,8,0:0:0:0:
316,105,71207,1,0,0:0:0:0:
58,275,71366,6,0,P|10:226|27:122,1,156.750004783631,4|0,0:0|0:0,0:0:0:0:
133,75,71685,6,0,L|270:60,1,118.75,8|0,0:0|0:0,0:0:0:0:
462,180,72005,6,0,P|489:271|456:324,1,156.750004783631,4|0,0:0|0:0,0:0:0:0:
303,336,72324,6,0,L|176:345,1,118.75,8|0,0:0|0:0,0:0:0:0:
76,272,72643,6,8,L|67:214,3,52.2500015945435,12|8|8|8,0:0|0:0|0:0|0:0,0:0:0:0:
121,145,72962,2,8,L|127:93,3,52.2500015945435
227,56,73281,1,8,0:0:0:0:
267,88,73360,1,8,0:0:0:0:
317,100,73440,1,8,0:0:0:0:
368,90,73520,1,8,0:0:0:0:
410,60,73600,2,2,L|445:18,3,52.2500015945435,10|2|2|2,0:0|0:0|0:0|0:0,0:0:0:0:
362,175,73919,6,0,P|355:257|455:232,1,209.000006378174,4|8,0:0|0:0,0:0:0:0:
196,166,74398,2,0,B|29:192|29:192|80:212,1,209.000006378174
246,353,74877,2,0,L|256:233,1,104.500003189087,8|0,0:0|0:0,0:0:0:0:
373,58,75196,5,4,0:0:0:0:
187,94,75356,1,0,0:0:0:0:
352,205,75515,5,8,0:0:0:0:
140,140,75675,1,0,0:0:0:0:
403,43,75834,5,4,0:0:0:0:
143,92,75994,1,0,0:0:0:0:
373,246,76153,5,8,0:0:0:0:
78,156,76313,1,0,0:0:0:0:
381,337,76473,6,0,P|442:304|431:179,1,209.000006378174,4|8,0:0|0:0,0:0:0:0:
182,41,76951,1,0,0:0:0:0:
182,41,77111,2,0,B|192:115|180:212|180:212|241:168,1,209.000006378174,4|8,0:0|0:0,0:0:0:0:
253,320,77590,1,0,0:0:0:0:
253,320,77749,2,0,P|143:344|68:269,2,209.000006378174,4|4|4,0:0|0:0|0:0,0:0:0:0:
311,209,78547,5,0,0:0:0:0:
320,179,78626,1,0,0:0:0:0:
330,149,78706,1,0,0:0:0:0:
339,119,78786,1,0,0:0:0:0:
349,89,78866,1,0,0:0:0:0:
359,59,78945,1,0,0:0:0:0:
369,30,79026,6,0,P|378:120|400:239,1,209.000006378174,12|8,0:0|0:0,0:0:0:0:
180,323,79505,1,0,0:0:0:0:
224,94,79664,5,4,0:0:0:0:
454,170,79824,1,0,0:0:0:0:
218,258,79983,5,4,0:0:0:0:
453,208,80143,1,0,0:0:0:0:
159,51,80302,5,4,0:0:0:0:
63,97,80462,2,8,L|72:165,2,52.2500015945435
145,227,80781,1,8,0:0:0:0:
139,279,80861,1,8,0:0:0:0:
157,328,80941,1,8,0:0:0:0:
199,356,81020,1,8,0:0:0:0:
250,354,81100,1,8,0:0:0:0:
290,321,81180,1,8,0:0:0:0:
303,272,81260,2,8,L|302:216,3,52.2500015945435
300,175,81579,5,12,0:0:0:0:
58,52,82856,5,8,0:0:0:0:
58,75,83015,1,8,0:0:0:0:
59,99,83175,1,8,0:0:0:0:
70,274,83334,2,0,P|158:345|213:279,1,190
222,285,83733,1,0,0:0:0:0:
231,252,83813,1,4,0:0:0:0:
422,45,84132,5,4,0:0:0:0:
386,194,84292,1,0,0:0:0:0:
392,216,84371,1,0,0:0:0:0:
398,239,84451,1,0,0:0:0:0:
275,107,84611,5,4,0:0:0:0:
139,73,84771,1,0,0:0:0:0:
116,65,84850,1,0,0:0:0:0:
93,58,84930,1,0,0:0:0:0:
141,213,85090,1,0,0:0:0:0:
355,109,85249,1,4,0:0:0:0:
91,146,85409,5,4,0:0:0:0:
393,179,85568,1,8,0:0:0:0:
80,319,85728,5,4,0:0:0:0:
382,286,85887,1,8,0:0:0:0:
248,113,86047,5,8,0:0:0:0:
238,134,86126,1,8,0:0:0:0:
232,157,86206,1,8,0:0:0:0:
234,181,86286,1,8,0:0:0:0:
240,204,86366,1,8,0:0:0:0:
246,227,86445,1,8,0:0:0:0:
247,250,86525,1,8,0:0:0:0:
243,273,86605,1,8,0:0:0:0:
237,297,86685,6,0,L|215:349,2,47.5,12|0|0,0:0|0:0|0:0,0:0:0:0:
70,222,87005,5,8,0:0:0:0:
442,162,87164,1,4,0:0:0:0:
