osu file format v14

[General]
AudioFilename: audio.mp3
AudioLeadIn: 0
PreviewTime: 53095
Countdown: 0
SampleSet: Soft
StackLeniency: 0.7
Mode: 0
LetterboxInBreaks: 0
WidescreenStoryboard: 0

[Editor]
DistanceSpacing: 1.1
BeatDivisor: 2
GridSize: 16
TimelineZoom: 2

[Metadata]
Title:COOLEST
TitleUnicode:COOLEST
Artist:CustomiZ
ArtistUnicode:カスタマイZ
Creator:[Crz]Makii
Version:Easy?
Source:坂本ですが?
Tags:across jump Abhor
BeatmapID:1209752
BeatmapSetID:545358

[Difficulty]
HPDrainRate:2
CircleSize:2.5
OverallDifficulty:2
ApproachRate:3
SliderMultiplier:0.799999999999999
SliderTickRate:1

[Events]
//Background and Video events
0,0,"BG.jpeg",0,0
//Break Periods
//Storyboard Layer 0 (Background)
//Storyboard Layer 1 (Fail)
//Storyboard Layer 2 (Pass)
//Storyboard Layer 3 (Foreground)
//Storyboard Layer 4 (Overlay)
//Storyboard Sound Samples

[TimingPoints]
1154,319.148936170213,4,2,1,50,1,0
53494,-100,4,2,1,50,0,1
81579,-100,4,2,1,50,0,0

[Colours]
Combo1 : 255,94,174
Combo2 : 38,255,38
Combo3 : 255,102,28
Combo4 : 0,118,174

[HitObjects]
154,66,1154,6,0,L|317:56,2,160
61,215,3068,2,0,L|70:305,1,79.9999999999999
148,332,3707,6,0,P|236:348|312:318,2,160
136,200,5462,1,0,0:0:0:0:
308,63,6260,6,0,B|410:55|409:55,1,79.9999999999999
440,126,6898,2,0,P|445:182|429:232,1,79.9999999999999
385,274,7536,2,0,P|313:330|230:299,2,160
287,184,9292,5,0,0:0:0:0:
168,53,9930,1,0,0:0:0:0:
43,97,10409,2,0,L|48:201,1,79.9999999999999
86,348,11366,6,0,B|165:356|165:356|279:342,1,160
417,309,12643,2,0,P|435:232|412:144,2,160
259,230,14558,2,0,L|97:239,1,160
61,67,15834,1,0,0:0:0:0:
235,45,16473,6,0,B|324:36|324:36|415:77,1,160
444,231,17749,2,0,P|421:324|340:340,2,160
275,283,19664,2,0,B|195:269|195:269|120:307,1,160
57,141,20941,1,0,0:0:0:0:
228,104,21579,6,0,L|399:86,2,160
128,249,23494,1,0,0:0:0:0:
283,332,24132,2,0,L|379:321,1,79.9999999999999
422,258,24771,2,0,P|432:210|419:154,1,79.9999999999999
406,94,25409,6,0,B|297:57|297:57|168:99,1,240
100,135,26685,6,0,L|86:218,1,79.9999999999999
109,299,27324,2,0,L|204:284,1,79.9999999999999
249,223,27962,1,0,0:0:0:0:
385,333,28600,1,0,0:0:0:0:
466,176,29239,2,0,B|443:28|443:28|403:129,2,240
334,58,31792,6,0,L|143:74,1,160
53,199,33068,2,0,L|64:366,1,160
232,309,34345,2,0,B|311:284|311:284|405:340,1,160
443,160,35622,2,0,P|423:65|348:49,1,160
204,99,36898,5,0,0:0:0:0:
30,67,37536,2,0,B|18:146|18:146|39:238,1,160
210,202,38813,2,0,P|294:219|379:198,1,160
32,90,40728,5,0,0:0:0:0:
67,262,41366,1,0,0:0:0:0:
220,347,42005,2,0,B|301:323|301:323|402:350,1,160
424,174,43281,2,0,B|449:99|449:99|416:16,1,160
262,104,44558,6,0,L|87:142,2,160
344,259,46473,1,0,0:0:0:0:
196,355,47111,1,0,0:0:0:0:
54,250,47749,6,0,L|50:154,2,79.9999999999999
165,113,49026,2,0,L|169:209,2,79.9999999999999
256,192,50941,12,0,52217,0:0:0:0:
412,51,53494,6,0,L|432:243,1,160
440,297,54451,2,0,P|400:342|354:343,1,79.9999999999999
301,311,55090,2,0,L|130:345,1,160
58,322,56047,6,0,L|41:230,2,79.9999999999999
69,146,57324,2,0,B|100:76|100:76|186:59,1,160
357,54,58600,6,0,B|438:70|438:70|469:140,1,160
471,228,59558,2,0,L|472:307,1,79.9999999999999
391,343,60196,2,0,B|317:319|317:319|224:343,1,160
206,256,61154,6,0,L|213:172,2,79.9999999999999
53,344,62430,2,0,B|33:264|33:264|52:176,1,160
165,55,63707,6,0,L|331:45,1,160
411,59,64664,2,0,L|429:144,1,79.9999999999999
347,172,65302,2,0,B|278:218|278:218|178:202,1,160
130,154,66260,6,0,L|121:73,2,79.9999999999999
47,309,67536,2,0,P|93:332|147:325,1,79.9999999999999
171,260,68175,2,0,L|260:241,1,79.9999999999999
301,314,68813,6,0,B|378:289|378:289|454:312,1,160
447,223,69771,2,0,L|438:143,1,79.9999999999999
392,68,70409,2,0,P|311:105|242:76,1,160
170,41,71366,6,0,L|79:59,2,79.9999999999999
69,186,72643,1,0,0:0:0:0:
133,349,73281,1,0,0:0:0:0:
274,237,73919,6,0,P|396:215|423:321,1,240
340,295,75196,2,0,B|280:335|280:335|206:302|206:302|124:356,1,240
85,275,76473,2,0,L|69:112,2,160
209,149,78388,1,0,0:0:0:0:
365,69,79026,6,0,B|390:145|390:145|371:232,1,160
198,248,80302,2,0,P|177:318|261:355,1,160
415,337,81579,1,0,0:0:0:0:
256,192,82856,12,0,84132,0:0:0:0:
442,50,85409,6,0,B|465:130|465:130|440:237,1,160
281,146,86685,1,0,0:0:0:0:
180,232,87164,1,0,0:0:0:0:
