osu file format v14

[General]
AudioFilename: audio.mp3
AudioLeadIn: 0
PreviewTime: 64212
Countdown: 0
SampleSet: Normal
StackLeniency: 0.7
Mode: 0
LetterboxInBreaks: 0
WidescreenStoryboard: 0

[Editor]
DistanceSpacing: 1
BeatDivisor: 4
GridSize: 8
TimelineZoom: 2.2

[Metadata]
Title:COOLEST
TitleUnicode:COOLEST
Artist:Customi Z
ArtistUnicode:カスタマイZ
Creator:Tshemmp
Version:YEAH YEAH!!
Source:Sakamoto desu ga?
Tags:cool cooler haven't you heard I'm
BeatmapID:1014729
BeatmapSetID:474932

[Difficulty]
HPDrainRate:5
CircleSize:4
OverallDifficulty:8
ApproachRate:9.5
SliderMultiplier:2
SliderTickRate:2

[Events]
//Background and Video events
0,0,"JZ9CPUi.jpg",0,0
//Break Periods
//Storyboard Layer 0 (Background)
//Storyboard Layer 1 (Fail)
//Storyboard Layer 2 (Pass)
//Storyboard Layer 3 (Foreground)
//Storyboard Sound Samples

[TimingPoints]
781,319.148936170213,4,1,0,70,1,0
2057,-125,4,1,0,50,0,0
7163,-100,4,1,0,60,0,0
12270,-100,4,1,0,70,0,0
22163,-111.111111111111,4,1,0,60,0,0
32695,-100,4,1,0,70,0,0
42908,-111.111111111111,4,1,0,60,0,0
50568,-125,4,1,0,60,0,0
50887,-111.111111111111,4,1,0,60,0,0
51206,-100,4,1,0,60,0,0
51525,-90.9090909090909,4,1,0,60,0,0
51844,-83.3333333333333,4,1,0,60,0,0
53121,-100,4,1,0,70,0,0
63972,-90.9090909090909,4,1,0,80,0,1
95249,-100,4,1,0,70,0,0
105142,-111.111111111111,4,1,0,60,0,0
115674,-100,4,1,0,70,0,0
125887,-111.111111111111,4,1,0,60,0,0
133546,-125,4,1,0,60,0,0
133866,-111.111111111111,4,1,0,60,0,0
134185,-100,4,1,0,60,0,0
134504,-90.9090909090909,4,1,0,60,0,0
134823,-83.3333333333333,4,1,0,60,0,0
135940,-100,4,1,0,70,0,0
147270,-90.9090909090909,4,1,0,80,0,1
178227,-100,4,1,0,70,0,0
205036,-100,4,1,0,50,0,0
210142,-111.111111111111,4,1,0,60,0,0
211419,-111.111111111111,4,1,0,70,0,0
212695,-100,4,1,0,70,0,0
216525,-90.9090909090909,4,1,0,80,0,1
247163,-100,4,1,0,70,0,0

[Colours]
Combo1 : 0,255,255
Combo2 : 255,128,0
Combo3 : 255,36,255
Combo4 : 255,255,255
Combo5 : 255,22,22
Combo6 : 22,200,22
Combo7 : 170,170,255
Combo8 : 255,255,0

[HitObjects]
116,100,1419,5,0,0:0:0:0:
140,131,1498,1,0,0:0:0:0:
164,162,1578,1,0,0:0:0:0:
195,176,1658,1,0,0:0:0:0:
232,163,1738,1,0,0:0:0:0:
270,150,1817,1,0,0:0:0:0:
301,162,1897,1,0,0:0:0:0:
325,194,1977,1,0,0:0:0:0:
349,229,2057,6,0,P|360:272|352:312,1,80,4|0,0:0|0:0,0:0:0:0:
176,280,2376,1,0,0:0:0:0:
96,259,2536,2,0,P|56:263|22:284,1,80
224,160,2855,1,0,0:0:0:0:
282,101,3015,2,0,P|298:64|297:24,2,80
296,320,3493,5,0,0:0:0:0:
408,184,3653,1,0,0:0:0:0:
184,216,3812,1,0,0:0:0:0:
424,312,3972,1,0,0:0:0:0:
208,48,4291,1,0,0:0:0:0:
232,328,4610,6,0,B|272:320|272:320|312:336,1,80
384,368,4929,1,0,0:0:0:0:
472,256,5089,2,0,B|448:176|448:176|376:152,1,160
256,160,5568,1,0,0:0:0:0:
40,256,5727,2,0,B|64:176|64:176,1,80
256,56,6046,5,0,0:0:0:0:
432,320,6366,1,0,0:0:0:0:
80,320,6685,1,0,0:0:0:0:
40,200,6844,1,0,0:0:0:0:
160,224,7004,1,0,0:0:0:0:
120,104,7163,6,0,L|104:56,3,50,4|0|0|0,0:0|0:0|0:0|0:0,0:0:0:0:
160,224,7483,2,0,L|176:272,3,50
256,88,7802,2,0,L|256:32,3,50
256,216,8121,2,0,L|256:272,3,50
392,104,8440,5,0,0:0:0:0:
392,104,8520,1,0,0:0:0:0:
392,104,8600,2,0,L|408:56,1,50
352,224,8759,1,0,0:0:0:0:
352,224,8839,1,0,0:0:0:0:
352,224,8919,2,0,L|336:272,1,50
240,120,9078,5,0,0:0:0:0:
202,106,9157,1,0,0:0:0:0:
162,106,9237,1,0,0:0:0:0:
125,121,9317,1,0,0:0:0:0:
96,147,9397,1,0,0:0:0:0:
77,183,9476,1,0,0:0:0:0:
73,222,9556,1,0,0:0:0:0:
82,261,9636,1,0,0:0:0:0:
105,294,9717,6,0,P|144:328|192:336,1,100
232,328,9956,1,0,0:0:0:0:
272,320,10036,1,0,0:0:0:0:
312,312,10116,2,0,B|360:312|400:344|400:344|448:320,1,150
464,272,10435,2,0,P|480:224|432:136,1,150
320,96,10834,1,0,0:0:0:0:
136,128,10993,5,0,0:0:0:0:
116,173,11072,1,0,0:0:0:0:
96,219,11152,1,0,0:0:0:0:
76,265,11232,1,0,0:0:0:0:
56,311,11312,1,0,0:0:0:0:
455,311,11632,1,0,0:0:0:0:
256,48,11951,1,0,0:0:0:0:
232,320,12270,6,0,P|192:352|144:352,1,100,4|0,0:0|0:0,0:0:0:0:
80,160,12589,2,0,P|120:128|168:128,1,100
40,280,12908,1,0,0:0:0:0:
256,208,13068,1,0,0:0:0:0:
328,320,13227,1,0,0:0:0:0:
408,216,13387,6,0,B|432:168|472:144|472:144|440:104|440:48,1,200
296,48,13866,1,0,0:0:0:0:
296,48,14025,1,0,0:0:0:0:
136,152,14185,1,0,0:0:0:0:
136,152,14344,1,0,0:0:0:0:
272,248,14504,6,0,B|328:264|344:320|344:320|440:336,1,200
504,248,14983,1,0,0:0:0:0:
480,136,15142,2,0,L|384:96,1,100
248,112,15461,1,0,0:0:0:0:
160,224,15621,2,0,L|67:185,1,100
72,336,15940,2,0,L|164:374,1,100
304,320,16259,5,0,0:0:0:0:
440,288,16419,2,0,B|448:256|448:256|472:240|472:240|480:200,1,100
352,72,16738,1,0,0:0:0:0:
305,54,16817,1,0,0:0:0:0:
255,48,16897,1,0,0:0:0:0:
206,54,16977,1,0,0:0:0:0:
159,72,17057,2,0,P|112:96|64:88,1,100
96,320,17376,6,0,P|143:296|191:304,1,100,4|0,0:0|0:0,0:0:0:0:
352,296,17695,1,0,0:0:0:0:
376,152,17855,1,0,0:0:0:0:
216,184,18015,1,0,0:0:0:0:
456,240,18174,2,0,B|488:280|488:280|496:328,1,100
416,88,18493,2,0,B|466:93|466:93|506:121,1,100
272,40,18812,5,0,0:0:0:0:
208,208,18972,1,0,0:0:0:0:
144,88,19132,1,0,0:0:0:0:
320,256,19291,1,0,0:0:0:0:
420,118,19451,1,0,0:0:0:0:
184,324,19610,1,0,0:0:0:0:
44,174,19770,1,0,0:0:0:0:
200,32,19929,6,0,P|248:64|264:104,1,100
395,288,20249,2,0,P|337:290|301:267,1,100
86,195,20568,1,0,0:0:0:0:
390,89,20727,1,0,0:0:0:0:
128,176,20887,1,0,0:0:0:0:
368,128,21046,1,0,0:0:0:0:
208,352,21366,5,0,0:0:0:0:
196,260,21525,1,0,0:0:0:0:
96,272,21685,1,0,0:0:0:0:
106,365,21844,1,0,0:0:0:0:
336,104,22163,6,0,L|424:72,1,89.9999972534181
472,192,22483,2,0,L|288:192,1,179.999994506836,4|0,0:0|0:0,0:0:0:0:
208,264,22961,1,0,0:0:0:0:
256,344,23121,1,0,0:0:0:0:
160,344,23281,1,0,0:0:0:0:
346,344,23440,1,0,0:0:0:0:
256,344,23600,6,0,L|352:344,1,89.9999972534181
440,240,23919,1,0,0:0:0:0:
440,240,24078,2,0,L|344:240,1,89.9999972534181
256,192,24398,2,0,P|224:160|216:112,1,89.9999972534181
256,32,24717,5,0,0:0:0:0:
256,352,25036,2,0,P|168:376|80:352,1,179.999994506836
5,217,25515,1,0,0:0:0:0:
160,217,25674,1,0,0:0:0:0:
6,308,25834,1,0,0:0:0:0:
81,173,25993,1,0,0:0:0:0:
160,307,26153,2,0,L|208:384,1,89.9999972534181
288,256,26472,5,0,0:0:0:0:
360,129,26632,1,0,0:0:0:0:
227,189,26791,1,0,0:0:0:0:
370,219,26951,2,0,L|464:240,1,89.9999972534181
55,146,27270,1,0,0:0:0:0:
368,64,27589,6,0,P|400:96|416:144,1,89.9999972534181,4|0,0:0|0:0,0:0:0:0:
323,282,27908,1,0,0:0:0:0:
252,172,28068,1,0,0:0:0:0:
144,64,28227,2,0,P|112:96|96:144,1,89.9999972534181
80,304,28546,5,0,0:0:0:0:
192,296,28706,2,0,B|240:288|240:288|280:312,1,89.9999972534181
384,256,29025,2,0,B|432:248|432:248|472:272,1,89.9999972534181
467,114,29344,1,0,0:0:0:0:
352,136,29504,2,0,P|312:120|288:80,1,89.9999972534181
45,114,29823,5,0,0:0:0:0:
344,352,30142,2,0,P|424:352|424:264,1,179.999994506836
318,152,30621,1,0,0:0:0:0:
144,199,30781,1,0,0:0:0:0:
294,239,30940,1,0,0:0:0:0:
167,112,31100,1,0,0:0:0:0:
207,262,31259,6,0,P|208:312|192:352,1,89.9999972534181
254,88,31578,2,0,P|282:48|319:25,1,89.9999972534181
320,200,31898,1,0,0:0:0:0:
72,136,32057,2,0,P|42:96|32:54,1,89.9999972534181
440,248,32376,2,0,P|469:287|479:329,1,89.9999972534181
33,326,32695,6,0,B|32:272|8:232|8:232|16:176|56:144,1,200,4|0,0:0|0:0,0:0:0:0:
160,56,33174,1,0,0:0:0:0:
209,241,33334,1,0,0:0:0:0:
395,191,33493,1,0,0:0:0:0:
345,6,33653,1,0,0:0:0:0:
395,191,33812,6,0,P|416:240|448:280,1,100
248,352,34132,1,0,0:0:0:0:
144,274,34291,2,0,P|98:247|48:233,1,100
367,109,34610,2,0,P|413:136|463:150,1,100
169,106,34929,2,0,P|139:145|120:192,1,100
304,320,35249,5,0,0:0:0:0:
400,192,35408,1,0,0:0:0:0:
288,312,35568,1,0,0:0:0:0:
258,120,35727,1,0,0:0:0:0:
272,304,35887,2,0,B|232:336|232:336|192:304,1,100
40,184,36206,5,0,0:0:0:0:
128,80,36366,2,0,B|166:49|166:49|206:81,1,100
280,216,36685,2,0,B|318:246|318:246|358:214,1,100
456,128,37004,1,0,0:0:0:0:
360,40,37163,2,0,B|321:9|321:9|281:41,1,100
136,264,37483,6,0,P|128:320|104:360,1,100
376,264,37802,2,0,P|384:320|408:360,1,100
121,230,38121,2,0,P|99:282|65:314,1,100
390,230,38440,1,0,0:0:0:0:
443,312,38600,1,0,0:0:0:0:
488,168,38759,6,0,P|448:136|400:120,1,100
24,168,39078,2,0,P|64:136|112:120,1,100
473,108,39398,2,0,P|426:88|376:85,1,100
38,108,39717,2,0,P|85:88|135:85,1,100
181,97,39955,1,0,0:0:0:0:
220,127,40035,1,0,0:0:0:0:
250,167,40115,1,0,0:0:0:0:
279,208,40195,1,0,0:0:0:0:
318,239,40274,1,0,0:0:0:0:
365,255,40355,6,0,L|472:256,1,100
256,352,40674,1,0,0:0:0:0:
96,296,40834,1,0,0:0:0:0:
64,257,40913,1,0,0:0:0:0:
55,208,40993,1,0,0:0:0:0:
168,40,41153,1,0,0:0:0:0:
288,256,41312,1,0,0:0:0:0:
416,48,41472,2,0,P|464:32|512:32,1,100
464,224,41791,5,0,0:0:0:0:
392,328,41951,1,0,0:0:0:0:
296,224,42110,1,0,0:0:0:0:
267,265,42189,1,0,0:0:0:0:
239,306,42269,1,0,0:0:0:0:
65,80,42429,1,0,0:0:0:0:
104,304,42589,1,0,0:0:0:0:
447,80,42749,1,0,0:0:0:0:
408,304,42908,5,4,0:0:0:0:
328,232,43068,1,0,0:0:0:0:
224,208,43227,1,0,0:0:0:0:
120,232,43387,1,0,0:0:0:0:
40,304,43546,2,0,B|80:328|80:328|126:328|126:328|160:344|160:344|216:352,1,179.999994506836
392,304,44025,2,0,L|304:280,1,89.9999972534181
216,56,44344,5,0,0:0:0:0:
216,56,44504,2,0,L|210:147,1,89.9999972534181
0,280,44823,2,0,L|90:268,1,89.9999972534181
344,168,45142,1,0,0:0:0:0:
400,96,45302,1,0,0:0:0:0:
440,176,45461,1,0,0:0:0:0:
288,240,45621,5,0,0:0:0:0:
199,254,45781,1,0,0:0:0:0:
213,342,45940,1,0,0:0:0:0:
302,328,46100,1,0,0:0:0:0:
104,184,46259,5,0,0:0:0:0:
32,128,46419,1,0,0:0:0:0:
112,88,46578,1,0,0:0:0:0:
184,144,46738,1,0,0:0:0:0:
328,144,46898,5,0,0:0:0:0:
408,104,47057,2,0,P|448:80|480:48,1,89.9999972534181
408,280,47376,1,0,0:0:0:0:
256,384,47536,1,0,0:0:0:0:
224,200,47695,2,0,P|192:176|144:160,1,89.9999972534181
152,48,48015,6,0,P|237:75|310:127,1,179.999994506836,4|0,0:0|0:0,0:0:0:0:
384,288,48493,1,0,0:0:0:0:
255,369,48653,6,0,B|240:320|202:297|202:297,1,89.9999972534181
168,173,48972,1,0,0:0:0:0:
192,32,49132,1,0,0:0:0:0:
360,48,49291,6,0,B|361:138|361:138|336:176|333:223,1,179.999994506836
224,344,49770,1,0,0:0:0:0:
86,246,49929,6,0,B|96:200|136:176|136:176|160:128|211:120,1,179.999994506836
400,96,50408,1,0,0:0:0:0:
424,247,50568,6,0,L|416:328,1,80
64,192,50887,2,0,L|72:103,1,89.9999972534181
433,147,51206,2,0,L|424:251,1,100
55,301,51525,2,0,L|64:186,1,110.000003356934
416,80,51844,5,0,0:0:0:0:
96,304,52163,1,0,0:0:0:0:
416,304,52483,1,0,0:0:0:0:
96,80,52802,5,0,0:0:0:0:
96,80,52961,1,0,0:0:0:0:
96,80,53121,2,0,P|128:40|176:24,1,100,4|0,0:0|0:0,0:0:0:0:
304,112,53440,1,0,0:0:0:0:
112,192,53600,1,0,0:0:0:0:
304,272,53759,1,0,0:0:0:0:
176,64,53919,1,0,0:0:0:0:
176,320,54078,2,0,P|144:368|96:384,1,100
224,176,54398,5,0,0:0:0:0:
432,72,54557,1,0,0:0:0:0:
440,64,54717,5,0,0:0:0:0:
232,168,54876,2,0,B|160:160|112:112|112:112|72:168,1,200
24,344,55355,2,0,B|72:360|128:360,1,100
441,233,55674,5,0,0:0:0:0:
213,253,55834,1,0,0:0:0:0:
286,304,55993,1,0,0:0:0:0:
309,46,56153,1,0,0:0:0:0:
227,84,56312,1,0,0:0:0:0:
446,143,56472,1,0,0:0:0:0:
395,69,56632,1,0,0:0:0:0:
376,296,56791,1,0,0:0:0:0:
189,166,56951,6,0,P|144:144|96:144,1,100
48,160,57190,1,0,0:0:0:0:
8,192,57270,1,0,0:0:0:0:
136,296,57429,1,0,0:0:0:0:
183,280,57508,1,0,0:0:0:0:
222,249,57588,1,0,0:0:0:0:
376,88,57749,1,0,0:0:0:0:
328,103,57828,1,0,0:0:0:0:
289,134,57908,1,0,0:0:0:0:
417,240,58068,1,0,0:0:0:0:
464,224,58147,1,0,0:0:0:0:
503,193,58227,6,0,P|512:144|504:96,1,100
328,64,58546,1,0,0:0:0:0:
224,280,58706,1,0,0:0:0:0:
200,232,58786,1,0,0:0:0:0:
176,184,58866,2,0,P|134:153|87:133,1,100
112,272,59185,5,0,0:0:0:0:
424,288,59344,1,0,0:0:0:0:
224,48,59504,1,0,0:0:0:0:
144,336,59663,1,0,0:0:0:0:
376,112,59823,1,0,0:0:0:0:
104,192,59983,1,0,0:0:0:0:
104,192,60062,1,0,0:0:0:0:
104,192,60142,1,0,0:0:0:0:
336,344,60302,5,0,0:0:0:0:
368,321,60381,1,0,0:0:0:0:
396,292,60461,1,0,0:0:0:0:
417,258,60541,1,0,0:0:0:0:
431,221,60621,1,0,0:0:0:0:
438,181,60700,1,0,0:0:0:0:
437,141,60780,5,0,0:0:0:0:
256,192,60940,1,0,0:0:0:0:
320,72,61100,1,0,0:0:0:0:
376,264,61259,1,0,0:0:0:0:
376,264,61339,1,0,0:0:0:0:
376,264,61419,1,0,0:0:0:0:
504,112,61578,1,0,0:0:0:0:
184,216,61738,1,0,0:0:0:0:
296,0,61898,1,0,0:0:0:0:
400,336,62057,5,0,0:0:0:0:
400,216,62217,1,0,0:0:0:0:
112,336,62376,5,0,0:0:0:0:
112,216,62536,1,0,0:0:0:0:
416,352,62695,5,0,0:0:0:0:
416,128,62855,1,0,0:0:0:0:
96,352,63015,5,0,0:0:0:0:
96,128,63174,1,0,0:0:0:0:
432,320,63334,6,0,P|464:281|480:234,1,100
80,64,63653,2,0,P|48:103|32:150,1,100
112,344,63972,5,0,0:0:0:0:
163,322,64051,1,0,0:0:0:0:
206,287,64131,1,0,0:0:0:0:
239,244,64211,1,0,0:0:0:0:
261,194,64291,2,0,P|289:143|324:99,1,110.000003356934
359,63,64531,1,0,0:0:0:0:
384,16,64610,6,0,B|472:32|472:32|456:104|488:160,1,220.000006713867,4|8,0:0|0:0,0:0:0:0:
248,328,65089,2,0,B|204:327|204:327|207:290|187:264,1,110.000003356934
160,152,65408,5,0,0:0:0:0:
400,304,65568,1,8,0:0:0:0:
224,64,65727,1,0,0:0:0:0:
448,112,65887,1,4,0:0:0:0:
224,256,66046,2,0,P|168:264|112:248,1,110.000003356934,0|8,0:0|0:0,0:0:0:0:
39,38,66366,2,0,P|78:77|128:96,1,110.000003356934
352,64,66685,5,0,0:0:0:0:
384,288,66844,1,8,0:0:0:0:
160,320,67004,1,0,0:0:0:0:
128,96,67163,2,0,B|120:40|120:40|48:40|40:128|104:160,1,220.000006713867,4|8,0:0|0:0,0:0:0:0:
328,136,67642,1,0,0:0:0:0:
480,200,67802,2,0,P|488:256|464:304,1,110.000003356934
277,330,68121,5,8,0:0:0:0:
162,294,68281,1,0,0:0:0:0:
297,60,68440,1,4,0:0:0:0:
386,142,68600,1,0,0:0:0:0:
163,295,68759,1,8,0:0:0:0:
119,182,68919,1,0,0:0:0:0:
386,142,69078,2,0,L|375:259,1,110.000003356934
47,323,69398,1,8,0:0:0:0:
42,268,69477,1,0,0:0:0:0:
36,214,69557,1,0,0:0:0:0:
31,159,69637,1,0,0:0:0:0:
25,104,69717,6,0,B|96:48|120:72|120:72|144:96|224:40,1,220.000006713867,4|8,0:0|0:0,0:0:0:0:
480,136,70195,2,0,B|445:164|433:152|433:152|421:140|381:168,1,110.000003356934
207,338,70515,5,0,0:0:0:0:
155,77,70674,1,8,0:0:0:0:
207,338,70834,1,0,0:0:0:0:
382,167,70993,1,4,0:0:0:0:
207,338,71153,2,0,P|152:344|96:344,1,110.000003356934,0|8,0:0|0:0,0:0:0:0:
98,40,71472,2,0,P|153:41|207:46,1,110.000003356934
360,296,71791,5,0,0:0:0:0:
424,88,71951,1,8,0:0:0:0:
184,296,72110,1,0,0:0:0:0:
72,120,72270,2,0,P|24:104|8:152,1,110.000003356934,4|0,0:0|0:0,0:0:0:0:
217,337,72589,2,0,P|256:368|296:337,1,110.000003356934,8|0,0:0|0:0,0:0:0:0:
505,151,72908,2,0,P|488:104|440:120,1,110.000003356934
72,288,73227,5,8,0:0:0:0:
440,288,73387,1,0,0:0:0:0:
256,40,73546,2,0,L|152:80,1,110.000003356934,4|0,0:0|0:0,0:0:0:0:
88,280,73786,1,0,0:0:0:0:
96,296,73866,2,0,L|200:256,1,110.000003356934,8|0,0:0|0:0,0:0:0:0:
424,104,74105,1,0,0:0:0:0:
416,88,74185,2,0,L|312:128,1,110.000003356934
248,328,74424,1,0,0:0:0:0:
256,344,74504,2,0,L|360:304,1,110.000003356934,8|0,0:0|0:0,0:0:0:0:
512,152,74823,6,0,B|480:48|480:48|368:24,1,220.000006713867,4|8,0:0|0:0,0:0:0:0:
0,152,75302,2,0,B|32:48|32:48|141:25,1,220.000006713867
300,307,75781,6,0,B|256:336|256:336|208:304,1,110.000003356934,8|0,0:0|0:0,0:0:0:0:
384,192,76100,2,0,L|496:192,1,110.000003356934,4|0,0:0|0:0,0:0:0:0:
192,192,76419,1,8,0:0:0:0:
64,192,76578,2,0,P|16:224|0:272,1,110.000003356934
224,304,76898,5,0,0:0:0:0:
288,80,77057,1,8,0:0:0:0:
334,322,77217,1,0,0:0:0:0:
179,63,77376,2,0,P|136:24|88:0,1,110.000003356934,4|0,0:0|0:0,0:0:0:0:
376,256,77695,1,8,0:0:0:0:
376,136,77855,1,0,0:0:0:0:
179,322,78015,2,0,P|136:360|88:384,2,110.000003356934,0|0|8,0:0|0:0|0:0,0:0:0:0:
408,216,78493,5,0,0:0:0:0:
317,42,78653,1,4,0:0:0:0:
326,289,78812,1,0,0:0:0:0:
166,171,78972,1,8,0:0:0:0:
405,107,79132,1,0,0:0:0:0:
210,70,79291,5,0,0:0:0:0:
197,123,79370,1,0,0:0:0:0:
163,166,79450,1,0,0:0:0:0:
115,191,79530,1,0,0:0:0:0:
60,193,79611,1,8,0:0:0:0:
89,239,79690,1,0,0:0:0:0:
96,293,79770,1,0,0:0:0:0:
79,345,79850,1,0,0:0:0:0:
41,384,79929,6,0,B|96:376|144:352|144:352|200:376|256:376,1,220.000006713867,4|8,0:0|0:0,0:0:0:0:
472,288,80408,2,0,B|469:261|457:237|457:237|469:209|469:181,1,110.000003356934
328,64,80727,5,0,0:0:0:0:
128,192,80887,1,8,0:0:0:0:
352,312,81046,1,0,0:0:0:0:
217,51,81206,1,4,0:0:0:0:
409,209,81366,1,0,0:0:0:0:
166,283,81525,1,8,0:0:0:0:
376,96,81685,2,0,P|432:112|480:144,1,110.000003356934
368,264,82004,5,0,0:0:0:0:
184,96,82163,1,8,0:0:0:0:
144,320,82323,1,0,0:0:0:0:
384,96,82483,2,0,L|480:32,1,110.000003356934,4|0,0:0|0:0,0:0:0:0:
128,96,82802,2,0,L|32:32,1,110.000003356934,8|0,0:0|0:0,0:0:0:0:
384,288,83121,2,0,L|480:352,1,110.000003356934
128,288,83440,2,0,L|32:352,1,110.000003356934,8|0,0:0|0:0,0:0:0:0:
368,104,83759,5,4,0:0:0:0:
413,136,83838,1,0,0:0:0:0:
439,184,83918,1,0,0:0:0:0:
440,239,83998,1,0,0:0:0:0:
417,288,84078,1,8,0:0:0:0:
364,302,84157,1,0,0:0:0:0:
310,296,84237,1,0,0:0:0:0:
262,270,84317,1,0,0:0:0:0:
226,228,84398,1,0,0:0:0:0:
188,189,84477,1,0,0:0:0:0:
137,170,84557,1,0,0:0:0:0:
83,173,84637,1,0,0:0:0:0:
35,199,84717,2,0,P|0:240|0:296,1,110.000003356934,8|0,0:0|0:0,0:0:0:0:
160,384,85036,6,0,B|240:344|240:344|304:368|368:344,2,220.000006713867,4|8|0,0:0|0:0|0:0,0:0:0:0:
96,208,85834,5,0,0:0:0:0:
176,88,85993,1,8,0:0:0:0:
336,88,86153,1,0,0:0:0:0:
416,208,86312,2,0,P|456:248|512:264,1,110.000003356934,4|0,0:0|0:0,0:0:0:0:
464,40,86632,1,8,0:0:0:0:
352,40,86791,1,0,0:0:0:0:
136,88,86951,2,0,P|96:128|40:144,1,110.000003356934
56,272,87270,2,0,P|111:287|153:328,1,110.000003356934,8|0,0:0|0:0,0:0:0:0:
256,248,87589,6,0,P|242:194|256:137,1,110.000003356934,4|0,0:0|0:0,0:0:0:0:
504,144,87908,1,8,0:0:0:0:
504,144,88068,2,0,P|518:199|505:256,1,110.000003356934
344,344,88387,1,0,0:0:0:0:
304,56,88546,2,0,P|248:48|192:56,1,110.000003356934,8|0,0:0|0:0,0:0:0:0:
56,280,88866,6,0,L|144:352,1,110.000003356934,4|0,0:0|0:0,0:0:0:0:
301,229,89185,2,0,L|216:160,1,110.000003356934,8|0,0:0|0:0,0:0:0:0:
371,35,89504,2,0,L|456:104,1,110.000003356934
462,159,89742,1,0,0:0:0:0:
420,188,89822,1,8,0:0:0:0:
424,240,89902,1,0,0:0:0:0:
380,268,89982,1,0,0:0:0:0:
376,318,90061,1,0,0:0:0:0:
327,342,90142,6,0,L|224:296,1,110.000003356934,4|0,0:0|0:0,0:0:0:0:
80,104,90461,1,8,0:0:0:0:
192,56,90621,1,0,0:0:0:0:
352,216,90781,1,0,0:0:0:0:
304,104,90941,1,0,0:0:0:0:
80,232,91100,2,0,P|96:288|136:320,1,110.000003356934,8|0,0:0|0:0,0:0:0:0:
456,136,91419,6,0,B|408:120|408:120|400:112|400:112|354:96,1,110.000003356934,4|0,0:0|0:0,0:0:0:0:
304,72,91658,1,0,0:0:0:0:
256,48,91738,1,8,0:0:0:0:
376,272,91898,1,0,0:0:0:0:
327,298,91977,1,0,0:0:0:0:
278,323,92057,1,0,0:0:0:0:
228,346,92137,1,0,0:0:0:0:
177,367,92217,1,0,0:0:0:0:
136,112,92376,5,8,0:0:0:0:
336,192,92536,1,0,0:0:0:0:
136,272,92695,1,4,0:0:0:0:
384,16,93015,1,8,0:0:0:0:
480,360,93334,1,0,0:0:0:0:
162,74,93653,5,8,0:0:0:0:
290,341,93812,1,0,0:0:0:0:
394,126,93972,1,4,0:0:0:0:
162,311,94132,1,0,0:0:0:0:
394,258,94291,1,8,0:0:0:0:
290,44,94451,2,0,L|184:72,1,110.000003356934
56,24,94770,1,0,0:0:0:0:
15,63,94850,1,0,0:0:0:0:
7,119,94929,2,0,L|36:225,1,110.000003356934,8|4,0:0|0:0,0:0:0:0:
232,338,95249,6,0,L|328:312,1,100,4|0,0:0|0:0,0:0:0:0:
328,152,95568,1,0,0:0:0:0:
240,240,95727,2,0,P|184:248|136:240,1,100
168,96,96046,1,0,0:0:0:0:
320,176,96206,1,0,0:0:0:0:
240,24,96366,2,0,P|192:0|144:0,1,100
64,56,96685,5,0,0:0:0:0:
56,256,96844,2,0,B|96:272|96:272|104:288|104:288|144:304,1,100
264,240,97163,2,0,B|307:234|307:234|322:244|322:244|365:238,1,100
424,112,97483,2,0,B|458:86|458:86|476:87|476:87|510:60,1,100
312,64,97802,5,0,0:0:0:0:
64,176,97961,1,0,0:0:0:0:
200,32,98121,1,0,0:0:0:0:
176,144,98281,2,0,P|176:192|200:240,1,100
448,208,98600,5,0,0:0:0:0:
200,320,98759,1,0,0:0:0:0:
312,352,98919,2,0,P|312:304|288:256,1,100
320,160,99238,1,0,0:0:0:0:
368,72,99398,2,0,P|413:51|463:50,1,100
224,72,99717,1,0,0:0:0:0:
183,100,99796,1,0,0:0:0:0:
136,116,99876,1,0,0:0:0:0:
86,122,99956,1,0,0:0:0:0:
36,117,100036,2,0,P|58:162|59:212,1,100
256,336,100355,5,4,0:0:0:0:
360,344,100515,1,0,0:0:0:0:
272,216,100674,1,0,0:0:0:0:
375,197,100834,1,0,0:0:0:0:
256,96,100993,1,0,0:0:0:0:
351,51,101153,2,0,B|400:48|400:48|448:72,1,100
496,216,101472,2,0,B|447:219|447:219|399:195,1,100
312,144,101791,5,0,0:0:0:0:
256,280,101951,2,0,L|256:384,1,100
144,104,102270,2,0,L|54:52,1,100
367,104,102589,2,0,L|458:52,1,100
159,274,102908,5,0,0:0:0:0:
376,236,103067,1,0,0:0:0:0:
234,67,103227,1,0,0:0:0:0:
254,286,103387,1,0,0:0:0:0:
367,98,103547,1,0,0:0:0:0:
165,184,103706,1,0,0:0:0:0:
256,384,103866,1,0,0:0:0:0:
458,298,104026,1,0,0:0:0:0:
40,344,104344,5,0,0:0:0:0:
40,240,104504,1,0,0:0:0:0:
40,144,104663,1,0,0:0:0:0:
40,40,104823,1,0,0:0:0:0:
272,224,105142,6,0,B|320:232|352:264|352:264|400:272,1,134.999995880127
440,272,105461,2,0,P|504:208|488:120,1,179.999994506836,4|0,0:0|0:0,0:0:0:0:
240,56,106100,1,0,0:0:0:0:
184,128,106259,1,0,0:0:0:0:
48,96,106419,1,0,0:0:0:0:
40,184,106578,6,0,P|56:232|88:256,1,89.9999972534181
272,256,106898,2,0,P|306:285|319:328,1,89.9999972534181
464,248,107217,1,0,0:0:0:0:
376,248,107376,1,0,0:0:0:0:
472,168,107536,1,0,0:0:0:0:
367,168,107695,1,0,0:0:0:0:
480,88,107855,1,0,0:0:0:0:
354,88,108015,6,0,L|168:88,1,179.999994506836
88,120,108493,1,0,0:0:0:0:
48,200,108653,1,0,0:0:0:0:
88,280,108812,1,0,0:0:0:0:
240,352,108972,1,0,0:0:0:0:
280,272,109132,1,0,0:0:0:0:
240,192,109291,6,0,B|224:152|224:152|240:104,1,89.9999972534181
384,64,109610,1,0,0:0:0:0:
496,96,109770,1,0,0:0:0:0:
464,208,109929,1,0,0:0:0:0:
288,208,110089,1,0,0:0:0:0:
288,208,110169,1,0,0:0:0:0:
288,208,110249,1,0,0:0:0:0:
256,320,110408,1,0,0:0:0:0:
368,352,110568,6,0,B|400:312|440:296|440:296|432:208,1,179.999994506836,4|0,0:0|0:0,0:0:0:0:
424,120,111046,1,0,0:0:0:0:
252,144,111206,1,0,0:0:0:0:
166,168,111366,1,0,0:0:0:0:
230,232,111525,1,0,0:0:0:0:
252,144,111685,5,0,0:0:0:0:
274,56,111844,1,0,0:0:0:0:
189,81,112004,1,0,0:0:0:0:
252,144,112163,5,0,0:0:0:0:
315,207,112323,1,0,0:0:0:0:
338,120,112483,1,0,0:0:0:0:
252,144,112642,5,0,0:0:0:0:
166,168,112802,2,0,L|80:192,1,89.9999972534181
347,217,113121,2,0,L|432:192,2,89.9999972534181
304,56,113600,6,0,P|264:32|216:24,2,89.9999972534181
472,128,114078,1,0,0:0:0:0:
496,224,114238,1,0,0:0:0:0:
448,312,114398,6,0,P|408:336|360:344,1,89.9999972534181
323,335,114636,1,0,0:0:0:0:
287,308,114716,1,0,0:0:0:0:
256,275,114796,1,0,0:0:0:0:
224,244,114876,1,0,0:0:0:0:
184,224,114955,1,0,0:0:0:0:
140,217,115036,2,0,P|88:224|56:248,1,89.9999972534181
160,72,115355,2,0,P|212:65|244:41,1,89.9999972534181
424,96,115674,6,0,B|432:152|464:184|464:184|448:232|456:288,1,200,4|0,0:0|0:0,0:0:0:0:
296,336,116153,1,0,0:0:0:0:
132,340,116312,1,0,0:0:0:0:
216,199,116472,1,0,0:0:0:0:
210,363,116632,1,0,0:0:0:0:
69,278,116791,2,0,P|32:240|16:192,1,100
184,32,117110,5,0,0:0:0:0:
184,32,117270,2,0,P|221:70|237:118,1,100
275,270,117589,2,0,P|292:316|328:352,2,100
315,109,118068,5,0,0:0:0:0:
219,292,118227,5,0,0:0:0:0:
82,137,118387,1,0,0:0:0:0:
159,284,118546,5,0,0:0:0:0:
315,226,118706,1,0,0:0:0:0:
82,197,118866,5,0,0:0:0:0:
275,270,119025,1,0,0:0:0:0:
110,250,119185,5,0,0:0:0:0:
159,50,119344,1,0,0:0:0:0:
329,167,119504,5,0,0:0:0:0:
110,84,119663,1,0,0:0:0:0:
275,64,119823,6,0,P|328:64|376:80,1,100
432,240,120142,1,0,0:0:0:0:
398,276,120221,1,0,0:0:0:0:
355,302,120301,1,0,0:0:0:0:
307,314,120381,1,0,0:0:0:0:
257,312,120461,2,0,P|208:304|160:312,1,100
64,216,120781,5,4,0:0:0:0:
64,72,120940,1,0,0:0:0:0:
80,64,121100,5,0,0:0:0:0:
176,168,121259,1,0,0:0:0:0:
192,160,121419,5,0,0:0:0:0:
192,16,121578,2,0,P|240:0|288:16,1,100
440,224,121898,6,0,P|430:274|392:307,1,100
256,192,122217,1,0,0:0:0:0:
135,335,122376,2,0,P|97:301|87:252,1,100
152,88,122695,2,0,P|199:102|245:86,1,100
294,78,122934,1,0,0:0:0:0:
342,92,123014,1,0,0:0:0:0:
379,124,123094,1,0,0:0:0:0:
399,170,123174,1,0,0:0:0:0:
398,219,123253,1,0,0:0:0:0:
375,264,123333,5,0,0:0:0:0:
183,311,123493,1,0,0:0:0:0:
136,119,123653,1,0,0:0:0:0:
328,176,123812,1,0,0:0:0:0:
328,176,123892,1,0,0:0:0:0:
328,176,123972,1,0,0:0:0:0:
139,243,124132,1,0,0:0:0:0:
251,77,124291,1,0,0:0:0:0:
256,276,124451,6,0,L|264:376,1,100
447,307,124770,1,0,0:0:0:0:
443,257,124849,1,0,0:0:0:0:
440,208,124929,2,0,L|432:108,1,100
240,112,125249,2,0,P|208:96|176:96,2,66.6666666666667
192,176,125568,2,0,P|158:174|129:159,2,66.6666666666667
312,272,125887,6,0,P|408:264|416:192,1,179.999994506836,4|0,0:0|0:0,0:0:0:0:
200,128,126366,1,0,0:0:0:0:
200,128,126445,1,0,0:0:0:0:
200,128,126525,2,0,P|104:120|96:48,1,179.999994506836
24,184,127004,2,0,P|8:232|16:272,1,89.9999972534181
15,269,127323,1,0,0:0:0:0:
168,320,127483,5,0,0:0:0:0:
208,240,127642,1,0,0:0:0:0:
288,312,127802,1,0,0:0:0:0:
328,232,127961,1,0,0:0:0:0:
408,304,128121,1,0,0:0:0:0:
448,224,128280,1,0,0:0:0:0:
432,64,128440,6,0,B|384:48|344:64|344:64|320:104|272:112,1,179.999994506836
80,224,128919,1,0,0:0:0:0:
80,224,128999,1,0,0:0:0:0:
80,224,129078,2,0,B|128:208|168:224|168:224|192:264|240:272,1,179.999994506836
416,216,129557,5,0,0:0:0:0:
352,40,129717,1,0,0:0:0:0:
176,96,129876,1,0,0:0:0:0:
240,272,130036,2,0,P|240:320|224:360,1,89.9999972534181
328,240,130355,2,0,P|352:281|358:324,1,89.9999972534181
416,152,130674,5,0,0:0:0:0:
336,48,130834,1,0,0:0:0:0:
288,168,130993,1,4,0:0:0:0:
64,200,131153,2,0,B|16:216|16:216|16:256,1,89.9999972534181
144,384,131472,1,0,0:0:0:0:
176,384,131552,1,0,0:0:0:0:
208,384,131632,2,0,B|256:368|256:368|256:328,1,89.9999972534181
440,224,131951,5,0,0:0:0:0:
456,136,132110,1,0,0:0:0:0:
376,88,132270,1,0,0:0:0:0:
248,216,132429,5,0,0:0:0:0:
352,176,132589,1,0,0:0:0:0:
192,240,132749,5,0,0:0:0:0:
352,176,132908,2,0,B|384:160|384:160|376:128|400:104|440:112|456:136|456:168|440:192,1,179.999994506836
128,336,133546,6,0,L|88:264,1,80
384,48,133866,2,0,L|432:128,1,89.9999972534181
81,125,134185,2,0,L|136:40,1,100
430,258,134504,2,0,L|368:352,1,110.000003356934
56,192,134823,5,0,0:0:0:0:
272,32,135461,1,0,0:0:0:0:
319,65,135541,1,0,0:0:0:0:
346,119,135621,1,0,0:0:0:0:
369,174,135701,1,0,0:0:0:0:
416,209,135780,1,0,0:0:0:0:
216,344,135940,5,0,0:0:0:0:
128,240,136100,2,0,L|64:160,1,100,4|0,0:0|0:0,0:0:0:0:
184,109,136419,2,0,L|200:208,1,100
272,208,136738,1,0,0:0:0:0:
308,114,136898,1,0,0:0:0:0:
413,191,137057,1,0,0:0:0:0:
334,253,137217,1,0,0:0:0:0:
352,128,137376,5,0,0:0:0:0:
149,113,137536,1,0,0:0:0:0:
205,281,137695,1,0,0:0:0:0:
352,128,137855,2,0,B|416:128|416:128|440:160|480:160|480:160|504:216,1,200
344,328,138334,6,0,P|288:336|248:320,1,100
152,256,138653,1,0,0:0:0:0:
192,88,138812,1,0,0:0:0:0:
320,296,138972,1,0,0:0:0:0:
360,128,139132,1,0,0:0:0:0:
131,268,139291,5,0,0:0:0:0:
179,67,139451,1,0,0:0:0:0:
332,316,139611,1,0,0:0:0:0:
380,115,139770,1,0,0:0:0:0:
106,284,139929,6,0,P|80:240|72:192,1,100
80,136,140169,1,0,0:0:0:0:
112,88,140249,2,0,P|156:61|204:53,1,100
260,60,140488,1,0,0:0:0:0:
304,96,140568,2,0,P|330:140|338:188,1,100
332,244,140807,1,0,0:0:0:0:
291,273,140886,1,0,0:0:0:0:
246,295,140966,1,0,0:0:0:0:
198,308,141046,1,0,0:0:0:0:
148,312,141126,1,0,0:0:0:0:
100,316,141206,6,0,P|52:332|12:364,1,100,4|0,0:0|0:0,0:0:0:0:
96,192,141525,1,0,0:0:0:0:
184,72,141685,1,0,0:0:0:0:
208,64,141765,1,0,0:0:0:0:
232,56,141844,2,0,P|280:40|320:8,1,100
416,80,142163,5,0,0:0:0:0:
464,168,142323,1,0,0:0:0:0:
400,304,142483,1,0,0:0:0:0:
352,216,142642,1,0,0:0:0:0:
192,176,142802,1,0,0:0:0:0:
240,264,142961,2,0,P|248:288|248:312,2,50
96,216,143281,1,0,0:0:0:0:
88,192,143360,1,0,0:0:0:0:
88,167,143440,1,0,0:0:0:0:
288,128,143600,1,0,0:0:0:0:
296,152,143679,1,0,0:0:0:0:
296,177,143759,5,0,0:0:0:0:
82,232,143919,1,0,0:0:0:0:
137,19,144078,1,0,0:0:0:0:
110,254,144238,5,0,0:0:0:0:
304,144,144398,1,0,0:0:0:0:
108,33,144557,1,0,0:0:0:0:
296,96,144717,5,0,0:0:0:0:
165,274,144877,1,0,0:0:0:0:
80,80,145036,5,0,0:0:0:0:
307,97,145195,1,0,0:0:0:0:
63,110,145355,5,0,0:0:0:0:
46,337,145514,1,0,0:0:0:0:
104,64,145674,5,0,0:0:0:0:
331,81,145833,1,0,0:0:0:0:
41,130,145993,5,0,0:0:0:0:
24,357,146152,1,0,0:0:0:0:
338,65,146312,6,0,P|385:81|424:112,1,100
96,288,146632,1,0,0:0:0:0:
84,239,146711,1,0,0:0:0:0:
80,189,146791,1,0,0:0:0:0:
85,140,146871,1,0,0:0:0:0:
99,91,146951,6,0,L|80:72,1,25
143,69,147031,2,0,L|123:49,1,25
188,46,147110,2,0,L|168:26,1,25
232,23,147190,2,0,L|212:3,1,25
277,1,147270,5,0,0:0:0:0:
303,49,147349,1,0,0:0:0:0:
343,87,147429,1,0,0:0:0:0:
392,111,147509,1,0,0:0:0:0:
446,119,147589,6,0,B|400:176|392:240|392:240|456:304,1,220.000006713867,4|8,0:0|0:0,0:0:0:0:
161,228,148068,2,0,B|184:200|188:168|188:168|157:137,1,110.000003356934
48,64,148387,5,0,0:0:0:0:
104,344,148546,1,8,0:0:0:0:
320,152,148706,1,0,0:0:0:0:
24,184,148866,1,4,0:0:0:0:
288,40,149025,2,0,P|344:32|400:48,1,110.000003356934,0|8,0:0|0:0,0:0:0:0:
394,338,149344,2,0,P|342:352|288:344,1,110.000003356934
168,96,149663,5,0,0:0:0:0:
120,288,149823,1,8,0:0:0:0:
344,96,149983,1,0,0:0:0:0:
392,288,150142,2,0,B|496:280|496:280|464:168,1,220.000006713867,4|8,0:0|0:0,0:0:0:0:
322,38,150621,1,0,0:0:0:0:
89,211,150781,1,0,0:0:0:0:
355,326,150940,2,0,P|384:368|336:384,1,110.000003356934,0|8,0:0|0:0,0:0:0:0:
59,287,151259,5,0,0:0:0:0:
324,226,151419,1,4,0:0:0:0:
154,91,151579,1,0,0:0:0:0:
154,362,151738,1,8,0:0:0:0:
324,226,151898,1,0,0:0:0:0:
59,166,152057,1,0,0:0:0:0:
272,117,152217,1,0,0:0:0:0:
326,111,152296,1,0,0:0:0:0:
376,132,152376,1,8,0:0:0:0:
410,174,152456,1,0,0:0:0:0:
418,228,152536,1,0,0:0:0:0:
400,279,152615,1,0,0:0:0:0:
360,316,152695,6,0,B|288:256|224:312|224:312|152:328,1,220.000006713867,4|8,0:0|0:0,0:0:0:0:
156,57,153174,2,0,B|224:72|224:72|288:128|360:67,1,220.000006713867
376,192,153653,5,8,0:0:0:0:
136,192,153812,1,0,0:0:0:0:
384,184,153972,1,4,0:0:0:0:
128,200,154132,1,0,0:0:0:0:
392,176,154291,1,8,0:0:0:0:
120,208,154451,2,0,P|64:208|8:192,1,110.000003356934
168,72,154770,5,0,0:0:0:0:
196,328,154929,1,8,0:0:0:0:
400,104,155089,1,0,0:0:0:0:
428,360,155249,2,0,B|488:368|488:368|512:320,1,110.000003356934,4|0,0:0|0:0,0:0:0:0:
320,56,155568,2,0,B|260:48|260:48|236:96,1,110.000003356934,8|0,0:0|0:0,0:0:0:0:
56,328,155887,2,0,B|116:336|116:336|140:288,2,110.000003356934,0|0|8,0:0|0:0|0:0,0:0:0:0:
56,56,156366,5,0,0:0:0:0:
160,152,156525,2,0,P|216:176|264:168,1,110.000003356934,4|0,0:0|0:0,0:0:0:0:
309,140,156764,1,0,0:0:0:0:
363,140,156844,1,8,0:0:0:0:
409,169,156924,1,0,0:0:0:0:
432,218,157004,1,0,0:0:0:0:
425,272,157083,1,0,0:0:0:0:
391,314,157163,6,0,P|336:304|288:336,1,110.000003356934
267,281,157402,1,0,0:0:0:0:
226,245,157482,1,8,0:0:0:0:
174,226,157562,1,0,0:0:0:0:
120,226,157642,1,0,0:0:0:0:
69,245,157721,1,0,0:0:0:0:
28,282,157802,6,0,B|96:296|128:224|128:224|112:128,1,220.000006713867,4|8,0:0|0:0,0:0:0:0:
320,96,158281,2,0,B|337:187|337:187|391:244|450:208,1,220.000006713867
360,320,158759,5,8,0:0:0:0:
152,344,158919,1,0,0:0:0:0:
232,176,159078,2,0,P|240:120|232:64,1,110.000003356934,4|0,0:0|0:0,0:0:0:0:
376,48,159398,1,8,0:0:0:0:
464,208,159557,2,0,P|456:264|464:320,1,110.000003356934
328,304,159876,5,0,0:0:0:0:
128,320,160036,1,8,0:0:0:0:
328,168,160195,1,0,0:0:0:0:
80,240,160355,2,0,P|40:280|32:336,2,110.000003356934,4|0|8,0:0|0:0|0:0,0:0:0:0:
144,72,160834,1,0,0:0:0:0:
256,56,160993,1,0,0:0:0:0:
368,40,161153,1,0,0:0:0:0:
466,70,161312,5,8,0:0:0:0:
376,296,161472,1,0,0:0:0:0:
104,264,161632,1,4,0:0:0:0:
320,96,161791,1,0,0:0:0:0:
272,304,161951,1,8,0:0:0:0:
128,96,162110,1,0,0:0:0:0:
168,328,162270,1,0,0:0:0:0:
400,160,162429,1,0,0:0:0:0:
415,107,162508,1,0,0:0:0:0:
416,52,162588,1,8,0:0:0:0:
224,104,162749,1,0,0:0:0:0:
208,156,162828,1,0,0:0:0:0:
207,211,162908,6,0,B|208:264|232:320|232:320|184:352|128:336,1,220.000006713867,4|8,0:0|0:0,0:0:0:0:
24,144,163387,2,0,B|23:91|-1:35|-1:35|47:3|103:19,1,220.000006713867
264,120,163866,5,8,0:0:0:0:
321,334,164025,1,0,0:0:0:0:
401,127,164185,1,4,0:0:0:0:
214,248,164344,1,0,0:0:0:0:
436,260,164504,1,8,0:0:0:0:
335,58,164663,2,0,P|280:32|232:32,1,110.000003356934
64,192,164983,5,0,0:0:0:0:
256,320,165142,1,8,0:0:0:0:
448,192,165302,1,0,0:0:0:0:
256,64,165461,2,0,P|200:48|168:8,1,110.000003356934,4|0,0:0|0:0,0:0:0:0:
168,9,165781,1,8,0:0:0:0:
32,287,165940,1,0,0:0:0:0:
32,287,166100,2,0,P|84:301|119:342,1,110.000003356934
232,360,166419,5,8,0:0:0:0:
424,216,166578,1,0,0:0:0:0:
280,24,166738,2,0,L|168:24,1,110.000003356934
256,192,167057,5,8,0:0:0:0:
301,160,167136,1,0,0:0:0:0:
346,129,167216,1,0,0:0:0:0:
391,97,167296,1,0,0:0:0:0:
436,66,167376,1,0,0:0:0:0:
440,120,167455,1,0,0:0:0:0:
445,175,167535,1,0,0:0:0:0:
449,230,167615,1,0,0:0:0:0:
454,285,167695,1,8,0:0:0:0:
404,261,167774,1,0,0:0:0:0:
354,238,167854,1,0,0:0:0:0:
304,214,167934,1,0,0:0:0:0:
254,191,168015,6,0,B|208:168|208:168|152:184,1,110.000003356934,4|0,0:0|0:0,0:0:0:0:
192,288,168334,1,8,0:0:0:0:
312,96,168493,2,0,B|208:48|208:48,1,110.000003356934
107,80,168812,5,0,0:0:0:0:
85,265,168972,1,8,0:0:0:0:
233,376,169132,1,0,0:0:0:0:
404,303,169291,2,0,L|416:192,1,110.000003356934,4|0,0:0|0:0,0:0:0:0:
256,40,169610,2,0,L|256:152,1,110.000003356934,8|0,0:0|0:0,0:0:0:0:
107,303,169929,2,0,L|96:193,1,110.000003356934
256,232,170249,2,0,L|256:342,1,110.000003356934,8|0,0:0|0:0,0:0:0:0:
440,120,170568,6,0,P|416:64|376:40,1,110.000003356934,4|0,0:0|0:0,0:0:0:0:
256,192,170887,1,8,0:0:0:0:
137,39,171046,2,0,P|91:68|72:119,1,110.000003356934
256,192,171366,1,0,0:0:0:0:
72,264,171525,2,0,P|91:315|137:345,1,110.000003356934,8|0,0:0|0:0,0:0:0:0:
328,120,171844,6,0,B|368:96|368:96|384:96|384:96|424:72,1,110.000003356934,4|0,0:0|0:0,0:0:0:0:
424,312,172163,2,0,B|384:288|384:288|368:288|368:288|328:264,1,110.000003356934,8|0,0:0|0:0,0:0:0:0:
64,192,172483,2,0,L|176:192,1,110.000003356934
220,166,172721,1,0,0:0:0:0:
251,121,172801,1,8,0:0:0:0:
282,75,172881,1,0,0:0:0:0:
320,36,172961,1,0,0:0:0:0:
368,9,173040,1,0,0:0:0:0:
422,0,173120,5,4,0:0:0:0:
472,152,173281,1,0,0:0:0:0:
288,168,173440,1,8,0:0:0:0:
288,352,173600,1,0,0:0:0:0:
368,184,173759,1,0,0:0:0:0:
206,92,173919,1,0,0:0:0:0:
311,243,174078,1,8,0:0:0:0:
471,151,174238,1,0,0:0:0:0:
360,0,174398,5,4,0:0:0:0:
224,96,174557,1,0,0:0:0:0:
208,128,174637,1,0,0:0:0:0:
192,160,174717,1,8,0:0:0:0:
64,104,174876,1,0,0:0:0:0:
48,136,174956,1,0,0:0:0:0:
32,168,175036,1,0,0:0:0:0:
312,240,175195,1,0,0:0:0:0:
296,272,175275,1,0,0:0:0:0:
280,304,175355,1,8,0:0:0:0:
144,240,175514,1,0,0:0:0:0:
128,272,175594,1,0,0:0:0:0:
112,304,175674,5,4,0:0:0:0:
306,16,175834,1,0,0:0:0:0:
318,363,175993,1,8,0:0:0:0:
104,89,176153,1,0,0:0:0:0:
438,186,176312,2,0,P|496:192|512:144,1,110.000003356934
338,334,176632,5,8,0:0:0:0:
90,192,176791,1,0,0:0:0:0:
173,334,176951,1,4,0:0:0:0:
338,49,177110,1,0,0:0:0:0:
422,192,177270,1,8,0:0:0:0:
174,50,177429,2,0,P|120:48|64:80,1,110.000003356934
168,344,177749,1,0,0:0:0:0:
208,336,177828,1,0,0:0:0:0:
248,344,177908,2,0,P|302:346|358:314,1,110.000003356934,8|0,0:0|0:0,0:0:0:0:
392,80,178227,6,0,B|328:32|328:32|272:48|208:32,1,200,4|0,0:0|0:0,0:0:0:0:
88,96,178706,1,0,0:0:0:0:
184,128,178866,1,0,0:0:0:0:
16,160,179025,1,0,0:0:0:0:
112,192,179185,1,0,0:0:0:0:
40,256,179344,1,0,0:0:0:0:
136,288,179504,6,0,L|184:304,1,50
296,224,179663,2,0,L|248:208,1,50
288,344,179823,6,0,L|336:360,1,50
448,280,179982,2,0,L|400:264,1,50
408,144,180142,6,0,L|424:96,1,50
256,24,180302,2,0,L|289:61,1,50
256,176,180461,6,0,L|206:186,1,50
104,96,180621,2,0,L|88:144,1,50
40,296,180782,6,0,P|56:344|104:360,1,100
134,360,181020,1,0,0:0:0:0:
169,360,181100,1,0,0:0:0:0:
204,360,181179,1,0,0:0:0:0:
239,360,181259,2,0,L|296:360,1,50
392,248,181419,5,0,0:0:0:0:
352,248,181498,1,0,0:0:0:0:
312,248,181578,1,0,0:0:0:0:
272,248,181658,1,0,0:0:0:0:
232,248,181738,2,0,L|176:248,1,50
80,136,181898,5,0,0:0:0:0:
125,136,181977,1,0,0:0:0:0:
170,136,182057,1,0,0:0:0:0:
215,136,182137,1,0,0:0:0:0:
260,136,182217,2,0,L|312:136,1,50
408,24,182376,5,0,0:0:0:0:
358,24,182455,1,0,0:0:0:0:
308,24,182535,1,0,0:0:0:0:
258,24,182615,1,0,0:0:0:0:
184,24,182695,5,0,0:0:0:0:
129,32,182774,1,0,0:0:0:0:
83,60,182854,1,0,0:0:0:0:
50,104,182934,1,0,0:0:0:0:
32,176,183015,5,0,0:0:0:0:
86,184,183094,1,0,0:0:0:0:
132,212,183174,1,0,0:0:0:0:
165,256,183254,1,0,0:0:0:0:
176,328,183334,6,0,B|232:360|296:328|296:328|368:288,1,200,4|0,0:0|0:0,0:0:0:0:
216,48,183972,1,0,0:0:0:0:
144,120,184132,1,0,0:0:0:0:
24,88,184291,2,0,P|0:136|8:184,1,100
120,320,184610,5,0,0:0:0:0:
200,208,184770,1,0,0:0:0:0:
256,336,184929,2,0,L|392:352,1,100
392,64,185249,1,0,0:0:0:0:
312,176,185409,1,0,0:0:0:0:
256,48,185568,2,0,L|120:32,1,100
112,168,185887,6,0,P|160:200|176:240,1,100
296,168,186206,2,0,P|321:219|315:262,1,100
232,376,186525,1,0,0:0:0:0:
336,384,186685,1,0,0:0:0:0:
427,345,186844,2,0,P|455:305|456:256,1,100
360,80,187163,5,0,0:0:0:0:
256,72,187323,1,0,0:0:0:0:
164,110,187482,2,0,P|136:150|135:199,1,100
208,280,187802,1,0,0:0:0:0:
251,256,187881,1,0,0:0:0:0:
295,232,187961,1,0,0:0:0:0:
339,208,188041,1,0,0:0:0:0:
383,184,188121,2,0,P|440:168|488:184,1,100
304,336,188440,6,0,P|191:368|95:336,1,200,4|0,0:0|0:0,0:0:0:0:
72,112,188919,1,0,0:0:0:0:
144,184,189078,1,0,0:0:0:0:
144,184,189238,1,0,0:0:0:0:
216,112,189398,2,0,P|264:96|312:104,1,100
464,48,189717,5,0,0:0:0:0:
496,168,189876,1,0,0:0:0:0:
464,288,190036,2,0,B|448:336|448:336|464:384,1,100
296,336,190355,1,0,0:0:0:0:
296,336,190515,1,0,0:0:0:0:
112,232,190674,1,0,0:0:0:0:
112,232,190834,1,0,0:0:0:0:
216,48,190993,6,0,B|254:37|254:37|288:-21|313:71|355:10|355:10|393:0,1,200
464,136,191472,1,0,0:0:0:0:
320,136,191632,1,0,0:0:0:0:
392,280,191791,1,0,0:0:0:0:
192,272,191951,2,0,P|144:272|96:288,1,100
8,128,192270,6,0,B|32:86|42:36|42:36|83:-3|140:10,1,200
171,44,192668,1,0,0:0:0:0:
213,70,192748,1,0,0:0:0:0:
260,88,192828,1,0,0:0:0:0:
310,95,192908,2,0,P|360:112|384:152,1,100
372,200,193147,1,0,0:0:0:0:
381,249,193227,1,0,0:0:0:0:
407,291,193307,1,0,0:0:0:0:
448,320,193387,1,0,0:0:0:0:
64,320,193546,6,0,B|24:296|0:248|0:248|8:192|40:152,1,200,4|0,0:0|0:0,0:0:0:0:
104,72,194025,1,0,0:0:0:0:
184,136,194185,1,0,0:0:0:0:
264,200,194344,1,0,0:0:0:0:
344,136,194504,6,0,B|360:119|387:114|387:114|413:125|428:146,1,100
344,264,194823,1,0,0:0:0:0:
264,200,194982,1,0,0:0:0:0:
184,264,195142,2,0,B|167:280|140:285|140:285|114:274|99:253,1,100
0,360,195461,2,0,B|16:343|43:338|43:338|69:349|84:370,1,100
121,380,195700,1,0,0:0:0:0:
161,384,195780,1,0,0:0:0:0:
201,382,195860,1,0,0:0:0:0:
240,372,195940,1,0,0:0:0:0:
276,357,196019,1,0,0:0:0:0:
310,335,196100,6,0,B|328:232|328:232|416:184,1,200
353,72,196578,1,0,0:0:0:0:
304,92,196658,1,0,0:0:0:0:
256,112,196738,1,0,0:0:0:0:
166,70,196898,1,0,0:0:0:0:
136,112,196977,1,0,0:0:0:0:
111,156,197057,1,0,0:0:0:0:
184,232,197217,1,0,0:0:0:0:
184,280,197296,1,0,0:0:0:0:
183,329,197376,6,0,P|176:352|160:376,1,50
350,373,197536,2,0,P|336:352|328:329,1,50
408,192,197695,2,0,L|512:192,1,100
350,10,198015,2,0,P|336:31|328:54,3,50
183,54,198334,2,0,P|175:31|161:10,3,50
168,216,198653,5,4,0:0:0:0:
320,256,198812,1,0,0:0:0:0:
279,103,198972,1,0,0:0:0:0:
161,247,199132,5,0,0:0:0:0:
161,247,199211,1,0,0:0:0:0:
161,247,199291,1,0,0:0:0:0:
351,246,199450,1,0,0:0:0:0:
255,82,199610,1,0,0:0:0:0:
163,285,199770,5,0,0:0:0:0:
163,285,199929,1,0,0:0:0:0:
383,225,200088,1,0,0:0:0:0:
221,65,200248,1,0,0:0:0:0:
291,319,200408,5,0,0:0:0:0:
291,319,200488,1,0,0:0:0:0:
291,319,200568,1,0,0:0:0:0:
128,158,200727,1,0,0:0:0:0:
158,131,200806,1,0,0:0:0:0:
192,111,200886,1,0,0:0:0:0:
229,96,200966,1,0,0:0:0:0:
268,89,201046,1,0,0:0:0:0:
308,89,201125,1,0,0:0:0:0:
347,97,201205,5,0,0:0:0:0:
416,288,201366,1,0,0:0:0:0:
168,272,201525,1,0,0:0:0:0:
160,72,201685,1,0,0:0:0:0:
160,72,201765,1,0,0:0:0:0:
160,72,201844,5,0,0:0:0:0:
296,304,202004,1,0,0:0:0:0:
400,88,202163,1,0,0:0:0:0:
368,368,202323,1,0,0:0:0:0:
136,232,202483,5,0,0:0:0:0:
48,48,202642,1,0,0:0:0:0:
0,200,202802,5,0,0:0:0:0:
186,72,202961,1,0,0:0:0:0:
48,48,203121,6,0,L|90:137,1,100
112,183,203360,1,0,0:0:0:0:
134,228,203440,1,0,0:0:0:0:
159,271,203520,1,0,0:0:0:0:
198,302,203600,1,0,0:0:0:0:
245,316,203679,1,0,0:0:0:0:
295,312,203759,5,4,0:0:0:0:
295,312,204717,5,0,0:0:0:0:
217,72,205036,5,4,0:0:0:0:
144,312,205515,1,0,0:0:0:0:
344,160,205993,5,0,0:0:0:0:
400,240,206153,1,0,0:0:0:0:
424,104,206312,1,0,0:0:0:0:
368,24,206472,1,0,0:0:0:0:
480,184,206632,1,0,0:0:0:0:
400,240,206791,2,0,P|352:264|304:272,1,100
176,192,207110,5,0,0:0:0:0:
80,232,207270,1,0,0:0:0:0:
32,320,207429,1,0,0:0:0:0:
208,376,207589,6,0,B|227:328|248:288|248:288|256:240|272:184,1,200
200,56,208068,1,0,0:0:0:0:
200,56,208148,1,0,0:0:0:0:
200,56,208227,1,0,0:0:0:0:
320,96,208387,1,0,0:0:0:0:
424,32,208546,5,0,0:0:0:0:
320,96,208706,1,0,0:0:0:0:
336,216,208866,2,0,L|344:320,1,100
168,315,209185,5,0,0:0:0:0:
56,232,209344,1,0,0:0:0:0:
144,120,209504,1,0,0:0:0:0:
139,288,209663,5,0,0:0:0:0:
52,178,209822,1,0,0:0:0:0:
166,93,209982,1,0,0:0:0:0:
118,255,210142,6,0,P|176:320|264:328,1,179.999994506836,4|0,0:0|0:0,0:0:0:0:
307,316,210540,1,0,0:0:0:0:
344,291,210620,1,0,0:0:0:0:
368,253,210700,1,0,0:0:0:0:
378,210,210780,1,0,0:0:0:0:
381,165,210860,1,0,0:0:0:0:
368,122,210940,1,0,0:0:0:0:
340,87,211020,1,0,0:0:0:0:
302,65,211100,6,0,L|320:16,1,44.999998626709
216,46,211259,2,0,L|200:0,1,44.999998626709
140,92,211419,6,0,L|104:128,1,44.999998626709,4|0,0:0|0:0,0:0:0:0:
184,216,211578,2,0,L|197:265,1,44.999998626709
32,216,211738,6,0,L|-4:252,1,44.999998626709
76,340,211897,2,0,L|89:389,1,44.999998626709
224,360,212057,5,0,0:0:0:0:
258,331,212136,1,0,0:0:0:0:
301,320,212216,1,0,0:0:0:0:
345,327,212296,1,0,0:0:0:0:
383,351,212376,1,0,0:0:0:0:
420,326,212455,1,0,0:0:0:0:
446,290,212535,1,0,0:0:0:0:
459,247,212615,1,0,0:0:0:0:
456,202,212695,5,0,0:0:0:0:
56,182,212855,1,0,0:0:0:0:
264,0,213015,2,0,L|260:100,1,100
251,284,213334,1,0,0:0:0:0:
136,240,213493,1,0,0:0:0:0:
167,201,213572,1,0,0:0:0:0:
210,176,213652,1,0,0:0:0:0:
259,170,213732,1,0,0:0:0:0:
307,183,213812,1,0,0:0:0:0:
347,212,213891,1,0,0:0:0:0:
373,255,213972,6,0,L|424:168,1,100
138,255,214291,1,0,0:0:0:0:
138,255,214451,2,0,L|88:168,1,100
176,40,214770,1,0,0:0:0:0:
256,192,214929,1,0,0:0:0:0:
336,40,215089,1,0,0:0:0:0:
256,344,215249,5,4,0:0:0:0:
120,272,215408,1,0,0:0:0:0:
71,280,215487,1,0,0:0:0:0:
35,313,215567,1,0,0:0:0:0:
392,200,215727,1,0,0:0:0:0:
440,208,215806,1,0,0:0:0:0:
476,241,215886,1,0,0:0:0:0:
120,128,216046,1,0,0:0:0:0:
73,145,216125,1,0,0:0:0:0:
33,174,216206,1,0,0:0:0:0:
41,124,216285,1,0,0:0:0:0:
35,75,216365,1,0,0:0:0:0:
81,57,216445,1,0,0:0:0:0:
121,28,216525,6,0,B|168:0|224:0|224:0|280:24|328:56,1,220.000006713867,4|8,0:0|0:0,0:0:0:0:
323,274,217004,2,0,B|300:288|272:288|272:288|244:276|220:260,1,110.000003356934
56,128,217323,5,0,0:0:0:0:
160,336,217483,1,8,0:0:0:0:
304,120,217642,1,0,0:0:0:0:
40,96,217802,1,4,0:0:0:0:
136,304,217961,2,0,P|80:320|24:312,1,110.000003356934,0|8,0:0|0:0,0:0:0:0:
216,16,218281,2,0,P|272:0|328:8,1,110.000003356934
432,128,218600,5,0,0:0:0:0:
368,336,218759,1,8,0:0:0:0:
151,347,218919,1,0,1:0:0:0:
75,140,219078,2,0,B|64:96|80:56|80:56|128:32|128:32|168:48|192:88,1,220.000006713867,4|8,0:0|0:0,0:0:0:0:
256,256,219557,1,0,0:0:0:0:
323,82,219717,2,0,B|333:65|353:57|353:57|377:69|377:69|385:89|379:111,1,110.000003356934
335,291,220036,5,8,0:0:0:0:
135,297,220195,1,0,0:0:0:0:
283,98,220355,1,4,0:0:0:0:
107,191,220515,1,0,0:0:0:0:
236,342,220674,1,8,0:0:0:0:
172,103,220834,6,0,L|144:56,1,55.0000016784668
320,56,220993,1,0,0:0:0:0:
374,54,221072,1,0,0:0:0:0:
421,82,221152,1,0,0:0:0:0:
446,130,221232,1,0,0:0:0:0:
442,184,221312,1,8,0:0:0:0:
393,162,221391,1,0,0:0:0:0:
338,164,221471,1,0,0:0:0:0:
290,190,221551,1,0,0:0:0:0:
258,234,221632,6,0,B|224:296|224:344|224:344|112:344,1,220.000006713867,4|8,0:0|0:0,0:0:0:0:
0,96,222110,2,0,B|17:65|17:41|17:41|73:41,1,110.000003356934
256,96,222429,5,0,0:0:0:0:
256,288,222589,1,8,0:0:0:0:
96,192,222749,1,0,0:0:0:0:
416,192,222908,1,4,0:0:0:0:
256,32,223068,1,0,0:0:0:0:
256,352,223228,1,8,0:0:0:0:
32,192,223387,2,0,B|16:136|16:136|48:88,1,110.000003356934
200,56,223706,5,0,0:0:0:0:
304,280,223866,1,8,0:0:0:0:
352,72,224025,1,0,0:0:0:0:
152,320,224185,2,0,P|104:352|48:352,1,110.000003356934,4|0,0:0|0:0,0:0:0:0:
104,64,224504,2,0,P|152:32|208:32,1,110.000003356934,8|0,0:0|0:0,0:0:0:0:
408,320,224823,2,0,P|360:352|304:352,1,110.000003356934
360,64,225142,2,0,P|408:32|464:32,1,110.000003356934,8|0,0:0|0:0,0:0:0:0:
464,248,225461,5,4,0:0:0:0:
328,192,225621,2,0,P|304:184|272:184,1,55.0000016784668
221,195,225780,1,8,0:0:0:0:
174,224,225860,1,0,0:0:0:0:
141,267,225940,1,0,0:0:0:0:
125,320,226020,1,0,0:0:0:0:
127,374,226099,5,0,0:0:0:0:
120,320,226179,1,0,0:0:0:0:
99,269,226259,1,0,0:0:0:0:
66,225,226339,1,0,0:0:0:0:
23,191,226419,2,0,P|8:168|0:136,1,55.0000016784668,8|0,0:0|0:0,0:0:0:0:
128,48,226578,1,0,0:0:0:0:
182,40,226657,1,0,0:0:0:0:
235,53,226738,6,0,P|264:152|208:248,1,220.000006713867,4|8,0:0|0:0,0:0:0:0:
448,368,227217,2,0,P|419:269|475:173,1,220.000006713867
328,128,227695,5,8,0:0:0:0:
304,304,227855,1,0,0:0:0:0:
104,344,228015,2,0,P|48:360|0:384,1,110.000003356934,4|0,0:0|0:0,0:0:0:0:
296,144,228334,5,8,0:0:0:0:
276,284,228494,1,0,0:0:0:0:
116,316,228654,2,0,P|60:332|12:356,1,110.000003356934
114,262,228972,6,0,P|67:290|25:326,1,110.000003356934,8|0,0:0|0:0,0:0:0:0:
102,218,229291,6,0,P|64:257|33:302,1,110.000003356934,4|0,0:0|0:0,0:0:0:0:
409,165,229610,1,8,0:0:0:0:
409,165,229770,2,0,P|447:126|478:81,1,110.000003356934
256,192,230089,1,0,0:0:0:0:
176,48,230249,2,0,P|80:48|80:152,1,220.000006713867,8|4,0:0|0:0,0:0:0:0:
448,320,230887,6,0,P|448:264|416:224,1,110.000003356934,8|0,0:0|0:0,0:0:0:0:
191,231,231206,2,0,P|190:285|224:328,1,110.000003356934
273,350,231445,1,0,0:0:0:0:
327,344,231525,1,8,0:0:0:0:
370,311,231605,1,0,0:0:0:0:
390,260,231685,1,0,0:0:0:0:
381,207,231764,1,0,0:0:0:0:
346,166,231844,6,0,B|312:120|256:104|256:104|264:48|328:24,1,220.000006713867,4|8,0:0|0:0,0:0:0:0:
440,96,232323,1,0,0:0:0:0:
240,264,232483,1,0,0:0:0:0:
440,280,232642,1,0,0:0:0:0:
176,104,232802,1,8,0:0:0:0:
464,96,232961,1,0,0:0:0:0:
216,288,233121,6,0,B|160:272|104:264|104:264|72:224|16:184,1,220.000006713867,4|8,0:0|0:0,0:0:0:0:
40,352,233600,1,0,0:0:0:0:
296,96,233759,2,0,B|352:112|408:120|408:120|440:160|496:200,1,220.000006713867,0|8,0:0|0:0,0:0:0:0:
128,56,234398,6,0,B|80:88|80:152|80:152|48:192|56:256,1,220.000006713867,4|8,0:0|0:0,0:0:0:0:
192,352,234876,1,0,0:0:0:0:
243,367,234955,1,0,0:0:0:0:
295,352,235036,2,0,P|344:320|392:296,1,110.000003356934
390,87,235355,1,8,0:0:0:0:
295,31,235515,1,0,0:0:0:0:
80,16,235674,6,0,B|35:152|120:237|256:192|256:192|391:146|476:231|431:367,1,660.000020141602,4|8,0:0|0:0,0:0:0:0:
379,383,236711,1,0,0:0:0:0:
324,384,236791,1,0,0:0:0:0:
272,369,236871,1,0,0:0:0:0:
226,338,236951,6,0,P|176:320|120:320,1,110.000003356934,4|0,0:0|0:0,0:0:0:0:
161,55,237269,1,8,0:0:0:0:
282,292,237429,1,0,0:0:0:0:
44,171,237589,1,0,0:0:0:0:
308,129,237748,1,0,0:0:0:0:
120,319,237908,2,0,P|64:336|24:368,1,110.000003356934,8|0,0:0|0:0,0:0:0:0:
376,240,238227,6,0,B|416:200|464:176|464:176|416:160|360:128,1,220.000006713867,4|8,0:0|0:0,0:0:0:0:
136,144,238706,1,0,0:0:0:0:
136,144,238866,2,0,B|96:184|48:208|48:208|96:224|152:256,1,220.000006713867,0|8,0:0|0:0,0:0:0:0:
320,344,239344,1,0,0:0:0:0:
432,136,239504,6,0,L|471:33,1,110.000003356934,4|0,0:0|0:0,0:0:0:0:
320,264,239823,2,0,L|331:373,1,110.000003356934,8|0,0:0|0:0,0:0:0:0:
40,350,240142,2,0,L|80:248,1,110.000003356934
180,10,240461,2,0,L|192:120,1,110.000003356934,8|0,0:0|0:0,0:0:0:0:
208,328,240781,6,0,B|256:360|256:360|304:328,1,110.000003356934,4|0,0:0|0:0,0:0:0:0:
304,56,241100,2,0,B|256:24|256:24|208:56,1,110.000003356934,8|0,0:0|0:0,0:0:0:0:
89,192,241419,1,0,0:0:0:0:
122,235,241498,1,0,0:0:0:0:
172,256,241578,1,0,0:0:0:0:
222,236,241658,1,0,0:0:0:0:
255,193,241738,1,8,0:0:0:0:
287,149,241817,1,0,0:0:0:0:
337,127,241897,1,0,0:0:0:0:
387,146,241977,1,0,0:0:0:0:
420,189,242057,6,0,P|448:240|456:296,1,110.000003356934,4|0,0:0|0:0,0:0:0:0:
302,367,242376,1,8,0:0:0:0:
127,320,242536,1,0,0:0:0:0:
209,16,242695,1,0,0:0:0:0:
384,63,242855,1,0,0:0:0:0:
431,238,243015,1,8,0:0:0:0:
80,145,243174,1,0,0:0:0:0:
127,320,243334,5,4,0:0:0:0:
168,355,243413,1,0,0:0:0:0:
219,375,243493,1,0,0:0:0:0:
274,376,243573,1,0,0:0:0:0:
326,360,243653,2,0,P|352:344|376:336,1,55.0000016784668,8|0,0:0|0:0,0:0:0:0:
431,239,243812,5,0,0:0:0:0:
441,185,243891,1,0,0:0:0:0:
432,131,243971,1,0,0:0:0:0:
406,83,244051,1,0,0:0:0:0:
366,46,244131,2,0,P|339:32|320:16,1,55.0000016784668
209,16,244291,5,8,0:0:0:0:
158,34,244370,1,0,0:0:0:0:
115,69,244450,1,0,0:0:0:0:
86,115,244530,1,0,0:0:0:0:
74,168,244610,5,4,0:0:0:0:
367,46,244929,1,8,0:0:0:0:
326,361,245249,1,0,0:0:0:0:
425,121,245568,5,8,0:0:0:0:
110,81,245728,1,0,0:0:0:0:
232,373,245888,5,4,0:0:0:0:
280,9,246046,1,0,0:0:0:0:
402,303,246206,5,8,0:0:0:0:
87,262,246366,1,0,0:0:0:0:
256,192,246685,5,0,0:0:0:0:
256,192,246765,1,0,0:0:0:0:
256,192,246844,2,0,L|360:144,1,110.000003356934,8|0,0:0|0:0,0:0:0:0:
464,296,247163,6,4,L|360:344,1,100
326,353,247402,1,0,0:0:0:0:
276,352,247482,1,0,0:0:0:0:
229,335,247562,1,0,0:0:0:0:
191,303,247642,2,0,P|144:280|96:288,1,100
117,240,247881,5,0,0:0:0:0:
121,190,247961,1,0,0:0:0:0:
111,142,248041,1,0,0:0:0:0:
86,98,248121,1,0,0:0:0:0:
50,64,248200,1,0,0:0:0:0:
6,41,248281,2,0,P|40:8|96:0,1,100
200,320,248600,5,0,0:0:0:0:
424,104,248759,1,0,0:0:0:0:
416,288,248919,1,0,0:0:0:0:
208,136,249078,5,0,0:0:0:0:
159,126,249157,1,0,0:0:0:0:
110,136,249237,1,0,0:0:0:0:
69,164,249317,1,0,0:0:0:0:
41,205,249397,1,0,0:0:0:0:
68,246,249477,1,0,0:0:0:0:
110,273,249557,1,0,0:0:0:0:
158,283,249637,1,0,0:0:0:0:
207,274,249717,6,0,P|232:264|248:248,1,50
368,64,249876,2,0,P|343:74|327:90,1,50
448,264,250036,2,0,P|423:254|407:238,1,50
112,80,250195,1,4,0:0:0:0:
