osu file format v14

[General]
AudioFilename: audio.mp3
AudioLeadIn: 0
PreviewTime: 52212
Countdown: 0
SampleSet: Soft
StackLeniency: 0.7
Mode: 0
LetterboxInBreaks: 0
WidescreenStoryboard: 0

[Editor]
DistanceSpacing: 1.3
BeatDivisor: 4
GridSize: 4
TimelineZoom: 1

[Metadata]
Title:COOLEST
TitleUnicode:COOLEST
Artist:Customi Z
ArtistUnicode:カスタマイZ
Creator:Ipas
Version:Insane
Source:坂本ですが?
Tags:Haven't You Heard I'm Sakamoto Desu Ga Opening Cooler HabiHolic Haruto_Aizawa Haruto- Oyatsu
BeatmapID:973387
BeatmapSetID:451989

[Difficulty]
HPDrainRate:6.5
CircleSize:4
OverallDifficulty:7.5
ApproachRate:9
SliderMultiplier:1.6
SliderTickRate:1

[Events]
//Background and Video events
Video,-1061,"optc.flv"
0,0,"COOL.jpg",0,0
//Break Periods
//Storyboard Layer 0 (Background)
//Storyboard Layer 1 (Fail)
//Storyboard Layer 2 (Pass)
//Storyboard Layer 3 (Foreground)
//Storyboard Sound Samples

[TimingPoints]
-128,319.148936170213,4,2,1,50,1,0
6254,-100,4,2,1,40,0,0
8808,-100,4,2,1,50,0,0
11361,-100,4,2,1,40,0,0
21574,-100,4,2,1,50,0,0
31786,-133.333333333333,4,2,1,30,0,0
41999,-100,4,2,1,50,0,0
53489,-100,4,2,1,60,0,1
81574,-100,4,2,1,50,0,0

[Colours]
Combo1 : 255,0,128
Combo2 : 43,43,255
Combo3 : 255,28,28
Combo4 : 221,221,0
Combo5 : 128,0,255
Combo6 : 255,128,0
Combo7 : 0,187,0

[HitObjects]
176,224,510,6,0,L|168:264,3,40,8|8|8|8,0:0|0:0|0:0|0:0,0:0:0:0:
112,164,829,2,0,L|104:124,3,40,8|8|8|8,0:0|0:0|0:0|0:0,0:0:0:0:
96,320,1149,6,0,P|172:356|236:320,1,160,4|2,0:0|0:0,0:0:0:0:
264,240,1627,1,0,0:0:0:0:
284,152,1787,2,0,L|268:72,1,80,2|2,0:0|0:0,0:0:0:0:
264,240,2106,1,0,0:0:0:0:
380,192,2266,6,0,L|348:36,1,160,2|2,0:0|0:0,0:0:0:0:
432,24,2744,2,0,L|448:108,1,80,2|0,0:0|0:0,0:0:0:0:
472,232,3063,1,2,0:0:0:0:
256,344,3383,1,4,0:1:0:0:
256,344,3702,6,0,B|216:356|176:340|176:340|136:324|96:336,1,160,4|2,0:1|0:0,0:0:0:0:
12,364,4180,1,2,0:0:0:0:
32,272,4340,2,0,L|20:192,1,80,0|2,0:0|0:0,0:0:0:0:
48,108,4659,1,2,0:0:0:0:
32,16,4819,1,0,0:0:0:0:
140,140,4978,5,10,0:0:0:0:
208,76,5138,2,0,L|292:68,1,80,8|2,0:0|0:3,0:0:0:0:
440,116,5458,2,0,L|356:124,1,80,2|0,0:3|0:0,0:0:0:0:
272,272,5776,1,8,0:0:0:0:
280,180,5936,1,8,0:0:0:0:
360,244,6095,1,8,0:0:0:0:
235,355,6255,6,0,P|182:298|196:221,1,160,4|0,0:0|3:0,0:0:0:0:
272,272,6734,1,0,3:0:0:0:
194,222,6893,2,0,L|114:226,1,80,0|0,1:0|3:0,0:0:0:0:
272,272,7212,2,0,L|352:276,1,80,0|0,1:0|3:0,0:0:0:0:
460,200,7531,6,0,P|452:176|452:156,3,40,0|0|0|0,1:0|1:0|1:0|1:0,0:0:0:0:
484,228,7851,2,0,P|496:264|492:308,1,80,0|0,1:0|1:0,0:0:0:0:
312,356,8170,2,0,L|352:360,3,40,0|0|0|0,1:0|1:0|1:0|1:0,0:0:0:0:
276,364,8489,2,0,L|188:352,1,80,0|8,1:0|0:0,0:0:0:0:
80,208,8808,5,0,3:0:0:0:
112,296,8968,1,0,1:0:0:0:
108,312,9047,1,0,1:0:0:0:
104,328,9127,1,0,1:0:0:0:
156,172,9287,2,0,P|92:124|16:152,1,160,4|8,0:0|3:0,0:0:0:0:
80,208,9766,1,4,0:3:0:0:
315,183,9925,6,0,L|155:171,1,160,4|8,0:0|0:0,0:0:0:0:
21,146,10404,1,2,3:2:0:0:
84,304,10723,1,4,0:0:0:0:
84,304,11042,1,4,0:0:0:0:
56,64,11361,6,0,P|105:123|92:200,1,160,4|8,0:0|0:0,0:0:0:0:
192,152,11840,1,0,0:0:0:0:
288,200,12000,2,0,P|328:208|364:196,2,80,0|0|8,3:0|3:0|0:0,0:0:0:0:
440,108,12478,2,0,L|460:272,1,160,0|0,3:0|0:0,0:0:0:0:
380,368,12957,6,0,L|368:288,1,80,8|0,0:0|0:0,0:0:0:0:
316,212,13276,1,0,3:0:0:0:
316,212,13436,1,0,3:0:0:0:
176,304,13595,2,0,L|256:292,1,80,8|0,0:0|0:0,0:0:0:0:
116,232,13914,6,0,P|80:303|111:374,1,160,4|8,0:0|0:0,0:0:0:0:
176,304,14393,1,2,0:0:0:0:
316,212,14553,1,0,3:0:0:0:
176,304,14712,2,0,L|256:292,1,80,0|8,3:0|0:0,0:0:0:0:
384,272,15031,6,0,P|407:200|367:132,1,160,2|2,3:2|0:0,0:0:0:0:
284,8,15510,2,0,P|276:48|284:88,1,80,8|0,0:0|0:0,0:0:0:0:
316,212,15829,2,0,L|236:200,1,80,4|0,0:0|0:0,0:0:0:0:
175,304,16149,2,0,L|255:292,1,80,12|0,0:0|0:0,0:0:0:0:
504,336,16468,6,0,B|464:340|428:320|428:320|388:296|350:299,1,160,4|8,0:0|0:0,0:0:0:0:
254,292,16946,1,0,3:0:0:0:
288,136,17106,1,0,3:0:0:0:
320,220,17266,1,0,3:0:0:0:
175,227,17425,1,8,0:0:0:0:
192,140,17585,6,0,P|116:159|83:229,1,160,2|0,3:2|0:0,0:0:0:0:
183,307,18063,2,0,L|175:227,1,80,8|0,0:0|3:0,0:0:0:0:
180,48,18383,1,0,3:0:0:0:
192,140,18542,1,0,3:0:0:0:
344,68,18702,2,0,L|264:80,1,80,8|0,0:0|0:0,0:0:0:0:
104,112,19021,5,4,0:0:0:0:
104,112,19340,1,8,0:0:0:0:
136,296,19500,1,2,0:0:0:0:
188,208,19659,1,0,3:0:0:0:
56,240,19819,1,0,3:0:0:0:
232,288,19978,1,8,0:0:0:0:
232,288,20138,6,0,B|280:292|280:292|336:280|336:280|390:283,1,160,4|0,0:0|3:0,0:0:0:0:
464,144,20617,2,0,P|468:183|457:221,1,80,8|0,0:0|3:0,0:0:0:0:
312,172,20936,1,0,3:0:0:0:
312,172,21095,1,8,0:0:0:0:
280,64,21255,1,8,0:0:0:0:
380,12,21414,1,8,0:0:0:0:
311,172,21574,6,0,P|234:188|156:170,1,160,4|8,0:0|0:0,0:0:0:0:
84,104,22053,1,0,0:0:0:0:
156,170,22212,2,0,L|144:250,2,80,0|0|8,3:0|3:0|0:0,0:0:0:0:
60,274,22691,6,0,P|112:330|192:322,1,160,4|0,0:0|3:0,0:0:0:0:
340,268,23170,2,0,P|296:260|256:268,1,80,8|0,0:0|0:0,0:0:0:0:
408,328,23489,1,0,3:0:0:0:
424,240,23649,1,0,0:0:0:0:
440,152,23808,1,8,0:0:0:0:
440,152,24127,6,0,P|444:112|424:68,2,80,4|0|8,3:2|3:0|0:0,0:0:0:0:
352,128,24606,1,2,0:0:0:0:
264,104,24766,2,0,P|260:144|280:188,2,80,2|0|8,3:2|3:0|0:0,0:0:0:0:
360,220,25244,6,0,P|304:272|224:264,1,160,4|0,0:0|3:0,0:0:0:0:
140,296,25723,2,0,L|148:376,1,80,8|0,0:0|0:0,0:0:0:0:
156,208,26042,1,0,3:0:0:0:
252,144,26202,1,0,3:0:0:0:
248,160,26281,1,0,0:0:0:0:
244,176,26361,1,8,0:0:0:0:
208,72,26680,6,0,P|265:60|315:90,1,120,4|0,0:0|0:0,0:0:0:0:
336,76,27000,2,0,P|373:88|412:81,1,80,8|0,0:0|0:0,0:0:0:0:
484,196,27319,2,0,L|404:188,1,80,0|0,3:0|0:0,0:0:0:0:
380,184,27558,1,0,3:0:0:0:
360,180,27638,2,0,P|368:220|356:256,1,80,8|0,0:0|0:0,0:0:0:0:
376,360,27957,6,0,P|308:344|260:360,1,120,0|0,0:0|0:0,0:0:0:0:
240,344,28276,2,0,P|200:348|160:336,1,80,8|2,0:0|0:0,0:0:0:0:
84,280,28595,1,8,0:0:0:0:
164,212,28755,2,0,L|172:252,2,40,8|8|8,0:0|0:0|0:0,0:0:0:0:
144,108,29074,1,0,1:0:0:0:
140,88,29154,1,0,1:0:0:0:
136,68,29234,6,0,B|176:84|216:68|216:68|256:52|296:68,1,160,4|8,0:0|0:0,0:0:0:0:
380,168,29712,1,0,1:0:0:0:
376,152,29792,1,0,1:0:0:0:
372,136,29872,1,0,1:0:0:0:
408,284,30031,1,8,0:3:0:0:
472,208,30191,1,4,0:3:0:0:
316,248,30351,6,0,B|279:262|239:246|239:246|199:230|159:246,1,160,4|0,0:0|3:0,0:0:0:0:
284,164,30829,2,0,P|292:128|284:84,1,80,8|0,0:0|3:0,0:0:0:0:
268,68,31069,1,0,1:0:0:0:
248,60,31149,2,0,L|168:72,1,80,0|8,1:0|0:0,0:0:0:0:
368,188,31468,2,0,L|448:200,1,80,4|0,0:3|0:0,0:0:0:0:
344,296,31787,6,0,L|223:276,1,120.000004577637,4|8,0:0|0:0,0:0:0:0:
156,244,32266,1,0,3:0:0:0:
88,284,32425,2,0,P|81:225|116:179,1,120.000004577637,8|0,0:0|3:0,0:0:0:0:
196,172,32904,2,0,L|316:192,1,120.000004577637,4|8,0:0|0:0,0:0:0:0:
388,164,33383,2,0,P|404:136|408:108,1,60.0000022888184,2|0,0:0|0:0,0:0:0:0:
364,44,33702,2,0,P|332:40|304:44,1,60.0000022888184,8|2,0:0|0:0,0:0:0:0:
252,100,34021,2,0,P|220:104|192:100,1,60.0000022888184,0|0,3:0|0:0,0:0:0:0:
152,32,34340,6,0,P|116:84|128:144,1,120.000004577637,4|0,0:0|0:0,0:0:0:0:
168,204,34819,1,0,0:0:0:0:
168,204,34978,2,0,L|160:332,1,120.000004577637,8|0,0:0|3:0,0:0:0:0:
228,368,35457,1,0,0:0:0:0:
308,360,35617,1,0,0:0:0:0:
308,360,35776,2,0,P|340:360|372:352,1,60.0000022888184,8|0,0:0|3:0,0:0:0:0:
440,324,36095,1,0,3:0:0:0:
440,324,36255,2,0,P|452:264|432:200,1,120.000004577637,8|2,0:0|0:3,0:0:0:0:
444,52,36893,6,0,P|396:96|388:156,1,120.000004577637,4|0,0:0|0:0,0:0:0:0:
436,208,37372,1,0,3:0:0:0:
436,208,37531,2,0,L|316:184,1,120.000004577637,8|0,0:0|3:0,0:0:0:0:
288,112,38010,2,0,P|260:92|232:84,1,60.0000022888184,0|0,3:0|0:0,0:0:0:0:
176,140,38329,1,0,0:0:0:0:
236,288,38649,1,0,3:0:0:0:
236,288,38808,2,0,P|184:320|128:308,1,120.000004577637,8|0,0:0|3:0,0:0:0:0:
80,248,39287,1,0,0:0:0:0:
80,248,39446,6,0,P|84:212|80:188,1,60.0000022888184,4|0,0:0|0:0,0:0:0:0:
28,132,39766,2,0,P|24:96|28:72,1,60.0000022888184,0|0,0:0|3:0,0:0:0:0:
92,28,40085,2,0,L|156:32,1,60.0000022888184,8|0,0:0|0:0,0:0:0:0:
188,100,40403,2,0,L|252:96,1,60.0000022888184
324,100,40723,5,12,0:0:0:0:
364,252,41042,1,0,1:0:0:0:
492,160,41361,1,0,1:0:0:0:
364,252,41680,2,0,P|356:284|360:316,1,60.0000022888184,8|2,0:0|0:3,0:0:0:0:
428,364,42000,5,4,0:0:0:0:
428,364,42159,1,0,3:0:0:0:
364,252,42319,2,0,L|284:256,1,80,8|2,0:0|0:0,0:0:0:0:
124,312,42638,1,0,3:0:0:0:
124,312,42797,1,0,3:0:0:0:
184,164,42957,2,0,L|264:168,1,80,8|0,0:0|0:0,0:0:0:0:
100,216,43276,5,0,3:0:0:0:
144,68,43436,1,0,3:0:0:0:
184,164,43595,1,8,0:0:0:0:
40,148,43755,2,0,L|56:312,1,160,2|0,0:0|0:0,0:0:0:0:
172,360,44234,2,0,L|164:280,1,80,8|0,0:0|0:0,0:0:0:0:
263,167,44553,5,4,0:0:0:0:
248,252,44712,1,0,3:0:0:0:
336,116,44872,1,8,0:0:0:0:
260,80,45031,1,8,0:0:0:0:
244,76,45111,1,8,0:0:0:0:
228,72,45191,5,8,0:0:0:0:
92,32,45351,1,4,0:3:0:0:
140,108,45510,1,8,0:0:0:0:
228,72,45670,1,8,0:0:0:0:
184,196,45829,6,0,L|104:192,1,80,0|0,0:0|3:0,0:0:0:0:
88,208,46069,1,0,0:0:0:0:
76,228,46149,2,0,P|68:272|72:312,1,80,8|0,0:0|3:0,0:0:0:0:
260,348,46468,2,0,P|268:304|264:264,1,80,8|0,0:0|1:0,0:0:0:0:
272,248,46707,1,0,1:0:0:0:
288,232,46787,2,0,L|368:240,1,80,0|0,1:0|0:0,0:0:0:0:
500,340,47106,5,4,0:0:0:0:
500,340,47425,1,2,0:3:0:0:
404,336,47585,1,0,3:0:0:0:
375,160,47744,2,0,L|367:240,1,80,8|0,0:0|0:0,0:0:0:0:
348,64,48063,1,4,0:0:0:0:
436,88,48223,1,4,0:0:0:0:
283,136,48383,6,0,P|245:143|205:136,1,80,4|0,0:0|0:0,0:0:0:0:
76,63,48702,2,0,P|114:56|154:63,1,80,2|0,0:3|3:0,0:0:0:0:
132,304,49021,2,0,L|116:144,1,160,8|8,0:0|0:0,0:0:0:0:
154,63,49500,1,8,0:0:0:0:
252,232,49659,5,4,0:0:0:0:
283,136,49819,1,0,0:0:0:0:
344,212,49978,1,8,0:0:0:0:
192,156,50138,1,8,0:0:0:0:
244,311,50297,2,0,L|252:231,1,80,0|4,3:0|0:3,0:0:0:0:
368,40,50617,2,0,L|376:120,1,80,0|0,0:0|3:0,0:0:0:0:
420,312,50936,5,8,0:0:0:0:
420,312,51095,2,0,P|380:317|343:305,1,80,8|0,0:0|1:0,0:0:0:0:
174,225,51414,1,8,0:0:0:0:
174,224,51574,2,0,P|214:219|251:231,1,80,8|0,0:0|1:0,0:0:0:0:
108,376,51893,2,0,L|104:292,1,80,8|8,0:0|0:0,0:0:0:0:
160,136,52212,5,12,0:0:0:0:
204,320,52531,1,8,0:0:0:0:
344,128,52851,2,0,P|360:148|368:160,1,40,8|8,0:0|0:0,0:0:0:0:
460,228,53011,2,0,P|440:244|428:252,1,40,8|8,0:0|0:0,0:0:0:0:
360,324,53169,1,8,0:0:0:0:
356,336,53249,1,8,0:0:0:0:
352,348,53329,1,8,0:0:0:0:
348,360,53409,1,8,0:0:0:0:
344,372,53489,6,0,L|180:356,1,160,4|8,0:0|0:0,0:0:0:0:
172,140,53968,2,0,P|192:220|144:276,1,160,4|0,0:0|3:0,0:0:0:0:
24,212,54446,2,0,L|104:196,1,80,0|8,1:0|0:3,0:0:0:0:
240,80,54766,5,4,0:0:0:0:
280,172,54925,1,0,3:0:0:0:
372,20,55085,1,8,0:0:0:0:
332,100,55244,2,0,L|340:264,1,160,4|0,0:0|0:0,0:0:0:0:
420,220,55723,2,0,L|416:140,1,80,8|0,0:0|0:0,0:0:0:0:
416,304,56042,6,0,P|352:348|276:324,1,160,4|4,0:0|0:0,0:0:0:0:
188,284,56520,1,0,0:0:0:0:
188,284,56680,2,0,L|192:364,1,80,0|0,3:0|3:0,0:0:0:0:
176,188,57000,1,12,0:0:0:0:
268,228,57159,1,0,0:0:0:0:
95,252,57319,6,0,P|58:264|18:260,1,80,4|0,0:0|3:0,0:0:0:0:
48,160,57637,2,0,P|56:121|79:88,1,80,0|8,1:0|0:0,0:0:0:0:
256,88,57957,2,0,L|176:76,1,80,0|0,3:0|3:0,0:0:0:0:
336,176,58276,1,8,0:0:0:0:
360,180,58356,1,8,0:0:0:0:
384,184,58436,1,8,0:0:0:0:
408,188,58516,1,8,0:0:0:0:
432,192,58595,6,0,P|456:268|416:332,1,160,4|8,0:0|0:0,0:0:0:0:
200,272,59074,2,0,L|360:256,1,160,4|0,0:0|3:0,0:0:0:0:
328,344,59553,1,8,0:0:0:0:
328,344,59712,2,0,L|244:352,2,80,0|4|4,0:0|0:0|0:0,0:0:0:0:
359,256,60191,1,8,0:0:0:0:
248,188,60351,2,0,B|196:196|196:196|144:184|144:184|88:192,1,160,4|0,0:0|3:0,0:0:0:0:
116,356,60829,2,0,P|134:323|135:282,1,80,8|0,0:0|3:0,0:0:0:0:
72,100,61149,6,0,L|152:92,1,80,4|4,0:0|0:0,0:0:0:0:
328,144,61467,1,4,0:0:0:0:
328,144,61627,1,0,0:0:0:0:
240,256,61787,2,0,P|232:216|240:177,1,80,0|0,3:0|3:0,0:0:0:0:
328,48,62105,1,8,0:0:0:0:
408,200,62266,1,0,0:0:0:0:
240,256,62425,6,0,L|160:244,1,80,4|8,0:0|0:0,0:0:0:0:
316,320,62744,1,8,0:0:0:0:
100,320,62904,2,0,L|20:308,1,80,4|0,0:0|0:0,0:0:0:0:
180,364,63223,1,8,0:0:0:0:
192,248,63383,1,8,0:0:0:0:
207,250,63462,1,8,0:0:0:0:
219,252,63542,1,8,0:0:0:0:
231,254,63622,1,8,0:0:0:0:
240,256,63702,6,0,P|256:176|216:104,1,160,4|8,0:0|0:0,0:0:0:0:
52,128,64180,2,0,P|88:140|132:136,1,80,4|0,0:0|0:0,0:0:0:0:
100,44,64500,1,0,3:0:0:0:
88,222,64659,2,0,L|100:302,1,80,8|0,0:0|3:0,0:0:0:0:
328,312,64978,5,4,0:0:0:0:
320,220,65138,1,4,0:0:0:0:
404,256,65297,1,8,0:0:0:0:
236,272,65457,2,0,B|200:276|164:248|164:248|132:216|80:224,1,160,4|0,0:0|3:0,0:0:0:0:
100,312,65936,1,8,0:0:0:0:
12,272,66095,1,8,0:0:0:0:
80,143,66255,6,0,L|88:223,1,80,4|0,0:0|0:0,0:0:0:0:
96,40,66574,1,8,0:0:0:0:
96,40,66734,1,0,3:0:0:0:
248,96,66893,2,0,L|168:100,1,80,0|0,3:0|3:0,0:0:0:0:
316,164,67212,1,8,0:0:0:0:
316,164,67372,1,0,0:0:0:0:
284,332,67531,6,0,L|272:252,1,80,4|0,3:2|3:0,0:0:0:0:
376,376,67851,2,0,L|388:296,1,80,8|0,0:0|3:0,0:0:0:0:
316,164,68170,1,8,0:0:0:0:
396,208,68329,1,0,0:0:0:0:
360,72,68489,1,8,0:3:0:0:
336,76,68569,1,8,0:3:0:0:
312,80,68649,1,4,0:3:0:0:
288,84,68728,1,4,0:3:0:0:
264,88,68808,6,0,P|192:116|128:64,1,160,4|8,0:0|0:0,0:0:0:0:
204,32,69287,1,4,0:0:0:0:
64,124,69446,2,0,L|72:204,1,80,0|0,0:0|3:0,0:0:0:0:
176,308,69766,1,8,0:0:0:0:
88,288,69925,1,0,0:0:0:0:
236,216,70085,6,0,L|156:224,1,80,12|4,0:0|3:0,0:0:0:0:
88,288,70404,1,8,0:0:0:0:
276,296,70563,2,0,P|324:228|304:160,1,160,4|0,0:0|3:0,0:0:0:0:
256,88,71042,2,0,P|240:48|240:4,1,80,8|0,0:0|0:0,0:0:0:0:
304,160,71361,6,0,L|384:148,1,80,4|0,0:0|0:0,0:0:0:0:
488,252,71680,2,0,L|408:240,1,80,12|0,0:0|3:0,0:0:0:0:
312,328,72000,2,0,P|308:288|320:248,1,80,0|0,3:0|3:0,0:0:0:0:
481,174,72318,2,0,P|491:212|487:251,1,80,8|0,0:0|0:0,0:0:0:0:
383,148,72638,5,12,0:0:0:0:
452,88,72797,1,8,0:3:0:0:
284,60,72957,2,0,L|364:68,1,80,8|4,0:0|0:3,0:0:0:0:
481,174,73276,1,4,0:0:0:0:
452,88,73436,1,0,3:0:0:0:
481,174,73595,2,0,L|469:258,1,80,4|0,0:0|0:0,0:0:0:0:
301,374,73914,6,0,L|320:216,1,160,4|8,0:0|0:0,0:0:0:0:
124,300,74553,2,0,P|132:260|120:220,2,80,0|0|8,3:0|3:0|0:0,0:0:0:0:
44,264,75031,1,0,3:0:0:0:
96,144,75191,6,0,P|140:140|172:156,1,80,4|0,0:0|0:0,0:0:0:0:
284,232,75510,2,0,P|245:240|205:232,1,80,12|0,0:0|0:0,0:0:0:0:
344,168,75829,2,0,P|368:204|372:240,1,80,4|0,0:0|0:0,0:0:0:0:
312,380,76149,2,0,L|324:300,1,80,8|0,0:0|0:0,0:0:0:0:
276,120,76468,6,0,P|344:84|412:124,1,160,4|8,0:0|0:0,0:0:0:0:
240,200,76946,2,0,L|232:36,1,160,4|0,0:0|3:0,0:0:0:0:
156,64,77425,2,0,L|160:148,1,80,12|0,0:0|0:0,0:0:0:0:
222,279,77744,6,0,B|264:288|300:256|300:256|332:228|370:238,1,160,12|8,0:0|0:0,0:0:0:0:
488,312,78223,1,0,0:0:0:0:
456,232,78383,1,8,0:0:0:0:
404,316,78542,1,0,1:0:0:0:
400,156,78702,2,0,L|408:68,1,80,0|0,1:0|1:0,0:0:0:0:
311,239,79021,6,0,L|327:79,1,160,4|8,0:0|0:0,0:0:0:0:
164,44,79500,1,0,3:0:0:0:
236,104,79659,1,0,3:0:0:0:
328,80,79818,1,0,3:0:0:0:
488,56,79978,2,0,L|408:48,1,80,8|0,0:0|3:0,0:0:0:0:
320,164,80297,6,0,P|273:198|212:192,1,120,4|0,0:0|3:0,0:0:0:0:
204,216,80617,2,0,L|212:296,1,80,8|0,0:0|3:0,0:0:0:0:
144,152,80936,2,0,L|152:72,1,80,8|8,0:3|0:0,0:0:0:0:
120,240,81255,1,4,0:0:0:0:
56,176,81414,1,0,0:0:0:0:
152,72,81574,5,4,0:0:0:0:
230,110,81893,1,2,0:0:0:0:
300,60,82212,1,2,0:0:0:0:
376,100,82531,1,2,0:0:0:0:
376,100,82851,5,8,0:0:0:0:
420,224,83010,1,8,0:0:0:0:
456,140,83170,1,8,0:0:0:0:
332,216,83329,1,4,0:0:0:0:
332,216,83649,1,8,1:2:0:0:
496,248,83808,2,0,L|420:224,1,80,4|0,0:0|0:0,0:0:0:0:
200,252,84127,5,4,0:0:0:0:
264,152,84287,1,8,0:0:0:0:
268,136,84367,1,8,0:0:0:0:
272,120,84446,1,8,0:0:0:0:
200,252,84606,2,0,P|248:324|316:324,1,160,8|8,0:0|3:0,0:0:0:0:
408,300,85085,1,2,0:0:0:0:
288,240,85244,6,0,L|128:228,1,160,4|8,0:0|0:0,0:0:0:0:
60,284,85723,1,0,3:0:0:0:
80,160,85883,1,8,0:0:0:0:
168,80,86042,2,0,P|176:120|164:156,1,80,8|0,0:0|3:0,0:0:0:0:
283,316,86361,2,0,P|275:276|287:240,1,80,8|0,0:0|0:0,0:0:0:0:
395,152,86680,5,8,0:0:0:0:
372,144,86760,1,8,0:0:0:0:
348,136,86840,1,8,0:0:0:0:
240,28,87000,1,0,3:0:0:0:
163,156,87159,5,4,0:0:0:0:
