osu file format v14

[General]
AudioFilename: audio.mp3
AudioLeadIn: 0
PreviewTime: 52212
Countdown: 0
SampleSet: Soft
StackLeniency: 0.7
Mode: 0
LetterboxInBreaks: 0
WidescreenStoryboard: 0

[Editor]
DistanceSpacing: 0.8
BeatDivisor: 4
GridSize: 4
TimelineZoom: 1.8

[Metadata]
Title:COOLEST
TitleUnicode:COOLEST
Artist:Customi Z
ArtistUnicode:カスタマイZ
Creator:Ipas
Version:Extra
Source:坂本ですが?
Tags:Haven't You Heard I'm Sakamoto Desu Ga Opening Cooler HabiHolic Haruto_Aizawa Haruto- Oyatsu
BeatmapID:972270
BeatmapSetID:451989

[Difficulty]
HPDrainRate:6.5
CircleSize:4.3
OverallDifficulty:8.5
ApproachRate:9.3
SliderMultiplier:1.9
SliderTickRate:1

[Events]
//Background and Video events
Video,-1061,"optc.flv"
0,0,"COOL.jpg",0,0
//Break Periods
//Storyboard Layer 0 (Background)
//Storyboard Layer 1 (Fail)
//Storyboard Layer 2 (Pass)
//Storyboard Layer 3 (Foreground)
//Storyboard Sound Samples

[TimingPoints]
-128,319.148936170213,4,2,1,50,1,0
6254,-100,4,2,1,40,0,0
8808,-100,4,2,1,50,0,0
11361,-100,4,2,1,40,0,0
21574,-100,4,2,1,50,0,0
26999,-83.3333333333333,4,2,1,50,0,0
27318,-100,4,2,1,50,0,0
27637,-83.3333333333333,4,2,1,50,0,0
27957,-100,4,2,1,50,0,0
28276,-83.3333333333333,4,2,1,50,0,0
28595,-100,4,2,1,50,0,0
31786,-133.333333333333,4,2,1,30,0,0
41999,-100,4,2,1,50,0,0
53489,-100,4,2,1,60,0,1
56361,-83.3333333333333,4,2,1,60,0,1
56680,-100,4,2,1,60,0,1
56999,-83.3333333333333,4,2,1,60,0,1
57318,-100,4,2,1,60,0,1
61467,-83.3333333333333,4,2,1,60,0,1
61786,-100,4,2,1,60,0,1
62106,-83.3333333333333,4,2,1,60,0,1
62425,-100,4,2,1,60,0,1
66574,-83.3333333333333,4,2,1,60,0,1
66893,-100,4,2,1,60,0,1
67212,-83.3333333333333,4,2,1,60,0,1
67531,-100,4,2,1,60,0,1
81574,-100,4,2,1,50,0,0

[Colours]
Combo1 : 255,0,128
Combo2 : 43,43,255
Combo3 : 255,28,28
Combo4 : 221,221,0
Combo5 : 128,0,255
Combo6 : 255,128,0
Combo7 : 0,187,0

[HitObjects]
164,116,510,5,8,0:0:0:0:
184,120,589,1,8,0:0:0:0:
204,124,669,1,8,0:0:0:0:
224,128,749,1,8,0:0:0:0:
239,135,829,2,0,P|248:156|254:179,1,47.5,8|8,0:0|0:0,0:0:0:0:
119,131,988,2,0,P|140:121|163:115,1,47.5,8|8,0:0|0:0,0:0:0:0:
304,268,1148,6,0,P|396:300|464:244,1,190,4|2,0:0|0:0,0:0:0:0:
360,112,1627,1,0,0:0:0:0:
360,112,1787,2,0,L|376:208,2,95,2|2|0,0:0|0:0|0:0,0:0:0:0:
512,48,2266,2,0,B|464:60|420:36|420:36|372:12|327:21,1,190,2|2,0:0|0:0,0:0:0:0:
156,72,2744,2,0,P|204:80|252:72,1,95,2|0,0:0|0:0,0:0:0:0:
72,20,3063,1,2,0:0:0:0:
112,320,3383,1,4,0:1:0:0:
112,320,3702,6,0,B|160:332|204:308|204:308|252:284|297:293,1,190,4|2,0:1|0:0,0:0:0:0:
448,340,4180,1,2,0:0:0:0:
384,268,4340,1,0,0:0:0:0:
360,360,4500,1,2,0:0:0:0:
480,252,4659,1,2,0:0:0:0:
420,180,4819,1,0,0:0:0:0:
295,292,4978,5,10,0:0:0:0:
419,179,5138,2,0,L|326:164,1,95,8|2,0:0|0:3,0:0:0:0:
152,232,5458,2,0,L|245:216,1,95,2|0,0:3|0:0,0:0:0:0:
480,252,5776,1,8,0:0:0:0:
496,20,5936,1,8,0:0:0:0:
325,163,6095,1,8,0:0:0:0:
468,364,6255,6,0,P|390:312|300:330,1,190,4|0,0:0|3:0,0:0:0:0:
116,336,6734,1,0,3:0:0:0:
116,336,6893,2,0,L|212:356,1,95,0|0,1:0|3:0,0:0:0:0:
172,160,7212,2,0,L|183:254,1,95,0|0,1:0|3:0,0:0:0:0:
48,64,7531,5,0,1:0:0:0:
76,72,7611,1,0,1:0:0:0:
104,72,7691,1,0,1:0:0:0:
132,64,7771,1,0,1:0:0:0:
156,52,7851,2,0,P|200:36|248:36,1,95,0|0,1:0|1:0,0:0:0:0:
512,136,8169,5,0,1:0:0:0:
484,128,8250,1,0,1:0:0:0:
456,128,8330,1,0,1:0:0:0:
428,136,8410,1,0,1:0:0:0:
404,148,8490,2,0,P|360:164|312:164,1,95,0|8,1:0|0:0,0:0:0:0:
248,304,8808,5,0,3:0:0:0:
192,196,8968,1,0,1:0:0:0:
196,176,9047,1,0,1:0:0:0:
200,156,9127,1,0,1:0:0:0:
368,320,9286,5,4,3:0:0:0:
312,164,9446,2,0,P|329:141|349:129,1,47.5,8|8,0:0|0:0,0:0:0:0:
476,180,9606,1,0,0:0:0:0:
336,48,9766,1,4,0:3:0:0:
368,320,9925,5,4,0:0:0:0:
464,296,10084,2,0,L|512:300,1,47.5,8|8,0:0|0:0,0:0:0:0:
212,276,10244,1,8,0:0:0:0:
204,268,10324,1,8,0:0:0:0:
196,260,10404,2,0,P|199:212|221:171,1,95,2|0,3:2|0:0,0:0:0:0:
393,21,10723,2,0,L|403:116,1,95,4|0,0:0|0:0,0:0:0:0:
381,321,11042,1,4,0:0:0:0:
381,321,11361,6,0,P|383:229|314:166,1,190,4|8,0:0|0:0,0:0:0:0:
290,271,11840,1,0,0:0:0:0:
480,228,12000,1,0,3:0:0:0:
432,112,12159,1,0,3:0:0:0:
381,321,12319,6,0,L|476:328,2,95,8|0|0,0:0|3:0|0:0,0:0:0:0:
290,271,12797,1,0,0:0:0:0:
432,111,12957,2,0,P|423:158|397:198,1,95,8|0,0:0|0:0,0:0:0:0:
282,365,13276,2,0,L|290:269,1,95,0|0,3:0|3:0,0:0:0:0:
296,116,13595,2,0,P|252:88|208:84,1,95,8|0,0:0|0:0,0:0:0:0:
64,184,13914,6,0,P|143:227|220:181,1,190,4|8,0:0|0:0,0:0:0:0:
140,132,14393,1,2,0:0:0:0:
220,328,14553,1,0,3:0:0:0:
288,260,14712,1,0,3:0:0:0:
120,320,14872,1,8,0:0:0:0:
376,280,15031,6,0,B|432:296|488:264|488:264|460:280|440:328,1,190,2|2,3:2|0:0,0:0:0:0:
424,104,15510,2,0,B|424:136|412:160|412:160|418:196,1,95,8|0,0:0|0:0,0:0:0:0:
282,352,15830,2,0,B|282:320|294:296|294:296|287:259,1,95,4|0,0:0|0:0,0:0:0:0:
332,96,16149,2,0,P|340:64|384:24,1,95,12|0,0:0|0:0,0:0:0:0:
418,196,16468,6,0,B|352:184|352:184|300:188|300:188|229:174,1,190,4|8,0:0|0:0,0:0:0:0:
160,88,16946,1,0,3:0:0:0:
216,272,17106,2,0,P|203:226|214:180,1,95,0|0,3:0|3:0,0:0:0:0:
400,296,17425,1,8,0:0:0:0:
307,335,17585,2,0,P|224:296|138:329,1,190,2|0,3:2|0:0,0:0:0:0:
72,180,18063,5,8,0:0:0:0:
44,308,18223,1,0,3:0:0:0:
80,160,18383,1,0,3:0:0:0:
36,328,18542,1,0,3:0:0:0:
184,184,18702,2,0,L|176:89,1,95,8|0,0:0|0:0,0:0:0:0:
208,268,19021,6,0,B|276:244|272:168|272:168|296:192|295:222,1,190,4|8,0:0|0:0,0:0:0:0:
232,356,19500,1,2,0:0:0:0:
232,355,19659,2,0,P|185:361|144:338,1,95,0|0,3:0|3:0,0:0:0:0:
184,184,19978,1,8,0:0:0:0:
395,299,20138,6,0,L|207:267,1,190,4|0,0:0|3:0,0:0:0:0:
268,128,20617,1,8,0:0:0:0:
284,360,20776,1,0,3:0:0:0:
207,267,20936,1,4,0:3:0:0:
360,172,21095,1,8,0:0:0:0:
176,364,21254,1,8,0:0:0:0:
20,280,21414,1,8,0:0:0:0:
262,182,21574,6,0,B|398:206|398:206|360:172,1,190,4|8,0:0|0:0,0:0:0:0:
207,267,22053,2,0,B|171:251|143:255|143:255|163:247|167:235,1,95,0|0,0:0|3:0,0:0:0:0:
56,144,22372,2,0,B|92:160|120:156|120:156|100:164|96:176,1,95,0|8,3:0|0:0,0:0:0:0:
212,352,22691,6,0,P|284:296|264:208,1,190,4|0,0:0|3:0,0:0:0:0:
308,32,23170,1,8,0:0:0:0:
149,159,23329,2,0,L|55:143,1,95,0|0,0:0|3:0,0:0:0:0:
216,52,23649,1,0,0:0:0:0:
256,216,23808,2,0,P|248:264|264:316,1,95,8|0,0:0|0:0,0:0:0:0:
440,192,24127,6,0,P|394:204|350:189,2,95,4|0|8,3:2|3:0|0:0,0:0:0:0:
400,96,24606,1,2,0:0:0:0:
347,294,24765,2,0,L|340:200,1,95,2|0,3:2|3:0,0:0:0:0:
400,96,25085,1,8,0:0:0:0:
236,256,25244,6,0,L|224:66,1,190,4|0,0:0|3:0,0:0:0:0:
340,200,25723,1,0,3:0:0:0:
148,140,25882,1,0,0:0:0:0:
468,200,26043,1,8,0:0:0:0:
440,176,26122,1,0,3:0:0:0:
404,168,26202,1,0,3:0:0:0:
368,176,26281,1,0,3:0:0:0:
340,200,26361,2,0,L|344:296,1,95,8|0,0:0|0:0,0:0:0:0:
68,136,26680,6,0,P|94:199|160:220,1,142.5,4|0,0:0|0:0,0:0:0:0:
148,140,27000,6,0,L|140:24,1,113.999996520996,8|0,0:0|0:0,0:0:0:0:
332,212,27319,6,0,B|336:252|336:252|344:272|344:272|347:305,1,95,0|0,3:0|0:0,0:0:0:0:
404,372,27558,1,0,3:0:0:0:
404,371,27638,6,0,P|445:334|501:323,1,113.999996520996,8|0,0:0|0:0,0:0:0:0:
256,248,27957,6,0,P|254:178|306:133,1,142.5,0|0,0:0|0:0,0:0:0:0:
332,212,28276,6,0,L|448:204,1,113.999996520996,8|2,0:0|0:0,0:0:0:0:
232,344,28595,1,8,0:0:0:0:
128,144,28755,1,0,1:0:0:0:
124,168,28835,1,0,1:0:0:0:
120,191,28914,2,0,P|121:215|130:237,1,47.5,0|0,1:0|1:0,0:0:0:0:
306,133,29074,2,0,P|284:142|260:143,1,47.5,0|0,1:0|1:0,0:0:0:0:
228,264,29234,6,0,L|204:75,1,190,4|8,0:0|0:0,0:0:0:0:
130,237,29712,1,0,1:0:0:0:
134,265,29792,1,0,1:0:0:0:
138,293,29872,1,0,1:0:0:0:
248,360,30031,1,8,0:3:0:0:
228,264,30191,1,4,0:3:0:0:
48,356,30351,6,0,B|32:208|32:208|24:252,1,190,4|0,0:0|3:0,0:0:0:0:
35,107,30829,2,0,P|81:120|127:110,1,95,8|0,0:0|3:0,0:0:0:0:
252,132,31069,1,0,1:0:0:0:
268,148,31149,2,0,P|277:194|264:239,1,95,0|8,1:0|0:0,0:0:0:0:
176,368,31468,1,4,0:3:0:0:
156,204,31627,1,0,0:0:0:0:
383,203,31787,6,0,P|404:264|376:336,1,142.5,4|0,0:0|0:0,0:0:0:0:
308,376,32266,1,0,0:0:0:0:
244,324,32425,2,0,P|168:308|100:328,1,142.500005435944,8|0,0:0|3:0,0:0:0:0:
48,260,32904,2,0,L|56:112,1,142.500005435944,4|8,0:0|0:0,0:0:0:0:
108,48,33383,2,0,P|140:64|176:68,1,71.2500027179719,2|0,0:0|0:0,0:0:0:0:
260,36,33702,2,0,P|292:20|328:16,1,71.2500027179719,8|2,0:0|0:0,0:0:0:0:
408,60,34021,1,0,0:0:0:0:
408,60,34180,1,0,0:0:0:0:
500,180,34340,6,0,P|432:156|360:164,1,142.500005435944,4|0,0:0|0:0,0:0:0:0:
284,120,34819,1,0,0:0:0:0:
284,120,34978,2,0,B|272:168|272:168|276:208|276:208|260:264,2,142.500005435944,8|0|0,0:0|3:0|0:0,0:0:0:0:
188,292,35776,1,8,0:0:0:0:
188,292,35936,1,0,3:0:0:0:
188,292,36255,2,0,P|240:336|308:320,1,142.500005435944,8|2,0:0|0:3,0:0:0:0:
176,149,36893,6,0,L|188:293,1,142.500005435944,4|0,0:0|0:0,0:0:0:0:
104,360,37372,1,0,3:0:0:0:
104,360,37531,2,0,L|96:288,1,71.2500027179719,8|0,0:0|0:0,0:0:0:0:
268,120,37851,2,0,L|276:192,1,71.2500027179719,0|0,3:0|3:0,0:0:0:0:
84,204,38170,5,0,0:0:0:0:
16,80,38329,2,0,L|19:151,1,71.2500027179719
96,288,38649,1,0,3:0:0:0:
95,288,38808,2,0,P|130:280|165:283,1,71.2500027179719,8|0,0:0|0:0,0:0:0:0:
305,327,39128,2,0,P|271:335|236:332,1,71.2500027179719,0|0,3:0|0:0,0:0:0:0:
408,232,39446,5,4,0:0:0:0:
268,244,39606,1,0,0:0:0:0:
416,248,39766,5,0,0:0:0:0:
216,144,39925,1,0,3:0:0:0:
424,264,40085,5,8,0:0:0:0:
272,52,40244,1,0,0:0:0:0:
432,280,40404,5,0,0:0:0:0:
380,16,40563,1,0,0:0:0:0:
440,296,40723,5,12,0:0:0:0:
356,320,41042,1,0,1:0:0:0:
272,344,41361,1,0,1:0:0:0:
188,368,41680,1,8,0:0:0:0:
272,344,41840,1,2,0:3:0:0:
180,273,42000,6,0,L|188:369,1,95,4|0,0:0|3:0,0:0:0:0:
168,160,42319,1,8,0:0:0:0:
256,204,42478,1,2,0:0:0:0:
92,228,42638,2,0,P|48:244|-4:236,1,95,0|0,3:0|3:0,0:0:0:0:
256,204,42957,2,0,P|300:188|352:196,1,95,8|0,0:0|0:0,0:0:0:0:
400,372,43276,6,0,L|412:276,2,95,0|0|8,3:0|3:0|0:0,0:0:0:0:
352,208,43755,2,0,L|376:20,1,190,2|0,0:0|0:0,0:0:0:0:
468,104,44234,1,8,0:0:0:0:
452,208,44393,1,0,0:0:0:0:
264,160,44553,6,0,P|220:144|168:140,1,95,4|0,0:0|3:0,0:0:0:0:
76,296,44872,1,8,0:0:0:0:
32,184,45031,1,8,0:0:0:0:
36,164,45111,1,8,0:0:0:0:
40,144,45191,1,8,0:0:0:0:
112,32,45351,1,4,0:3:0:0:
164,152,45510,1,8,0:0:0:0:
220,48,45670,1,8,0:0:0:0:
156,246,45829,6,0,L|164:150,1,95,0|0,0:0|3:0,0:0:0:0:
220,48,46069,1,0,0:0:0:0:
240,32,46149,2,0,P|284:24|336:32,1,95,8|0,0:0|3:0,0:0:0:0:
412,248,46468,2,0,L|404:152,1,95,8|0,0:0|1:0,0:0:0:0:
312,208,46707,1,0,1:0:0:0:
304,236,46787,2,0,L|312:336,1,95,0|0,1:0|0:0,0:0:0:0:
432,48,47106,5,4,0:0:0:0:
216,356,47425,2,0,L|120:348,1,95,0|0,3:0|3:0,0:0:0:0:
88,256,47744,1,8,0:0:0:0:
311,330,47904,1,2,0:3:0:0:
317,116,48063,2,0,P|325:162|311:207,1,95,4|4,0:0|0:0,0:0:0:0:
88,256,48383,5,4,0:0:0:0:
121,348,48542,1,0,0:0:0:0:
220,184,48702,1,2,0:3:0:0:
184,272,48861,1,0,3:0:0:0:
184,272,48941,1,0,3:0:0:0:
184,272,49020,5,8,0:0:0:0:
372,160,49180,2,0,L|368:112,1,47.5,8|8,0:0|0:0,0:0:0:0:
132,168,49340,1,8,0:0:0:0:
436,40,49500,1,8,0:0:0:0:
436,40,49579,1,8,0:0:0:0:
436,40,49659,5,4,0:0:0:0:
312,232,49819,1,0,0:0:0:0:
352,316,49978,1,8,0:0:0:0:
176,128,50138,1,8,0:0:0:0:
176,128,50217,1,8,0:0:0:0:
176,128,50297,1,0,3:0:0:0:
396,248,50457,1,4,0:3:0:0:
272,144,50617,1,0,0:0:0:0:
216,220,50776,1,0,3:0:0:0:
424,336,50936,5,8,0:0:0:0:
456,64,51095,1,8,0:0:0:0:
464,164,51255,1,0,1:0:0:0:
376,20,51414,1,8,0:0:0:0:
301,259,51574,2,0,L|395:247,1,95,8|8,0:0|0:0,0:0:0:0:
272,144,51893,1,8,0:0:0:0:
172,312,52053,1,8,0:0:0:0:
100,36,52212,5,12,0:0:0:0:
464,164,52531,5,8,0:0:0:0:
92,296,52851,6,0,P|92:316|100:344,1,47.5,8|8,0:0|0:0,0:0:0:0:
284,312,53010,2,0,P|266:302|238:294,1,47.5,8|8,0:0|0:0,0:0:0:0:
420,336,53169,1,8,0:0:0:0:
416,328,53249,1,8,0:0:0:0:
412,320,53329,1,8,0:0:0:0:
408,312,53409,1,8,0:0:0:0:
404,304,53489,6,0,L|420:108,1,190,4|8,0:0|0:0,0:0:0:0:
312,20,53968,1,4,0:0:0:0:
468,28,54127,1,0,0:0:0:0:
332,148,54287,1,0,3:0:0:0:
420,324,54446,1,0,1:0:0:0:
456,196,54606,1,8,0:3:0:0:
292,340,54766,6,0,L|192:332,2,95,4|0|8,0:0|3:0|0:0,0:0:0:0:
132,248,55244,2,0,P|96:284|84:328,1,95,4|0,0:0|0:0,0:0:0:0:
232,140,55563,2,0,P|244:92|228:44,1,95,0|8,0:0|0:0,0:0:0:0:
84,128,55883,1,0,0:0:0:0:
252,268,56042,6,0,L|396:256,1,142.5,4|4,0:0|0:0,0:0:0:0:
412,268,56361,6,0,P|424:316|404:376,1,113.999996520996,0|0,3:0|3:0,0:0:0:0:
235,173,56680,6,0,L|91:185,1,142.5,4|4,0:0|0:0,0:0:0:0:
75,173,56999,6,0,P|63:125|83:65,1,113.999996520996,0|0,3:0|3:0,0:0:0:0:
251,267,57319,6,0,L|236:174,1,95,4|0,0:0|3:0,0:0:0:0:
288,52,57638,1,0,1:0:0:0:
156,272,57797,1,8,0:0:0:0:
136,72,57957,2,0,P|88:64|40:72,1,95,0|0,3:0|3:0,0:0:0:0:
32,364,58276,1,8,0:0:0:0:
60,340,58356,1,8,0:0:0:0:
96,332,58436,1,8,0:0:0:0:
132,340,58516,1,8,0:0:0:0:
164,360,58595,6,0,B|212:352|212:352|252:332|252:332|300:324,1,142.5,4|0,0:0|0:0,0:0:0:0:
364,352,58914,1,0,0:0:0:0:
464,168,59074,2,0,P|468:120|464:73,1,95,4|0,0:0|3:0,0:0:0:0:
232,200,59393,1,0,0:0:0:0:
316,16,59553,1,8,0:0:0:0:
368,208,59712,1,0,0:0:0:0:
172,100,59872,5,4,0:0:0:0:
44,280,60031,2,0,L|56:376,1,95,4|8,0:0|0:0,0:0:0:0:
228,332,60351,2,0,B|244:276|232:200|232:200|252:220|258:249,1,190,4|0,0:0|3:0,0:0:0:0:
396,120,60829,1,8,0:0:0:0:
484,252,60989,1,0,3:0:0:0:
484,252,61069,1,0,0:0:0:0:
484,252,61149,6,0,P|424:224|376:276,1,142.5,4|0,0:0|0:0,0:0:0:0:
322,320,61468,6,0,L|204:344,1,113.999996520996,4|0,0:0|0:0,0:0:0:0:
1,269,61787,6,0,B|49:261|49:261|85:241|85:241|137:233,1,142.5,0|0,3:0|0:0,0:0:0:0:
201,256,62106,6,0,P|253:235|287:191,1,113.999996520996,8|0,0:0|0:0,0:0:0:0:
208,12,62425,5,4,0:0:0:0:
428,224,62585,1,8,0:0:0:0:
428,208,62664,1,0,0:0:0:0:
428,192,62744,2,0,P|424:160|416:136,1,47.5,8|0,0:0|3:0,0:0:0:0:
89,173,62904,2,0,B|152:181|152:181|209:165|209:165|276:172,1,190,4|8,0:0|0:0,0:0:0:0:
288,192,63303,1,0,0:0:0:0:
300,212,63383,2,0,P|324:208|344:196,1,47.5,8|8,0:0|0:0,0:0:0:0:
460,36,63542,1,8,0:0:0:0:
472,52,63622,1,8,0:0:0:0:
484,68,63702,6,0,L|472:260,1,190,4|8,0:0|0:0,0:0:0:0:
272,364,64180,2,0,P|296:268|244:200,1,190,4|0,0:0|3:0,0:0:0:0:
16,104,64659,2,0,L|112:96,1,95,8|0,0:0|3:0,0:0:0:0:
316,152,64978,5,4,0:0:0:0:
272,364,65138,1,4,0:0:0:0:
88,320,65297,1,8,0:0:0:0:
316,152,65457,2,0,P|380:224|364:312,1,190,4|0,0:0|3:0,0:0:0:0:
87,320,65936,2,0,P|109:278|148:251,1,95,8|8,0:0|0:0,0:0:0:0:
507,321,66255,6,0,L|364:309,1,142.5,4|0,0:0|0:0,0:0:0:0:
308,352,66574,6,0,P|264:364|200:340,1,113.999996520996,8|0,0:0|3:0,0:0:0:0:
208,52,66893,6,0,L|196:194,1,142.5,0|0,3:0|0:0,0:0:0:0:
147,251,67212,6,0,P|99:251|40:216,1,113.999996520996,8|0,0:0|0:0,0:0:0:0:
360,128,67531,5,4,3:2:0:0:
147,251,67691,1,0,3:0:0:0:
292,224,67851,1,8,0:0:0:0:
184,36,68010,1,0,3:0:0:0:
40,328,68170,5,8,0:0:0:0:
28,152,68329,2,0,L|36:104,1,47.5,0|0,0:0|0:0,0:0:0:0:
184,36,68489,5,8,0:3:0:0:
208,64,68569,1,8,0:3:0:0:
212,100,68649,1,4,0:3:0:0:
200,136,68728,1,4,0:3:0:0:
172,164,68808,6,0,L|180:356,1,190,4|8,0:0|0:0,0:0:0:0:
310,318,69287,2,0,L|306:218,2,95,4|0|0,0:0|0:0|3:0,0:0:0:0:
412,148,69766,1,8,0:0:0:0:
456,260,69925,1,0,0:0:0:0:
396,28,70085,5,12,0:0:0:0:
360,236,70244,1,4,3:0:0:0:
508,176,70403,1,8,0:0:0:0:
300,155,70563,2,0,P|263:240|310:318,1,190,4|0,0:0|3:0,0:0:0:0:
112,352,71042,2,0,L|208:340,1,95,8|0,0:0|0:0,0:0:0:0:
128,96,71361,6,0,L|144:252,1,142.5,4|0,0:0|0:0,0:0:0:0:
160,260,71680,2,0,L|166:159,1,95,12|0,0:0|3:0,0:0:0:0:
48,336,72000,1,0,3:0:0:0:
40,228,72159,1,0,3:0:0:0:
206,340,72319,2,0,P|254:352|302:340,1,95,8|0,0:0|0:0,0:0:0:0:
444,312,72638,5,12,0:0:0:0:
264,160,72797,2,0,L|256:208,1,47.5
304,40,72957,2,0,L|312:88,1,47.5,8|0,0:0|0:0,0:0:0:0:
344,224,73116,1,8,0:0:0:0:
297,342,73276,1,4,0:0:0:0:
168,152,73436,1,0,3:0:0:0:
438,231,73595,2,0,L|343:223,1,95,4|0,0:0|0:0,0:0:0:0:
48,112,73914,6,0,B|140:136|140:84|236:116,1,190,4|8,0:0|0:0,0:0:0:0:
343,223,74393,1,0,0:0:0:0:
176,192,74552,2,0,P|184:236|216:276,1,95,0|0,3:0|3:0,0:0:0:0:
328,124,74872,2,0,P|320:80|288:40,1,95,8|0,0:0|3:0,0:0:0:0:
214,274,75191,5,4,0:0:0:0:
404,296,75351,1,0,0:0:0:0:
256,372,75510,2,0,P|204:380|156:360,1,95,12|0,0:0|0:0,0:0:0:0:
136,104,75829,1,4,0:0:0:0:
214,274,75989,1,0,0:0:0:0:
421,139,76149,2,0,L|327:123,1,95,8|0,0:0|0:0,0:0:0:0:
56,56,76468,6,0,B|104:64|104:64|144:56|144:56|196:64,1,142.5,4|0,0:0|0:0,0:0:0:0:
244,116,76787,1,0,0:0:0:0:
408,168,76946,2,0,P|410:215|400:264,1,95,2|8,0:0|0:0,0:0:0:0:
488,348,77266,1,0,3:0:0:0:
340,352,77425,1,12,0:0:0:0:
303,208,77585,1,0,0:0:0:0:
496,88,77744,6,0,L|304:64,1,190,12|8,0:0|0:0,0:0:0:0:
176,148,78223,1,0,0:0:0:0:
303,208,78383,1,8,0:0:0:0:
212,56,78542,2,0,P|192:44|168:36,1,47.5,0|0,3:0|3:0,0:0:0:0:
400,176,78701,2,0,P|420:164|439:147,1,47.5,0|0,3:0|3:0,0:0:0:0:
212,248,78861,2,0,P|211:271|216:296,1,47.5,0|0,3:0|3:0,0:0:0:0:
492,304,79021,6,0,B|424:296|424:296|368:272|368:272|307:264,1,190,4|8,0:0|0:0,0:0:0:0:
104,328,79500,1,0,3:0:0:0:
280,360,79659,1,0,3:0:0:0:
88,324,79819,1,0,3:0:0:0:
296,364,79978,1,8,0:0:0:0:
188,184,80138,1,0,3:0:0:0:
492,304,80297,6,0,L|350:289,1,142.5,4|0,0:0|3:0,0:0:0:0:
308,232,80617,2,0,P|300:184|312:140,1,95,8|0,0:0|3:0,0:0:0:0:
328,128,80856,1,2,0:0:0:0:
344,120,80936,1,8,0:3:0:0:
176,320,81095,1,8,0:0:0:0:
48,252,81255,1,4,0:0:0:0:
140,152,81414,1,0,0:0:0:0:
176,320,81574,5,4,0:0:0:0:
160,240,81893,1,2,0:0:0:0:
412,292,82212,1,2,0:0:0:0:
392,368,82531,1,2,0:0:0:0:
392,368,82851,5,8,0:0:0:0:
304,164,83010,1,8,0:0:0:0:
400,24,83170,1,8,0:0:0:0:
344,264,83329,1,4,0:0:0:0:
344,264,83649,1,8,1:2:0:0:
120,116,83808,2,0,L|216:108,1,95,4|0,0:0|0:0,0:0:0:0:
412,192,84127,5,4,0:0:0:0:
246,303,84287,1,8,0:0:0:0:
222,299,84367,1,8,0:0:0:0:
198,295,84446,1,8,0:0:0:0:
436,288,84606,1,12,0:0:0:0:
488,100,84765,1,8,0:0:0:0:
464,96,84845,1,8,0:0:0:0:
440,92,84924,1,8,0:0:0:0:
264,52,85085,1,2,0:0:0:0:
246,303,85244,5,4,0:0:0:0:
496,368,85403,1,8,0:0:0:0:
376,160,85563,1,0,3:0:0:0:
368,308,85723,1,0,0:0:0:0:
496,368,85883,1,8,0:0:0:0:
236,200,86042,5,0,0:0:0:0:
232,188,86121,1,0,3:0:0:0:
228,176,86201,1,0,3:0:0:0:
368,308,86362,1,0,0:0:0:0:
364,320,86441,1,0,3:0:0:0:
360,332,86521,1,0,3:0:0:0:
416,96,86680,5,0,0:0:0:0:
408,60,86760,1,8,0:0:0:0:
400,24,86840,1,8,0:0:0:0:
132,148,86999,1,0,3:0:0:0:
356,344,87159,1,4,0:0:0:0:
