osu file format v14

[General]
AudioFilename: audio.mp3
AudioLeadIn: 0
PreviewTime: 52212
Countdown: 0
SampleSet: Soft
StackLeniency: 0.7
Mode: 0
LetterboxInBreaks: 0
WidescreenStoryboard: 0

[Editor]
DistanceSpacing: 1
BeatDivisor: 4
GridSize: 4
TimelineZoom: 2.6

[Metadata]
Title:COOLEST
TitleUnicode:COOLEST
Artist:Customi Z
ArtistUnicode:カスタマイZ
Creator:Haruto
Version:Insane
Source:坂本ですが?
Tags:Haven't You Heard I'm Sakamoto Desu Ga Opening Cooler HabiHolic Ipas NewIpas Haruto_aizawa Oyatsu Yuii- Janpai Ascendance P_i_k_u
BeatmapID:1102162
BeatmapSetID:518745

[Difficulty]
HPDrainRate:7
CircleSize:3.8
OverallDifficulty:8
ApproachRate:9
SliderMultiplier:1.8
SliderTickRate:2

[Events]
//Background and Video events
Video,-1061,"optc.flv"
0,0,"COOL.jpg",0,0
//Break Periods
//Storyboard Layer 0 (Background)
//Storyboard Layer 1 (Fail)
//Storyboard Layer 2 (Pass)
//Storyboard Layer 3 (Foreground)
//Storyboard Sound Samples

[TimingPoints]
-128,319.148936170213,4,2,1,50,1,0
6254,-100,4,2,1,40,0,0
8808,-100,4,2,1,50,0,0
11361,-111.111111111111,4,2,1,40,0,0
21574,-100,4,2,1,70,0,0
31786,-133.333333333333,4,2,1,50,0,0
40723,-117.647058823529,4,2,1,60,0,0
41042,-105.263157894737,4,2,1,60,0,0
41361,-95.2380952380951,4,2,1,60,0,0
41680,-100,4,2,1,60,0,0
41999,-100,4,2,1,60,0,0
53489,-100,4,2,1,70,0,1
81574,-100,4,2,1,50,0,0

[Colours]
Combo1 : 255,0,128
Combo2 : 43,43,255
Combo3 : 255,28,28
Combo4 : 221,221,0
Combo5 : 128,0,255
Combo6 : 255,128,0
Combo7 : 0,187,0

[HitObjects]
62,194,510,5,8,0:0:0:0:
90,207,589,1,8,0:0:0:0:
121,206,669,1,8,0:0:0:0:
149,192,749,1,8,0:0:0:0:
170,168,829,1,8,0:0:0:0:
186,142,908,1,8,0:0:0:0:
210,121,988,1,8,0:0:0:0:
239,111,1068,1,8,0:0:0:0:
270,114,1149,6,0,B|321:105|321:105|396:126|396:126|461:115,1,180,4|2,0:0|0:0,0:0:0:0:
370,325,1627,1,0,0:0:0:0:
493,188,1787,1,2,0:0:0:0:
351,235,1946,1,2,0:0:0:0:
458,354,2106,1,0,0:0:0:0:
351,235,2266,6,0,P|291:216|209:313,1,180,2|2,0:0|0:0,0:0:0:0:
87,319,2744,1,2,0:0:0:0:
165,364,2904,1,0,0:0:0:0:
136,246,3063,1,2,0:0:0:0:
136,246,3383,2,0,L|123:151,1,90,4|0,0:1|0:0,0:0:0:0:
36,92,3702,6,0,P|123:117|193:54,1,180,4|2,0:1|0:0,0:0:0:0:
332,67,4180,1,2,0:0:0:0:
215,150,4340,1,0,0:0:0:0:
260,14,4500,1,2,0:0:0:0:
303,151,4659,1,2,0:0:0:0:
260,14,4819,1,0,0:0:0:0:
391,135,4978,5,2,0:0:0:0:
259,227,5138,1,0,0:0:0:0:
259,227,5457,1,0,0:0:0:0:
259,227,5776,1,0,0:0:0:0:
129,132,5936,1,0,0:0:0:0:
303,151,6095,1,8,0:0:0:0:
129,132,6255,6,0,B|137:186|137:186|123:257|123:257|134:313,1,180,4|0,0:0|3:0,0:0:0:0:
221,327,6734,1,0,3:0:0:0:
221,327,6893,2,0,P|273:258|365:261,1,180,0|0,1:0|1:0,0:0:0:0:
429,200,7372,1,0,3:0:0:0:
429,200,7531,6,0,B|429:71|429:71|407:24,1,180,0|0,1:0|1:0,0:0:0:0:
342,87,8010,1,0,1:0:0:0:
255,63,8170,1,0,1:0:0:0:
225,74,8250,1,0,1:0:0:0:
193,76,8329,1,0,1:0:0:0:
163,64,8409,1,0,1:0:0:0:
141,40,8489,2,0,L|72:32,1,45,0|0,1:0|0:0,0:0:0:0:
17,112,8649,2,0,L|61:117,1,45,8|0,0:0|0:0,0:0:0:0:
129,177,8808,5,0,3:0:0:0:
111,271,8968,1,0,1:0:0:0:
111,271,9047,1,0,1:0:0:0:
111,271,9127,2,0,L|103:331,1,45,0|0,1:0|0:0,0:0:0:0:
196,240,9287,2,0,L|229:295,1,45
218,151,9446,2,0,L|198:105,2,45
283,216,9766,1,0,0:0:0:0:
306,125,9925,1,4,0:0:0:0:
372,188,10085,5,0,0:0:0:0:
390,213,10164,1,0,0:0:0:0:
393,244,10244,2,0,L|373:309,1,45,8|0,0:0|0:0,0:0:0:0:
295,332,10404,1,2,3:2:0:0:
218,151,10723,1,4,0:0:0:0:
100,309,11042,1,4,0:0:0:0:
295,332,11361,6,0,B|337:343|373:320|373:320|414:291|467:311,1,161.999995056153,4|8,0:0|0:0,0:0:0:0:
485,224,11840,1,0,0:0:0:0:
486,224,12000,2,0,P|479:181|500:132,1,80.9999975280763,0|0,3:0|3:0,0:0:0:0:
330,113,12319,2,0,P|370:128|402:171,1,80.9999975280763,8|0,0:0|3:0,0:0:0:0:
504,33,12638,6,0,P|470:60|417:66,1,80.9999975280763,0|0,0:0|0:0,0:0:0:0:
313,205,12957,2,0,B|257:218|257:218|128:200,1,161.999995056153,8|0,0:0|3:0,0:0:0:0:
68,176,13436,1,0,3:0:0:0:
134,117,13595,1,8,0:0:0:0:
87,263,13755,1,0,0:0:0:0:
87,263,13914,6,0,P|141:288|239:235,1,161.999995056153,4|8,0:0|0:0,0:0:0:0:
134,117,14393,1,2,0:0:0:0:
134,117,14553,2,0,L|153:205,1,80.9999975280763,0|0,3:0|3:0,0:0:0:0:
237,150,14872,2,0,L|255:71,1,80.9999975280763,8|2,0:0|3:2,0:0:0:0:
341,25,15191,6,0,L|359:105,1,80.9999975280763,0|2,0:0|0:0,0:0:0:0:
398,224,15510,1,8,0:0:0:0:
438,145,15670,1,0,0:0:0:0:
319,183,15829,2,0,P|309:243|337:296,1,121.499996292114,4|0,0:0|0:0,0:0:0:0:
504,265,16149,2,0,P|457:227|398:224,1,121.499996292114,12|0,0:0|0:0,0:0:0:0:
337,296,16468,6,0,B|286:315|286:315|170:311,1,161.999995056153,4|8,0:0|0:0,0:0:0:0:
104,262,16946,1,0,3:0:0:0:
104,262,17106,2,0,P|94:224|100:173,1,80.9999975280763,0|0,3:0|3:0,0:0:0:0:
27,123,17425,1,8,0:0:0:0:
27,123,17585,6,0,P|101:149|193:108,1,161.999995056153
300,99,18063,1,8,0:0:0:0:
225,51,18223,1,0,3:0:0:0:
251,171,18383,1,0,3:0:0:0:
387,106,18542,1,0,3:0:0:0:
225,51,18702,1,8,0:0:0:0:
202,243,18861,1,0,3:0:0:0:
339,184,19021,6,0,B|321:225|339:266|339:266|355:302|338:351,1,161.999995056153,4|8,0:0|0:0,0:0:0:0:
178,314,19500,1,2,0:0:0:0:
178,314,19659,2,0,L|259:306,1,80.9999975280763,0|0,3:0|3:0,0:0:0:0:
341,341,19978,1,8,0:0:0:0:
430,343,20138,2,0,B|445:284|418:232|418:232|431:205|427:185,1,161.999995056153,4|0,0:0|3:0,0:0:0:0:
339,184,20617,2,0,L|259:170,1,80.9999975280763,8|0,0:0|3:0,0:0:0:0:
118,130,20936,5,4,0:3:0:0:
208,243,21095,1,8,0:0:0:0:
203,100,21255,5,8,0:0:0:0:
203,100,21414,1,8,0:0:0:0:
121,220,21574,6,0,P|131:296|234:336,1,180,4|8,0:0|0:0,0:0:0:0:
298,282,22053,1,0,0:0:0:0:
298,282,22212,2,0,L|290:190,1,90,0|0,3:0|3:0,0:0:0:0:
405,87,22531,1,0,0:0:0:0:
405,87,22691,6,0,P|373:168|289:191,1,180,4|0,0:0|3:0,0:0:0:0:
214,98,23170,2,0,L|303:92,1,90,0|0,0:0|3:0,0:0:0:0:
294,195,23489,1,8,0:0:0:0:
294,195,23649,2,0,L|204:200,1,90,0|8,0:0|0:0,0:0:0:0:
132,134,23968,1,0,0:0:0:0:
132,134,24127,6,0,P|76:141|16:131,1,90,4|0,3:2|3:0,0:0:0:0:
205,201,24446,2,0,P|261:194|321:204,1,90,8|2,0:0|0:0,0:0:0:0:
114,320,24766,1,2,3:2:0:0:
114,320,24925,2,0,L|105:231,1,90,0|8,3:0|0:0,0:0:0:0:
248,300,25244,6,0,P|161:297|103:225,1,180,4|0,0:0|3:0,0:0:0:0:
205,201,25723,2,0,L|193:112,1,90,8|0,0:0|0:0,0:0:0:0:
321,19,26042,2,0,P|276:12|231:24,1,90,0|0,3:0|3:0,0:0:0:0:
288,113,26281,1,0,3:0:0:0:
288,113,26361,2,0,L|304:208,1,90,8|0,0:0|0:0,0:0:0:0:
455,173,26680,6,0,P|372:149|302:201,1,180,4|8,0:0|0:0,0:0:0:0:
322,297,27159,1,0,0:0:0:0:
322,297,27319,2,0,P|362:278|392:245,1,90,0|0,3:0|0:0,0:0:0:0:
229,267,27638,2,0,P|225:311|240:354,1,90,8|0,0:0|0:0,0:0:0:0:
302,200,27957,6,0,P|265:175|222:167,1,90
158,320,28276,1,0,1:0:0:0:
158,320,28356,1,0,1:0:0:0:
158,320,28436,1,0,0:0:0:0:
239,353,28595,5,0,0:0:0:0:
322,297,28755,1,0,1:0:0:0:
347,287,28835,1,0,0:0:0:0:
368,270,28914,1,0,1:0:0:0:
385,249,28994,1,0,1:0:0:0:
392,222,29074,2,0,L|396:169,1,45,0|0,1:0|1:0,0:0:0:0:
455,49,29234,6,0,B|403:42|403:42|330:57|330:57|275:52,1,180,4|8,0:0|0:0,0:0:0:0:
150,136,29712,1,0,1:0:0:0:
150,136,29792,1,0,1:0:0:0:
150,136,29872,1,0,1:0:0:0:
300,142,30031,1,8,0:3:0:0:
183,49,30190,1,4,0:3:0:0:
223,194,30351,6,0,B|208:240|226:282|226:282|245:326|234:373,1,180,4|0,0:0|3:0,0:0:0:0:
306,234,30829,1,8,0:0:0:0:
300,142,30989,1,0,3:0:0:0:
300,142,31069,1,0,1:0:0:0:
300,142,31149,1,0,1:0:0:0:
227,286,31308,1,8,0:0:0:0:
379,281,31468,1,4,0:3:0:0:
218,102,31627,1,0,0:0:0:0:
126,116,31787,6,0,P|159:173|222:194,1,135.000005149842,4|0,0:0|0:0,0:0:0:0:
306,234,32266,1,0,0:0:0:0:
387,187,32425,2,0,B|390:148|390:148|368:40,1,135.000005149842,8|0,0:0|3:0,0:0:0:0:
287,81,32904,1,4,0:0:0:0:
287,81,33063,6,0,L|310:174,1,67.5000025749208,0|8,0:0|0:0,0:0:0:0:
261,286,33383,2,0,L|330:219,1,67.5000025749208,2|0,0:0|0:0,0:0:0:0:
452,206,33702,2,0,L|359:179,1,67.5000025749208,8|2,0:0|0:0,0:0:0:0:
222,194,34021,2,0,L|167:244,1,67.5000025749208,0|0,3:0|0:0,0:0:0:0:
176,334,34340,6,0,P|149:276|78:258,1,135.000005149842,4|0,0:0|0:0,0:0:0:0:
49,176,34819,1,0,0:0:0:0:
49,176,34978,2,0,P|42:137|39:88,1,67.5000025749208,8|0,0:0|0:0,0:0:0:0:
145,44,35297,2,0,P|141:77|135:110,1,67.5000025749208,0|0,3:0|0:0,0:0:0:0:
228,167,35617,6,0,P|231:134|238:101,1,67.5000025749208,0|8,0:0|0:0,0:0:0:0:
331,41,35936,2,0,P|337:74|341:108,1,67.5000025749208,0|0,3:0|0:0,0:0:0:0:
414,269,36255,1,8,0:0:0:0:
312,196,36414,1,0,0:0:0:0:
399,181,36574,1,2,0:3:0:0:
326,283,36734,1,0,0:0:0:0:
326,283,36893,6,0,B|285:283|285:283|235:300|235:300|187:301,1,135.000005149842,4|0,0:0|0:0,0:0:0:0:
130,362,37372,1,0,3:0:0:0:
130,362,37531,2,0,P|150:295|109:243,1,135.000005149842,8|0,0:0|3:0,0:0:0:0:
95,160,38010,1,0,3:0:0:0:
95,159,38170,6,0,P|61:164|28:160,1,67.5000025749208,0|0,0:0|0:0,0:0:0:0:
141,86,38489,2,0,P|197:83|236:97,1,67.5000025749208,0|0,0:0|3:0,0:0:0:0:
207,219,38808,2,0,B|197:137|197:137|207:85,1,135.000005149842,8|0,0:0|3:0,0:0:0:0:
353,138,39287,1,0,0:0:0:0:
353,138,39446,6,0,P|319:140|286:137,1,67.5000025749208,4|0,0:0|0:0,0:0:0:0:
397,258,39766,2,0,P|431:256|465:260,1,67.5000025749208,0|0,0:0|3:0,0:0:0:0:
315,220,40085,2,0,P|317:254|314:288,1,67.5000025749208,8|0,0:0|0:0,0:0:0:0:
435,176,40404,2,0,P|433:142|437:109,1,67.5000025749208,0|0,0:0|0:0,0:0:0:0:
240,256,40723,6,0,L|142:268,1,76.5000014591217,12|0,0:0|0:0,0:0:0:0:
7,188,41042,6,0,L|112:199,1,85.4999977169037,0|0,1:0|0:0,0:0:0:0:
250,111,41361,6,0,L|145:122,1,94.499997116089,0|0,1:0|0:0,0:0:0:0:
347,66,41680,5,8,0:0:0:0:
335,174,41840,1,2,0:3:0:0:
435,131,42000,6,0,P|449:75|445:35,1,90,4|0,0:0|3:0,0:0:0:0:
335,174,42319,2,0,P|376:214|413:230,1,90,8|2,0:0|0:0,0:0:0:0:
347,66,42638,2,0,P|291:81|258:105,1,90,0|0,3:0|3:0,0:0:0:0:
159,246,42957,2,0,L|239:198,1,90,8|0,0:0|0:0,0:0:0:0:
81,206,43276,5,0,3:0:0:0:
163,334,43436,1,0,3:0:0:0:
155,158,43595,1,8,0:0:0:0:
6,253,43755,1,2,0:0:0:0:
85,294,43914,1,0,0:0:0:0:
236,293,44074,1,0,0:0:0:0:
236,293,44234,2,0,P|279:281|315:255,1,90,0|8,0:0|0:0,0:0:0:0:
245,116,44553,6,0,P|233:159|245:222,1,90,4|0,0:0|3:0,0:0:0:0:
394,212,44872,2,0,P|362:180|301:159,1,90,8|8,0:0|0:0,0:0:0:0:
390,302,45191,1,8,0:0:0:0:
477,170,45351,1,4,0:3:0:0:
477,170,45510,2,0,L|470:260,1,90,8|8,0:0|0:0,0:0:0:0:
386,122,45829,6,0,L|393:211,1,90,0|0,0:0|3:0,0:0:0:0:
309,74,46149,2,0,L|302:164,1,90,8|0,0:0|3:0,0:0:0:0:
218,27,46468,2,0,L|226:117,1,90,8|0,0:0|1:0,0:0:0:0:
217,147,46707,1,0,1:0:0:0:
194,169,46787,1,0,1:0:0:0:
163,178,46867,1,0,0:0:0:0:
131,176,46946,1,0,0:0:0:0:
103,160,47026,1,0,0:0:0:0:
83,134,47106,6,0,B|85:191|85:191|66:260|66:260|69:320,1,180,4|2,0:0|0:3,0:0:0:0:
154,274,47585,1,0,3:0:0:0:
154,274,47664,1,0,0:0:0:0:
154,274,47744,2,0,P|206:273|258:288,1,90,8|0,0:0|0:0,0:0:0:0:
390,245,48063,1,4,0:0:0:0:
298,189,48223,1,4,0:0:0:0:
334,337,48383,5,4,0:0:0:0:
485,194,48542,1,0,0:0:0:0:
392,138,48702,1,2,0:3:0:0:
397,253,48861,1,0,3:0:0:0:
397,253,48941,1,0,0:0:0:0:
397,253,49021,1,8,0:0:0:0:
487,86,49180,5,0,0:0:0:0:
465,63,49259,1,0,0:0:0:0:
439,43,49340,2,0,L|369:39,1,45,8|0,0:0|0:0,0:0:0:0:
257,85,49500,2,0,L|327:89,1,45,8|0,0:0|0:0,0:0:0:0:
192,168,49659,6,0,L|82:182,1,90,4|0,0:0|0:0,0:0:0:0:
116,268,49978,2,0,L|226:254,1,90,8|8,0:0|0:0,0:0:0:0:
205,256,50218,1,0,0:0:0:0:
205,256,50297,1,0,3:0:0:0:
277,201,50457,1,4,0:3:0:0:
277,201,50617,2,0,P|335:199|374:221,1,90,0|0,0:0|3:0,0:0:0:0:
503,123,50936,6,0,P|445:121|406:143,1,90,8|8,0:0|0:0,0:0:0:0:
471,296,51255,2,0,L|475:200,1,90,0|8,1:0|0:0,0:0:0:0:
308,289,51574,2,0,L|312:379,1,90,8|8,0:0|0:0,0:0:0:0:
475,206,51893,1,8,0:0:0:0:
228,117,52053,1,8,0:0:0:0:
308,289,52212,5,12,0:0:0:0:
320,275,52531,5,8,0:0:0:0:
332,261,52851,5,8,0:0:0:0:
347,245,52930,1,8,0:0:0:0:
354,223,53010,1,8,0:0:0:0:
352,200,53090,1,8,0:0:0:0:
341,179,53170,2,0,L|347:123,1,45,8|8,0:0|0:0,0:0:0:0:
180,202,53329,2,0,L|184:246,1,45,8|8,0:0|0:0,0:0:0:0:
59,110,53489,6,0,P|95:188|180:203,1,180,4|8,0:0|0:0,0:0:0:0:
327,118,53968,2,0,B|189:106|189:106|150:117,1,180,4|0,0:0|3:0,0:0:0:0:
94,187,54446,1,0,1:0:0:0:
157,351,54606,1,8,0:3:0:0:
270,212,54766,6,0,L|181:203,1,90,4|0,0:0|3:0,0:0:0:0:
301,299,55085,1,8,0:0:0:0:
301,299,55244,2,0,P|365:353|467:322,1,180,4|0,0:0|0:0,0:0:0:0:
388,266,55723,1,8,0:0:0:0:
181,203,55883,1,0,0:0:0:0:
301,299,56042,5,4,0:0:0:0:
355,179,56202,1,0,0:0:0:0:
129,269,56361,1,0,3:0:0:0:
301,299,56521,1,0,3:0:0:0:
241,136,56680,1,0,0:0:0:0:
219,288,56840,1,0,0:0:0:0:
219,288,57000,2,0,L|237:383,1,90,12|0,0:0|0:0,0:0:0:0:
269,221,57319,5,4,0:0:0:0:
129,269,57478,2,0,L|148:369,1,90,0|0,3:0|1:0,0:0:0:0:
301,299,57797,1,8,0:0:0:0:
241,136,57957,1,0,3:0:0:0:
181,203,58117,1,0,3:0:0:0:
358,240,58276,1,8,0:0:0:0:
381,219,58356,1,8,0:0:0:0:
393,190,58436,1,8,0:0:0:0:
393,158,58516,1,8,0:0:0:0:
383,128,58595,6,0,L|396:328,1,180,4|0,0:0|0:0,0:0:0:0:
474,265,59074,2,0,L|461:65,1,180,4|0,0:0|0:0,0:0:0:0:
383,40,59553,1,8,0:0:0:0:
305,85,59712,1,0,0:0:0:0:
305,85,59872,6,0,P|255:92|214:73,1,90,4|4,0:0|0:0,0:0:0:0:
333,198,60191,2,0,P|351:151|388:125,1,90,8|4,0:0|0:0,0:0:0:0:
221,165,60510,2,0,P|252:204|256:249,1,90,0|0,0:0|3:0,0:0:0:0:
193,375,60829,1,8,0:0:0:0:
167,231,60989,1,0,3:0:0:0:
273,331,61149,5,4,0:0:0:0:
128,312,61308,1,0,0:0:0:0:
128,312,61468,2,0,P|80:234|141:142,1,180,4|0,0:0|3:0,0:0:0:0:
221,165,61946,1,0,0:0:0:0:
167,231,62106,1,8,0:0:0:0:
174,88,62266,1,0,0:0:0:0:
263,77,62425,6,0,P|309:86|368:68,1,90,4|8,0:0|0:0,0:0:0:0:
350,77,62664,1,0,0:0:0:0:
350,77,62744,1,8,0:0:0:0:
426,153,62904,2,0,L|477:158,2,45,4|0|0,0:0|0:0|0:0,0:0:0:0:
356,210,63223,1,8,0:0:0:0:
346,240,63303,1,0,0:0:0:0:
343,271,63383,1,8,0:0:0:0:
350,301,63462,1,8,0:0:0:0:
366,327,63542,2,0,L|379:273,1,45,8|8,0:0|0:0,0:0:0:0:
195,204,63702,6,0,P|276:171|355:209,1,180,4|8,0:0|0:0,0:0:0:0:
271,261,64180,2,0,P|190:294|111:255,1,180,4|0,0:0|3:0,0:0:0:0:
115,156,64659,1,8,0:0:0:0:
115,156,64978,6,0,L|108:59,1,90,4|4,0:0|0:0,0:0:0:0:
201,114,65297,1,8,0:0:0:0:
201,114,65457,2,0,P|254:120|330:23,1,180,4|0,0:0|3:0,0:0:0:0:
427,53,65936,1,8,0:0:0:0:
456,147,66095,1,8,0:0:0:0:
456,147,66255,6,0,L|443:242,1,90,4|0,0:0|0:0,0:0:0:0:
345,356,66574,1,8,0:0:0:0:
345,356,66733,5,0,3:0:0:0:
204,248,66893,1,0,3:0:0:0:
287,214,67053,1,0,0:0:0:0:
371,180,67212,2,0,L|359:270,1,90,8|0,0:0|0:0,0:0:0:0:
204,248,67531,6,0,L|216:158,1,90,4|0,3:2|3:0,0:0:0:0:
299,124,67851,1,8,0:0:0:0:
275,304,68010,1,0,3:0:0:0:
193,342,68170,5,8,0:0:0:0:
163,331,68250,1,0,0:0:0:0:
137,313,68329,1,0,0:0:0:0:
119,286,68409,1,0,0:0:0:0:
114,254,68489,2,0,L|125:200,1,45,8|8,0:3|0:3,0:0:0:0:
225,114,68649,2,0,L|214:168,1,45,4|4,0:3|0:3,0:0:0:0:
419,216,68808,6,0,P|384:137|299:123,1,180,4|8,0:0|0:0,0:0:0:0:
328,209,69287,2,0,B|348:237|343:275|343:275|392:313|376:385,1,180,4|0,0:0|3:0,0:0:0:0:
289,353,69766,1,8,0:0:0:0:
259,267,69925,1,0,0:0:0:0:
289,353,70085,5,12,0:0:0:0:
170,250,70244,1,4,3:0:0:0:
328,209,70404,1,8,0:0:0:0:
200,336,70563,2,0,P|135:334|82:235,1,180,4|0,0:0|3:0,0:0:0:0:
178,161,71042,2,0,L|170:250,1,90,8|0,0:0|0:0,0:0:0:0:
80,242,71361,6,0,L|72:153,1,90,4|0,0:0|0:0,0:0:0:0:
264,156,71680,2,0,P|221:169|178:161,1,90,12|0,0:0|3:0,0:0:0:0:
305,74,72000,2,0,P|346:58|395:66,1,90,0|0,3:0|3:0,0:0:0:0:
358,153,72319,2,0,L|350:254,1,90,8|0,0:0|0:0,0:0:0:0:
293,312,72638,5,12,0:0:0:0:
269,324,72718,1,0,0:0:0:0:
242,327,72797,1,8,0:3:0:0:
215,321,72877,1,0,0:0:0:0:
190,309,72957,2,0,L|135:317,1,45,8|0,0:0|0:0,0:0:0:0:
36,259,73117,2,0,L|91:251,1,45,4|0,0:3|0:0,0:0:0:0:
134,174,73276,5,4,0:0:0:0:
128,143,73355,1,0,0:0:0:0:
134,112,73435,1,0,3:0:0:0:
149,84,73515,1,0,0:0:0:0:
172,63,73595,1,4,0:0:0:0:
172,63,73914,6,0,B|216:53|216:53|272:67,1,90,4|0,0:0|0:0,0:0:0:0:
411,128,74234,2,0,B|368:139|368:139|324:128,1,90,8|0,0:0|0:0,0:0:0:0:
236,149,74553,1,0,3:0:0:0:
236,149,74712,2,0,L|246:244,1,90,0|8,3:0|0:0,0:0:0:0:
296,383,75031,1,0,0:0:0:0:
341,236,75191,5,4,0:0:0:0:
219,329,75351,1,0,0:0:0:0:
372,326,75510,1,12,0:0:0:0:
245,238,75670,1,0,0:0:0:0:
296,383,75829,1,4,0:0:0:0:
341,236,75989,1,0,0:0:0:0:
219,329,76149,1,8,0:0:0:0:
219,329,76468,6,0,B|177:311|133:339|133:339|92:363|42:348,1,180,4|8,0:0|0:0,0:0:0:0:
78,265,76946,2,0,L|73:175,1,90,4|0,0:0|0:0,0:0:0:0:
145,120,77266,1,0,3:0:0:0:
229,155,77425,1,12,0:0:0:0:
157,210,77585,1,0,0:0:0:0:
217,65,77744,6,0,P|276:73|307:104,1,90,12|0,0:0|0:0,0:0:0:0:
330,273,78063,2,0,P|307:217|318:175,1,90,8|0,0:0|0:0,0:0:0:0:
454,72,78383,2,0,P|417:119|375:130,1,90,8|0,0:0|1:0,0:0:0:0:
390,129,78622,1,0,0:0:0:0:
390,129,78702,1,0,1:0:0:0:
229,155,78861,1,0,1:0:0:0:
229,155,78941,1,0,0:0:0:0:
229,155,79021,6,0,L|239:342,1,180,4|8,0:0|0:0,0:0:0:0:
151,356,79500,1,0,3:0:0:0:
129,269,79659,1,0,3:0:0:0:
238,334,79819,1,0,3:0:0:0:
64,378,79978,1,8,0:0:0:0:
107,182,80138,1,0,3:0:0:0:
107,182,80297,6,0,P|117:127|144:97,1,90,4|0,0:0|0:0,0:0:0:0:
163,82,80537,1,0,3:0:0:0:
194,79,80617,1,8,0:0:0:0:
224,87,80696,1,0,0:0:0:0:
246,108,80776,6,0,L|255:155,1,45,0|0,3:0|0:0,0:0:0:0:
332,216,80936,2,0,L|340:171,1,45,8|0,0:3|0:0,0:0:0:0:
417,107,81095,2,0,L|426:152,1,45,8|0,0:0|0:0,0:0:0:0:
426,280,81255,2,0,L|417:235,1,45,4|0,0:0|0:0,0:0:0:0:
349,349,81414,2,0,L|340:304,1,45,0|0,0:0|0:0,0:0:0:0:
241,252,81574,5,4,0:0:0:0:
241,252,82851,5,8,0:0:0:0:
75,210,83010,1,8,0:0:0:0:
194,87,83170,1,8,0:0:0:0:
147,278,83329,1,4,0:0:0:0:
147,278,83649,5,8,1:2:0:0:
264,155,83808,1,4,0:0:0:0:
264,155,84127,5,4,0:0:0:0:
352,138,84287,2,0,L|398:129,2,45,8|8|8,0:0|0:0|0:0,0:0:0:0:
264,155,84606,1,8,0:0:0:0:
331,230,84766,1,0,0:0:0:0:
331,230,84845,1,0,0:0:0:0:
331,230,84925,2,0,L|361:265,2,45,0|0|8,0:0|0:0|3:0,0:0:0:0:
264,155,85244,1,4,0:0:0:0:
177,181,85404,5,0,0:0:0:0:
107,124,85563,1,8,0:0:0:0:
107,124,85723,2,0,L|16:153,1,90,0|8,3:0|0:0,0:0:0:0:
177,181,86042,2,0,L|197:87,1,90,8|0,0:0|3:0,0:0:0:0:
92,213,86361,2,0,L|162:277,1,90,8|0,0:0|0:0,0:0:0:0:
244,245,86680,5,8,0:0:0:0:
244,245,86760,1,8,0:0:0:0:
244,245,86840,1,8,0:0:0:0:
312,306,87000,1,0,3:0:0:0:
417,190,87160,1,4,0:0:0:0:
