osu file format v14

[General]
AudioFilename: audio.ogg
AudioLeadIn: 0
PreviewTime: 19411
Countdown: 0
SampleSet: Normal
StackLeniency: 0.7
Mode: 1
LetterboxInBreaks: 0
WidescreenStoryboard: 1

[Editor]
DistanceSpacing: 1.2
BeatDivisor: 12
GridSize: 32
TimelineZoom: 2.799999

[Metadata]
Title:Accelerate
TitleUnicode:Accelerate
Artist:Curren
ArtistUnicode:。-゚+.-.Curren。+..。-゚+
Creator:komasy
Version:uone's Inner Oni
Source:
Tags:Instrumental Electronic Hardcore Dariacore Currencore LookatCurren Lost Frog Productions FASTFUSION Japanese Hyperflip Compilation Over 200BPM カレンチャン Curren chan uone
BeatmapID:4389849
BeatmapSetID:2091323

[Difficulty]
HPDrainRate:6
CircleSize:3
OverallDifficulty:6
ApproachRate:9
SliderMultiplier:1.4
SliderTickRate:1

[Events]
//Background and Video events
0,0,"89638603_p0.jpg",0,40
//Break Periods
2,56183,59383
2,101897,109097
//Storyboard Layer 0 (Background)
//Storyboard Layer 1 (Fail)
//Storyboard Layer 2 (Pass)
//Storyboard Layer 3 (Foreground)
//Storyboard Layer 4 (Overlay)
//Storyboard Sound Samples

[TimingPoints]
1126,285.714285714286,4,1,0,50,1,0
1126,-133.333333333333,4,1,0,50,0,0
10197,-100,4,1,0,100,0,0
10536,-101.266944272172,4,1,0,100,0,0
10822,-102.5664034458,4,1,0,100,0,0
11108,-103.899645486774,4,1,0,100,0,0
11251,-104.574565416285,4,1,0,100,0,0
11393,-105.263157894737,4,1,0,100,0,0
11679,-106.66791097009,4,1,0,100,0,0
11965,-108.110664459683,4,1,0,100,0,0
12108,-108.846776497476,4,1,0,100,0,0
12251,-109.587727708533,4,1,0,100,0,0
12536,-111.111111111111,4,1,0,100,0,0
12822,-112.677444794953,4,1,0,100,0,0
13108,-114.288571142886,4,1,0,100,0,0
13393,-115.940558908556,4,1,0,100,0,0
13536,-116.787575355063,4,1,0,100,0,0
13679,-117.647058823529,4,1,0,100,0,0
13965,-119.404544267433,4,1,0,100,0,0
14251,-121.208907741251,4,1,0,100,0,0
14393,-122.134957525244,4,1,0,100,0,0
14536,-123.075266501561,4,1,0,100,0,0
14822,-125,4,1,0,100,0,0
14965,-123.075266501561,4,1,0,100,0,0
15108,-121.208907741251,4,1,0,100,0,0
15251,-119.410781445884,4,1,0,100,0,0
15322,-118.519286603069,4,1,0,100,0,0
15393,-117.653113741637,4,1,0,100,0,0
15536,-115.946439440049,4,1,0,100,0,0
15679,-114.288571142886,4,1,0,100,0,0
15822,-112.677444794953,4,1,0,100,0,0
15893,-111.894273127753,4,1,0,100,0,0
15965,-111.111111111111,4,1,0,100,0,0
16108,-109.587727708533,4,1,0,100,0,0
16251,-108.115777525539,4,1,0,100,0,0
16322,-107.384441939121,4,1,0,100,0,0
16393,-106.672888474102,4,1,0,100,0,0
16465,-105.960878835635,4,1,0,100,0,0
16536,-105.268005157488,4,1,0,100,0,0
16679,-103.899645486774,4,1,0,100,0,0
16822,-102.5664034458,4,1,0,100,0,0
16965,-101.266944272172,4,1,0,100,0,0
17108,-100,4,1,0,100,0,0
17179,-99.07604216371,4,1,0,100,0,0
17251,-98.169001977134,4,1,0,100,0,0
17322,-97.265990971808,4,1,0,100,0,0
17393,-96.39164380671,4,1,0,100,0,0
17536,-94.677499585475,4,1,0,100,0,0
17679,-93.023255813953,4,1,0,100,0,0
17751,-92.223209238472,4,1,0,100,0,0
17822,-91.425826595149,4,1,0,100,0,0
17893,-90.652907322882,4,1,0,100,0,0
17965,-89.882334422101,4,1,0,100,0,0
18036,-89.135185763347,4,1,0,100,0,0
18108,-88.390092879257,4,1,0,100,0,0
18179,-87.66744712701,4,1,0,100,0,0
18251,-86.95652173913,4,1,0,100,0,0
18340,-111.111111111111,4,1,0,70,0,0
19340,-90.909090909091,4,1,0,100,0,0
19483,-111.111111111111,4,1,0,100,0,0
24197,-100,4,1,0,100,0,0
24340,-111.111111111111,4,1,0,100,0,0
28822,-110.344161799488,4,1,0,100,0,0
28965,-109.964643913702,4,1,0,100,0,0
29108,-109.587727708533,4,1,0,100,0,0
29393,-108.844185216046,4,1,0,100,0,0
29536,-108.474897978552,4,1,0,100,0,0
29679,-108.108108108108,4,1,0,100,0,0
29751,-107.926915631934,4,1,0,100,0,0
29822,-107.743790356789,4,1,0,100,0,0
29965,-107.381919815863,4,1,0,100,0,0
30036,-107.203151378728,4,1,0,100,0,0
30179,-106.844897291487,4,1,0,100,0,0
30251,-106.66791097009,4,1,0,100,0,0
30465,-106.135524757992,4,1,0,100,0,0
30536,-105.960878835635,4,1,0,100,0,0
30679,-105.610865999861,4,1,0,100,0,0
30822,-105.263157894737,4,1,0,100,0,0
31108,-104.574565416285,4,1,0,100,0,0
31215,-104.347826086957,4,1,0,100,0,0
31304,-104.12206786609,4,1,0,100,0,0
31393,-103.8972843995,4,1,0,100,0,0
31608,-103.392130257802,4,1,0,100,0,0
31679,-103.226389108397,4,1,0,100,0,0
31822,-102.894180132331,4,1,0,100,0,0
31965,-102.564102564103,4,1,0,100,0,0
32036,-102.401003404408,4,1,0,100,0,0
32179,-102.074077381617,4,1,0,100,0,0
32251,-101.912531764077,4,1,0,100,0,0
32322,-101.749232207237,4,1,0,100,0,0
32393,-101.588712365293,4,1,0,100,0,0
32536,-101.266944272172,4,1,0,100,0,0
32679,-100.94720805458,4,1,0,100,0,0
32751,-100.789206825096,4,1,0,100,0,0
32822,-100.629484527006,4,1,0,100,0,0
32965,-100.313754744718,4,1,0,100,0,0
33108,-100,4,1,0,100,0,0
33340,-90.09009009009,4,1,0,100,0,0
33483,-100,4,1,0,100,0,0
36679,-98.764365333103,4,1,0,100,0,0
36822,-97.558893820417,4,1,0,100,0,0
36965,-96.38249430812,4,1,0,100,0,0
37036,-95.808885163453,4,1,0,100,0,0
37108,-95.234127645392,4,1,0,100,0,0
37179,-94.674066097904,4,1,0,100,0,0
37251,-94.120553359684,4,1,0,100,0,0
37393,-93.025148530968,4,1,0,100,0,0
37536,-91.95494770716,4,1,0,100,0,0
37608,-91.42537194049,4,1,0,100,0,0
37697,-90.909090909091,4,1,0,100,0,1
46840,-79.365079365079,4,1,0,100,0,0
46887,-81.967213114754,4,1,0,100,0,0
46983,-84.745762711864,4,1,0,100,0,0
47078,-87.719298245614,4,1,0,100,0,0
47173,-90.909090909091,4,1,0,100,0,0
47268,-94.339622641509,4,1,0,100,0,0
47411,-98.039215686275,4,1,0,100,0,1
47536,-99.502487562189,4,1,0,100,0,1
47590,-98.678535693337,4,1,0,100,0,1
47643,-97.884865493874,4,1,0,100,0,1
47679,-97.087378640777,4,1,0,100,0,1
47822,-94.78672985782,4,1,0,100,0,1
47965,-90.909090909091,4,1,0,100,0,1
55983,-100,4,1,0,100,0,0
56054,-133.333333333333,4,1,0,50,0,0
59911,-133.333333333333,4,1,0,90,0,0
60822,-135.595231033869,4,1,0,90,0,0
60965,-136.755204594401,4,1,0,90,0,0
61251,-139.127259448603,4,1,0,90,0,0
61393,-140.348722986248,4,1,0,90,0,0
61679,-142.857142857143,4,1,0,90,0,0
61965,-145.456859251718,4,1,0,90,0,0
62108,-146.792525524947,4,1,0,90,0,0
62251,-148.143347806364,4,1,0,90,0,0
62536,-150.940904588973,4,1,0,90,0,0
62679,-152.379682708972,4,1,0,90,0,0
62822,-153.846153846154,4,1,0,90,0,0
63108,-156.865436080423,4,1,0,90,0,0
63251,-158.40898066662,4,1,0,90,0,0
63393,-159.994400895857,4,1,0,90,0,0
63536,-161.611876988335,4,1,0,90,0,0
63679,-163.262391086988,4,1,0,90,0,0
63965,-166.666666666667,4,1,0,90,0,0
65054,-125,4,1,0,100,0,0
65393,-123.89654638377,4,1,0,100,0,0
65679,-122.808633446931,4,1,0,100,0,0
65893,-122.007015403386,4,1,0,100,0,0
65965,-121.739659737651,4,1,0,100,0,0
66108,-121.212121212121,4,1,0,100,0,0
66251,-120.692776537324,4,1,0,100,0,0
66393,-120.174252666366,4,1,0,100,0,0
66465,-119.914860449081,4,1,0,100,0,0
66536,-119.660165131028,4,1,0,100,0,0
66679,-119.15045723988,4,1,0,100,0,0
66822,-118.645073263333,4,1,0,100,0,0
67036,-117.896722471115,4,1,0,100,0,0
67108,-117.647058823529,4,1,0,100,0,0
67179,-117.401896040621,4,1,0,100,0,0
67322,-116.911205939089,4,1,0,100,0,0
67393,-116.66909727286,4,1,0,100,0,0
67679,-115.70391368488,4,1,0,100,0,0
67965,-114.754568666265,4,1,0,100,0,0
68179,-114.054346896296,4,1,0,100,0,0
68251,-113.823914404416,4,1,0,100,0,0
68393,-113.362618676491,4,1,0,100,0,0
68536,-112.905046855594,4,1,0,100,0,0
68679,-112.451154029968,4,1,0,100,0,0
68751,-112.22714774704,4,1,0,100,0,0
68822,-112.000896007168,4,1,0,100,0,0
68965,-111.554229299718,4,1,0,100,0,0
69108,-111.111111111111,4,1,0,100,0,0
69251,-110.67456145205,4,1,0,100,0,0
69393,-110.238390519498,4,1,0,100,0,0
69608,-109.58904109589,4,1,0,100,0,0
69679,-109.376281753302,4,1,0,100,0,0
69822,-108.950264204391,4,1,0,100,0,0
69965,-108.527552432374,4,1,0,100,0,0
70251,-107.694792956761,4,1,0,100,0,0
70465,-107.074979254223,4,1,0,100,0,0
70536,-106.871860639094,4,1,0,100,0,0
70679,-106.465092757712,4,1,0,100,0,0
70751,-106.264279262526,4,1,0,100,0,0
70822,-106.061409556133,4,1,0,100,0,0
70965,-105.6607760784,4,1,0,100,0,0
71108,-105.263157894737,4,1,0,100,0,0
71251,-104.871270515442,4,1,0,100,0,0
71393,-104.479561185843,4,1,0,100,0,0
71608,-103.896103896104,4,1,0,100,0,0
71679,-103.704855979881,4,1,0,100,0,0
71751,-103.514310853475,4,1,0,100,0,0
71893,-103.132654376692,4,1,0,100,0,0
71965,-102.941554932187,4,1,0,100,0,0
72251,-102.192018803331,4,1,0,100,0,0
72536,-101.450745662981,4,1,0,100,0,0
72751,-100.903082589173,4,1,0,100,0,0
72822,-100.720149065821,4,1,0,100,0,0
72965,-100.358782647966,4,1,0,100,0,0
73108,-100,4,1,0,100,0,0
73251,-101.900597840635,4,1,0,100,0,0
73322,-102.892152446166,4,1,0,100,0,0
73393,-103.889015237662,4,1,0,100,0,0
73536,-105.956578214882,4,1,0,100,0,0
73679,-108.108108108108,4,1,0,100,0,0
73751,-109.209142201396,4,1,0,100,0,0
73822,-110.348825973524,4,1,0,100,0,0
73893,-111.496216743959,4,1,0,100,0,0
73965,-112.684394888746,4,1,0,100,0,0
74108,-115.120967741935,4,1,0,100,0,0
74268,-90.909090909091,4,1,0,100,0,1
82393,-92.64775614916,4,1,0,100,0,1
82465,-93.548585108342,4,1,0,100,0,1
82536,-94.454223169794,4,1,0,100,0,1
82679,-96.332536883225,4,1,0,100,0,1
82822,-98.287070477763,4,1,0,100,0,1
82893,-99.287268557729,4,1,0,100,0,1
82965,-100.322559410177,4,1,0,100,0,1
83036,-101.36483358608,4,1,0,100,0,1
83108,-102.44413971122,4,1,0,100,0,1
83179,-103.531202021712,4,1,0,100,0,1
83251,-104.641581982972,4,1,0,100,0,1
83322,-105.792191925362,4,1,0,100,0,1
83411,-106.951871657754,4,1,0,100,0,0
83911,-111.111111111111,4,1,0,100,0,0
84483,-116.279069767442,4,1,0,100,0,0
85054,-121.951219512195,4,1,0,100,0,0
85340,-100,4,1,0,100,0,0
85626,-125,4,1,0,100,0,0
91911,-117.647058823529,4,1,0,100,0,0
92108,-112.66771902131,4,1,0,100,0,0
92251,-108.123461465632,4,1,0,100,0,0
92393,-103.903193521973,4,1,0,100,0,0
92536,-100,4,1,0,100,0,0
92554,-100,4,1,0,100,0,1
101393,-95.246038365304,4,1,0,100,0,1
101501,-93.76026272578,4,1,0,100,0,1
101590,-92.305205302295,4,1,0,100,0,1
101697,-90.909090909091,4,1,0,100,0,0
101768,-133.333333333333,4,1,0,50,0,0
106197,-133.333333333333,4,1,0,70,0,0
109626,-133.333333333333,4,1,0,90,0,0
110768,-100,4,1,0,90,0,0
111108,-103.899645486774,4,1,0,90,0,0
111251,-105.9510567297,4,1,0,90,0,0
111322,-107.022471910112,4,1,0,90,0,0
111393,-108.100439778692,4,1,0,90,0,0
111536,-110.338835794961,4,1,0,90,0,0
111679,-112.671891172557,4,1,0,90,0,0
111822,-115.105740181269,4,1,0,90,0,0
111965,-117.647058823529,4,1,0,90,0,0
112251,-112.688553682343,4,1,0,90,0,0
112393,-110.354815351195,4,1,0,90,0,0
112465,-109.215995413502,4,1,0,90,0,0
112536,-108.115777525539,4,1,0,90,0,0
112679,-105.965790571548,4,1,0,90,0,0
112822,-103.899645486774,4,1,0,90,0,0
113036,-100.953895071542,4,1,0,90,0,0
113108,-100,4,1,0,90,0,0
113251,-101.900597840635,4,1,0,90,0,0
113393,-103.889015237662,4,1,0,90,0,0
113536,-105.956578214882,4,1,0,90,0,0
113608,-107.029053420806,4,1,0,90,0,0
113679,-108.108108108108,4,1,0,90,0,0
113822,-110.348825973524,4,1,0,90,0,0
113965,-112.684394888746,4,1,0,90,0,0
114108,-115.120967741935,4,1,0,90,0,0
114251,-117.647058823529,4,1,0,90,0,0
114536,-112.671891172557,4,1,0,90,0,0
114679,-110.338835794961,4,1,0,90,0,0
114751,-109.215995413502,4,1,0,90,0,0
114822,-108.100439778692,4,1,0,90,0,0
114965,-105.9510567297,4,1,0,90,0,0
115108,-103.885480572597,4,1,0,90,0,0
115251,-101.912531764077,4,1,0,90,0,0
115393,-100,4,1,0,90,0,0
115679,-103.899645486774,4,1,0,90,0,0
115822,-105.965790571548,4,1,0,90,0,0
115893,-107.022471910112,4,1,0,90,0,0
115965,-108.115777525539,4,1,0,90,0,0
116108,-110.354815351195,4,1,0,90,0,0
116251,-112.671891172557,4,1,0,90,0,0
116393,-115.105740181269,4,1,0,90,0,0
116465,-116.371411117899,4,1,0,90,0,0
116536,-117.647058823529,4,1,0,90,0,0
116679,-115.521641357354,4,1,0,90,0,0
116822,-113.471656904596,4,1,0,90,0,0
116965,-111.493159704441,4,1,0,90,0,0
117036,-110.536240994149,4,1,0,90,0,0
117108,-109.582474473899,4,1,0,90,0,0
117251,-107.748868778281,4,1,0,90,0,0
117393,-105.963334646673,4,1,0,90,0,0
117608,-103.387454208313,4,1,0,90,0,0
117679,-102.564102564103,4,1,0,90,0,0
117822,-100.944979245783,4,1,0,90,0,0
117965,-99.376181885365,4,1,0,90,0,0
118108,-97.855400025684,4,1,0,90,0,0
118179,-97.117488370117,4,1,0,90,0,0
118251,-96.390622364648,4,1,0,90,0,0
118393,-94.959187488317,4,1,0,90,0,0
118536,-93.569645122999,4,1,0,90,0,0
118608,-92.885295193206,4,1,0,90,0,0
118679,-92.220182746031,4,1,0,90,0,0
118751,-91.564527757751,4,1,0,90,0,0
118822,-90.909090909091,4,1,0,90,0,0
118911,-90.909090909091,4,1,0,60,0,0
119768,-111.111111111111,4,1,0,100,0,0
119876,-109.118657001145,4,1,0,100,0,0
119929,-107.156238291495,4,1,0,100,0,0
119965,-105.263157894737,4,1,0,100,0,0
124768,-95.238095238095,4,1,0,100,0,0
124911,-105.263157894737,4,1,0,100,0,0
129393,-111.111111111111,4,1,0,100,0,0
129447,-108.087679516251,4,1,0,100,0,0
129501,-105.282532670716,4,1,0,100,0,0
129536,-102.564102564103,4,1,0,100,0,0
129608,-98.739858449853,4,1,0,100,0,0
129679,-95.238095238095,4,1,0,100,0,0
129840,-100,4,1,0,100,0,0
133911,-95.238095238095,4,1,0,100,0,0
134054,-105.263157894737,4,1,0,100,0,0
137197,-100,4,1,0,50,0,0
138078,-108.695652173913,4,1,0,100,0,0
138173,-109.89010989011,4,1,0,100,0,0
138245,-111.111111111111,4,1,0,100,0,0
138536,-86.023933167758,4,1,0,100,0,0
138679,-87.435456110155,4,1,0,100,0,0
138751,-88.15363257751,4,1,0,100,0,0
138840,-88.894073728418,4,1,0,100,0,1
138893,-89.63651335137,4,1,0,100,0,1
138965,-90.402182939851,4,1,0,100,0,1
139108,-91.962346125996,4,1,0,100,0,1
139322,-94.400396432111,4,1,0,100,0,1
139393,-95.238095238095,4,1,0,100,0,1
139536,-96.971239501145,4,1,0,100,0,1
139679,-98.768632534025,4,1,0,100,0,1
139751,-99.686028257457,4,1,0,100,0,1
139822,-100.633914421553,4,1,0,100,0,1
139893,-101.586455139315,4,1,0,100,0,1
139965,-102.571005518912,4,1,0,100,0,1
140108,-104.584133955531,4,1,0,100,0,1
140179,-105.613305613306,4,1,0,100,0,1
140251,-106.662933930571,4,1,0,100,0,1
140393,-108.841594057992,4,1,0,100,0,1
140536,-83.333333333333,4,1,0,100,0,1
140679,-84.657260304411,4,1,0,100,0,1
140751,-85.330347144457,4,1,0,100,0,1
140822,-86.023933167758,4,1,0,100,0,1
140893,-86.719016729259,4,1,0,100,0,1
141036,-88.15363257751,4,1,0,100,0,1
141108,-88.894073728418,4,1,0,100,0,1
141251,-90.391459074733,4,1,0,100,0,1
141322,-91.170136396267,4,1,0,100,0,1
141393,-91.951248944129,4,1,0,100,0,1
141536,-93.565815324165,4,1,0,100,0,1
141679,-95.238095238095,4,1,0,100,0,1
141822,-96.971239501145,4,1,0,100,0,1
141893,-97.855400025684,4,1,0,100,0,1
141965,-98.768632534025,4,1,0,100,0,1
142108,-100.633914421553,4,1,0,100,0,1
142251,-102.557200538358,4,1,0,100,0,1
142393,-104.569781803211,4,1,0,100,0,1
142465,-105.613305613306,4,1,0,100,0,1
142536,-106.662933930571,4,1,0,100,0,1
142679,-108.841594057992,4,1,0,100,0,1
142822,-83.333333333333,4,1,0,100,0,1
143036,-85.330347144457,4,1,0,100,0,1
143108,-86.023933167758,4,1,0,100,0,1
143251,-87.425424506654,4,1,0,100,0,1
143393,-88.883704654147,4,1,0,100,0,1
143465,-89.63651335137,4,1,0,100,0,1
143536,-90.391459074733,4,1,0,100,0,1
143679,-91.951248944129,4,1,0,100,0,1
143822,-93.565815324165,4,1,0,100,0,1
143893,-94.388703084355,4,1,0,100,0,1
143965,-95.238095238095,4,1,0,100,0,1
144108,-96.971239501145,4,1,0,100,0,1
144251,-98.755832037325,4,1,0,100,0,1
144322,-99.686028257457,4,1,0,100,0,1
144393,-100.62062590783,4,1,0,100,0,1
144465,-101.586455139315,4,1,0,100,0,1
144536,-102.557200538358,4,1,0,100,0,1
144679,-104.569781803211,4,1,0,100,0,1
144751,-105.59866962306,4,1,0,100,0,1
144822,-106.662933930571,4,1,0,100,0,1
144965,-108.841594057992,4,1,0,100,0,1
145108,-83.333333333333,4,1,0,100,0,1
145251,-84.648440394162,4,1,0,100,0,1
145322,-85.331242064381,4,1,0,100,0,1
145393,-86.015433841521,4,1,0,100,0,1
145465,-86.720558654977,4,1,0,100,0,1
145608,-88.155864197531,4,1,0,100,0,1
145679,-88.88629556152,4,1,0,100,0,1
145822,-90.394809715959,4,1,0,100,0,1
145893,-91.16297626172,4,1,0,100,0,1
145965,-91.95541068051,4,1,0,100,0,1
146108,-93.570843570844,4,1,0,100,0,1
146251,-95.232141368675,4,1,0,100,0,1
146322,-96.097232736143,4,1,0,100,0,1
146465,-97.862863505932,4,1,0,100,0,1
146536,-98.763831258645,4,1,0,100,0,1
146679,-100.629761747479,4,1,0,100,0,1
146822,-102.567555435856,4,1,0,100,0,1
146965,-104.581445375074,4,1,0,100,0,1
147036,-105.611018672583,4,1,0,100,0,1
147108,-106.676003734827,4,1,0,100,0,1
147251,-108.840621129847,4,1,0,100,0,1
147411,-79.365079365079,4,1,0,100,0,0
147458,-81.967213114754,4,1,0,100,0,0
147554,-84.745762711864,4,1,0,100,0,0
147649,-87.719298245614,4,1,0,100,0,0
147744,-90.909090909091,4,1,0,100,0,0
147839,-94.339622641509,4,1,0,100,0,0
147983,-98.039215686275,4,1,0,100,0,1
148107,-99.502487562189,4,1,0,100,0,1
148161,-98.678535693337,4,1,0,100,0,1
148214,-97.884865493874,4,1,0,100,0,1
148250,-97.087378640777,4,1,0,100,0,1
148393,-94.78672985782,4,1,0,100,0,1
148536,-86.9565217391304,4,1,0,100,0,1
156554,-86.9565217391304,4,1,0,80,0,0
156840,-100,4,1,0,50,0,0
157126,-100,4,1,0,30,0,0
157411,-100,4,1,0,5,0,0
157626,-100,4,1,0,5,0,0
157709,241.254523522316,4,1,0,5,1,8
158251,-100,4,1,0,50,0,0
158623,-100,4,1,0,100,0,0
160604,-100,4,1,0,100,0,1
164629,-101.265215278569,4,1,0,100,0,1
164690,-101.010705459246,4,1,0,100,0,1
164810,-100.501315805142,4,1,0,100,0,1
164931,-100.001184848162,4,1,0,100,0,1
165112,-99.256166759768,4,1,0,100,0,1
165172,-99.011643253072,4,1,0,100,0,1
165293,-98.522167487685,4,1,0,100,0,1
165414,-98.037507477683,4,1,0,100,0,1
165534,-97.561539484103,4,1,0,100,0,1
165595,-97.321356502888,4,1,0,100,0,1
165655,-97.086261833826,4,1,0,100,0,1
165775,-96.615592428726,4,1,0,100,0,1
165896,-96.153298434091,4,1,0,100,0,1
166017,-95.691609977324,4,1,0,100,0,1
166077,-95.46431399163,4,1,0,100,0,1
166137,-95.238095238095,4,1,0,100,0,1
166394,242.228502220428,4,1,0,100,1,1
166394,-90.9090909090909,4,1,0,100,0,1
166621,-91.742539999242,4,1,0,100,0,1
166742,-92.16502169335,4,1,0,100,0,1
166863,-92.591412512904,4,1,0,100,0,1
166984,-93.021766965429,4,1,0,100,0,1
167044,-93.240242822491,4,1,0,100,0,1
167105,-93.456140576559,4,1,0,100,0,1
167226,-93.894589913925,4,1,0,100,0,1
167347,-94.337172611705,4,1,0,100,0,1
167529,-95.010789249984,4,1,0,100,0,1
167590,-95.238719488215,4,1,0,100,0,1
167711,-95.694095022326,4,1,0,100,0,1
167832,-96.153846153846,4,1,0,100,0,1
167892,-96.383464232647,4,1,0,100,0,1
168013,-96.853752832956,4,1,0,100,0,1
168074,-97.086729921155,4,1,0,100,0,1
168195,-97.559993017041,4,1,0,100,0,1
168316,-98.037892691353,4,1,0,100,0,1
168558,-99.011925042589,4,1,0,100,0,1
168680,-99.504191091875,4,1,0,100,0,1
168740,-99.750109841828,4,1,0,100,0,1
168801,-100.001376481438,4,1,0,100,0,1
168861,-100.249761967186,4,1,0,100,0,1
168982,-100.754444845089,4,1,0,100,0,1
169043,-101.01080322011,4,1,0,100,0,1
169164,-101.523197316937,4,1,0,100,0,1
169285,-83.333333333333,4,1,0,100,0,1
169527,-87.331915353834,4,1,0,100,0,1
169770,-91.752674936086,4,1,0,100,0,1
170012,-96.623656342859,4,1,0,100,0,1
170254,-102.040816326531,4,1,0,100,0,1
170496,-105.263157894737,4,1,0,100,0,1
170617,-104.478531386681,4,1,0,100,0,1
170678,-104.08739413281,4,1,0,100,0,1
170738,-103.699174564353,4,1,0,100,0,1
170860,-102.937606215101,4,1,0,100,0,1
170981,-102.187142254624,4,1,0,100,0,1
171041,-101.81905505193,4,1,0,100,0,1
171102,-101.447541571958,4,1,0,100,0,1
171162,-101.078729364086,4,1,0,100,0,1
171223,-100.718569986341,4,1,0,100,0,1
171344,-100,4,1,0,100,0,1
171465,-99.291610561443,4,1,0,100,0,1
171586,-98.59318683874,4,1,0,100,0,1
171647,-98.244801019522,4,1,0,100,0,1
171707,-97.898868621565,4,1,0,100,0,1
171829,-97.219833763256,4,1,0,100,0,1
171889,-96.886603827478,4,1,0,100,0,1
171950,-96.550153706023,4,1,0,100,0,1
172071,-95.889636456154,4,1,0,100,0,1
172207,-86.9565217391304,4,1,0,100,0,0
172227,-66.6666666666667,4,1,0,80,0,0
172919,-86.9565217391304,4,1,0,70,0,0
173161,-86.9565217391304,4,1,0,60,0,0
173403,-86.9565217391304,4,1,0,50,0,0
173645,-86.9565217391304,4,1,0,40,0,0
173887,-86.9565217391304,4,1,0,30,0,0
174128,-86.9565217391304,4,1,0,20,0,0
174370,-86.9565217391304,4,1,0,10,0,0
174612,-86.9565217391304,4,1,0,5,0,0

[HitObjects]
256,192,10268,5,4,0:0:0:0:
256,192,10554,1,8,0:0:0:0:
256,192,10840,1,8,0:0:0:0:
256,192,11126,1,8,0:0:0:0:
256,192,11268,1,0,0:0:0:0:
256,192,11411,1,8,0:0:0:0:
256,192,11697,1,8,0:0:0:0:
256,192,11983,1,8,0:0:0:0:
256,192,12126,1,0,0:0:0:0:
256,192,12268,1,8,0:0:0:0:
256,192,12554,1,8,0:0:0:0:
256,192,12840,1,8,0:0:0:0:
256,192,13126,1,8,0:0:0:0:
256,192,13411,1,8,0:0:0:0:
256,192,13554,1,0,0:0:0:0:
256,192,13697,1,8,0:0:0:0:
256,192,13983,1,8,0:0:0:0:
256,192,14268,1,8,0:0:0:0:
256,192,14411,1,0,0:0:0:0:
256,192,14554,1,8,0:0:0:0:
256,192,14840,1,8,0:0:0:0:
256,192,14983,1,0,0:0:0:0:
256,192,15126,1,8,0:0:0:0:
256,192,15268,1,0,0:0:0:0:
256,192,15340,1,0,0:0:0:0:
256,192,15411,1,8,0:0:0:0:
256,192,15554,1,0,0:0:0:0:
256,192,15697,1,8,0:0:0:0:
256,192,15840,1,0,0:0:0:0:
256,192,15911,1,0,0:0:0:0:
256,192,15983,1,8,0:0:0:0:
256,192,16126,1,0,0:0:0:0:
256,192,16268,1,8,0:0:0:0:
256,192,16340,1,8,0:0:0:0:
256,192,16411,1,0,0:0:0:0:
256,192,16483,1,0,0:0:0:0:
256,192,16554,1,8,0:0:0:0:
256,192,16697,1,0,0:0:0:0:
256,192,16840,1,8,0:0:0:0:
256,192,16983,1,8,0:0:0:0:
256,192,17126,1,0,0:0:0:0:
256,192,17197,1,0,0:0:0:0:
256,192,17268,1,0,0:0:0:0:
256,192,17340,1,0,0:0:0:0:
256,192,17411,1,8,0:0:0:0:
256,192,17554,1,0,0:0:0:0:
256,192,17697,1,8,0:0:0:0:
256,192,17768,1,8,0:0:0:0:
256,192,17840,1,0,0:0:0:0:
256,192,17911,1,0,0:0:0:0:
256,192,17983,1,8,0:0:0:0:
256,192,18054,1,0,0:0:0:0:
256,192,18126,1,0,0:0:0:0:
256,192,18197,1,0,0:0:0:0:
256,192,18268,1,8,0:0:0:0:
256,192,19126,1,8,0:0:0:0:
256,192,19268,1,8,0:0:0:0:
256,192,19411,1,4,0:0:0:0:
256,192,19840,1,8,0:0:0:0:
256,192,19983,1,0,0:0:0:0:
256,192,20268,1,0,0:0:0:0:
256,192,20411,1,8,0:0:0:0:
256,192,20554,1,0,0:0:0:0:
256,192,20626,1,8,0:0:0:0:
256,192,20697,1,8,0:0:0:0:
256,192,20840,1,0,0:0:0:0:
256,192,20911,1,8,0:0:0:0:
256,192,21054,1,8,0:0:0:0:
256,192,21126,1,0,0:0:0:0:
256,192,21340,1,8,0:0:0:0:
256,192,21411,1,0,0:0:0:0:
256,192,21554,1,8,0:0:0:0:
256,192,21697,1,0,0:0:0:0:
256,192,21983,1,0,0:0:0:0:
256,192,22078,1,8,0:0:0:0:
256,192,22173,1,8,0:0:0:0:
256,192,22268,1,0,0:0:0:0:
256,192,22483,1,8,0:0:0:0:
256,192,22554,1,0,0:0:0:0:
256,192,22697,1,8,0:0:0:0:
256,192,22840,1,0,0:0:0:0:
256,192,22911,1,8,0:0:0:0:
256,192,23054,1,8,0:0:0:0:
256,192,23126,1,0,0:0:0:0:
256,192,23268,1,8,0:0:0:0:
256,192,23340,1,8,0:0:0:0:
256,192,23411,1,0,0:0:0:0:
256,192,23626,1,0,0:0:0:0:
256,192,23697,1,8,0:0:0:0:
256,192,23840,1,8,0:0:0:0:
256,192,23983,1,0,0:0:0:0:
256,192,24268,1,12,0:0:0:0:
256,192,24411,1,0,0:0:0:0:
256,192,24483,1,0,0:0:0:0:
256,192,24554,1,8,0:0:0:0:
256,192,24697,1,8,0:0:0:0:
256,192,24840,1,0,0:0:0:0:
256,192,24983,1,8,0:0:0:0:
256,192,25054,1,8,0:0:0:0:
256,192,25126,1,0,0:0:0:0:
256,192,25268,1,8,0:0:0:0:
256,192,25411,1,0,0:0:0:0:
256,192,25483,1,8,0:0:0:0:
256,192,25626,1,8,0:0:0:0:
256,192,25697,1,0,0:0:0:0:
256,192,25911,1,8,0:0:0:0:
256,192,25983,1,0,0:0:0:0:
256,192,26126,1,8,0:0:0:0:
256,192,26268,1,0,0:0:0:0:
256,192,26554,1,0,0:0:0:0:
256,192,26697,1,8,0:0:0:0:
256,192,26840,1,0,0:0:0:0:
256,192,26911,1,0,0:0:0:0:
256,192,27054,1,0,0:0:0:0:
256,192,27126,1,8,0:0:0:0:
256,192,27268,1,0,0:0:0:0:
256,192,27340,1,0,0:0:0:0:
256,192,27411,1,8,0:0:0:0:
256,192,27554,1,0,0:0:0:0:
256,192,27697,1,0,0:0:0:0:
256,192,27840,1,8,0:0:0:0:
256,192,27911,1,8,0:0:0:0:
256,192,27983,1,0,0:0:0:0:
256,192,28054,1,8,0:0:0:0:
256,192,28197,1,8,0:0:0:0:
256,192,28268,1,0,0:0:0:0:
256,192,28411,1,8,0:0:0:0:
256,192,28483,1,8,0:0:0:0:
256,192,28554,1,0,0:0:0:0:
256,192,28840,1,0,0:0:0:0:
256,192,28983,1,8,0:0:0:0:
256,192,29126,1,0,0:0:0:0:
256,192,29411,1,0,0:0:0:0:
256,192,29554,1,8,0:0:0:0:
256,192,29697,1,0,0:0:0:0:
256,192,29768,1,8,0:0:0:0:
256,192,29840,1,8,0:0:0:0:
256,192,29983,1,0,0:0:0:0:
256,192,30054,1,8,0:0:0:0:
256,192,30197,1,8,0:0:0:0:
256,192,30268,1,0,0:0:0:0:
256,192,30483,1,8,0:0:0:0:
256,192,30554,1,0,0:0:0:0:
256,192,30697,1,8,0:0:0:0:
256,192,30840,1,0,0:0:0:0:
256,192,31126,1,0,0:0:0:0:
256,192,31221,1,8,0:0:0:0:
256,192,31316,1,8,0:0:0:0:
256,192,31411,1,0,0:0:0:0:
256,192,31626,1,8,0:0:0:0:
256,192,31697,1,0,0:0:0:0:
256,192,31840,1,8,0:0:0:0:
256,192,31983,1,0,0:0:0:0:
256,192,32054,1,8,0:0:0:0:
256,192,32197,1,8,0:0:0:0:
256,192,32268,1,0,0:0:0:0:
256,192,32340,1,8,0:0:0:0:
256,192,32411,1,8,0:0:0:0:
256,192,32554,1,0,0:0:0:0:
256,192,32697,1,0,0:0:0:0:
256,192,32768,1,0,0:0:0:0:
256,192,32840,1,8,0:0:0:0:
256,192,32983,1,8,0:0:0:0:
256,192,33126,1,0,0:0:0:0:
256,192,33411,1,12,0:0:0:0:
256,192,33554,1,0,0:0:0:0:
256,192,33626,1,0,0:0:0:0:
256,192,33697,1,8,0:0:0:0:
256,192,33840,1,8,0:0:0:0:
256,192,33983,1,0,0:0:0:0:
256,192,34126,1,8,0:0:0:0:
256,192,34197,1,8,0:0:0:0:
256,192,34268,1,0,0:0:0:0:
256,192,34411,1,8,0:0:0:0:
256,192,34554,1,0,0:0:0:0:
256,192,34626,1,8,0:0:0:0:
256,192,34768,1,8,0:0:0:0:
256,192,34840,1,0,0:0:0:0:
256,192,35054,1,8,0:0:0:0:
256,192,35126,1,0,0:0:0:0:
256,192,35268,1,8,0:0:0:0:
256,192,35411,1,0,0:0:0:0:
256,192,35697,1,0,0:0:0:0:
256,192,35840,1,8,0:0:0:0:
256,192,35983,1,0,0:0:0:0:
256,192,36054,1,0,0:0:0:0:
256,192,36197,1,0,0:0:0:0:
256,192,36268,1,8,0:0:0:0:
256,192,36411,1,0,0:0:0:0:
256,192,36483,1,0,0:0:0:0:
256,192,36554,1,8,0:0:0:0:
256,192,36697,1,0,0:0:0:0:
256,192,36840,1,0,0:0:0:0:
256,192,36983,1,8,0:0:0:0:
256,192,37054,1,8,0:0:0:0:
256,192,37126,1,0,0:0:0:0:
256,192,37197,1,0,0:0:0:0:
256,192,37268,1,8,0:0:0:0:
256,192,37411,1,8,0:0:0:0:
256,192,37554,1,8,0:0:0:0:
256,192,37626,1,8,0:0:0:0:
256,192,37697,1,0,0:0:0:0:
256,192,37983,1,0,0:0:0:0:
256,192,38126,1,8,0:0:0:0:
256,192,38268,1,0,0:0:0:0:
256,192,38483,1,8,0:0:0:0:
256,192,38554,1,0,0:0:0:0:
256,192,38697,1,8,0:0:0:0:
256,192,38840,1,0,0:0:0:0:
256,192,38983,1,8,0:0:0:0:
256,192,39054,1,8,0:0:0:0:
256,192,39126,1,0,0:0:0:0:
256,192,39268,1,8,0:0:0:0:
256,192,39411,1,0,0:0:0:0:
256,192,39626,1,0,0:0:0:0:
256,192,39697,1,8,0:0:0:0:
256,192,39840,1,8,0:0:0:0:
256,192,39983,1,0,0:0:0:0:
256,192,40268,1,0,0:0:0:0:
256,192,40411,1,8,0:0:0:0:
256,192,40554,1,0,0:0:0:0:
256,192,40626,1,8,0:0:0:0:
256,192,40768,1,8,0:0:0:0:
256,192,40840,1,0,0:0:0:0:
256,192,40983,1,0,0:0:0:0:
256,192,41126,1,8,0:0:0:0:
256,192,41268,1,0,0:0:0:0:
256,192,41340,1,0,0:0:0:0:
256,192,41411,1,8,0:0:0:0:
256,192,41554,1,0,0:0:0:0:
256,192,41626,1,0,0:0:0:0:
256,192,41697,1,8,0:0:0:0:
256,192,41768,1,8,0:0:0:0:
256,192,41911,1,0,0:0:0:0:
256,192,41983,1,8,0:0:0:0:
256,192,42126,1,8,0:0:0:0:
256,192,42268,1,0,0:0:0:0:
256,192,42554,1,0,0:0:0:0:
256,192,42697,1,8,0:0:0:0:
256,192,42768,1,8,0:0:0:0:
256,192,42840,1,0,0:0:0:0:
256,192,42983,1,8,0:0:0:0:
256,192,43126,1,0,0:0:0:0:
256,192,43268,1,8,0:0:0:0:
256,192,43340,1,8,0:0:0:0:
256,192,43411,1,0,0:0:0:0:
256,192,43483,1,8,0:0:0:0:
256,192,43626,1,8,0:0:0:0:
256,192,43697,1,0,0:0:0:0:
256,192,43840,1,8,0:0:0:0:
256,192,43983,1,0,0:0:0:0:
256,192,44197,1,0,0:0:0:0:
256,192,44268,1,8,0:0:0:0:
256,192,44411,1,8,0:0:0:0:
256,192,44554,1,0,0:0:0:0:
256,192,44626,1,8,0:0:0:0:
256,192,44697,1,8,0:0:0:0:
256,192,44840,1,0,0:0:0:0:
256,192,44911,1,8,0:0:0:0:
256,192,45054,1,8,0:0:0:0:
256,192,45126,1,0,0:0:0:0:
256,192,45197,1,0,0:0:0:0:
256,192,45340,1,8,0:0:0:0:
256,192,45411,1,0,0:0:0:0:
256,192,45554,1,8,0:0:0:0:
256,192,45697,1,0,0:0:0:0:
256,192,45840,1,8,0:0:0:0:
256,192,45911,1,8,0:0:0:0:
256,192,45983,1,0,0:0:0:0:
256,192,46126,1,8,0:0:0:0:
256,192,46268,1,8,0:0:0:0:
256,192,46340,1,8,0:0:0:0:
256,192,46411,1,0,0:0:0:0:
256,192,46483,1,0,0:0:0:0:
256,192,46554,1,8,0:0:0:0:
256,192,46840,1,8,0:0:0:0:
256,192,46935,1,8,0:0:0:0:
256,192,47030,1,8,0:0:0:0:
256,192,47126,1,8,0:0:0:0:
256,192,47221,1,8,0:0:0:0:
256,192,47316,1,8,0:0:0:0:
256,192,47411,1,0,0:0:0:0:
256,192,47554,1,8,0:0:0:0:
256,192,47602,1,8,0:0:0:0:
256,192,47649,1,8,0:0:0:0:
256,192,47697,1,0,0:0:0:0:
256,192,47840,1,8,0:0:0:0:
256,192,47983,1,0,0:0:0:0:
256,192,48126,1,8,0:0:0:0:
256,192,48197,1,8,0:0:0:0:
256,192,48268,1,0,0:0:0:0:
256,192,48340,1,0,0:0:0:0:
256,192,48411,1,8,0:0:0:0:
256,192,48554,1,0,0:0:0:0:
256,192,48768,1,0,0:0:0:0:
256,192,48840,1,8,0:0:0:0:
256,192,48983,1,8,0:0:0:0:
256,192,49126,1,0,0:0:0:0:
256,192,49411,1,0,0:0:0:0:
256,192,49554,1,8,0:0:0:0:
256,192,49697,1,0,0:0:0:0:
256,192,49768,1,8,0:0:0:0:
256,192,49911,1,8,0:0:0:0:
256,192,49983,1,0,0:0:0:0:
256,192,50126,1,0,0:0:0:0:
256,192,50268,1,8,0:0:0:0:
256,192,50411,1,0,0:0:0:0:
256,192,50483,1,0,0:0:0:0:
256,192,50554,1,8,0:0:0:0:
256,192,50697,1,0,0:0:0:0:
256,192,50768,1,0,0:0:0:0:
256,192,50840,1,8,0:0:0:0:
256,192,50911,1,8,0:0:0:0:
256,192,51054,1,0,0:0:0:0:
256,192,51126,1,8,0:0:0:0:
256,192,51268,1,8,0:0:0:0:
256,192,51411,1,0,0:0:0:0:
256,192,51697,1,0,0:0:0:0:
256,192,51840,1,8,0:0:0:0:
256,192,51911,1,8,0:0:0:0:
256,192,51983,1,0,0:0:0:0:
256,192,52126,1,8,0:0:0:0:
256,192,52268,1,0,0:0:0:0:
256,192,52411,1,8,0:0:0:0:
256,192,52483,1,8,0:0:0:0:
256,192,52554,1,0,0:0:0:0:
256,192,52626,1,8,0:0:0:0:
256,192,52768,1,8,0:0:0:0:
256,192,52840,1,0,0:0:0:0:
256,192,52983,1,8,0:0:0:0:
256,192,53126,1,0,0:0:0:0:
256,192,53340,1,0,0:0:0:0:
256,192,53411,1,8,0:0:0:0:
256,192,53554,1,8,0:0:0:0:
256,192,53697,1,0,0:0:0:0:
256,192,53840,1,8,0:0:0:0:
256,192,53983,1,0,0:0:0:0:
256,192,54054,1,8,0:0:0:0:
256,192,54126,1,8,0:0:0:0:
256,192,54268,1,0,0:0:0:0:
256,192,54340,1,8,0:0:0:0:
256,192,54483,1,8,0:0:0:0:
256,192,54554,1,0,0:0:0:0:
256,192,54697,1,8,0:0:0:0:
256,192,54840,1,0,0:0:0:0:
256,192,54911,1,0,0:0:0:0:
256,192,54983,1,8,0:0:0:0:
256,192,55054,1,8,0:0:0:0:
256,192,55126,1,0,0:0:0:0:
256,192,55268,1,8,0:0:0:0:
256,192,55411,1,0,0:0:0:0:
256,192,55983,1,4,0:0:0:0:
256,192,59983,5,0,0:0:0:0:
256,192,60268,1,8,0:0:0:0:
256,192,60411,1,0,0:0:0:0:
256,192,60483,1,0,0:0:0:0:
256,192,60554,1,0,0:0:0:0:
256,192,60840,1,8,0:0:0:0:
256,192,60983,1,0,0:0:0:0:
256,192,61268,1,0,0:0:0:0:
256,192,61411,1,8,0:0:0:0:
256,192,61697,1,0,0:0:0:0:
256,192,61983,1,8,0:0:0:0:
256,192,62126,1,0,0:0:0:0:
256,192,62268,1,0,0:0:0:0:
256,192,62554,1,8,0:0:0:0:
256,192,62697,1,8,0:0:0:0:
256,192,62840,1,0,0:0:0:0:
256,192,63126,1,8,0:0:0:0:
256,192,63268,1,8,0:0:0:0:
256,192,63411,1,0,0:0:0:0:
256,192,63554,1,0,0:0:0:0:
256,192,63697,1,8,0:0:0:0:
256,192,63983,1,8,0:0:0:0:
256,192,65126,1,0,0:0:0:0:
256,192,65411,1,0,0:0:0:0:
256,192,65697,1,0,0:0:0:0:
256,192,65911,1,8,0:0:0:0:
256,192,65983,1,0,0:0:0:0:
256,192,66126,1,8,0:0:0:0:
256,192,66268,1,0,0:0:0:0:
256,192,66411,1,8,0:0:0:0:
256,192,66483,1,8,0:0:0:0:
256,192,66554,1,0,0:0:0:0:
256,192,66697,1,8,0:0:0:0:
256,192,66840,1,0,0:0:0:0:
256,192,67054,1,8,0:0:0:0:
256,192,67126,1,0,0:0:0:0:
256,192,67197,1,8,0:0:0:0:
256,192,67340,1,8,0:0:0:0:
256,192,67411,1,0,0:0:0:0:
256,192,67697,1,0,0:0:0:0:
256,192,67983,1,0,0:0:0:0:
256,192,68197,1,8,0:0:0:0:
256,192,68268,1,0,0:0:0:0:
256,192,68411,1,8,0:0:0:0:
256,192,68554,1,0,0:0:0:0:
256,192,68697,1,8,0:0:0:0:
256,192,68768,1,8,0:0:0:0:
256,192,68840,1,0,0:0:0:0:
256,192,68983,1,8,0:0:0:0:
256,192,69126,1,0,0:0:0:0:
256,192,69268,1,8,0:0:0:0:
256,192,69411,1,0,0:0:0:0:
256,192,69626,1,8,0:0:0:0:
256,192,69697,1,0,0:0:0:0:
256,192,69840,1,0,0:0:0:0:
256,192,69983,1,0,0:0:0:0:
256,192,70268,1,0,0:0:0:0:
256,192,70483,1,8,0:0:0:0:
256,192,70554,1,0,0:0:0:0:
256,192,70697,1,8,0:0:0:0:
256,192,70768,1,8,0:0:0:0:
256,192,70840,1,0,0:0:0:0:
256,192,70983,1,8,0:0:0:0:
256,192,71126,1,0,0:0:0:0:
256,192,71268,1,8,0:0:0:0:
256,192,71411,1,0,0:0:0:0:
256,192,71626,1,8,0:0:0:0:
256,192,71697,1,0,0:0:0:0:
256,192,71768,1,8,0:0:0:0:
256,192,71911,1,8,0:0:0:0:
256,192,71983,1,0,0:0:0:0:
256,192,72268,1,0,0:0:0:0:
256,192,72554,1,0,0:0:0:0:
256,192,72768,1,8,0:0:0:0:
256,192,72840,1,0,0:0:0:0:
256,192,72983,1,8,0:0:0:0:
256,192,73126,1,0,0:0:0:0:
256,192,73268,1,8,0:0:0:0:
256,192,73340,1,8,0:0:0:0:
256,192,73411,1,8,0:0:0:0:
256,192,73554,1,0,0:0:0:0:
256,192,73697,1,8,0:0:0:0:
256,192,73768,1,8,0:0:0:0:
256,192,73840,1,8,0:0:0:0:
256,192,73911,1,8,0:0:0:0:
256,192,73983,1,0,0:0:0:0:
256,192,74126,1,8,0:0:0:0:
256,192,74268,1,0,0:0:0:0:
256,192,74483,1,8,0:0:0:0:
256,192,74554,1,0,0:0:0:0:
256,192,74697,1,8,0:0:0:0:
256,192,74840,1,0,0:0:0:0:
256,192,74911,1,8,0:0:0:0:
256,192,75054,1,8,0:0:0:0:
256,192,75126,1,0,0:0:0:0:
256,192,75268,1,8,0:0:0:0:
256,192,75411,1,0,0:0:0:0:
256,192,75554,1,8,0:0:0:0:
256,192,75626,1,8,0:0:0:0:
256,192,75697,1,0,0:0:0:0:
256,192,75840,1,8,0:0:0:0:
256,192,75983,1,0,0:0:0:0:
256,192,76126,1,8,0:0:0:0:
256,192,76197,1,8,0:0:0:0:
256,192,76268,1,0,0:0:0:0:
256,192,76340,1,8,0:0:0:0:
256,192,76483,1,8,0:0:0:0:
256,192,76554,1,0,0:0:0:0:
256,192,76768,1,8,0:0:0:0:
256,192,76840,1,0,0:0:0:0:
256,192,76983,1,8,0:0:0:0:
256,192,77054,1,8,0:0:0:0:
256,192,77126,1,0,0:0:0:0:
256,192,77268,1,8,0:0:0:0:
256,192,77411,1,0,0:0:0:0:
256,192,77483,1,8,0:0:0:0:
256,192,77626,1,8,0:0:0:0:
256,192,77697,1,0,0:0:0:0:
256,192,77840,1,8,0:0:0:0:
256,192,77911,1,8,0:0:0:0:
256,192,77983,1,0,0:0:0:0:
256,192,78126,1,8,0:0:0:0:
256,192,78268,1,0,0:0:0:0:
256,192,78411,1,8,0:0:0:0:
256,192,78554,1,0,0:0:0:0:
256,192,78768,1,8,0:0:0:0:
256,192,78840,1,0,0:0:0:0:
256,192,78983,1,0,0:0:0:0:
256,192,79126,1,0,0:0:0:0:
256,192,79268,1,8,0:0:0:0:
256,192,79340,1,8,0:0:0:0:
256,192,79411,1,0,0:0:0:0:
256,192,79554,1,8,0:0:0:0:
256,192,79697,1,0,0:0:0:0:
256,192,79768,1,8,0:0:0:0:
256,192,79911,1,8,0:0:0:0:
256,192,79983,1,0,0:0:0:0:
256,192,80126,1,8,0:0:0:0:
256,192,80197,1,8,0:0:0:0:
256,192,80268,1,0,0:0:0:0:
256,192,80411,1,8,0:0:0:0:
256,192,80554,1,0,0:0:0:0:
256,192,80697,1,8,0:0:0:0:
256,192,80768,1,8,0:0:0:0:
256,192,80840,1,0,0:0:0:0:
256,192,80911,1,8,0:0:0:0:
256,192,81054,1,8,0:0:0:0:
256,192,81126,1,0,0:0:0:0:
256,192,81340,1,8,0:0:0:0:
256,192,81411,1,0,0:0:0:0:
256,192,81554,1,8,0:0:0:0:
256,192,81626,1,8,0:0:0:0:
256,192,81697,1,0,0:0:0:0:
256,192,81840,1,8,0:0:0:0:
256,192,81911,1,8,0:0:0:0:
256,192,81983,1,0,0:0:0:0:
256,192,82054,1,0,0:0:0:0:
256,192,82126,1,8,0:0:0:0:
256,192,82268,1,0,0:0:0:0:
256,192,82411,1,8,0:0:0:0:
256,192,82483,1,8,0:0:0:0:
256,192,82554,1,8,0:0:0:0:
256,192,82697,1,0,0:0:0:0:
256,192,82840,1,8,0:0:0:0:
256,192,82911,1,8,0:0:0:0:
256,192,82983,1,8,0:0:0:0:
256,192,83054,1,8,0:0:0:0:
256,192,83126,1,0,0:0:0:0:
256,192,83197,1,0,0:0:0:0:
256,192,83268,1,8,0:0:0:0:
256,192,83340,1,8,0:0:0:0:
256,192,83411,1,0,0:0:0:0:
256,192,83983,1,0,0:0:0:0:
256,192,84554,1,0,0:0:0:0:
256,192,85126,1,0,0:0:0:0:
256,192,85411,1,12,0:0:0:0:
256,192,85697,1,0,0:0:0:0:
256,192,85983,1,0,0:0:0:0:
256,192,86126,1,8,0:0:0:0:
256,192,86197,1,8,0:0:0:0:
256,192,86268,1,0,0:0:0:0:
256,192,86411,1,0,0:0:0:0:
256,192,86554,1,8,0:0:0:0:
256,192,86697,1,0,0:0:0:0:
256,192,86768,1,0,0:0:0:0:
256,192,86840,1,8,0:0:0:0:
256,192,86983,1,8,0:0:0:0:
256,192,87054,1,8,0:0:0:0:
256,192,87126,1,0,0:0:0:0:
256,192,87268,1,8,0:0:0:0:
256,192,87411,1,0,0:0:0:0:
256,192,87554,1,8,0:0:0:0:
256,192,87697,1,8,0:0:0:0:
256,192,87840,1,0,0:0:0:0:
256,192,87911,1,0,0:0:0:0:
256,192,87983,1,0,0:0:0:0:
256,192,88268,1,0,0:0:0:0:
256,192,88411,1,0,0:0:0:0:
256,192,88483,1,0,0:0:0:0:
256,192,88554,1,8,0:0:0:0:
256,192,88697,1,8,0:0:0:0:
256,192,88768,1,8,0:0:0:0:
256,192,88840,1,0,0:0:0:0:
256,192,88983,1,0,0:0:0:0:
256,192,89126,1,8,0:0:0:0:
256,192,89268,1,8,0:0:0:0:
256,192,89340,1,8,0:0:0:0:
256,192,89411,1,0,0:0:0:0:
256,192,89554,1,0,0:0:0:0:
256,192,89697,1,8,0:0:0:0:
256,192,89840,1,8,0:0:0:0:
256,192,89911,1,8,0:0:0:0:
256,192,89983,1,0,0:0:0:0:
256,192,90054,1,8,0:0:0:0:
256,192,90197,1,8,0:0:0:0:
256,192,90268,1,0,0:0:0:0:
256,192,90554,1,0,0:0:0:0:
256,192,90697,1,8,0:0:0:0:
256,192,90768,1,0,0:0:0:0:
256,192,90840,1,8,0:0:0:0:
256,192,90983,1,8,0:0:0:0:
256,192,91126,1,0,0:0:0:0:
256,192,91268,1,0,0:0:0:0:
256,192,91340,1,0,0:0:0:0:
256,192,91411,1,8,0:0:0:0:
256,192,91554,1,8,0:0:0:0:
256,192,91626,1,8,0:0:0:0:
256,192,91697,1,0,0:0:0:0:
256,192,91840,1,0,0:0:0:0:
256,192,91983,1,12,0:0:0:0:
256,192,92126,1,12,0:0:0:0:
256,192,92268,1,12,0:0:0:0:
256,192,92411,1,12,0:0:0:0:
256,192,92554,1,4,0:0:0:0:
256,192,92768,1,8,0:0:0:0:
256,192,92840,1,0,0:0:0:0:
256,192,92983,1,0,0:0:0:0:
256,192,93126,1,0,0:0:0:0:
256,192,93268,1,8,0:0:0:0:
256,192,93340,1,0,0:0:0:0:
256,192,93411,1,8,0:0:0:0:
256,192,93554,1,8,0:0:0:0:
256,192,93697,1,0,0:0:0:0:
256,192,93840,1,8,0:0:0:0:
256,192,93911,1,8,0:0:0:0:
256,192,93983,1,0,0:0:0:0:
256,192,94126,1,8,0:0:0:0:
256,192,94268,1,0,0:0:0:0:
256,192,94411,1,8,0:0:0:0:
256,192,94483,1,8,0:0:0:0:
256,192,94554,1,0,0:0:0:0:
256,192,94626,1,8,0:0:0:0:
256,192,94768,1,8,0:0:0:0:
256,192,94840,1,0,0:0:0:0:
256,192,95126,1,0,0:0:0:0:
256,192,95268,1,8,0:0:0:0:
256,192,95411,1,0,0:0:0:0:
256,192,95554,1,8,0:0:0:0:
256,192,95626,1,0,0:0:0:0:
256,192,95697,1,8,0:0:0:0:
256,192,95840,1,8,0:0:0:0:
256,192,95983,1,0,0:0:0:0:
256,192,96054,1,8,0:0:0:0:
256,192,96197,1,8,0:0:0:0:
256,192,96268,1,0,0:0:0:0:
256,192,96411,1,8,0:0:0:0:
256,192,96483,1,8,0:0:0:0:
256,192,96554,1,0,0:0:0:0:
256,192,96697,1,8,0:0:0:0:
256,192,96840,1,0,0:0:0:0:
256,192,96911,1,0,0:0:0:0:
256,192,96983,1,8,0:0:0:0:
256,192,97054,1,8,0:0:0:0:
256,192,97126,1,0,0:0:0:0:
256,192,97411,1,0,0:0:0:0:
256,192,97554,1,8,0:0:0:0:
256,192,97697,1,0,0:0:0:0:
256,192,97840,1,8,0:0:0:0:
256,192,97911,1,8,0:0:0:0:
256,192,97983,1,0,0:0:0:0:
256,192,98126,1,8,0:0:0:0:
256,192,98268,1,0,0:0:0:0:
256,192,98411,1,8,0:0:0:0:
256,192,98483,1,0,0:0:0:0:
256,192,98554,1,8,0:0:0:0:
256,192,98697,1,8,0:0:0:0:
256,192,98840,1,0,0:0:0:0:
256,192,98983,1,8,0:0:0:0:
256,192,99054,1,8,0:0:0:0:
256,192,99126,1,0,0:0:0:0:
256,192,99197,1,8,0:0:0:0:
256,192,99340,1,8,0:0:0:0:
256,192,99411,1,0,0:0:0:0:
256,192,99697,1,8,0:0:0:0:
256,192,99840,1,0,0:0:0:0:
256,192,99983,1,8,0:0:0:0:
256,192,100126,1,0,0:0:0:0:
256,192,100197,1,0,0:0:0:0:
256,192,100268,1,8,0:0:0:0:
256,192,100411,1,8,0:0:0:0:
256,192,100554,1,0,0:0:0:0:
256,192,100626,1,0,0:0:0:0:
256,192,100697,1,8,0:0:0:0:
256,192,100768,1,0,0:0:0:0:
256,192,100840,1,8,0:0:0:0:
256,192,100983,1,0,0:0:0:0:
256,192,101126,1,8,0:0:0:0:
256,192,101411,1,0,0:0:0:0:
256,192,101506,1,0,0:0:0:0:
256,192,101602,1,0,0:0:0:0:
256,192,101697,1,12,0:0:0:0:
256,192,109697,5,8,0:0:0:0:
256,192,109983,1,8,0:0:0:0:
256,192,110126,1,0,0:0:0:0:
256,192,110268,1,8,0:0:0:0:
256,192,110483,1,0,0:0:0:0:
256,192,110554,1,8,0:0:0:0:
256,192,110697,1,8,0:0:0:0:
256,192,110840,1,4,0:0:0:0:
256,192,111126,1,8,0:0:0:0:
256,192,111268,1,0,0:0:0:0:
256,192,111340,1,0,0:0:0:0:
256,192,111411,1,0,0:0:0:0:
256,192,111554,1,0,0:0:0:0:
256,192,111697,1,8,0:0:0:0:
256,192,111840,1,8,0:0:0:0:
256,192,111983,1,0,0:0:0:0:
256,192,112268,1,8,0:0:0:0:
256,192,112411,1,0,0:0:0:0:
256,192,112483,1,0,0:0:0:0:
256,192,112554,1,8,0:0:0:0:
256,192,112697,1,0,0:0:0:0:
256,192,112840,1,8,0:0:0:0:
256,192,113054,1,8,0:0:0:0:
256,192,113126,1,0,0:0:0:0:
256,192,113268,1,0,0:0:0:0:
256,192,113411,1,8,0:0:0:0:
256,192,113554,1,8,0:0:0:0:
256,192,113626,1,8,0:0:0:0:
256,192,113697,1,0,0:0:0:0:
256,192,113840,1,0,0:0:0:0:
256,192,113983,1,8,0:0:0:0:
256,192,114126,1,0,0:0:0:0:
256,192,114268,1,0,0:0:0:0:
256,192,114554,1,8,0:0:0:0:
256,192,114697,1,0,0:0:0:0:
256,192,114768,1,0,0:0:0:0:
256,192,114840,1,8,0:0:0:0:
256,192,114983,1,0,0:0:0:0:
256,192,115126,1,8,0:0:0:0:
256,192,115268,1,8,0:0:0:0:
256,192,115411,1,0,0:0:0:0:
256,192,115697,1,8,0:0:0:0:
256,192,115840,1,8,0:0:0:0:
256,192,115911,1,8,0:0:0:0:
256,192,115983,1,0,0:0:0:0:
256,192,116126,1,0,0:0:0:0:
256,192,116268,1,8,0:0:0:0:
256,192,116411,1,0,0:0:0:0:
256,192,116483,1,0,0:0:0:0:
256,192,116554,1,8,0:0:0:0:
256,192,116697,1,0,0:0:0:0:
256,192,116840,1,8,0:0:0:0:
256,192,116983,1,8,0:0:0:0:
256,192,117054,1,8,0:0:0:0:
256,192,117126,1,8,0:0:0:0:
256,192,117268,1,0,0:0:0:0:
256,192,117411,1,8,0:0:0:0:
256,192,117626,1,8,0:0:0:0:
256,192,117697,1,0,0:0:0:0:
256,192,117840,1,0,0:0:0:0:
256,192,117983,1,8,0:0:0:0:
256,192,118126,1,0,0:0:0:0:
256,192,118197,1,0,0:0:0:0:
256,192,118268,1,8,0:0:0:0:
256,192,118411,1,0,0:0:0:0:
256,192,118554,1,8,0:0:0:0:
256,192,118626,1,8,0:0:0:0:
256,192,118697,1,0,0:0:0:0:
256,192,118768,1,0,0:0:0:0:
256,192,118840,1,8,0:0:0:0:
256,192,119840,1,8,0:0:0:0:
256,192,119887,1,8,0:0:0:0:
256,192,119935,1,8,0:0:0:0:
256,192,119983,1,0,0:0:0:0:
256,192,120126,1,8,0:0:0:0:
256,192,120197,1,0,0:0:0:0:
256,192,120411,1,0,0:0:0:0:
256,192,120554,1,8,0:0:0:0:
256,192,120768,1,0,0:0:0:0:
256,192,120840,1,8,0:0:0:0:
256,192,120983,1,8,0:0:0:0:
256,192,121126,1,0,0:0:0:0:
256,192,121268,1,8,0:0:0:0:
256,192,121340,1,0,0:0:0:0:
256,192,121554,1,0,0:0:0:0:
256,192,121697,1,8,0:0:0:0:
256,192,121840,1,0,0:0:0:0:
256,192,121911,1,0,0:0:0:0:
256,192,121983,1,8,0:0:0:0:
256,192,122126,1,8,0:0:0:0:
256,192,122268,1,0,0:0:0:0:
256,192,122411,1,0,0:0:0:0:
256,192,122483,1,8,0:0:0:0:
256,192,122697,1,0,0:0:0:0:
256,192,122840,1,8,0:0:0:0:
256,192,123054,1,8,0:0:0:0:
256,192,123126,1,8,0:0:0:0:
256,192,123268,1,8,0:0:0:0:
256,192,123411,1,0,0:0:0:0:
256,192,123554,1,8,0:0:0:0:
256,192,123626,1,0,0:0:0:0:
256,192,123768,1,8,0:0:0:0:
256,192,123840,1,0,0:0:0:0:
256,192,123983,1,8,0:0:0:0:
256,192,124126,1,0,0:0:0:0:
256,192,124197,1,0,0:0:0:0:
256,192,124268,1,8,0:0:0:0:
256,192,124411,1,8,0:0:0:0:
256,192,124554,1,0,0:0:0:0:
256,192,124840,1,12,0:0:0:0:
256,192,124983,1,0,0:0:0:0:
256,192,125054,1,0,0:0:0:0:
256,192,125126,1,8,0:0:0:0:
256,192,125268,1,0,0:0:0:0:
256,192,125554,1,8,0:0:0:0:
256,192,125697,1,0,0:0:0:0:
256,192,125840,1,8,0:0:0:0:
256,192,125911,1,0,0:0:0:0:
256,192,126126,1,0,0:0:0:0:
256,192,126268,1,8,0:0:0:0:
256,192,126411,1,0,0:0:0:0:
256,192,126483,1,8,0:0:0:0:
256,192,126554,1,8,0:0:0:0:
256,192,126697,1,8,0:0:0:0:
256,192,126840,1,0,0:0:0:0:
256,192,127054,1,0,0:0:0:0:
256,192,127126,1,8,0:0:0:0:
256,192,127268,1,0,0:0:0:0:
256,192,127411,1,8,0:0:0:0:
256,192,127483,1,0,0:0:0:0:
256,192,127626,1,0,0:0:0:0:
256,192,127768,1,8,0:0:0:0:
256,192,127840,1,0,0:0:0:0:
256,192,127911,1,0,0:0:0:0:
256,192,127983,1,8,0:0:0:0:
256,192,128126,1,0,0:0:0:0:
256,192,128197,1,8,0:0:0:0:
256,192,128268,1,0,0:0:0:0:
256,192,128411,1,0,0:0:0:0:
256,192,128554,1,8,0:0:0:0:
256,192,128697,1,8,0:0:0:0:
256,192,128840,1,8,0:0:0:0:
256,192,128911,1,8,0:0:0:0:
256,192,128983,1,0,0:0:0:0:
256,192,129054,1,0,0:0:0:0:
256,192,129126,1,0,0:0:0:0:
256,192,129411,1,8,0:0:0:0:
256,192,129459,1,8,0:0:0:0:
256,192,129506,1,8,0:0:0:0:
256,192,129554,1,0,0:0:0:0:
256,192,129626,1,0,0:0:0:0:
256,192,129697,1,8,0:0:0:0:
256,192,129911,1,8,0:0:0:0:
256,192,129983,1,0,0:0:0:0:
256,192,130126,1,8,0:0:0:0:
256,192,130268,1,0,0:0:0:0:
256,192,130411,1,8,0:0:0:0:
256,192,130483,1,0,0:0:0:0:
256,192,130697,1,0,0:0:0:0:
256,192,130840,1,8,0:0:0:0:
256,192,130983,1,0,0:0:0:0:
256,192,131054,1,0,0:0:0:0:
256,192,131126,1,8,0:0:0:0:
256,192,131268,1,8,0:0:0:0:
256,192,131411,1,0,0:0:0:0:
256,192,131554,1,0,0:0:0:0:
256,192,131626,1,8,0:0:0:0:
256,192,131840,1,0,0:0:0:0:
256,192,131983,1,8,0:0:0:0:
256,192,132197,1,8,0:0:0:0:
256,192,132268,1,8,0:0:0:0:
256,192,132411,1,8,0:0:0:0:
256,192,132554,1,0,0:0:0:0:
256,192,132697,1,8,0:0:0:0:
256,192,132768,1,0,0:0:0:0:
256,192,132911,1,8,0:0:0:0:
256,192,132983,1,0,0:0:0:0:
256,192,133126,1,8,0:0:0:0:
256,192,133268,1,0,0:0:0:0:
256,192,133340,1,0,0:0:0:0:
256,192,133411,1,8,0:0:0:0:
256,192,133554,1,8,0:0:0:0:
256,192,133697,1,0,0:0:0:0:
256,192,133983,1,12,0:0:0:0:
256,192,134126,1,0,0:0:0:0:
256,192,134197,1,0,0:0:0:0:
256,192,134268,1,8,0:0:0:0:
256,192,134411,1,0,0:0:0:0:
256,192,134697,1,8,0:0:0:0:
256,192,134840,1,0,0:0:0:0:
256,192,134983,1,8,0:0:0:0:
256,192,135054,1,0,0:0:0:0:
256,192,135268,1,0,0:0:0:0:
256,192,135411,1,8,0:0:0:0:
256,192,135554,1,0,0:0:0:0:
256,192,135626,1,8,0:0:0:0:
256,192,135697,1,8,0:0:0:0:
256,192,135840,1,8,0:0:0:0:
256,192,135983,1,0,0:0:0:0:
256,192,136197,1,8,0:0:0:0:
256,192,136268,1,0,0:0:0:0:
256,192,136411,1,0,0:0:0:0:
256,192,136554,1,8,0:0:0:0:
256,192,136626,1,0,0:0:0:0:
256,192,136768,1,0,0:0:0:0:
256,192,136911,1,8,0:0:0:0:
256,192,136983,1,0,0:0:0:0:
256,192,137054,1,0,0:0:0:0:
256,192,137126,1,8,0:0:0:0:
256,192,138126,1,0,0:0:0:0:
256,192,138197,1,0,0:0:0:0:
256,192,138268,1,0,0:0:0:0:
256,192,138554,1,8,0:0:0:0:
256,192,138697,1,8,0:0:0:0:
256,192,138768,1,8,0:0:0:0:
256,192,138840,1,0,0:0:0:0:
256,192,138911,1,8,0:0:0:0:
256,192,138983,1,8,0:0:0:0:
256,192,139126,1,0,0:0:0:0:
256,192,139340,1,8,0:0:0:0:
256,192,139411,1,0,0:0:0:0:
256,192,139554,1,8,0:0:0:0:
256,192,139697,1,0,0:0:0:0:
256,192,139768,1,0,0:0:0:0:
256,192,139840,1,8,0:0:0:0:
256,192,139911,1,8,0:0:0:0:
256,192,139983,1,0,0:0:0:0:
256,192,140126,1,8,0:0:0:0:
256,192,140197,1,8,0:0:0:0:
256,192,140268,1,0,0:0:0:0:
256,192,140411,1,0,0:0:0:0:
256,192,140554,1,0,0:0:0:0:
256,192,140697,1,8,0:0:0:0:
256,192,140768,1,8,0:0:0:0:
256,192,140840,1,0,0:0:0:0:
256,192,140911,1,8,0:0:0:0:
256,192,141054,1,8,0:0:0:0:
256,192,141126,1,0,0:0:0:0:
256,192,141268,1,8,0:0:0:0:
256,192,141340,1,8,0:0:0:0:
256,192,141411,1,0,0:0:0:0:
256,192,141554,1,0,0:0:0:0:
256,192,141697,1,8,0:0:0:0:
256,192,141840,1,0,0:0:0:0:
256,192,141911,1,0,0:0:0:0:
256,192,141983,1,8,0:0:0:0:
256,192,142126,1,0,0:0:0:0:
256,192,142268,1,8,0:0:0:0:
256,192,142411,1,8,0:0:0:0:
256,192,142483,1,8,0:0:0:0:
256,192,142554,1,0,0:0:0:0:
256,192,142697,1,0,0:0:0:0:
256,192,142840,1,0,0:0:0:0:
256,192,143054,1,8,0:0:0:0:
256,192,143126,1,0,0:0:0:0:
256,192,143268,1,8,0:0:0:0:
256,192,143411,1,0,0:0:0:0:
256,192,143483,1,8,0:0:0:0:
256,192,143554,1,8,0:0:0:0:
256,192,143697,1,0,0:0:0:0:
256,192,143840,1,8,0:0:0:0:
256,192,143911,1,8,0:0:0:0:
256,192,143983,1,0,0:0:0:0:
256,192,144126,1,8,0:0:0:0:
256,192,144268,1,0,0:0:0:0:
256,192,144340,1,0,0:0:0:0:
256,192,144411,1,8,0:0:0:0:
256,192,144483,1,8,0:0:0:0:
256,192,144554,1,0,0:0:0:0:
256,192,144697,1,8,0:0:0:0:
256,192,144768,1,8,0:0:0:0:
256,192,144840,1,0,0:0:0:0:
256,192,144983,1,0,0:0:0:0:
256,192,145126,1,0,0:0:0:0:
256,192,145268,1,8,0:0:0:0:
256,192,145340,1,8,0:0:0:0:
256,192,145411,1,0,0:0:0:0:
256,192,145483,1,8,0:0:0:0:
256,192,145626,1,8,0:0:0:0:
256,192,145697,1,0,0:0:0:0:
256,192,145840,1,8,0:0:0:0:
256,192,145911,1,8,0:0:0:0:
256,192,145983,1,0,0:0:0:0:
256,192,146126,1,0,0:0:0:0:
256,192,146268,1,8,0:0:0:0:
256,192,146340,1,0,0:0:0:0:
256,192,146483,1,0,0:0:0:0:
256,192,146554,1,8,0:0:0:0:
256,192,146697,1,0,0:0:0:0:
256,192,146840,1,8,0:0:0:0:
256,192,146983,1,0,0:0:0:0:
256,192,147054,1,0,0:0:0:0:
256,192,147126,1,0,0:0:0:0:
256,192,147268,1,0,0:0:0:0:
256,192,147411,1,8,0:0:0:0:
256,192,147506,1,8,0:0:0:0:
256,192,147602,1,8,0:0:0:0:
256,192,147697,1,8,0:0:0:0:
256,192,147792,1,8,0:0:0:0:
256,192,147887,1,8,0:0:0:0:
256,192,147983,1,0,0:0:0:0:
256,192,148126,1,8,0:0:0:0:
256,192,148173,1,8,0:0:0:0:
256,192,148221,1,8,0:0:0:0:
256,192,148268,1,0,0:0:0:0:
256,192,148411,1,0,0:0:0:0:
256,192,148554,1,8,0:0:0:0:
256,192,148697,1,0,0:0:0:0:
256,192,148768,1,0,0:0:0:0:
256,192,148840,1,8,0:0:0:0:
256,192,148983,1,0,0:0:0:0:
256,192,149126,1,8,0:0:0:0:
256,192,149340,1,0,0:0:0:0:
256,192,149411,1,8,0:0:0:0:
256,192,149554,1,0,0:0:0:0:
256,192,149697,1,8,0:0:0:0:
256,192,149983,1,8,0:0:0:0:
256,192,150126,1,0,0:0:0:0:
256,192,150268,1,8,0:0:0:0:
256,192,150340,1,0,0:0:0:0:
256,192,150483,1,0,0:0:0:0:
256,192,150554,1,8,0:0:0:0:
256,192,150697,1,0,0:0:0:0:
256,192,150840,1,8,0:0:0:0:
256,192,150983,1,0,0:0:0:0:
256,192,151054,1,0,0:0:0:0:
256,192,151126,1,8,0:0:0:0:
256,192,151268,1,0,0:0:0:0:
256,192,151411,1,8,0:0:0:0:
256,192,151483,1,8,0:0:0:0:
256,192,151554,1,0,0:0:0:0:
256,192,151626,1,0,0:0:0:0:
256,192,151697,1,8,0:0:0:0:
256,192,151840,1,0,0:0:0:0:
256,192,151983,1,8,0:0:0:0:
256,192,152197,1,0,0:0:0:0:
256,192,152268,1,8,0:0:0:0:
256,192,152411,1,0,0:0:0:0:
256,192,152554,1,8,0:0:0:0:
256,192,152626,1,8,0:0:0:0:
256,192,152697,1,8,0:0:0:0:
256,192,152840,1,8,0:0:0:0:
256,192,152983,1,0,0:0:0:0:
256,192,153054,1,8,0:0:0:0:
256,192,153126,1,8,0:0:0:0:
256,192,153268,1,0,0:0:0:0:
256,192,153411,1,8,0:0:0:0:
256,192,153554,1,0,0:0:0:0:
256,192,153626,1,0,0:0:0:0:
256,192,153697,1,8,0:0:0:0:
256,192,153911,1,0,0:0:0:0:
256,192,153983,1,8,0:0:0:0:
256,192,154126,1,0,0:0:0:0:
256,192,154268,1,8,0:0:0:0:
256,192,154411,1,0,0:0:0:0:
256,192,154483,1,0,0:0:0:0:
256,192,154554,1,8,0:0:0:0:
256,192,154697,1,0,0:0:0:0:
256,192,154768,1,0,0:0:0:0:
256,192,154840,1,8,0:0:0:0:
256,192,154911,1,0,0:0:0:0:
256,192,155054,1,0,0:0:0:0:
256,192,155126,1,8,0:0:0:0:
256,192,155268,1,0,0:0:0:0:
256,192,155411,1,8,0:0:0:0:
256,192,155483,1,8,0:0:0:0:
256,192,155554,1,0,0:0:0:0:
256,192,155626,1,0,0:0:0:0:
256,192,155697,1,8,0:0:0:0:
256,192,155768,1,0,0:0:0:0:
256,192,155840,1,0,0:0:0:0:
256,192,155911,1,0,0:0:0:0:
256,192,155983,1,8,0:0:0:0:
256,192,156554,12,0,157697,0:0:0:0:
256,192,158312,8,0,158553,0:0:0:0:
256,192,158674,5,4,0:0:0:0:
256,192,159035,1,8,0:0:0:0:
256,192,159156,1,0,0:0:0:0:
256,192,159397,1,8,0:0:0:0:
256,192,159518,1,8,0:0:0:0:
256,192,159639,1,0,0:0:0:0:
256,192,159819,1,8,0:0:0:0:
256,192,159880,1,0,0:0:0:0:
256,192,160000,1,8,0:0:0:0:
256,192,160061,1,8,0:0:0:0:
256,192,160121,1,0,0:0:0:0:
256,192,160302,1,0,0:0:0:0:
256,192,160362,1,8,0:0:0:0:
256,192,160483,1,8,0:0:0:0:
256,192,160604,1,0,0:0:0:0:
256,192,160724,1,0,0:0:0:0:
256,192,160845,1,8,0:0:0:0:
256,192,160905,1,8,0:0:0:0:
256,192,160965,1,0,0:0:0:0:
256,192,161086,1,8,0:0:0:0:
256,192,161267,1,8,0:0:0:0:
256,192,161327,1,0,0:0:0:0:
256,192,161448,1,8,0:0:0:0:
256,192,161569,1,0,0:0:0:0:
256,192,161629,1,8,0:0:0:0:
256,192,161689,1,8,0:0:0:0:
256,192,161810,1,0,0:0:0:0:
256,192,161870,1,8,0:0:0:0:
256,192,161991,1,8,0:0:0:0:
256,192,162051,1,0,0:0:0:0:
256,192,162232,1,0,0:0:0:0:
256,192,162292,1,8,0:0:0:0:
256,192,162413,1,8,0:0:0:0:
256,192,162534,1,0,0:0:0:0:
256,192,162715,1,0,0:0:0:0:
256,192,162775,1,8,0:0:0:0:
256,192,162895,1,0,0:0:0:0:
256,192,162956,1,0,0:0:0:0:
256,192,163016,1,8,0:0:0:0:
256,192,163137,1,8,0:0:0:0:
256,192,163378,1,8,0:0:0:0:
256,192,163499,1,0,0:0:0:0:
256,192,163619,1,8,0:0:0:0:
256,192,163680,1,8,0:0:0:0:
256,192,163740,1,8,0:0:0:0:
256,192,163860,1,0,0:0:0:0:
256,192,163981,1,8,0:0:0:0:
256,192,164162,1,8,0:0:0:0:
256,192,164222,1,8,0:0:0:0:
256,192,164343,1,8,0:0:0:0:
256,192,164464,1,0,0:0:0:0:
256,192,164645,1,8,0:0:0:0:
256,192,164705,1,0,0:0:0:0:
256,192,164826,1,0,0:0:0:0:
256,192,164946,1,8,0:0:0:0:
256,192,165127,1,8,0:0:0:0:
256,192,165187,1,0,0:0:0:0:
256,192,165308,1,8,0:0:0:0:
256,192,165429,1,0,0:0:0:0:
256,192,165549,1,8,0:0:0:0:
256,192,165610,1,8,0:0:0:0:
256,192,165670,1,0,0:0:0:0:
256,192,165791,1,0,0:0:0:0:
256,192,165911,1,8,0:0:0:0:
256,192,166032,1,0,0:0:0:0:
256,192,166092,1,0,0:0:0:0:
256,192,166152,1,8,0:0:0:0:
256,192,166394,1,4,0:0:0:0:
256,192,166636,1,0,0:0:0:0:
256,192,166757,1,8,0:0:0:0:
256,192,166878,1,0,0:0:0:0:
256,192,166999,1,8,0:0:0:0:
256,192,167060,1,8,0:0:0:0:
256,192,167120,1,0,0:0:0:0:
256,192,167241,1,8,0:0:0:0:
256,192,167362,1,0,0:0:0:0:
256,192,167544,1,8,0:0:0:0:
256,192,167605,1,0,0:0:0:0:
256,192,167726,1,8,0:0:0:0:
256,192,167847,1,0,0:0:0:0:
256,192,167907,1,8,0:0:0:0:
256,192,168029,1,8,0:0:0:0:
256,192,168089,1,0,0:0:0:0:
256,192,168210,1,8,0:0:0:0:
256,192,168331,1,0,0:0:0:0:
256,192,168574,1,0,0:0:0:0:
256,192,168695,1,8,0:0:0:0:
256,192,168755,1,8,0:0:0:0:
256,192,168816,1,0,0:0:0:0:
256,192,168876,1,0,0:0:0:0:
256,192,168997,1,0,0:0:0:0:
256,192,169058,1,8,0:0:0:0:
256,192,169179,1,8,0:0:0:0:
256,192,169300,1,4,0:0:0:0:
256,192,169542,1,4,0:0:0:0:
256,192,169785,1,12,0:0:0:0:
256,192,170027,1,12,0:0:0:0:
256,192,170269,1,4,0:0:0:0:
256,192,170511,1,0,0:0:0:0:
256,192,170632,1,8,0:0:0:0:
256,192,170693,1,8,0:0:0:0:
256,192,170754,1,0,0:0:0:0:
256,192,170875,1,0,0:0:0:0:
256,192,170996,1,8,0:0:0:0:
256,192,171056,1,8,0:0:0:0:
256,192,171117,1,0,0:0:0:0:
256,192,171178,1,0,0:0:0:0:
256,192,171238,1,8,0:0:0:0:
256,192,171359,1,0,0:0:0:0:
256,192,171480,1,8,0:0:0:0:
256,192,171601,1,0,0:0:0:0:
256,192,171662,1,0,0:0:0:0:
256,192,171723,1,8,0:0:0:0:
256,192,171844,1,8,0:0:0:0:
256,192,171904,1,8,0:0:0:0:
256,192,171965,1,0,0:0:0:0:
256,192,172086,1,8,0:0:0:0:
256,192,172207,1,4,0:0:0:0:
256,192,172328,8,0,175295,0:0:0:0:
