osu file format v14

[General]
AudioFilename: audio.ogg
AudioLeadIn: 0
PreviewTime: 19411
Countdown: 0
SampleSet: Normal
StackLeniency: 0.7
Mode: 1
LetterboxInBreaks: 0
WidescreenStoryboard: 0

[Editor]
Bookmarks: 10258,19401,37687,55973,65116,83401,85687,101687,110830,119973,129120,138262
DistanceSpacing: 1
BeatDivisor: 8
GridSize: 32
TimelineZoom: 2.799999

[Metadata]
Title:Accelerate
TitleUnicode:Accelerate
Artist:Curren
ArtistUnicode:。-゚+.-.Curren。+..。-゚+
Creator:komasy
Version:Much Love
Source:
Tags:Instrumental Electronic Hardcore Dariacore Currencore LookatCurren Lost Frog Productions FASTFUSION Japanese Hyperflip Compilation Over 200BPM カレンチャン Curren chan uone
BeatmapID:4383288
BeatmapSetID:2091323

[Difficulty]
HPDrainRate:6.5
CircleSize:7
OverallDifficulty:6.5
ApproachRate:10
SliderMultiplier:1.4
SliderTickRate:1

[Events]
//Background and Video events
0,0,"89638603_p0.jpg",0,40
//Break Periods
2,56183,59533
2,101897,106033
//Storyboard Layer 0 (Background)
//Storyboard Layer 1 (Fail)
//Storyboard Layer 2 (Pass)
//Storyboard Layer 3 (Foreground)
//Storyboard Layer 4 (Overlay)
//Storyboard Sound Samples

[TimingPoints]
1126,285.714285714286,4,1,0,50,1,0
1126,-100,4,1,0,50,0,0
10197,-100,4,1,0,100,0,0
14822,-99.999999733533,4,1,0,100,0,0
14965,-99.995919335753,4,1,0,100,0,0
15108,-99.969295292456,4,1,0,100,0,0
15251,-99.898558240959,4,1,0,100,0,0
15322,-99.840431273499,4,1,0,100,0,0
15393,-99.763577267178,4,1,0,100,0,0
15536,-99.54165539027,4,1,0,100,0,0
15679,-99.213330709195,4,1,0,100,0,0
15822,-98.759596369725,4,1,0,100,0,0
15965,-98.163047614204,4,1,0,100,0,0
16108,-97.408366520379,4,1,0,100,0,0
16251,-96.48281314757,4,1,0,100,0,0
16393,-95.385068531042,4,1,0,100,0,0
16465,-94.75833606477,4,1,0,100,0,0
16536,-94.093441954481,4,1,0,100,0,0
16679,-92.612492773153,4,1,0,100,0,0
16822,-90.943616842277,4,1,0,100,0,0
16965,-89.0921654592,4,1,0,100,0,0
17108,-87.067313128073,4,1,0,100,0,0
17179,-86.001348381451,4,1,0,100,0,0
17251,-84.881765397309,4,1,0,100,0,0
17322,-83.741711905656,4,1,0,100,0,0
17393,-82.568080083212,4,1,0,100,0,0
17465,-81.346004018356,4,1,0,100,0,0
17536,-80.11189159131,4,1,0,100,0,0
17608,-78.833585310878,4,1,0,100,0,0
17679,-77.549227053826,4,1,0,100,0,0
17751,-76.225375374608,4,1,0,100,0,0
17822,-74.901523498209,4,1,0,100,0,0
17893,-73.562125434956,4,1,0,100,0,0
17965,-72.190748174003,4,1,0,100,0,0
18036,-70.828182264707,4,1,0,100,0,0
18108,-69.438748020124,4,1,0,100,0,0
18179,-68.063633088811,4,1,0,100,0,0
18245,-66.783114755656,4,1,0,100,0,0
19108,-100,4,1,0,100,0,0
19251,-90.909090909091,4,1,0,100,0,0
19393,-66.666666666667,4,1,0,100,0,0
19822,-100,4,1,0,100,0,0
37697,-100,4,1,0,100,0,1
46840,-100,4,1,0,100,0,0
47411,-100,4,1,0,100,0,1
54822,-99.999992880268,4,1,0,100,0,1
54965,-99.891083056483,4,1,0,100,0,1
55036,-99.650251099313,4,1,0,100,0,1
55108,-99.18602891884,4,1,0,100,0,1
55251,-97.358494384992,4,1,0,100,0,1
55393,-94.045112153708,4,1,0,100,0,1
55536,-89.044897487454,4,1,0,100,0,1
55572,-87.533372925092,4,1,0,100,0,1
55679,-82.518003889968,4,1,0,100,0,1
55715,-80.678285742149,4,1,0,100,0,1
55822,-74.873500101043,4,1,0,100,0,1
55858,-72.837574395136,4,1,0,100,0,1
55965,-66.666666666667,4,1,0,100,0,1
55983,-66.666666666667,4,1,0,100,0,0
56054,-108.695652173913,4,1,0,50,0,0
58197,-119.047619047619,4,1,0,50,0,0
59340,-133.333333333333,4,1,0,50,0,0
59911,-133.333333333333,4,1,0,90,0,0
60536,-133.333332859614,4,1,0,90,0,0
60822,-133.278752772856,4,1,0,90,0,0
61108,-132.911176780179,4,1,0,90,0,0
61393,-131.938467809256,4,1,0,90,0,0
61679,-130.087514915981,4,1,0,90,0,0
61965,-127.15301449401,4,1,0,90,0,0
62108,-125.238859606483,4,1,0,90,0,0
62393,-120.515623564112,4,1,0,90,0,0
62536,-117.704887261125,4,1,0,90,0,0
62679,-114.621962602886,4,1,0,90,0,0
62822,-111.292066032983,4,1,0,90,0,0
63108,-104.018478243455,4,1,0,90,0,0
63393,-96.199771946921,4,1,0,90,0,0
63536,-92.158565987984,4,1,0,90,0,0
63679,-88.088725710917,4,1,0,90,0,0
63965,-80,4,1,0,90,0,0
65054,-100,4,1,0,100,0,0
72536,-100,4,1,0,100,0,0
72679,-102.944204241301,4,1,0,100,0,0
72751,-104.471374843293,4,1,0,100,0,0
72822,-106.067034365719,4,1,0,100,0,0
72965,-109.385254867644,4,1,0,100,0,0
73108,-112.917795844625,4,1,0,100,0,0
73251,-116.658889407373,4,1,0,100,0,0
73322,-118.652112007594,4,1,0,100,0,0
73393,-120.685493603669,4,1,0,100,0,0
73536,-125,4,1,0,100,0,0
73679,-118.859215298384,4,1,0,100,0,0
73751,-116.10305958132,4,1,0,100,0,0
73822,-113.507556675063,4,1,0,100,0,0
73893,-111.025562057284,4,1,0,100,0,0
73965,-108.617053329316,4,1,0,100,0,0
74036,-106.342182890855,4,1,0,100,0,0
74108,-104.130560369728,4,1,0,100,0,0
74179,-102.037928106425,4,1,0,100,0,0
74251,-100,4,1,0,100,0,0
74268,-100,4,1,0,100,0,1
82393,-100.149328023892,4,1,0,100,0,1
82465,-101.976685250887,4,1,0,100,0,1
82536,-103.845161290323,4,1,0,100,0,1
82608,-105.811201682882,4,1,0,100,0,1
82679,-107.824222936763,4,1,0,100,0,1
82751,-109.945355191257,4,1,0,100,0,1
82822,-112.120367790471,4,1,0,100,0,1
82893,-114.383172256964,4,1,0,100,0,1
82965,-116.773070226349,4,1,0,100,0,1
83036,-119.22962962963,4,1,0,100,0,1
83108,-121.828640629731,4,1,0,100,0,1
83179,-124.504950495049,4,1,0,100,0,1
83251,-127.341772151899,4,1,0,100,0,1
83322,-130.26869537067,4,1,0,100,0,1
83393,-133.333333333333,4,1,0,100,0,1
83411,-133.333333333333,4,1,0,100,0,0
83965,-132.640681642778,4,1,0,100,0,0
84536,-128,4,1,0,100,0,0
85108,-116.882366182441,4,1,0,100,0,0
85393,-109.001605549314,4,1,0,100,0,0
85679,-100,4,1,0,100,0,0
91965,-100,4,1,0,100,0,0
92108,-95.230153435624,4,1,0,100,0,0
92251,-90.923566878981,4,1,0,100,0,0
92393,-86.963143466342,4,1,0,100,0,0
92536,-83.333333333333,4,1,0,100,0,0
92554,-83.333333333333,4,1,0,100,0,1
101387,-80,4,1,0,100,0,1
101483,-75.016393442623,4,1,0,100,0,1
101578,-70.573719925972,4,1,0,100,0,1
101673,-66.666666666667,4,1,0,100,0,1
101697,-66.666666666667,4,1,0,100,0,0
101768,-106.382978723404,4,1,0,50,0,0
103911,-113.636363636364,4,1,0,50,0,0
105054,-121.951219512195,4,1,0,50,0,0
106197,-133.333333333333,4,1,0,90,0,0
109679,-133.194227090941,4,1,0,90,0,0
109893,-128.415758591785,4,1,0,90,0,0
109965,-126.884214013583,4,1,0,90,0,0
110108,-123.948220064725,4,1,0,90,0,0
110251,-121.145026095208,4,1,0,90,0,0
110393,-118.484145398299,4,1,0,90,0,0
110465,-117.1791341594,4,1,0,90,0,0
110536,-115.9200968523,4,1,0,90,0,0
110679,-113.464671900459,4,1,0,90,0,0
110822,-111.111111111111,4,1,0,90,0,0
118911,-133.333333333333,4,1,0,60,0,0
119816,-111.111111111111,4,1,0,100,0,0
119864,-107.1964017991,4,1,0,100,0,0
119911,-103.473227206946,4,1,0,100,0,0
119959,-100,4,1,0,100,0,0
137197,-100,4,1,0,50,0,0
138108,-99.201065246338,4,1,0,100,0,0
138179,-90.632603406326,4,1,0,100,0,0
138251,-83.333333333333,4,1,0,100,0,0
138536,-66.735644076565,4,1,0,100,0,0
138572,-67.152524726705,4,1,0,100,0,0
138608,-67.574646411734,4,1,0,100,0,0
138679,-68.422913719943,4,1,0,100,0,0
138751,-69.305157593123,4,1,0,100,0,0
138822,-70.197714493017,4,1,0,100,0,0
138840,-70.197714493017,4,1,0,100,0,1
138893,-71.113561190739,4,1,0,100,0,1
138965,-72.067039106145,4,1,0,100,0,1
139108,-74.038645494548,4,1,0,100,0,1
139179,-75.058184639255,4,1,0,100,0,1
139251,-76.121164437451,4,1,0,100,0,1
139322,-77.199281867145,4,1,0,100,0,1
139393,-78.308377175233,4,1,0,100,0,1
139465,-79.466119096509,4,1,0,100,0,1
139536,-80.641800375078,4,1,0,100,0,1
139608,-81.87010789084,4,1,0,100,0,1
139679,-83.118556701031,4,1,0,100,0,1
139751,-84.424083769634,4,1,0,100,0,1
139822,-85.752271216486,4,1,0,100,0,1
139893,-87.122917604683,4,1,0,100,0,1
139965,-88.558352402746,4,1,0,100,0,1
140036,-90.020935101186,4,1,0,100,0,1
140108,-91.554293825408,4,1,0,100,0,1
140179,-93.118383060635,4,1,0,100,0,1
140251,-94.760039177277,4,1,0,100,0,1
140322,-96.436581111388,4,1,0,100,0,1
140393,-98.173515981735,4,1,0,100,0,1
140465,-100,4,1,0,100,0,1
140536,-71.497553438063,4,1,0,100,0,1
140608,-72.335852006253,4,1,0,100,0,1
140679,-73.181982931892,4,1,0,100,0,1
140751,-74.06048884591,4,1,0,100,0,1
140822,-74.947695214956,4,1,0,100,0,1
140893,-75.856415861197,4,1,0,100,0,1
140965,-76.80071925032,4,1,0,100,0,1
141036,-77.755216356253,4,1,0,100,0,1
141108,-78.74769536236,4,1,0,100,0,1
141179,-79.75151711013,4,1,0,100,0,1
141251,-80.795954745535,4,1,0,100,0,1
141322,-81.853025724184,4,1,0,100,0,1
141393,-82.938123156204,4,1,0,100,0,1
141465,-84.068284189409,4,1,0,100,0,1
141536,-85.213321055862,4,1,0,100,0,1
141608,-86.406784936197,4,1,0,100,0,1
141679,-87.616868515523,4,1,0,100,0,1
141751,-88.879106806995,4,1,0,100,0,1
141822,-90.159941544207,4,1,0,100,0,1
141893,-91.478232217142,4,1,0,100,0,1
141965,-92.855052468749,4,1,0,100,0,1
142036,-94.253946698353,4,1,0,100,0,1
142108,-95.716255817962,4,1,0,100,0,1
142179,-97.203378703663,4,1,0,100,0,1
142251,-98.759393481257,4,1,0,100,0,1
142322,-100.343363151712,4,1,0,100,0,1
142393,-101.978970567978,4,1,0,100,0,1
142465,-103.69298286568,4,1,0,100,0,1
142536,-105.440562096468,4,1,0,100,0,1
142608,-107.273956723338,4,1,0,100,0,1
142679,-109.145412550985,4,1,0,100,0,1
142751,-111.111111111111,4,1,0,100,0,1
142822,-77.003121748179,4,1,0,100,0,1
142893,-77.963125548727,4,1,0,100,0,1
142965,-78.9614085008,4,1,0,100,0,1
143036,-79.971181556196,4,1,0,100,0,1
143108,-81.021897810219,4,1,0,100,0,1
143179,-82.085413200222,4,1,0,100,0,1
143251,-83.192804946599,4,1,0,100,0,1
143322,-84.3144701861,4,1,0,100,0,1
143393,-85.466794995188,4,1,0,100,0,1
143465,-86.667967987507,4,1,0,100,0,1
143536,-87.885985748219,4,1,0,100,0,1
143608,-89.156626506024,4,1,0,100,0,1
143679,-90.446119372581,4,1,0,100,0,1
143751,-91.792433326442,4,1,0,100,0,1
143822,-93.159882501049,4,1,0,100,0,1
143893,-94.568690095847,4,1,0,100,0,1
143965,-96.041531473069,4,1,0,100,0,1
144036,-97.539543057996,4,1,0,100,0,1
144108,-99.107142857143,4,1,0,100,0,1
144179,-100.703107280562,4,1,0,100,0,1
144251,-102.374913534701,4,1,0,100,0,1
144322,-104.07876230661,4,1,0,100,0,1
144393,-105.840286054827,4,1,0,100,0,1
144465,-107.688576279408,4,1,0,100,0,1
144536,-109.575518262586,4,1,0,100,0,1
144608,-111.557788944724,4,1,0,100,0,1
144679,-113.584036838066,4,1,0,100,0,1
144751,-115.715402658327,4,1,0,100,0,1
144822,-117.89697291556,4,1,0,100,0,1
144893,-120.162381596752,4,1,0,100,0,1
144965,-122.550372619376,4,1,0,100,0,1
145036,-125,4,1,0,100,0,1
145108,-83.415255780084,4,1,0,100,0,1
145179,-84.397045550828,4,1,0,100,0,1
145251,-85.416550155659,4,1,0,100,0,1
145322,-86.446305939174,4,1,0,100,0,1
145393,-87.501193545307,4,1,0,100,0,1
145465,-88.597559796585,4,1,0,100,0,1
145536,-89.705939935001,4,1,0,100,0,1
145608,-90.858615903232,4,1,0,100,0,1
145679,-92.024663091723,4,1,0,100,0,1
145751,-93.238101052032,4,1,0,100,0,1
145822,-94.466435757876,4,1,0,100,0,1
145893,-95.727567115847,4,1,0,100,0,1
145965,-97.041319863608,4,1,0,100,0,1
146036,-98.372622268024,4,1,0,100,0,1
146108,-99.760505116482,4,1,0,100,0,1
146179,-101.168002472897,4,1,0,100,0,1
146251,-102.636471563291,4,1,0,100,0,1
146322,-104.126897554768,4,1,0,100,0,1
146393,-105.661247549867,4,1,0,100,0,1
146465,-107.264086897488,4,1,0,100,0,1
146536,-108.893008222824,4,1,0,100,0,1
146608,-110.596186338402,4,1,0,100,0,1
146679,-112.328699958324,4,1,0,100,0,1
146751,-114.141942555365,4,1,0,100,0,1
146822,-115.988254353989,4,1,0,100,0,1
146893,-117.895278528239,4,1,0,100,0,1
146965,-119.894287882356,4,1,0,100,0,1
147036,-121.93304593113,4,1,0,100,0,1
147108,-124.07256972651,4,1,0,100,0,1
147179,-126.257198754512,4,1,0,100,0,1
147251,-128.552590971579,4,1,0,100,0,1
147322,-130.899325791338,4,1,0,100,0,1
147387,-133.333333333333,4,1,0,100,0,1
147411,-133.333333333333,4,1,0,100,0,0
147483,-121.250262219425,4,1,0,100,0,0
147578,-111.271537202811,4,1,0,100,0,0
147673,-102.810387762362,4,1,0,100,0,0
147768,-95.545086370774,4,1,0,100,0,0
147864,-89.176888066034,4,1,0,100,0,0
147959,-83.658995513099,4,1,0,100,0,0
147983,-83.658995513099,4,1,0,100,0,1
155393,-83.2246849196,4,1,0,100,0,1
155578,-80.008355964069,4,1,0,100,0,1
155673,-78.451454321999,4,1,0,100,0,1
155864,-75.497733096787,4,1,0,100,0,1
155959,-74.109907120743,4,1,0,100,0,1
156149,-71.481896229937,4,1,0,100,0,1
156245,-70.22368903557,4,1,0,100,0,1
156435,-67.859673990078,4,1,0,100,0,1
156530,-66.736365220422,4,1,0,100,0,1
156554,-66.840274621736,4,1,0,80,0,0
156840,-66.840274621736,4,1,0,50,0,0
157126,-66.840274621736,4,1,0,30,0,0
157411,-66.840274621736,4,1,0,5,0,0
157626,-100,4,1,0,5,0,0
157709,241.254523522316,4,1,0,5,1,8
158251,-66.666666666667,4,1,0,50,0,0
158623,-100,4,1,0,100,0,0
159623,-99.999997945595,4,1,0,100,0,0
159744,-99.967134145099,4,1,0,100,0,0
159865,-99.752945570586,4,1,0,100,0,0
159925,-99.526706201308,4,1,0,100,0,0
159980,-99.226377831827,4,1,0,100,0,0
160021,-98.935748093905,4,1,0,100,0,0
160061,-98.591276611626,4,1,0,100,0,0
160101,-98.181772110509,4,1,0,100,0,0
160287,-95.309793768214,4,1,0,100,0,0
160347,-94.013812626147,4,1,0,100,0,0
160463,-90.978382792839,4,1,0,100,0,0
160503,-89.772929160656,4,1,0,100,0,0
160543,-88.489527992098,4,1,0,100,0,0
160583,-87.131364196863,4,1,0,100,0,0
160604,-86.95652173913,4,1,0,100,0,1
165474,-87.018954623779,4,1,0,100,0,1
165534,-87.775202780997,4,1,0,100,0,1
165595,-88.557650153441,4,1,0,100,0,1
165655,-89.340999557718,4,1,0,100,0,1
165775,-90.950022512382,4,1,0,100,0,1
165836,-91.790366555589,4,1,0,100,0,1
165896,-92.632222561908,4,1,0,100,0,1
166017,-94.377822769039,4,1,0,100,0,1
166077,-95.268039616413,4,1,0,100,0,1
166137,-96.175210284082,4,1,0,100,0,1
166258,-98.058252427184,4,1,0,100,0,1
166318,-99.019607843137,4,1,0,100,0,1
166378,-100,4,1,0,100,0,1
166394,242.228502220428,4,1,0,100,1,1
172207,-100,4,1,0,100,0,0
172227,-100,4,1,0,80,0,0
172268,-66.666666666667,4,1,0,80,0,0
172919,-100,4,1,0,70,0,0
173161,-111.111111111111,4,1,0,60,0,0
173403,-111.111111111111,4,1,0,50,0,0
173645,-111.111111111111,4,1,0,40,0,0
173887,-111.111111111111,4,1,0,30,0,0
174128,-125,4,1,0,20,0,0
174370,-125,4,1,0,10,0,0
174612,-125,4,1,0,5,0,0
175096,-142.857142857143,4,1,0,5,0,0

[HitObjects]
160,288,10268,5,4,0:0:0:0:
352,96,10554,5,8,0:0:0:0:
352,96,10840,5,8,0:0:0:0:
352,96,11126,5,8,0:0:0:0:
160,96,11268,5,0,0:0:0:0:
352,96,11411,5,8,0:0:0:0:
352,96,11697,5,8,0:0:0:0:
352,96,11983,5,8,0:0:0:0:
160,96,12126,5,0,0:0:0:0:
352,96,12268,5,8,0:0:0:0:
160,96,12411,5,0,0:0:0:0:
352,96,12554,5,8,0:0:0:0:
352,96,12840,5,8,0:0:0:0:
352,96,13126,5,8,0:0:0:0:
352,96,13411,5,8,0:0:0:0:
160,96,13554,5,0,0:0:0:0:
352,96,13697,5,8,0:0:0:0:
352,96,13983,5,8,0:0:0:0:
352,96,14268,5,8,0:0:0:0:
160,96,14411,5,0,0:0:0:0:
352,96,14554,5,8,0:0:0:0:
160,96,14697,5,0,0:0:0:0:
352,96,14840,5,8,0:0:0:0:
352,96,14983,5,8,0:0:0:0:
160,96,15126,5,0,0:0:0:0:
352,96,15268,5,8,0:0:0:0:
352,96,15340,5,8,0:0:0:0:
160,96,15411,5,0,0:0:0:0:
160,96,15554,5,0,0:0:0:0:
352,96,15697,5,8,0:0:0:0:
160,96,15840,5,0,0:0:0:0:
352,96,15983,5,8,0:0:0:0:
352,96,16126,5,8,0:0:0:0:
160,96,16268,5,0,0:0:0:0:
160,96,16411,5,0,0:0:0:0:
160,96,16483,5,0,0:0:0:0:
352,96,16554,5,8,0:0:0:0:
160,96,16697,5,0,0:0:0:0:
352,96,16840,5,8,0:0:0:0:
352,96,16983,5,8,0:0:0:0:
160,96,17126,5,0,0:0:0:0:
160,96,17197,5,0,0:0:0:0:
160,96,17268,5,0,0:0:0:0:
352,96,17340,5,8,0:0:0:0:
160,96,17411,5,0,0:0:0:0:
160,96,17483,5,0,0:0:0:0:
352,96,17554,5,8,0:0:0:0:
352,96,17626,5,8,0:0:0:0:
160,96,17697,5,0,0:0:0:0:
352,96,17768,5,8,0:0:0:0:
352,96,17840,5,8,0:0:0:0:
352,96,17911,5,8,0:0:0:0:
160,96,17983,5,0,0:0:0:0:
352,96,18054,5,8,0:0:0:0:
160,96,18126,5,0,0:0:0:0:
160,96,18197,5,0,0:0:0:0:
352,96,18268,5,8,0:0:0:0:
352,96,18304,5,8,0:0:0:0:
352,96,19126,5,8,0:0:0:0:
352,96,19161,5,8,0:0:0:0:
352,96,19268,5,8,0:0:0:0:
352,96,19304,5,8,0:0:0:0:
160,288,19411,5,4,0:0:0:0:
160,96,19840,5,0,0:0:0:0:
160,96,19983,5,0,0:0:0:0:
352,96,20126,5,8,0:0:0:0:
160,96,20268,5,0,0:0:0:0:
352,96,20340,5,8,0:0:0:0:
160,96,20411,5,0,0:0:0:0:
160,96,20554,5,0,0:0:0:0:
352,96,20649,5,8,0:0:0:0:
352,96,20745,5,8,0:0:0:0:
160,96,20840,5,0,0:0:0:0:
352,96,20983,5,8,0:0:0:0:
160,96,21126,5,0,0:0:0:0:
352,96,21268,5,8,0:0:0:0:
160,96,21340,5,0,0:0:0:0:
160,96,21411,5,0,0:0:0:0:
352,96,21554,5,8,0:0:0:0:
160,96,21697,5,0,0:0:0:0:
160,96,21983,5,0,0:0:0:0:
352,96,22040,5,8,0:0:0:0:
352,96,22097,5,8,0:0:0:0:
352,96,22154,5,8,0:0:0:0:
160,96,22268,5,0,0:0:0:0:
352,96,22411,5,8,0:0:0:0:
160,96,22483,5,0,0:0:0:0:
160,96,22554,5,0,0:0:0:0:
352,96,22697,5,8,0:0:0:0:
160,96,22840,5,0,0:0:0:0:
352,96,22935,5,8,0:0:0:0:
352,96,23030,5,8,0:0:0:0:
160,96,23126,5,0,0:0:0:0:
352,96,23197,5,8,0:0:0:0:
352,96,23268,5,8,0:0:0:0:
160,96,23411,5,0,0:0:0:0:
352,96,23554,5,8,0:0:0:0:
160,96,23626,5,0,0:0:0:0:
160,96,23697,5,0,0:0:0:0:
352,96,23840,5,8,0:0:0:0:
160,96,23983,5,0,0:0:0:0:
352,288,24268,5,12,0:0:0:0:
160,96,24411,5,0,0:0:0:0:
160,96,24483,5,0,0:0:0:0:
160,96,24554,5,0,0:0:0:0:
352,96,24697,5,8,0:0:0:0:
160,96,24840,5,0,0:0:0:0:
352,96,24983,5,8,0:0:0:0:
352,96,25054,5,8,0:0:0:0:
160,96,25126,5,0,0:0:0:0:
352,96,25197,5,8,0:0:0:0:
352,96,25340,5,8,0:0:0:0:
160,96,25411,5,0,0:0:0:0:
352,96,25554,5,8,0:0:0:0:
160,96,25697,5,0,0:0:0:0:
352,96,25840,5,8,0:0:0:0:
160,96,25911,5,0,0:0:0:0:
160,96,25983,5,0,0:0:0:0:
352,96,26126,5,8,0:0:0:0:
160,96,26268,5,0,0:0:0:0:
352,96,26364,5,8,0:0:0:0:
160,96,26554,5,0,0:0:0:0:
352,96,26745,5,8,0:0:0:0:
160,96,26840,5,0,0:0:0:0:
160,96,27054,5,0,0:0:0:0:
352,96,27126,5,8,0:0:0:0:
160,96,27268,5,0,0:0:0:0:
352,96,27411,5,8,0:0:0:0:
160,96,27554,5,0,0:0:0:0:
352,96,27626,5,8,0:0:0:0:
160,96,27697,5,0,0:0:0:0:
352,96,27768,5,8,0:0:0:0:
352,96,27840,5,8,0:0:0:0:
352,96,27911,5,8,0:0:0:0:
160,96,27983,5,0,0:0:0:0:
352,96,28054,5,8,0:0:0:0:
352,96,28197,5,8,0:0:0:0:
160,96,28268,5,0,0:0:0:0:
160,96,28411,5,0,0:0:0:0:
160,96,28483,5,0,0:0:0:0:
160,96,28554,5,0,0:0:0:0:
160,96,28840,5,0,0:0:0:0:
352,96,28983,5,8,0:0:0:0:
160,96,29126,5,0,0:0:0:0:
160,96,29197,5,0,0:0:0:0:
352,96,29268,5,8,0:0:0:0:
160,96,29411,5,0,0:0:0:0:
352,96,29483,5,8,0:0:0:0:
160,96,29554,5,0,0:0:0:0:
352,96,29626,5,8,0:0:0:0:
160,96,29697,5,0,0:0:0:0:
352,96,29840,5,8,0:0:0:0:
160,96,29983,5,0,0:0:0:0:
352,96,30054,5,8,0:0:0:0:
352,96,30126,5,8,0:0:0:0:
160,96,30268,5,0,0:0:0:0:
352,96,30411,5,8,0:0:0:0:
160,96,30483,5,0,0:0:0:0:
160,96,30554,5,0,0:0:0:0:
352,96,30697,5,8,0:0:0:0:
160,96,30840,5,0,0:0:0:0:
160,96,31126,5,0,0:0:0:0:
352,96,31183,5,8,0:0:0:0:
352,96,31240,5,8,0:0:0:0:
352,96,31297,5,8,0:0:0:0:
160,96,31411,5,0,0:0:0:0:
352,96,31554,5,8,0:0:0:0:
160,96,31626,5,0,0:0:0:0:
160,96,31697,5,0,0:0:0:0:
352,96,31840,5,8,0:0:0:0:
160,96,31983,5,0,0:0:0:0:
352,96,32078,5,8,0:0:0:0:
352,96,32173,5,8,0:0:0:0:
160,96,32268,5,0,0:0:0:0:
352,96,32340,5,8,0:0:0:0:
352,96,32411,5,8,0:0:0:0:
160,96,32554,5,0,0:0:0:0:
352,96,32697,5,8,0:0:0:0:
160,96,32768,5,0,0:0:0:0:
160,96,32840,5,0,0:0:0:0:
352,96,32983,5,8,0:0:0:0:
160,96,33126,5,0,0:0:0:0:
352,288,33411,5,12,0:0:0:0:
160,96,33554,5,0,0:0:0:0:
352,96,33626,5,8,0:0:0:0:
160,96,33697,5,0,0:0:0:0:
160,96,33768,5,0,0:0:0:0:
352,96,33840,5,8,0:0:0:0:
160,96,33983,5,0,0:0:0:0:
352,96,34126,5,8,0:0:0:0:
352,96,34197,5,8,0:0:0:0:
160,96,34268,5,0,0:0:0:0:
352,96,34340,5,8,0:0:0:0:
352,96,34483,5,8,0:0:0:0:
160,96,34554,5,0,0:0:0:0:
352,96,34626,5,8,0:0:0:0:
352,96,34697,5,8,0:0:0:0:
160,96,34840,5,0,0:0:0:0:
352,96,34983,5,8,0:0:0:0:
160,96,35054,5,0,0:0:0:0:
160,96,35126,5,0,0:0:0:0:
352,96,35268,5,8,0:0:0:0:
160,96,35411,5,0,0:0:0:0:
352,96,35483,5,8,0:0:0:0:
352,96,35554,5,8,0:0:0:0:
160,96,35697,5,0,0:0:0:0:
160,96,35768,5,0,0:0:0:0:
352,96,35840,5,8,0:0:0:0:
352,96,35911,5,8,0:0:0:0:
160,96,35983,5,0,0:0:0:0:
352,96,36054,5,8,0:0:0:0:
160,96,36197,5,0,0:0:0:0:
352,96,36268,5,8,0:0:0:0:
352,96,36340,5,8,0:0:0:0:
160,96,36411,5,0,0:0:0:0:
352,96,36554,5,8,0:0:0:0:
160,96,36697,5,0,0:0:0:0:
352,96,36768,5,8,0:0:0:0:
160,96,36840,5,0,0:0:0:0:
352,96,36911,5,8,0:0:0:0:
352,96,36983,5,8,0:0:0:0:
160,96,37126,5,0,0:0:0:0:
160,96,37197,5,0,0:0:0:0:
352,96,37268,5,8,0:0:0:0:
160,96,37411,5,0,0:0:0:0:
160,96,37554,5,8,0:0:0:0:
160,96,37626,5,8,0:0:0:0:
160,96,37697,5,0,0:0:0:0:
160,96,37983,5,0,0:0:0:0:
160,96,38126,5,0,0:0:0:0:
160,96,38268,5,0,0:0:0:0:
352,96,38364,5,8,0:0:0:0:
160,96,38554,5,0,0:0:0:0:
160,96,38697,5,0,0:0:0:0:
160,96,38840,5,0,0:0:0:0:
352,96,38911,5,8,0:0:0:0:
352,96,38983,5,8,0:0:0:0:
160,96,39126,5,0,0:0:0:0:
352,96,39197,5,8,0:0:0:0:
352,96,39268,5,8,0:0:0:0:
160,96,39411,5,0,0:0:0:0:
352,96,39483,5,8,0:0:0:0:
352,96,39554,5,8,0:0:0:0:
160,96,39626,5,0,0:0:0:0:
352,96,39697,5,8,0:0:0:0:
352,96,39840,5,8,0:0:0:0:
160,96,39983,5,0,0:0:0:0:
352,96,40054,5,8,0:0:0:0:
352,96,40126,5,8,0:0:0:0:
160,96,40268,5,0,0:0:0:0:
160,96,40554,5,0,0:0:0:0:
352,96,40649,5,8,0:0:0:0:
352,96,40768,5,8,0:0:0:0:
160,96,40840,5,0,0:0:0:0:
160,96,40983,5,0,0:0:0:0:
160,96,41126,5,0,0:0:0:0:
160,96,41197,5,0,0:0:0:0:
352,96,41268,5,8,0:0:0:0:
160,96,41411,5,0,0:0:0:0:
160,96,41483,5,0,0:0:0:0:
352,96,41554,5,8,0:0:0:0:
160,96,41697,5,0,0:0:0:0:
160,96,41768,5,0,0:0:0:0:
352,96,41840,5,8,0:0:0:0:
160,96,41911,5,0,0:0:0:0:
352,96,41983,5,8,0:0:0:0:
352,96,42126,5,8,0:0:0:0:
160,96,42268,5,0,0:0:0:0:
352,96,42364,5,8,0:0:0:0:
160,96,42554,5,0,0:0:0:0:
352,96,42697,5,8,0:0:0:0:
160,96,42768,5,0,0:0:0:0:
160,96,42840,5,0,0:0:0:0:
352,96,42983,5,8,0:0:0:0:
160,96,43126,5,0,0:0:0:0:
352,96,43268,5,8,0:0:0:0:
352,96,43340,5,8,0:0:0:0:
160,96,43411,5,0,0:0:0:0:
352,96,43483,5,8,0:0:0:0:
352,96,43554,5,8,0:0:0:0:
160,96,43697,5,0,0:0:0:0:
352,96,43768,5,8,0:0:0:0:
352,96,43840,5,8,0:0:0:0:
160,96,43983,5,0,0:0:0:0:
352,96,44054,5,8,0:0:0:0:
352,96,44126,5,8,0:0:0:0:
160,96,44197,5,0,0:0:0:0:
352,96,44268,5,8,0:0:0:0:
352,96,44411,5,8,0:0:0:0:
160,96,44554,5,0,0:0:0:0:
352,96,44626,5,8,0:0:0:0:
352,96,44697,5,8,0:0:0:0:
160,96,44840,5,0,0:0:0:0:
352,96,44983,5,8,0:0:0:0:
352,96,45054,5,8,0:0:0:0:
160,96,45126,5,0,0:0:0:0:
352,96,45197,5,8,0:0:0:0:
352,96,45340,5,8,0:0:0:0:
160,96,45411,5,0,0:0:0:0:
352,96,45554,5,8,0:0:0:0:
160,96,45697,5,0,0:0:0:0:
352,96,45840,5,8,0:0:0:0:
160,96,45911,5,0,0:0:0:0:
160,96,45983,5,0,0:0:0:0:
352,96,46126,5,8,0:0:0:0:
160,96,46268,5,0,0:0:0:0:
352,96,46340,5,8,0:0:0:0:
352,96,46411,5,8,0:0:0:0:
352,96,46483,5,8,0:0:0:0:
160,96,46554,5,0,0:0:0:0:
352,96,46697,5,8,0:0:0:0:
160,96,46840,5,0,0:0:0:0:
352,96,46935,5,8,0:0:0:0:
352,96,47030,5,8,0:0:0:0:
352,96,47126,5,8,0:0:0:0:
352,96,47221,5,8,0:0:0:0:
352,96,47316,5,8,0:0:0:0:
160,96,47411,5,0,0:0:0:0:
352,96,47554,5,8,0:0:0:0:
352,96,47602,5,8,0:0:0:0:
352,96,47649,5,8,0:0:0:0:
160,96,47697,5,0,0:0:0:0:
160,96,47840,5,0,0:0:0:0:
160,96,47983,5,0,0:0:0:0:
352,96,48054,5,8,0:0:0:0:
352,96,48126,5,8,0:0:0:0:
160,96,48268,5,0,0:0:0:0:
352,96,48340,5,8,0:0:0:0:
352,96,48411,5,8,0:0:0:0:
160,96,48554,5,0,0:0:0:0:
352,96,48626,5,8,0:0:0:0:
352,96,48697,5,8,0:0:0:0:
160,96,48768,5,0,0:0:0:0:
160,96,48840,5,0,0:0:0:0:
352,96,48983,5,8,0:0:0:0:
160,96,49126,5,0,0:0:0:0:
352,96,49197,5,8,0:0:0:0:
352,96,49268,5,8,0:0:0:0:
160,96,49411,5,0,0:0:0:0:
160,96,49697,5,0,0:0:0:0:
352,96,49792,5,8,0:0:0:0:
352,96,49911,5,8,0:0:0:0:
160,96,49983,5,0,0:0:0:0:
352,96,50126,5,8,0:0:0:0:
160,96,50268,5,0,0:0:0:0:
160,96,50340,5,0,0:0:0:0:
352,96,50411,5,8,0:0:0:0:
160,96,50554,5,0,0:0:0:0:
160,96,50626,5,0,0:0:0:0:
352,96,50697,5,8,0:0:0:0:
160,96,50840,5,0,0:0:0:0:
160,96,50911,5,0,0:0:0:0:
352,96,50983,5,8,0:0:0:0:
160,96,51054,5,0,0:0:0:0:
160,96,51126,5,0,0:0:0:0:
352,96,51268,5,8,0:0:0:0:
160,96,51411,5,0,0:0:0:0:
352,96,51483,5,8,0:0:0:0:
352,96,51626,5,8,0:0:0:0:
160,96,51697,5,0,0:0:0:0:
352,96,51840,5,8,0:0:0:0:
160,96,51911,5,0,0:0:0:0:
160,96,51983,5,0,0:0:0:0:
352,96,52126,5,8,0:0:0:0:
160,96,52268,5,0,0:0:0:0:
352,96,52411,5,8,0:0:0:0:
352,96,52483,5,8,0:0:0:0:
160,96,52554,5,0,0:0:0:0:
352,96,52626,5,8,0:0:0:0:
352,96,52697,5,8,0:0:0:0:
160,96,52840,5,0,0:0:0:0:
352,96,52911,5,8,0:0:0:0:
352,96,52983,5,8,0:0:0:0:
160,96,53126,5,0,0:0:0:0:
352,96,53197,5,8,0:0:0:0:
352,96,53268,5,8,0:0:0:0:
160,96,53340,5,0,0:0:0:0:
160,96,53411,5,0,0:0:0:0:
352,96,53554,5,8,0:0:0:0:
160,96,53697,5,0,0:0:0:0:
160,96,53768,5,0,0:0:0:0:
352,96,53840,5,8,0:0:0:0:
160,96,53983,5,0,0:0:0:0:
352,96,54054,5,8,0:0:0:0:
352,96,54126,5,8,0:0:0:0:
352,96,54197,5,8,0:0:0:0:
160,96,54268,5,0,0:0:0:0:
160,96,54340,5,0,0:0:0:0:
352,96,54411,5,8,0:0:0:0:
160,96,54554,5,0,0:0:0:0:
352,96,54626,5,8,0:0:0:0:
352,96,54697,5,8,0:0:0:0:
352,96,54768,5,8,0:0:0:0:
160,96,54840,5,0,0:0:0:0:
352,96,54983,5,8,0:0:0:0:
160,96,55054,5,0,0:0:0:0:
160,96,55126,5,0,0:0:0:0:
352,96,55268,5,8,0:0:0:0:
160,96,55411,5,0,0:0:0:0:
352,96,55554,5,8,0:0:0:0:
352,96,55590,5,8,0:0:0:0:
160,96,55697,5,0,0:0:0:0:
160,96,55733,5,0,0:0:0:0:
160,96,55840,5,0,0:0:0:0:
160,96,55876,5,0,0:0:0:0:
352,288,55983,5,12,0:0:0:0:
160,96,59983,5,0,0:0:0:0:
352,96,60268,5,8,0:0:0:0:
160,96,60411,5,0,0:0:0:0:
160,96,60483,5,0,0:0:0:0:
160,96,60554,5,0,0:0:0:0:
352,96,60840,5,8,0:0:0:0:
160,96,61126,5,0,0:0:0:0:
352,96,61411,5,8,0:0:0:0:
160,96,61697,5,0,0:0:0:0:
352,96,61983,5,8,0:0:0:0:
160,96,62126,5,0,0:0:0:0:
160,96,62411,5,0,0:0:0:0:
352,96,62554,5,8,0:0:0:0:
160,96,62697,5,0,0:0:0:0:
160,96,62840,5,0,0:0:0:0:
352,96,63126,5,8,0:0:0:0:
160,96,63411,5,0,0:0:0:0:
160,96,63554,5,0,0:0:0:0:
352,96,63697,5,8,0:0:0:0:
352,288,63983,5,12,0:0:0:0:
160,288,65126,5,4,0:0:0:0:
160,96,65411,5,0,0:0:0:0:
160,96,65697,5,0,0:0:0:0:
352,96,65840,5,8,0:0:0:0:
352,96,65911,5,8,0:0:0:0:
160,96,65983,5,0,0:0:0:0:
352,96,66126,5,8,0:0:0:0:
160,96,66268,5,0,0:0:0:0:
160,96,66554,5,0,0:0:0:0:
160,96,66840,5,0,0:0:0:0:
352,96,67054,5,8,0:0:0:0:
160,96,67126,5,0,0:0:0:0:
352,96,67197,5,8,0:0:0:0:
352,96,67340,5,8,0:0:0:0:
160,96,67411,5,0,0:0:0:0:
160,96,67697,5,0,0:0:0:0:
160,96,67983,5,0,0:0:0:0:
352,96,68126,5,8,0:0:0:0:
160,96,68197,5,0,0:0:0:0:
160,96,68268,5,0,0:0:0:0:
352,96,68411,5,8,0:0:0:0:
160,96,68554,5,0,0:0:0:0:
352,96,68697,5,8,0:0:0:0:
352,96,68768,5,8,0:0:0:0:
160,96,68840,5,0,0:0:0:0:
160,288,69126,5,4,0:0:0:0:
352,288,69268,5,12,0:0:0:0:
160,288,69411,5,4,0:0:0:0:
352,96,69554,5,8,0:0:0:0:
352,96,69626,5,8,0:0:0:0:
160,96,69697,5,0,0:0:0:0:
160,96,69840,5,0,0:0:0:0:
160,96,69983,5,0,0:0:0:0:
160,96,70268,5,0,0:0:0:0:
352,96,70411,5,8,0:0:0:0:
160,96,70554,5,0,0:0:0:0:
352,96,70697,5,8,0:0:0:0:
352,96,70768,5,8,0:0:0:0:
160,96,70840,5,0,0:0:0:0:
352,96,70911,5,8,0:0:0:0:
352,96,70983,5,8,0:0:0:0:
160,96,71126,5,0,0:0:0:0:
160,96,71411,5,0,0:0:0:0:
352,96,71626,5,8,0:0:0:0:
160,96,71697,5,0,0:0:0:0:
352,96,71768,5,8,0:0:0:0:
352,96,71911,5,8,0:0:0:0:
160,96,71983,5,0,0:0:0:0:
160,96,72268,5,0,0:0:0:0:
160,96,72554,5,0,0:0:0:0:
352,96,72697,5,8,0:0:0:0:
352,96,72768,5,8,0:0:0:0:
160,96,72840,5,0,0:0:0:0:
352,96,72983,5,8,0:0:0:0:
160,96,73126,5,0,0:0:0:0:
352,96,73268,5,8,0:0:0:0:
352,96,73340,5,8,0:0:0:0:
352,96,73411,5,8,0:0:0:0:
160,96,73554,5,0,0:0:0:0:
352,96,73697,5,8,0:0:0:0:
352,96,73768,5,8,0:0:0:0:
352,96,73840,5,8,0:0:0:0:
352,96,73911,5,8,0:0:0:0:
160,96,73983,5,0,0:0:0:0:
160,96,74054,5,0,0:0:0:0:
352,96,74126,5,8,0:0:0:0:
352,96,74197,5,8,0:0:0:0:
160,96,74268,5,0,0:0:0:0:
352,96,74483,5,8,0:0:0:0:
160,96,74554,5,0,0:0:0:0:
352,96,74697,5,8,0:0:0:0:
160,96,74840,5,0,0:0:0:0:
352,96,74911,5,8,0:0:0:0:
352,96,75054,5,8,0:0:0:0:
160,96,75126,5,0,0:0:0:0:
352,96,75268,5,8,0:0:0:0:
160,96,75411,5,0,0:0:0:0:
160,96,75483,5,0,0:0:0:0:
352,96,75554,5,8,0:0:0:0:
160,96,75697,5,0,0:0:0:0:
352,96,75840,5,8,0:0:0:0:
352,96,75911,5,8,0:0:0:0:
160,96,75983,5,0,0:0:0:0:
352,96,76126,5,8,0:0:0:0:
160,96,76268,5,0,0:0:0:0:
352,96,76340,5,8,0:0:0:0:
352,96,76483,5,8,0:0:0:0:
160,96,76554,5,0,0:0:0:0:
352,96,76697,5,8,0:0:0:0:
160,96,76840,5,0,0:0:0:0:
160,96,76911,5,0,0:0:0:0:
352,96,76983,5,8,0:0:0:0:
352,96,77054,5,8,0:0:0:0:
160,96,77126,5,0,0:0:0:0:
352,96,77268,5,8,0:0:0:0:
160,96,77411,5,0,0:0:0:0:
352,96,77483,5,8,0:0:0:0:
352,96,77554,5,8,0:0:0:0:
160,96,77697,5,0,0:0:0:0:
352,96,77840,5,8,0:0:0:0:
352,96,77911,5,8,0:0:0:0:
160,96,77983,5,0,0:0:0:0:
352,96,78126,5,8,0:0:0:0:
160,288,78268,5,4,0:0:0:0:
352,288,78411,5,12,0:0:0:0:
160,288,78554,5,4,0:0:0:0:
160,96,78840,5,0,0:0:0:0:
160,96,78983,5,0,0:0:0:0:
352,96,79054,5,8,0:0:0:0:
160,96,79126,5,0,0:0:0:0:
352,96,79268,5,8,0:0:0:0:
160,96,79411,5,0,0:0:0:0:
352,96,79483,5,8,0:0:0:0:
352,96,79554,5,8,0:0:0:0:
160,96,79697,5,0,0:0:0:0:
352,96,79840,5,8,0:0:0:0:
352,96,79911,5,8,0:0:0:0:
160,96,79983,5,0,0:0:0:0:
352,96,80126,5,8,0:0:0:0:
160,96,80268,5,0,0:0:0:0:
160,96,80340,5,0,0:0:0:0:
352,96,80411,5,8,0:0:0:0:
352,96,80483,5,8,0:0:0:0:
160,96,80554,5,0,0:0:0:0:
352,96,80697,5,8,0:0:0:0:
160,96,80840,5,0,0:0:0:0:
352,96,80911,5,8,0:0:0:0:
352,96,81054,5,8,0:0:0:0:
160,96,81126,5,0,0:0:0:0:
160,96,81197,5,0,0:0:0:0:
352,96,81268,5,8,0:0:0:0:
160,96,81411,5,0,0:0:0:0:
352,96,81554,5,8,0:0:0:0:
352,96,81626,5,8,0:0:0:0:
160,96,81697,5,0,0:0:0:0:
352,96,81840,5,8,0:0:0:0:
160,96,81983,5,0,0:0:0:0:
352,96,82054,5,8,0:0:0:0:
352,96,82126,5,8,0:0:0:0:
352,96,82197,5,8,0:0:0:0:
160,96,82268,5,0,0:0:0:0:
160,96,82411,5,0,0:0:0:0:
160,96,82483,5,0,0:0:0:0:
352,96,82554,5,8,0:0:0:0:
352,96,82626,5,8,0:0:0:0:
160,96,82697,5,0,0:0:0:0:
352,96,82768,5,8,0:0:0:0:
160,96,82840,5,0,0:0:0:0:
160,96,82911,5,0,0:0:0:0:
352,96,82983,5,8,0:0:0:0:
352,96,83054,5,8,0:0:0:0:
160,96,83126,5,0,0:0:0:0:
352,96,83197,5,8,0:0:0:0:
352,96,83268,5,8,0:0:0:0:
352,96,83340,5,8,0:0:0:0:
160,96,83411,5,0,0:0:0:0:
160,96,83983,5,0,0:0:0:0:
160,96,84554,5,0,0:0:0:0:
160,96,85126,5,0,0:0:0:0:
352,288,85411,5,12,0:0:0:0:
160,96,85697,5,0,0:0:0:0:
160,96,85840,5,0,0:0:0:0:
160,96,85911,5,0,0:0:0:0:
352,96,85983,5,8,0:0:0:0:
352,96,86126,5,8,0:0:0:0:
352,96,86197,5,8,0:0:0:0:
160,96,86268,5,0,0:0:0:0:
352,96,86411,5,8,0:0:0:0:
160,96,86554,5,0,0:0:0:0:
352,96,86626,5,8,0:0:0:0:
160,96,86697,5,0,0:0:0:0:
160,96,86768,5,0,0:0:0:0:
352,96,86840,5,8,0:0:0:0:
352,96,86983,5,8,0:0:0:0:
352,96,87054,5,8,0:0:0:0:
160,96,87126,5,0,0:0:0:0:
352,96,87268,5,8,0:0:0:0:
160,96,87411,5,0,0:0:0:0:
160,96,87554,5,0,0:0:0:0:
352,96,87697,5,8,0:0:0:0:
160,96,87840,5,0,0:0:0:0:
352,96,87911,5,8,0:0:0:0:
160,96,87983,5,0,0:0:0:0:
160,96,88126,5,0,0:0:0:0:
160,96,88197,5,0,0:0:0:0:
352,96,88268,5,8,0:0:0:0:
352,96,88411,5,8,0:0:0:0:
160,96,88483,5,0,0:0:0:0:
352,96,88554,5,8,0:0:0:0:
160,96,88697,5,0,0:0:0:0:
352,96,88840,5,8,0:0:0:0:
352,96,88911,5,8,0:0:0:0:
160,96,88983,5,0,0:0:0:0:
160,96,89054,5,0,0:0:0:0:
352,96,89126,5,8,0:0:0:0:
352,96,89268,5,8,0:0:0:0:
160,96,89340,5,0,0:0:0:0:
352,96,89411,5,8,0:0:0:0:
160,96,89554,5,0,0:0:0:0:
352,96,89697,5,8,0:0:0:0:
352,96,89840,5,8,0:0:0:0:
352,96,89911,5,8,0:0:0:0:
160,96,89983,5,0,0:0:0:0:
352,96,90126,5,8,0:0:0:0:
160,96,90268,5,0,0:0:0:0:
160,96,90411,5,0,0:0:0:0:
160,96,90483,5,0,0:0:0:0:
352,96,90554,5,8,0:0:0:0:
352,96,90697,5,8,0:0:0:0:
352,96,90768,5,8,0:0:0:0:
160,96,90840,5,0,0:0:0:0:
352,96,90983,5,8,0:0:0:0:
160,96,91126,5,0,0:0:0:0:
352,96,91197,5,8,0:0:0:0:
160,96,91268,5,0,0:0:0:0:
160,96,91340,5,0,0:0:0:0:
352,96,91411,5,8,0:0:0:0:
352,96,91554,5,8,0:0:0:0:
352,96,91626,5,8,0:0:0:0:
160,96,91697,5,0,0:0:0:0:
352,96,91840,5,8,0:0:0:0:
160,288,91983,5,4,0:0:0:0:
160,288,92126,5,4,0:0:0:0:
352,288,92268,5,12,0:0:0:0:
352,288,92411,5,12,0:0:0:0:
160,288,92554,5,4,0:0:0:0:
352,96,92768,5,8,0:0:0:0:
160,96,92840,5,0,0:0:0:0:
160,96,92983,5,0,0:0:0:0:
352,96,93054,5,8,0:0:0:0:
160,96,93126,5,0,0:0:0:0:
352,96,93197,5,8,0:0:0:0:
352,96,93340,5,8,0:0:0:0:
160,96,93411,5,0,0:0:0:0:
352,96,93554,5,8,0:0:0:0:
160,96,93697,5,0,0:0:0:0:
160,96,93768,5,0,0:0:0:0:
352,96,93840,5,8,0:0:0:0:
160,96,93983,5,0,0:0:0:0:
352,96,94126,5,8,0:0:0:0:
352,96,94197,5,8,0:0:0:0:
160,96,94268,5,0,0:0:0:0:
352,96,94340,5,8,0:0:0:0:
352,96,94483,5,8,0:0:0:0:
160,96,94554,5,0,0:0:0:0:
352,96,94697,5,8,0:0:0:0:
160,96,94840,5,0,0:0:0:0:
352,96,94911,5,8,0:0:0:0:
160,96,95126,5,0,0:0:0:0:
352,96,95197,5,8,0:0:0:0:
352,96,95268,5,8,0:0:0:0:
160,96,95411,5,0,0:0:0:0:
352,96,95483,5,8,0:0:0:0:
352,96,95554,5,8,0:0:0:0:
352,96,95626,5,8,0:0:0:0:
160,96,95697,5,0,0:0:0:0:
352,96,95840,5,8,0:0:0:0:
160,96,95983,5,0,0:0:0:0:
352,96,96054,5,8,0:0:0:0:
352,96,96197,5,8,0:0:0:0:
160,96,96268,5,0,0:0:0:0:
352,96,96411,5,8,0:0:0:0:
160,96,96554,5,0,0:0:0:0:
352,96,96697,5,8,0:0:0:0:
160,96,96768,5,0,0:0:0:0:
352,96,96840,5,8,0:0:0:0:
352,96,96983,5,8,0:0:0:0:
352,96,97054,5,8,0:0:0:0:
160,96,97126,5,0,0:0:0:0:
352,96,97197,5,8,0:0:0:0:
160,96,97411,5,0,0:0:0:0:
352,96,97483,5,8,0:0:0:0:
352,96,97554,5,8,0:0:0:0:
160,96,97697,5,0,0:0:0:0:
352,96,97768,5,8,0:0:0:0:
352,96,97840,5,8,0:0:0:0:
352,96,97911,5,8,0:0:0:0:
160,96,97983,5,0,0:0:0:0:
352,96,98126,5,8,0:0:0:0:
160,96,98268,5,0,0:0:0:0:
352,96,98340,5,8,0:0:0:0:
352,96,98483,5,8,0:0:0:0:
160,96,98554,5,0,0:0:0:0:
352,96,98697,5,8,0:0:0:0:
160,96,98840,5,0,0:0:0:0:
352,96,98983,5,8,0:0:0:0:
352,96,99054,5,8,0:0:0:0:
160,96,99126,5,0,0:0:0:0:
352,96,99197,5,8,0:0:0:0:
352,96,99340,5,8,0:0:0:0:
160,96,99411,5,0,0:0:0:0:
160,96,99554,5,0,0:0:0:0:
160,96,99626,5,0,0:0:0:0:
352,96,99697,5,8,0:0:0:0:
160,96,99840,5,0,0:0:0:0:
352,96,99983,5,8,0:0:0:0:
352,96,100054,5,8,0:0:0:0:
160,96,100126,5,0,0:0:0:0:
160,96,100197,5,0,0:0:0:0:
352,96,100268,5,8,0:0:0:0:
352,96,100411,5,8,0:0:0:0:
352,96,100483,5,8,0:0:0:0:
160,96,100554,5,0,0:0:0:0:
160,96,100697,5,0,0:0:0:0:
160,96,100768,5,0,0:0:0:0:
352,96,100840,5,8,0:0:0:0:
160,96,100983,5,0,0:0:0:0:
352,96,101126,5,8,0:0:0:0:
160,96,101197,5,0,0:0:0:0:
160,96,101411,5,0,0:0:0:0:
160,96,101506,5,0,0:0:0:0:
160,96,101602,5,0,0:0:0:0:
352,288,101697,5,12,0:0:0:0:
352,96,106483,5,8,0:0:0:0:
352,96,106697,5,8,0:0:0:0:
352,96,106983,5,8,0:0:0:0:
352,96,107126,5,8,0:0:0:0:
352,96,107268,5,8,0:0:0:0:
352,96,107626,5,8,0:0:0:0:
352,96,107840,5,8,0:0:0:0:
352,96,108126,5,8,0:0:0:0:
352,96,108268,5,8,0:0:0:0:
352,96,108411,5,8,0:0:0:0:
352,96,108768,5,8,0:0:0:0:
352,96,108983,5,8,0:0:0:0:
352,96,109268,5,8,0:0:0:0:
352,96,109411,5,8,0:0:0:0:
352,96,109554,5,8,0:0:0:0:
160,96,109697,5,0,0:0:0:0:
160,96,109911,5,0,0:0:0:0:
352,96,109983,5,8,0:0:0:0:
160,96,110126,5,0,0:0:0:0:
352,96,110268,5,8,0:0:0:0:
160,96,110411,5,0,0:0:0:0:
160,96,110483,5,0,0:0:0:0:
352,96,110554,5,8,0:0:0:0:
352,96,110697,5,8,0:0:0:0:
160,288,110840,5,4,0:0:0:0:
352,96,111126,5,8,0:0:0:0:
160,288,111268,5,4,0:0:0:0:
352,96,111411,5,8,0:0:0:0:
352,96,111483,5,8,0:0:0:0:
352,96,111554,5,8,0:0:0:0:
352,96,111697,5,8,0:0:0:0:
160,96,111768,5,0,0:0:0:0:
352,96,111840,5,8,0:0:0:0:
160,96,111911,5,0,0:0:0:0:
160,96,111983,5,0,0:0:0:0:
160,96,112126,5,0,0:0:0:0:
352,96,112268,5,8,0:0:0:0:
160,96,112411,5,0,0:0:0:0:
352,96,112483,5,8,0:0:0:0:
352,96,112554,5,8,0:0:0:0:
352,96,112626,5,8,0:0:0:0:
160,96,112697,5,0,0:0:0:0:
352,96,112840,5,8,0:0:0:0:
352,96,113054,5,8,0:0:0:0:
160,96,113126,5,0,0:0:0:0:
160,96,113268,5,0,0:0:0:0:
352,96,113411,5,8,0:0:0:0:
352,96,113554,5,8,0:0:0:0:
160,96,113626,5,0,0:0:0:0:
352,96,113697,5,8,0:0:0:0:
160,96,113768,5,0,0:0:0:0:
160,96,113840,5,0,0:0:0:0:
352,96,113983,5,8,0:0:0:0:
160,96,114126,5,0,0:0:0:0:
352,96,114197,5,8,0:0:0:0:
160,96,114268,5,0,0:0:0:0:
160,96,114411,5,0,0:0:0:0:
352,96,114554,5,8,0:0:0:0:
160,96,114697,5,0,0:0:0:0:
160,96,114768,5,0,0:0:0:0:
352,96,114840,5,8,0:0:0:0:
352,96,114911,5,8,0:0:0:0:
160,96,114983,5,0,0:0:0:0:
352,96,115126,5,8,0:0:0:0:
160,96,115268,5,0,0:0:0:0:
352,96,115340,5,8,0:0:0:0:
160,96,115411,5,0,0:0:0:0:
160,96,115554,5,0,0:0:0:0:
352,96,115697,5,8,0:0:0:0:
352,96,115911,5,8,0:0:0:0:
160,96,115982,5,0,0:0:0:0:
352,96,116054,5,8,0:0:0:0:
160,96,116125,5,0,0:0:0:0:
352,96,116268,5,8,0:0:0:0:
352,96,116411,5,8,0:0:0:0:
352,96,116482,5,8,0:0:0:0:
160,96,116554,5,0,0:0:0:0:
160,96,116697,5,0,0:0:0:0:
352,96,116839,5,8,0:0:0:0:
160,96,116982,5,0,0:0:0:0:
352,96,117054,5,8,0:0:0:0:
352,96,117125,5,8,0:0:0:0:
352,96,117197,5,8,0:0:0:0:
160,96,117268,5,0,0:0:0:0:
352,96,117411,5,8,0:0:0:0:
352,96,117625,5,8,0:0:0:0:
160,96,117697,5,0,0:0:0:0:
160,96,117839,5,0,0:0:0:0:
352,96,117982,5,8,0:0:0:0:
352,96,118125,5,8,0:0:0:0:
160,96,118197,5,0,0:0:0:0:
352,96,118268,5,8,0:0:0:0:
160,96,118339,5,0,0:0:0:0:
160,96,118411,5,0,0:0:0:0:
352,96,118554,5,8,0:0:0:0:
160,96,118697,5,0,0:0:0:0:
160,96,118768,5,0,0:0:0:0:
352,96,118839,5,8,0:0:0:0:
352,96,118876,5,8,0:0:0:0:
352,96,119840,5,8,0:0:0:0:
352,96,119887,5,8,0:0:0:0:
352,96,119935,5,8,0:0:0:0:
160,96,119983,5,0,0:0:0:0:
160,96,120197,5,0,0:0:0:0:
352,96,120340,5,8,0:0:0:0:
160,96,120411,5,0,0:0:0:0:
352,96,120554,5,8,0:0:0:0:
160,96,120697,5,0,0:0:0:0:
160,96,120768,5,0,0:0:0:0:
352,96,120840,5,8,0:0:0:0:
160,96,120983,5,0,0:0:0:0:
160,96,121126,5,0,0:0:0:0:
352,96,121197,5,8,0:0:0:0:
160,96,121340,5,0,0:0:0:0:
352,96,121483,5,8,0:0:0:0:
160,96,121554,5,0,0:0:0:0:
352,96,121697,5,8,0:0:0:0:
160,96,121840,5,0,0:0:0:0:
160,96,121911,5,0,0:0:0:0:
352,96,121983,5,8,0:0:0:0:
160,96,122126,5,0,0:0:0:0:
160,96,122268,5,0,0:0:0:0:
352,96,122483,5,8,0:0:0:0:
160,96,122697,5,0,0:0:0:0:
352,96,122840,5,8,0:0:0:0:
160,96,122983,5,0,0:0:0:0:
160,96,123054,5,0,0:0:0:0:
160,96,123126,5,0,0:0:0:0:
352,96,123268,5,8,0:0:0:0:
160,96,123411,5,0,0:0:0:0:
160,96,123483,5,0,0:0:0:0:
160,96,123626,5,0,0:0:0:0:
352,96,123697,5,8,0:0:0:0:
160,96,123840,5,0,0:0:0:0:
352,96,123983,5,8,0:0:0:0:
160,96,124126,5,0,0:0:0:0:
160,96,124197,5,0,0:0:0:0:
352,96,124268,5,8,0:0:0:0:
160,96,124411,5,0,0:0:0:0:
160,96,124554,5,0,0:0:0:0:
352,96,124626,5,8,0:0:0:0:
352,288,124840,5,12,0:0:0:0:
160,96,124983,5,0,0:0:0:0:
352,96,125126,5,8,0:0:0:0:
160,96,125268,5,0,0:0:0:0:
352,96,125340,5,8,0:0:0:0:
352,96,125411,5,8,0:0:0:0:
160,96,125554,5,0,0:0:0:0:
352,96,125626,5,8,0:0:0:0:
160,96,125697,5,0,0:0:0:0:
352,96,125768,5,8,0:0:0:0:
160,96,125911,5,0,0:0:0:0:
352,96,126054,5,8,0:0:0:0:
160,96,126126,5,0,0:0:0:0:
352,96,126268,5,8,0:0:0:0:
160,96,126411,5,0,0:0:0:0:
160,96,126483,5,0,0:0:0:0:
352,96,126554,5,8,0:0:0:0:
160,96,126697,5,0,0:0:0:0:
160,96,126840,5,0,0:0:0:0:
160,96,126911,5,0,0:0:0:0:
160,96,127054,5,0,0:0:0:0:
352,96,127126,5,8,0:0:0:0:
160,96,127268,5,0,0:0:0:0:
352,96,127411,5,8,0:0:0:0:
160,96,127626,5,0,0:0:0:0:
352,96,127697,5,8,0:0:0:0:
160,96,127840,5,0,0:0:0:0:
352,96,127983,5,8,0:0:0:0:
160,96,128126,5,0,0:0:0:0:
352,96,128197,5,8,0:0:0:0:
160,96,128268,5,0,0:0:0:0:
160,96,128340,5,0,0:0:0:0:
352,96,128411,5,8,0:0:0:0:
352,96,128483,5,8,0:0:0:0:
160,96,128554,5,0,0:0:0:0:
352,288,128697,5,12,0:0:0:0:
352,288,128840,5,12,0:0:0:0:
160,96,128983,5,0,0:0:0:0:
160,96,129054,5,8,0:0:0:0:
160,96,129126,5,0,0:0:0:0:
352,96,129411,5,8,0:0:0:0:
352,96,129459,5,8,0:0:0:0:
352,96,129506,5,8,0:0:0:0:
352,96,129554,5,8,0:0:0:0:
352,96,129602,5,8,0:0:0:0:
352,96,129649,5,8,0:0:0:0:
160,96,129697,5,0,0:0:0:0:
352,96,129792,5,8,0:0:0:0:
352,96,129887,5,8,0:0:0:0:
160,96,129983,5,0,0:0:0:0:
352,96,130126,5,8,0:0:0:0:
160,96,130268,5,0,0:0:0:0:
352,96,130340,5,8,0:0:0:0:
160,96,130483,5,0,0:0:0:0:
352,96,130626,5,8,0:0:0:0:
160,96,130697,5,0,0:0:0:0:
352,96,130840,5,8,0:0:0:0:
160,96,130983,5,0,0:0:0:0:
160,96,131054,5,0,0:0:0:0:
352,96,131126,5,8,0:0:0:0:
352,96,131197,5,8,0:0:0:0:
160,96,131268,5,0,0:0:0:0:
160,96,131411,5,0,0:0:0:0:
352,96,131626,5,8,0:0:0:0:
160,96,131840,5,0,0:0:0:0:
352,96,131983,5,8,0:0:0:0:
160,96,132126,5,0,0:0:0:0:
160,96,132197,5,0,0:0:0:0:
352,96,132268,5,8,0:0:0:0:
160,96,132411,5,0,0:0:0:0:
160,96,132554,5,0,0:0:0:0:
352,96,132626,5,8,0:0:0:0:
352,96,132697,5,8,0:0:0:0:
160,96,132768,5,0,0:0:0:0:
352,96,132840,5,8,0:0:0:0:
352,96,132911,5,8,0:0:0:0:
160,96,132983,5,0,0:0:0:0:
352,96,133126,5,8,0:0:0:0:
160,96,133268,5,0,0:0:0:0:
160,96,133340,5,0,0:0:0:0:
352,96,133411,5,8,0:0:0:0:
160,96,133554,5,0,0:0:0:0:
160,96,133697,5,0,0:0:0:0:
352,96,133768,5,8,0:0:0:0:
352,288,133983,5,12,0:0:0:0:
160,96,134126,5,0,0:0:0:0:
352,96,134269,5,8,0:0:0:0:
160,96,134411,5,0,0:0:0:0:
160,96,134483,5,0,0:0:0:0:
352,96,134554,5,8,0:0:0:0:
160,96,134697,5,0,0:0:0:0:
352,96,134769,5,8,0:0:0:0:
160,96,134840,5,0,0:0:0:0:
352,96,134911,5,8,0:0:0:0:
160,96,135054,5,0,0:0:0:0:
352,96,135197,5,8,0:0:0:0:
160,96,135269,5,0,0:0:0:0:
352,96,135411,5,8,0:0:0:0:
352,96,135554,5,8,0:0:0:0:
352,96,135626,5,8,0:0:0:0:
160,96,135697,5,0,0:0:0:0:
352,96,135769,5,8,0:0:0:0:
160,96,135840,5,0,0:0:0:0:
160,96,135983,5,0,0:0:0:0:
160,96,136054,5,0,0:0:0:0:
352,96,136197,5,8,0:0:0:0:
160,96,136269,5,0,0:0:0:0:
160,96,136411,5,0,0:0:0:0:
160,96,136483,5,0,0:0:0:0:
352,96,136554,5,8,0:0:0:0:
352,96,136697,5,8,0:0:0:0:
160,96,136769,5,0,0:0:0:0:
352,96,136840,5,8,0:0:0:0:
352,96,136911,5,8,0:0:0:0:
160,96,136983,5,0,0:0:0:0:
352,288,137126,5,12,0:0:0:0:
160,96,138126,5,0,0:0:0:0:
160,96,138197,5,0,0:0:0:0:
160,96,138268,5,0,0:0:0:0:
352,96,138554,5,8,0:0:0:0:
352,96,138590,5,8,0:0:0:0:
352,96,138626,5,8,0:0:0:0:
352,96,138697,5,8,0:0:0:0:
352,96,138768,5,8,0:0:0:0:
160,96,138840,5,0,0:0:0:0:
352,96,138911,5,8,0:0:0:0:
352,96,138983,5,8,0:0:0:0:
160,96,139126,5,0,0:0:0:0:
352,96,139197,5,8,0:0:0:0:
352,96,139268,5,8,0:0:0:0:
352,96,139340,5,8,0:0:0:0:
160,96,139411,5,0,0:0:0:0:
160,96,139483,5,0,0:0:0:0:
352,96,139554,5,8,0:0:0:0:
352,96,139626,5,8,0:0:0:0:
160,96,139697,5,0,0:0:0:0:
352,96,139768,5,8,0:0:0:0:
352,96,139840,5,8,0:0:0:0:
352,96,139911,5,8,0:0:0:0:
160,96,139983,5,0,0:0:0:0:
160,96,140054,5,0,0:0:0:0:
352,96,140126,5,8,0:0:0:0:
160,96,140197,5,0,0:0:0:0:
160,96,140268,5,0,0:0:0:0:
352,96,140340,5,8,0:0:0:0:
160,96,140411,5,0,0:0:0:0:
352,96,140483,5,8,0:0:0:0:
160,96,140554,5,0,0:0:0:0:
160,96,140626,5,0,0:0:0:0:
352,96,140697,5,8,0:0:0:0:
352,96,140768,5,8,0:0:0:0:
160,96,140840,5,0,0:0:0:0:
352,96,140911,5,8,0:0:0:0:
352,96,140983,5,8,0:0:0:0:
352,96,141054,5,8,0:0:0:0:
160,96,141126,5,0,0:0:0:0:
160,96,141197,5,0,0:0:0:0:
352,96,141268,5,8,0:0:0:0:
352,96,141340,5,8,0:0:0:0:
160,96,141411,5,0,0:0:0:0:
352,96,141483,5,8,0:0:0:0:
352,96,141554,5,8,0:0:0:0:
352,96,141626,5,8,0:0:0:0:
160,96,141697,5,0,0:0:0:0:
160,96,141768,5,0,0:0:0:0:
352,96,141840,5,8,0:0:0:0:
352,96,141911,5,8,0:0:0:0:
160,96,141983,5,0,0:0:0:0:
352,96,142054,5,8,0:0:0:0:
352,96,142126,5,8,0:0:0:0:
352,96,142197,5,8,0:0:0:0:
160,96,142268,5,0,0:0:0:0:
352,96,142340,5,8,0:0:0:0:
160,96,142411,5,0,0:0:0:0:
160,96,142483,5,0,0:0:0:0:
160,96,142554,5,0,0:0:0:0:
352,96,142626,5,8,0:0:0:0:
160,96,142697,5,0,0:0:0:0:
352,96,142768,5,8,0:0:0:0:
160,96,142840,5,0,0:0:0:0:
352,96,142911,5,8,0:0:0:0:
352,96,142983,5,8,0:0:0:0:
352,96,143054,5,8,0:0:0:0:
160,96,143126,5,0,0:0:0:0:
160,96,143197,5,0,0:0:0:0:
352,96,143268,5,8,0:0:0:0:
352,96,143340,5,8,0:0:0:0:
160,96,143411,5,0,0:0:0:0:
352,96,143483,5,8,0:0:0:0:
352,96,143554,5,8,0:0:0:0:
352,96,143626,5,8,0:0:0:0:
160,96,143697,5,0,0:0:0:0:
160,96,143768,5,0,0:0:0:0:
352,96,143840,5,8,0:0:0:0:
352,96,143911,5,8,0:0:0:0:
160,96,143983,5,0,0:0:0:0:
352,96,144054,5,8,0:0:0:0:
352,96,144126,5,8,0:0:0:0:
352,96,144197,5,8,0:0:0:0:
160,96,144268,5,0,0:0:0:0:
160,96,144340,5,0,0:0:0:0:
352,96,144411,5,8,0:0:0:0:
352,96,144483,5,8,0:0:0:0:
160,96,144554,5,0,0:0:0:0:
352,96,144626,5,8,0:0:0:0:
352,96,144697,5,8,0:0:0:0:
160,96,144768,5,0,0:0:0:0:
160,96,144840,5,0,0:0:0:0:
352,96,144911,5,8,0:0:0:0:
160,96,144983,5,0,0:0:0:0:
352,96,145054,5,8,0:0:0:0:
160,96,145126,5,0,0:0:0:0:
160,96,145197,5,0,0:0:0:0:
352,96,145268,5,8,0:0:0:0:
352,96,145340,5,8,0:0:0:0:
160,96,145411,5,0,0:0:0:0:
352,96,145483,5,8,0:0:0:0:
352,96,145554,5,8,0:0:0:0:
352,96,145626,5,8,0:0:0:0:
160,96,145697,5,0,0:0:0:0:
160,96,145768,5,0,0:0:0:0:
352,96,145840,5,8,0:0:0:0:
352,96,145911,5,8,0:0:0:0:
160,96,145983,5,0,0:0:0:0:
352,96,146054,5,8,0:0:0:0:
352,96,146126,5,8,0:0:0:0:
352,96,146197,5,8,0:0:0:0:
160,96,146268,5,0,0:0:0:0:
160,96,146340,5,0,0:0:0:0:
352,96,146411,5,8,0:0:0:0:
352,96,146483,5,8,0:0:0:0:
160,96,146554,5,0,0:0:0:0:
352,96,146626,5,8,0:0:0:0:
352,96,146697,5,8,0:0:0:0:
352,96,146768,5,8,0:0:0:0:
160,96,146840,5,0,0:0:0:0:
352,96,146911,5,8,0:0:0:0:
160,96,146983,5,0,0:0:0:0:
160,96,147054,5,0,0:0:0:0:
160,96,147126,5,0,0:0:0:0:
352,96,147197,5,8,0:0:0:0:
160,96,147268,5,0,0:0:0:0:
352,96,147340,5,8,0:0:0:0:
160,96,147411,5,0,0:0:0:0:
352,96,147506,5,8,0:0:0:0:
352,96,147602,5,8,0:0:0:0:
352,96,147697,5,8,0:0:0:0:
352,96,147792,5,8,0:0:0:0:
352,96,147887,5,8,0:0:0:0:
160,96,147983,5,0,0:0:0:0:
352,96,148054,5,8,0:0:0:0:
352,96,148126,5,8,0:0:0:0:
160,96,148268,5,0,0:0:0:0:
352,96,148340,5,8,0:0:0:0:
160,96,148411,5,0,0:0:0:0:
352,96,148554,5,8,0:0:0:0:
160,96,148697,5,0,0:0:0:0:
160,96,148768,5,0,0:0:0:0:
352,96,148840,5,8,0:0:0:0:
352,96,148911,5,8,0:0:0:0:
160,96,148983,5,0,0:0:0:0:
352,96,149126,5,8,0:0:0:0:
160,96,149268,5,0,0:0:0:0:
352,96,149340,5,8,0:0:0:0:
352,96,149411,5,8,0:0:0:0:
160,96,149554,5,0,0:0:0:0:
352,96,149697,5,8,0:0:0:0:
160,96,149768,5,0,0:0:0:0:
160,96,149840,5,0,0:0:0:0:
352,96,149983,5,8,0:0:0:0:
160,96,150126,5,0,0:0:0:0:
352,96,150268,5,8,0:0:0:0:
352,96,150340,5,8,0:0:0:0:
160,96,150411,5,0,0:0:0:0:
160,96,150483,5,0,0:0:0:0:
352,96,150554,5,8,0:0:0:0:
160,96,150697,5,0,0:0:0:0:
352,96,150840,5,8,0:0:0:0:
160,96,150911,5,0,0:0:0:0:
160,96,151054,5,0,0:0:0:0:
352,96,151126,5,8,0:0:0:0:
160,96,151268,5,0,0:0:0:0:
352,96,151411,5,8,0:0:0:0:
160,96,151554,5,0,0:0:0:0:
160,96,151626,5,0,0:0:0:0:
352,96,151697,5,8,0:0:0:0:
160,96,151840,5,0,0:0:0:0:
352,96,151983,5,8,0:0:0:0:
352,96,152054,5,8,0:0:0:0:
160,96,152126,5,0,0:0:0:0:
352,96,152268,5,8,0:0:0:0:
352,96,152483,5,8,0:0:0:0:
160,96,152554,5,0,0:0:0:0:
352,96,152626,5,8,0:0:0:0:
352,96,152697,5,8,0:0:0:0:
160,96,152840,5,0,0:0:0:0:
352,96,152911,5,8,0:0:0:0:
160,96,152983,5,0,0:0:0:0:
352,96,153126,5,8,0:0:0:0:
160,96,153268,5,0,0:0:0:0:
160,96,153340,5,0,0:0:0:0:
352,96,153411,5,8,0:0:0:0:
352,96,153483,5,8,0:0:0:0:
160,96,153554,5,0,0:0:0:0:
352,96,153697,5,8,0:0:0:0:
160,96,153840,5,0,0:0:0:0:
352,96,153912,5,8,0:0:0:0:
352,96,153983,5,8,0:0:0:0:
160,96,154126,5,0,0:0:0:0:
352,96,154268,5,8,0:0:0:0:
160,96,154340,5,0,0:0:0:0:
160,96,154483,5,0,0:0:0:0:
352,96,154554,5,8,0:0:0:0:
160,96,154697,5,0,0:0:0:0:
352,96,154840,5,8,0:0:0:0:
352,96,154911,5,8,0:0:0:0:
160,96,154983,5,0,0:0:0:0:
160,96,155054,5,0,0:0:0:0:
352,96,155126,5,8,0:0:0:0:
160,96,155268,5,0,0:0:0:0:
352,96,155411,5,8,0:0:0:0:
160,96,155602,5,0,0:0:0:0:
352,96,155697,5,8,0:0:0:0:
352,96,155887,5,8,0:0:0:0:
160,96,155983,5,0,0:0:0:0:
352,96,156173,5,8,0:0:0:0:
352,96,156268,5,8,0:0:0:0:
352,96,156459,5,8,0:0:0:0:
256,192,156554,12,0,157697,0:0:0:0:
256,192,158312,12,0,158553,0:0:0:0:
160,288,158674,5,4,0:0:0:0:
352,96,159035,5,8,0:0:0:0:
160,96,159156,5,0,0:0:0:0:
352,96,159397,5,8,0:0:0:0:
160,96,159518,5,0,0:0:0:0:
160,96,159578,5,0,0:0:0:0:
160,96,159639,5,0,0:0:0:0:
352,96,159759,5,8,0:0:0:0:
160,96,159880,5,0,0:0:0:0:
352,96,159940,5,8,0:0:0:0:
160,96,160000,5,0,0:0:0:0:
352,96,160041,5,8,0:0:0:0:
352,96,160081,5,8,0:0:0:0:
160,96,160121,5,0,0:0:0:0:
160,96,160302,5,0,0:0:0:0:
352,96,160362,5,8,0:0:0:0:
352,96,160483,5,8,0:0:0:0:
352,96,160523,5,8,0:0:0:0:
352,96,160563,5,8,0:0:0:0:
160,96,160604,5,0,0:0:0:0:
160,96,160724,5,0,0:0:0:0:
160,96,160784,5,0,0:0:0:0:
352,96,160845,5,8,0:0:0:0:
352,96,160905,5,8,0:0:0:0:
160,96,160965,5,0,0:0:0:0:
352,96,161086,5,8,0:0:0:0:
352,96,161267,5,8,0:0:0:0:
160,96,161327,5,0,0:0:0:0:
352,96,161448,5,8,0:0:0:0:
160,96,161569,5,0,0:0:0:0:
352,96,161629,5,8,0:0:0:0:
352,96,161689,5,8,0:0:0:0:
352,96,161750,5,8,0:0:0:0:
160,96,161810,5,0,0:0:0:0:
352,96,161930,5,8,0:0:0:0:
160,96,162051,5,0,0:0:0:0:
352,96,162111,5,8,0:0:0:0:
352,96,162232,5,8,0:0:0:0:
160,96,162292,5,0,0:0:0:0:
352,96,162413,5,8,0:0:0:0:
160,96,162534,5,0,0:0:0:0:
160,96,162715,5,0,0:0:0:0:
352,96,162775,5,8,0:0:0:0:
352,96,162815,5,8,0:0:0:0:
352,96,162855,5,8,0:0:0:0:
160,96,162895,5,0,0:0:0:0:
352,96,163016,5,8,0:0:0:0:
160,96,163137,5,0,0:0:0:0:
352,96,163378,5,8,0:0:0:0:
352,96,163438,5,8,0:0:0:0:
160,96,163499,5,0,0:0:0:0:
160,96,163619,5,0,0:0:0:0:
352,96,163740,5,8,0:0:0:0:
160,96,163860,5,0,0:0:0:0:
160,96,163921,5,0,0:0:0:0:
352,96,163981,5,8,0:0:0:0:
352,96,164162,5,8,0:0:0:0:
352,96,164222,5,8,0:0:0:0:
352,96,164343,5,8,0:0:0:0:
160,96,164464,5,0,0:0:0:0:
352,96,164524,5,8,0:0:0:0:
352,96,164645,5,8,0:0:0:0:
160,96,164705,5,0,0:0:0:0:
352,96,164826,5,8,0:0:0:0:
160,96,164946,5,0,0:0:0:0:
352,96,165006,5,8,0:0:0:0:
160,96,165127,5,0,0:0:0:0:
352,96,165187,5,8,0:0:0:0:
160,96,165308,5,0,0:0:0:0:
352,96,165368,5,8,0:0:0:0:
352,96,165489,5,8,0:0:0:0:
160,96,165549,5,0,0:0:0:0:
352,96,165610,5,8,0:0:0:0:
160,96,165670,5,0,0:0:0:0:
160,96,165791,5,0,0:0:0:0:
352,96,165851,5,8,0:0:0:0:
352,96,165911,5,8,0:0:0:0:
160,96,166032,5,0,0:0:0:0:
352,96,166092,5,8,0:0:0:0:
160,96,166152,5,0,0:0:0:0:
352,96,166273,5,8,0:0:0:0:
352,96,166333,5,8,0:0:0:0:
160,96,166394,5,0,0:0:0:0:
160,96,166636,5,0,0:0:0:0:
352,96,166757,5,8,0:0:0:0:
160,96,166878,5,0,0:0:0:0:
352,96,166999,5,8,0:0:0:0:
352,96,167060,5,8,0:0:0:0:
160,96,167120,5,0,0:0:0:0:
352,96,167241,5,8,0:0:0:0:
160,96,167362,5,0,0:0:0:0:
352,96,167443,5,8,0:0:0:0:
160,96,167605,5,0,0:0:0:0:
160,96,167665,5,0,0:0:0:0:
352,96,167726,5,8,0:0:0:0:
352,96,167786,5,8,0:0:0:0:
160,96,167847,5,0,0:0:0:0:
352,96,168029,5,8,0:0:0:0:
160,96,168089,5,0,0:0:0:0:
352,96,168210,5,8,0:0:0:0:
160,96,168331,5,0,0:0:0:0:
352,96,168412,5,8,0:0:0:0:
352,96,168493,5,8,0:0:0:0:
160,96,168574,5,0,0:0:0:0:
352,96,168695,5,8,0:0:0:0:
352,96,168755,5,8,0:0:0:0:
160,96,168816,5,0,0:0:0:0:
160,96,168937,5,0,0:0:0:0:
352,96,168997,5,8,0:0:0:0:
160,96,169058,5,0,0:0:0:0:
352,96,169179,5,8,0:0:0:0:
160,96,169300,5,0,0:0:0:0:
160,96,169381,5,0,0:0:0:0:
352,96,169462,5,8,0:0:0:0:
160,96,169542,5,0,0:0:0:0:
352,96,169623,5,8,0:0:0:0:
352,96,169704,5,8,0:0:0:0:
160,96,169785,5,0,0:0:0:0:
160,96,169865,5,0,0:0:0:0:
352,96,169946,5,8,0:0:0:0:
160,96,170027,5,0,0:0:0:0:
352,96,170087,5,8,0:0:0:0:
160,96,170148,5,0,0:0:0:0:
160,96,170269,5,0,0:0:0:0:
160,96,170511,5,0,0:0:0:0:
352,96,170632,5,8,0:0:0:0:
352,96,170693,5,8,0:0:0:0:
160,96,170754,5,0,0:0:0:0:
352,96,170814,5,8,0:0:0:0:
352,96,170875,5,8,0:0:0:0:
160,96,170996,5,0,0:0:0:0:
352,96,171117,5,8,0:0:0:0:
352,96,171178,5,8,0:0:0:0:
160,96,171238,5,0,0:0:0:0:
352,96,171319,5,8,0:0:0:0:
352,96,171400,5,8,0:0:0:0:
160,96,171480,5,0,0:0:0:0:
352,96,171561,5,8,0:0:0:0:
352,96,171642,5,8,0:0:0:0:
160,96,171723,5,0,0:0:0:0:
352,96,171844,5,8,0:0:0:0:
352,96,171904,5,8,0:0:0:0:
160,96,171965,5,0,0:0:0:0:
352,96,172086,5,8,0:0:0:0:
160,288,172207,5,4,0:0:0:0:
256,192,172328,12,0,175295,0:0:0:0:
