osu file format v14

[General]
AudioFilename: audio.ogg
AudioLeadIn: 0
PreviewTime: 19411
Countdown: 0
SampleSet: Normal
StackLeniency: 0.7
Mode: 1
LetterboxInBreaks: 0
WidescreenStoryboard: 0

[Editor]
Bookmarks: 10258,19401,37687,55973,65116,83401,85687,101687,110830,119973,129120,138262
DistanceSpacing: 1
BeatDivisor: 2
GridSize: 32
TimelineZoom: 0.8999999

[Metadata]
Title:Accelerate
TitleUnicode:Accelerate
Artist:Curren
ArtistUnicode:。-゚+.-.Curren。+..。-゚+
Creator:komasy
Version:Kantan
Source:
Tags:Instrumental Electronic Hardcore Dariacore Currencore LookatCurren Lost Frog Productions FASTFUSION Japanese Hyperflip Compilation Over 200BPM カレンチャン Curren chan uone
BeatmapID:4383287
BeatmapSetID:2091323

[Difficulty]
HPDrainRate:8
CircleSize:7
OverallDifficulty:3
ApproachRate:10
SliderMultiplier:1.4
SliderTickRate:1

[Events]
//Background and Video events
0,0,"89638603_p0.jpg",0,40
//Break Periods
2,56183,60104
2,101897,105818
//Storyboard Layer 0 (Background)
//Storyboard Layer 1 (Fail)
//Storyboard Layer 2 (Pass)
//Storyboard Layer 3 (Foreground)
//Storyboard Layer 4 (Overlay)
//Storyboard Sound Samples

[TimingPoints]
1126,285.714285714286,4,1,0,50,1,0
1126,-100,4,1,0,50,0,0
10197,-100,4,1,0,100,0,0
37697,-100,4,1,0,100,0,1
46840,-100,4,1,0,100,0,0
47411,-100,4,1,0,100,0,1
55983,-100,4,1,0,100,0,0
56054,-100,4,1,0,50,0,0
59911,-100,4,1,0,90,0,0
65054,-100,4,1,0,100,0,0
74268,-100,4,1,0,100,0,1
83411,-100,4,1,0,100,0,0
92554,-100,4,1,0,100,0,1
101697,-100,4,1,0,100,0,0
101768,-100,4,1,0,50,0,0
106197,-100,4,1,0,90,0,0
118911,-100,4,1,0,60,0,0
119816,-100,4,1,0,100,0,0
137197,-100,4,1,0,50,0,0
138108,-100,4,1,0,100,0,0
138840,-100,4,1,0,100,0,1
147411,-100,4,1,0,100,0,0
147983,-100,4,1,0,100,0,1
156536,-100,4,1,0,80,0,1
156554,-100,4,1,0,80,0,0
156840,-100,4,1,0,50,0,0
157126,-100,4,1,0,30,0,0
157411,-100,4,1,0,5,0,0
157709,241.254523522316,4,1,0,5,1,8
158251,-118.428571428571,4,1,0,50,0,0
158623,-118.428571428571,4,1,0,100,0,0
160604,-118.428571428571,4,1,0,100,0,1
166394,242.228502220428,4,1,0,100,1,1
166394,-118.428571428571,4,1,0,100,0,1
172207,-118.428571428571,4,1,0,100,0,0
172227,-118.428571428571,4,1,0,80,0,0
172268,-118.428571428571,4,1,0,80,0,0
172919,-118.428571428571,4,1,0,70,0,0
173161,-118.428571428571,4,1,0,60,0,0
173403,-118.428571428571,4,1,0,50,0,0
173645,-118.428571428571,4,1,0,40,0,0
173887,-118.428571428571,4,1,0,30,0,0
174128,-118.428571428571,4,1,0,20,0,0
174370,-118.428571428571,4,1,0,10,0,0
174612,-118.428571428571,4,1,0,5,0,0
175096,-118.428571428571,4,1,0,5,0,0

[HitObjects]
160,288,10268,5,4,0:0:0:0:
352,96,11411,5,8,0:0:0:0:
352,96,11983,5,8,0:0:0:0:
352,96,12554,5,8,0:0:0:0:
352,96,13697,5,8,0:0:0:0:
352,96,14268,5,8,0:0:0:0:
160,96,14840,5,0,0:0:0:0:
160,96,15411,5,0,0:0:0:0:
160,96,15697,5,0,0:0:0:0:
352,96,15983,5,8,0:0:0:0:
352,96,16554,5,8,0:0:0:0:
352,96,16840,5,8,0:0:0:0:
213,216,17126,6,0,L|302:225,8,70
160,288,19411,5,4,0:0:0:0:
160,96,19983,5,0,0:0:0:0:
160,96,20554,5,0,0:0:0:0:
160,96,20840,5,0,0:0:0:0:
160,96,21126,5,0,0:0:0:0:
352,96,21697,5,8,0:0:0:0:
160,96,22268,5,0,0:0:0:0:
160,96,22840,5,0,0:0:0:0:
160,96,23126,5,0,0:0:0:0:
160,96,23411,5,0,0:0:0:0:
160,96,23983,5,0,0:0:0:0:
352,288,24268,5,12,0:0:0:0:
160,96,25126,5,0,0:0:0:0:
160,96,25411,5,0,0:0:0:0:
160,96,25697,5,0,0:0:0:0:
160,96,26268,5,0,0:0:0:0:
352,96,26840,5,8,0:0:0:0:
352,96,27983,5,8,0:0:0:0:
352,96,28268,5,8,0:0:0:0:
160,96,28554,5,0,0:0:0:0:
160,96,29126,5,0,0:0:0:0:
160,96,29697,5,0,0:0:0:0:
160,96,29983,5,0,0:0:0:0:
160,96,30268,5,0,0:0:0:0:
352,96,30840,5,8,0:0:0:0:
160,96,31411,5,0,0:0:0:0:
160,96,31983,5,0,0:0:0:0:
160,96,32268,5,0,0:0:0:0:
160,96,32554,5,0,0:0:0:0:
160,96,33126,5,0,0:0:0:0:
352,288,33411,5,12,0:0:0:0:
160,96,34268,5,0,0:0:0:0:
160,96,34554,5,0,0:0:0:0:
160,96,34840,5,0,0:0:0:0:
160,96,35411,5,0,0:0:0:0:
352,96,35983,5,8,0:0:0:0:
160,96,37126,5,0,0:0:0:0:
352,96,37411,5,8,0:0:0:0:
160,288,37697,5,4,0:0:0:0:
352,96,38268,5,8,0:0:0:0:
160,96,38840,5,0,0:0:0:0:
160,96,39411,5,0,0:0:0:0:
352,96,39697,5,8,0:0:0:0:
160,96,39983,5,0,0:0:0:0:
352,96,40554,5,8,0:0:0:0:
160,96,41126,5,0,0:0:0:0:
352,96,41697,5,8,0:0:0:0:
160,96,41983,5,0,0:0:0:0:
352,96,42268,5,8,0:0:0:0:
160,96,42840,5,0,0:0:0:0:
160,96,43411,5,8,0:0:0:0:
160,96,43983,5,0,0:0:0:0:
352,96,44268,5,8,0:0:0:0:
352,96,44554,5,0,0:0:0:0:
160,96,45126,5,8,0:0:0:0:
352,96,45697,5,0,0:0:0:0:
352,96,45983,5,0,0:0:0:0:
352,96,46268,5,8,0:0:0:0:
352,96,46554,5,8,0:0:0:0:
160,96,47411,5,0,0:0:0:0:
352,96,47983,5,8,0:0:0:0:
160,96,48554,5,0,0:0:0:0:
352,96,48840,5,8,0:0:0:0:
160,96,49126,5,0,0:0:0:0:
352,96,49697,5,8,0:0:0:0:
160,96,50268,5,0,0:0:0:0:
352,96,50840,5,8,0:0:0:0:
160,96,51126,5,0,0:0:0:0:
352,96,51411,5,8,0:0:0:0:
160,96,51983,5,0,0:0:0:0:
160,96,52554,5,8,0:0:0:0:
160,96,53126,5,0,0:0:0:0:
352,96,53411,5,8,0:0:0:0:
352,96,53697,5,0,0:0:0:0:
160,96,54268,5,8,0:0:0:0:
352,96,54840,5,0,0:0:0:0:
160,96,55126,5,0,0:0:0:0:
352,96,55411,5,8,0:0:0:0:
352,288,55983,5,12,0:0:0:0:
160,96,60554,5,0,0:0:0:0:
352,96,60840,5,8,0:0:0:0:
352,96,61411,5,8,0:0:0:0:
352,96,61983,5,8,0:0:0:0:
352,96,62554,5,8,0:0:0:0:
160,96,62840,5,0,0:0:0:0:
352,96,63126,5,8,0:0:0:0:
352,96,63697,5,8,0:0:0:0:
352,288,63983,5,12,0:0:0:0:
160,288,65126,5,4,0:0:0:0:
160,96,65697,5,0,0:0:0:0:
160,96,66268,5,0,0:0:0:0:
160,96,66840,5,0,0:0:0:0:
352,96,67126,5,8,0:0:0:0:
160,96,67411,5,0,0:0:0:0:
160,96,67983,5,0,0:0:0:0:
160,96,68554,5,0,0:0:0:0:
352,96,69126,5,8,0:0:0:0:
160,96,69411,5,0,0:0:0:0:
160,96,69697,5,0,0:0:0:0:
160,96,70268,5,0,0:0:0:0:
160,96,70840,5,0,0:0:0:0:
160,96,71411,5,0,0:0:0:0:
352,96,71697,5,8,0:0:0:0:
160,96,71983,5,0,0:0:0:0:
160,96,72554,5,0,0:0:0:0:
352,96,73126,5,8,0:0:0:0:
160,96,74268,5,4,0:0:0:0:
352,96,74840,5,8,0:0:0:0:
160,96,75411,5,0,0:0:0:0:
160,96,75983,5,0,0:0:0:0:
352,96,76268,5,8,0:0:0:0:
160,96,76554,5,0,0:0:0:0:
352,96,77126,5,8,0:0:0:0:
160,96,77697,5,0,0:0:0:0:
352,96,78268,5,8,0:0:0:0:
160,96,78554,5,0,0:0:0:0:
160,96,78840,5,0,0:0:0:0:
352,96,79411,5,8,0:0:0:0:
160,96,79983,5,0,0:0:0:0:
160,96,80554,5,0,0:0:0:0:
352,96,80840,5,8,0:0:0:0:
160,96,81126,5,0,0:0:0:0:
160,96,81697,5,0,0:0:0:0:
352,96,82268,5,8,0:0:0:0:
160,96,83411,5,0,0:0:0:0:
160,96,83983,5,0,0:0:0:0:
160,96,84554,5,0,0:0:0:0:
160,96,85126,5,0,0:0:0:0:
352,96,85411,5,8,0:0:0:0:
160,96,85697,5,0,0:0:0:0:
160,96,86268,5,0,0:0:0:0:
352,96,86840,5,8,0:0:0:0:
352,96,87411,5,8,0:0:0:0:
352,96,87697,5,8,0:0:0:0:
160,96,87983,5,0,0:0:0:0:
160,96,88554,5,0,0:0:0:0:
352,96,89126,5,8,0:0:0:0:
352,96,89697,5,8,0:0:0:0:
160,96,89983,5,0,0:0:0:0:
352,96,90268,5,8,0:0:0:0:
160,96,90840,5,0,0:0:0:0:
352,96,91411,5,8,0:0:0:0:
352,96,91983,5,8,0:0:0:0:
352,96,92268,5,8,0:0:0:0:
160,96,92554,5,0,0:0:0:0:
352,96,93411,5,8,0:0:0:0:
160,96,93697,5,0,0:0:0:0:
160,96,94268,5,0,0:0:0:0:
352,96,94554,5,8,0:0:0:0:
160,96,94840,5,0,0:0:0:0:
352,96,95411,5,8,0:0:0:0:
160,96,95983,5,0,0:0:0:0:
352,96,96554,5,8,0:0:0:0:
352,96,96840,5,8,0:0:0:0:
160,96,97126,5,0,0:0:0:0:
352,96,97983,5,8,0:0:0:0:
160,96,98268,5,0,0:0:0:0:
160,96,98840,5,0,0:0:0:0:
352,96,99126,5,8,0:0:0:0:
160,96,99411,5,0,0:0:0:0:
352,96,99983,5,8,0:0:0:0:
160,96,100554,5,0,0:0:0:0:
352,96,100840,5,8,0:0:0:0:
160,96,101126,5,0,0:0:0:0:
352,288,101697,5,12,0:0:0:0:
352,96,106268,5,8,0:0:0:0:
352,96,107411,5,8,0:0:0:0:
352,96,107983,5,8,0:0:0:0:
352,96,108554,5,8,0:0:0:0:
352,96,109697,5,8,0:0:0:0:
352,96,109983,5,8,0:0:0:0:
352,96,110268,5,8,0:0:0:0:
160,288,110840,5,4,0:0:0:0:
352,96,111697,5,8,0:0:0:0:
160,96,111983,5,0,0:0:0:0:
352,96,112268,5,8,0:0:0:0:
352,96,112840,5,8,0:0:0:0:
160,96,113126,5,0,0:0:0:0:
352,96,113697,5,8,0:0:0:0:
160,96,114268,5,0,0:0:0:0:
352,96,114554,5,8,0:0:0:0:
352,96,114840,5,8,0:0:0:0:
160,96,115411,5,0,0:0:0:0:
352,96,116268,5,8,0:0:0:0:
160,96,116554,5,0,0:0:0:0:
352,96,116839,5,8,0:0:0:0:
352,96,117411,5,8,0:0:0:0:
160,96,117697,5,0,0:0:0:0:
160,96,118268,5,0,0:0:0:0:
352,96,118839,5,8,0:0:0:0:
160,96,119983,5,4,0:0:0:0:
352,96,120554,5,8,0:0:0:0:
160,96,120840,5,0,0:0:0:0:
160,96,121126,5,0,0:0:0:0:
352,96,121697,5,8,0:0:0:0:
160,96,122268,5,0,0:0:0:0:
352,96,122840,5,8,0:0:0:0:
160,96,123126,5,0,0:0:0:0:
352,96,123411,5,8,0:0:0:0:
352,96,123983,5,8,0:0:0:0:
352,96,124268,5,8,0:0:0:0:
160,96,124554,5,0,0:0:0:0:
352,96,125125,5,8,0:0:0:0:
160,96,125697,5,0,0:0:0:0:
352,96,126268,5,8,0:0:0:0:
160,96,126554,5,0,0:0:0:0:
160,96,126839,5,0,0:0:0:0:
352,96,127411,5,8,0:0:0:0:
160,96,128268,5,0,0:0:0:0:
352,96,128554,5,8,0:0:0:0:
352,96,128839,5,8,0:0:0:0:
160,96,129125,5,0,0:0:0:0:
352,96,129697,5,8,0:0:0:0:
160,96,130269,5,0,0:0:0:0:
352,96,130840,5,8,0:0:0:0:
352,96,131126,5,8,0:0:0:0:
160,96,131411,5,0,0:0:0:0:
352,96,131983,5,8,0:0:0:0:
160,96,132554,5,0,0:0:0:0:
352,96,133126,5,8,0:0:0:0:
160,96,133411,5,0,0:0:0:0:
160,96,133697,5,0,0:0:0:0:
352,96,134268,5,8,0:0:0:0:
160,96,134840,5,0,0:0:0:0:
352,96,135411,5,8,0:0:0:0:
352,96,135697,5,8,0:0:0:0:
160,96,135982,5,0,0:0:0:0:
352,96,136554,5,8,0:0:0:0:
352,288,137125,5,12,0:0:0:0:
160,96,138268,5,0,0:0:0:0:
160,96,138840,5,0,0:0:0:0:
160,96,139411,5,0,0:0:0:0:
160,96,139983,5,0,0:0:0:0:
160,96,140268,5,0,0:0:0:0:
160,96,140554,5,0,0:0:0:0:
160,96,141126,5,0,0:0:0:0:
352,96,141697,5,8,0:0:0:0:
352,96,142268,5,8,0:0:0:0:
160,96,142554,5,0,0:0:0:0:
352,96,142840,5,8,0:0:0:0:
160,96,143411,5,0,0:0:0:0:
160,96,143983,5,0,0:0:0:0:
160,96,144555,5,0,0:0:0:0:
160,96,144840,5,0,0:0:0:0:
160,96,145126,5,0,0:0:0:0:
160,96,145698,5,0,0:0:0:0:
352,96,146269,5,8,0:0:0:0:
352,96,146840,5,8,0:0:0:0:
160,96,147126,5,0,0:0:0:0:
160,96,147983,5,0,0:0:0:0:
352,96,148554,5,8,0:0:0:0:
352,96,149126,5,8,0:0:0:0:
160,96,149411,5,0,0:0:0:0:
352,96,149697,5,8,0:0:0:0:
160,96,150268,5,0,0:0:0:0:
352,96,150840,5,8,0:0:0:0:
160,96,151126,5,0,0:0:0:0:
352,96,151411,5,8,0:0:0:0:
160,96,151697,5,0,0:0:0:0:
352,96,151983,5,8,0:0:0:0:
160,96,152554,5,0,0:0:0:0:
352,96,153126,5,8,0:0:0:0:
352,96,153411,5,8,0:0:0:0:
160,96,153697,5,0,0:0:0:0:
160,96,153983,5,0,0:0:0:0:
352,96,154268,5,8,0:0:0:0:
160,96,154840,5,0,0:0:0:0:
352,96,155411,5,8,0:0:0:0:
160,96,155697,5,0,0:0:0:0:
352,96,155983,5,8,0:0:0:0:
256,192,156554,12,0,157697,0:0:0:0:
160,288,158674,5,4,0:0:0:0:
352,96,159156,5,8,0:0:0:0:
160,96,159639,5,0,0:0:0:0:
160,96,159880,5,0,0:0:0:0:
352,96,160121,5,8,0:0:0:0:
160,288,160604,5,4,0:0:0:0:
160,96,161569,5,0,0:0:0:0:
352,96,162051,5,8,0:0:0:0:
352,96,162292,5,8,0:0:0:0:
160,96,162534,5,0,0:0:0:0:
352,96,163016,5,8,0:0:0:0:
160,96,163499,5,0,0:0:0:0:
160,96,163740,5,0,0:0:0:0:
352,96,163981,5,8,0:0:0:0:
160,96,164464,5,0,0:0:0:0:
352,96,164946,5,8,0:0:0:0:
352,96,165911,5,8,0:0:0:0:
352,96,166152,5,8,0:0:0:0:
160,288,166394,5,4,0:0:0:0:
352,96,166878,5,8,0:0:0:0:
160,96,167362,5,0,0:0:0:0:
160,96,167847,5,0,0:0:0:0:
352,96,168089,5,8,0:0:0:0:
160,96,168331,5,0,0:0:0:0:
352,96,168816,5,8,0:0:0:0:
160,96,169300,5,0,0:0:0:0:
160,96,169542,5,0,0:0:0:0:
352,96,169785,5,8,0:0:0:0:
160,96,170269,5,0,0:0:0:0:
352,96,170754,5,8,0:0:0:0:
160,96,171238,5,0,0:0:0:0:
160,96,171480,5,0,0:0:0:0:
352,96,171723,5,8,0:0:0:0:
352,96,171965,5,8,0:0:0:0:
256,192,172207,12,0,175295,0:0:0:0:
