osu file format v14

[General]
AudioFilename: audio.mp3
AudioLeadIn: 0
PreviewTime: 277378
Countdown: 1
SampleSet: Normal
StackLeniency: 0.7
Mode: 0
LetterboxInBreaks: 0
WidescreenStoryboard: 0

[Editor]
Bookmarks: 277378
DistanceSpacing: 1.4
BeatDivisor: 4
GridSize: 8
TimelineZoom: 1.7

[Metadata]
Title:Anything
TitleUnicode:Anything
Artist:Culture Beat
ArtistUnicode:Culture Beat
Creator:roby32
Version:Marathon
Source:Serenity
Tags:techno
BeatmapID:963669
BeatmapSetID:449082

[Difficulty]
HPDrainRate:9
CircleSize:4
OverallDifficulty:8
ApproachRate:9.5
SliderMultiplier:1.4
SliderTickRate:1

[Events]
//Background and Video events
0,0,"BG.jpg",0,0
//Break Periods
2,175083,184440
//Storyboard Layer 0 (Background)
//Storyboard Layer 1 (Fail)
//Storyboard Layer 2 (Pass)
//Storyboard Layer 3 (Foreground)
//Storyboard Sound Samples

[TimingPoints]
6859.93938814327,420.059815164881,4,1,0,100,1,0
53906,-80,4,1,0,100,0,1
67243,-100,4,1,0,100,0,0
67348,-80,4,1,0,100,0,1
94127,-100,4,1,0,100,0,0
94232,-80,4,1,0,100,0,1
94337,-100,4,1,0,100,0,0
134558,-80,4,1,0,100,0,1
147895,-100,4,1,0,100,0,0
148000,-80,4,1,0,100,0,1
174778,-100,4,1,0,100,0,0
277273,-100,4,1,0,100,0,0
277378,-80,4,1,0,100,0,1
277483,-100,4,1,0,100,0,0
312663,-100,4,1,0,100,0,1
326000,-100,4,1,0,100,0,0
326105,-80,4,1,0,100,0,1
352884,-100,4,1,0,100,0,0
352989,-80,4,1,0,100,0,1
379768,-100,4,1,0,100,0,0
379873,-80,4,1,0,100,0,1
379978,-100,4,1,0,100,0,0

[Colours]
Combo1 : 208,206,253
Combo2 : 253,39,2
Combo3 : 40,254,29

[HitObjects]
96,92,27022,5,0,0:0:0:0:
116,104,27127,1,0,0:0:0:0:
140,104,27232,1,0,0:0:0:0:
160,92,27337,1,0,0:0:0:0:
184,92,27442,1,8,0:0:0:0:
204,108,27547,1,0,0:0:0:0:
220,128,27652,1,0,0:0:0:0:
212,152,27757,1,0,0:0:0:0:
212,176,27862,1,0,0:0:0:0:
224,196,27967,1,0,0:0:0:0:
244,212,28072,1,0,0:0:0:0:
268,220,28177,1,0,0:0:0:0:
292,216,28282,1,8,0:0:0:0:
312,204,28388,1,0,0:0:0:0:
328,184,28493,1,0,0:0:0:0:
340,160,28598,1,0,0:0:0:0:
332,136,28703,5,0,0:0:0:0:
320,116,28808,1,0,0:0:0:0:
304,96,28913,1,0,0:0:0:0:
280,88,29018,1,0,0:0:0:0:
256,96,29123,1,8,0:0:0:0:
232,104,29228,1,0,0:0:0:0:
208,112,29333,1,0,0:0:0:0:
196,132,29438,1,0,0:0:0:0:
188,156,29543,1,0,0:0:0:0:
196,180,29648,1,0,0:0:0:0:
212,200,29753,1,0,0:0:0:0:
236,208,29858,1,0,0:0:0:0:
252,228,29963,1,8,0:0:0:0:
264,248,30068,1,0,0:0:0:0:
248,268,30173,1,0,0:0:0:0:
228,280,30278,1,0,0:0:0:0:
204,284,30383,5,0,0:0:0:0:
188,268,30488,1,0,0:0:0:0:
176,248,30593,1,0,0:0:0:0:
172,224,30698,1,0,0:0:0:0:
172,200,30803,1,8,0:0:0:0:
176,176,30908,1,0,0:0:0:0:
184,152,31013,1,0,0:0:0:0:
208,144,31118,1,0,0:0:0:0:
232,144,31223,1,0,0:0:0:0:
256,148,31328,1,0,0:0:0:0:
280,152,31433,1,0,0:0:0:0:
304,160,31538,1,0,0:0:0:0:
320,180,31643,1,8,0:0:0:0:
332,200,31748,1,0,0:0:0:0:
340,224,31853,1,0,0:0:0:0:
348,248,31958,1,0,0:0:0:0:
332,268,32063,5,0,0:0:0:0:
308,272,32168,1,0,0:0:0:0:
284,276,32273,1,0,0:0:0:0:
260,268,32378,1,0,0:0:0:0:
240,256,32483,1,8,0:0:0:0:
232,232,32588,1,0,0:0:0:0:
236,208,32693,1,0,0:0:0:0:
236,184,32798,1,0,0:0:0:0:
232,160,32903,1,0,0:0:0:0:
220,140,33008,1,0,0:0:0:0:
196,140,33113,1,0,0:0:0:0:
184,164,33218,1,0,0:0:0:0:
184,188,33323,1,8,0:0:0:0:
188,212,33428,1,0,0:0:0:0:
192,236,33533,1,0,0:0:0:0:
192,260,33638,1,0,0:0:0:0:
176,280,33743,5,0,0:0:0:0:
188,300,33848,1,0,0:0:0:0:
212,300,33953,1,0,0:0:0:0:
232,288,34058,1,0,0:0:0:0:
248,272,34163,1,8,0:0:0:0:
268,256,34268,1,0,0:0:0:0:
272,232,34373,1,0,0:0:0:0:
264,208,34478,1,0,0:0:0:0:
244,192,34583,1,0,0:0:0:0:
232,172,34688,1,0,0:0:0:0:
256,164,34793,1,0,0:0:0:0:
272,148,34898,1,0,0:0:0:0:
280,124,35003,1,8,0:0:0:0:
276,100,35108,1,0,0:0:0:0:
244,92,35213,1,0,0:0:0:0:
220,96,35318,1,0,0:0:0:0:
204,112,35424,5,0,0:0:0:0:
184,124,35529,1,0,0:0:0:0:
160,124,35634,1,0,0:0:0:0:
140,140,35739,1,0,0:0:0:0:
140,164,35844,1,8,0:0:0:0:
148,188,35949,1,0,0:0:0:0:
164,208,36054,1,0,0:0:0:0:
188,212,36159,1,0,0:0:0:0:
212,208,36264,1,0,0:0:0:0:
236,200,36369,1,0,0:0:0:0:
256,188,36474,1,0,0:0:0:0:
280,188,36579,1,0,0:0:0:0:
304,192,36684,1,8,0:0:0:0:
328,204,36789,1,0,0:0:0:0:
340,224,36894,1,0,0:0:0:0:
340,248,36999,1,0,0:0:0:0:
324,268,37104,5,0,0:0:0:0:
300,280,37209,1,0,0:0:0:0:
280,268,37314,1,0,0:0:0:0:
264,248,37419,1,0,0:0:0:0:
244,232,37524,1,8,0:0:0:0:
220,236,37629,1,0,0:0:0:0:
212,260,37734,1,0,0:0:0:0:
196,280,37839,1,0,0:0:0:0:
172,288,37944,1,0,0:0:0:0:
152,276,38049,1,0,0:0:0:0:
136,256,38154,1,0,0:0:0:0:
132,232,38259,1,0,0:0:0:0:
144,212,38364,1,8,0:0:0:0:
164,196,38469,1,0,0:0:0:0:
184,180,38574,1,0,0:0:0:0:
204,168,38679,1,0,0:0:0:0:
228,160,38784,5,0,0:0:0:0:
236,184,38889,1,0,0:0:0:0:
252,200,38994,1,0,0:0:0:0:
276,208,39099,1,0,0:0:0:0:
300,200,39204,1,8,0:0:0:0:
316,184,39309,1,0,0:0:0:0:
324,160,39414,1,0,0:0:0:0:
348,164,39519,1,0,0:0:0:0:
372,156,39624,1,0,0:0:0:0:
396,160,39729,1,0,0:0:0:0:
420,168,39834,1,0,0:0:0:0:
440,180,39939,1,0,0:0:0:0:
456,160,40044,1,8,0:0:0:0:
472,144,40149,1,0,0:0:0:0:
472,120,40254,1,0,0:0:0:0:
452,104,40359,1,0,0:0:0:0:
408,96,40464,5,0,0:0:0:0:
384,104,40569,1,0,0:0:0:0:
364,116,40674,1,0,0:0:0:0:
340,120,40779,1,0,0:0:0:0:
316,112,40884,1,8,0:0:0:0:
296,100,40989,1,0,0:0:0:0:
272,92,41094,1,0,0:0:0:0:
248,88,41199,1,0,0:0:0:0:
224,96,41304,1,0,0:0:0:0:
204,112,41409,1,0,0:0:0:0:
184,124,41514,1,0,0:0:0:0:
160,128,41619,1,0,0:0:0:0:
136,120,41724,1,8,0:0:0:0:
116,104,41829,1,0,0:0:0:0:
96,92,41934,1,0,0:0:0:0:
72,92,42039,1,0,0:0:0:0:
60,112,42144,5,0,0:0:0:0:
64,136,42249,1,0,0:0:0:0:
68,160,42354,1,0,0:0:0:0:
76,184,42460,1,0,0:0:0:0:
84,208,42565,1,8,0:0:0:0:
100,228,42670,1,0,0:0:0:0:
124,236,42775,1,0,0:0:0:0:
148,232,42880,1,0,0:0:0:0:
172,224,42985,1,0,0:0:0:0:
192,208,43090,1,0,0:0:0:0:
204,184,43195,1,0,0:0:0:0:
216,164,43300,1,0,0:0:0:0:
228,144,43405,1,8,0:0:0:0:
252,136,43510,1,0,0:0:0:0:
276,140,43615,1,0,0:0:0:0:
296,156,43720,1,0,0:0:0:0:
308,176,43825,5,0,0:0:0:0:
312,200,43930,1,0,0:0:0:0:
308,224,44035,1,0,0:0:0:0:
284,236,44140,1,0,0:0:0:0:
264,224,44245,1,0,0:0:0:0:
252,204,44350,1,0,0:0:0:0:
236,184,44455,1,0,0:0:0:0:
216,172,44560,1,0,0:0:0:0:
192,172,44665,1,0,0:0:0:0:
168,180,44770,1,0,0:0:0:0:
148,196,44875,1,0,0:0:0:0:
132,216,44980,1,0,0:0:0:0:
112,232,45085,1,8,0:0:0:0:
96,248,45190,1,0,0:0:0:0:
100,272,45295,1,0,0:0:0:0:
120,288,45400,1,0,0:0:0:0:
144,300,45505,5,0,0:0:0:0:
168,296,45610,1,0,0:0:0:0:
188,280,45715,1,0,0:0:0:0:
204,260,45820,1,0,0:0:0:0:
224,244,45925,1,8,0:0:0:0:
240,228,46030,1,0,0:0:0:0:
248,204,46135,1,0,0:0:0:0:
232,184,46240,1,0,0:0:0:0:
212,168,46345,1,0,0:0:0:0:
200,148,46450,1,0,0:0:0:0:
216,128,46555,1,0,0:0:0:0:
240,124,46660,1,0,0:0:0:0:
264,128,46765,1,8,0:0:0:0:
284,140,46870,1,0,0:0:0:0:
300,160,46975,1,0,0:0:0:0:
312,184,47080,1,0,0:0:0:0:
316,208,47185,5,0,0:0:0:0:
304,228,47290,1,0,0:0:0:0:
284,240,47395,1,0,0:0:0:0:
260,236,47500,1,0,0:0:0:0:
240,224,47605,1,8,0:0:0:0:
216,224,47710,1,0,0:0:0:0:
196,236,47815,1,0,0:0:0:0:
180,256,47920,1,0,0:0:0:0:
168,276,48025,1,0,0:0:0:0:
144,280,48130,1,0,0:0:0:0:
120,268,48235,1,0,0:0:0:0:
116,244,48340,1,0,0:0:0:0:
112,220,48445,1,8,0:0:0:0:
116,196,48550,1,0,0:0:0:0:
132,180,48655,1,0,0:0:0:0:
152,168,48760,1,0,0:0:0:0:
176,160,48865,5,0,0:0:0:0:
196,176,48970,1,0,0:0:0:0:
220,180,49075,1,0,0:0:0:0:
244,172,49180,1,0,0:0:0:0:
260,152,49285,1,8,0:0:0:0:
272,132,49390,1,0,0:0:0:0:
296,128,49496,1,0,0:0:0:0:
320,140,49601,1,0,0:0:0:0:
336,160,49706,1,0,0:0:0:0:
340,184,49811,1,0,0:0:0:0:
332,208,49916,1,0,0:0:0:0:
316,228,50021,1,0,0:0:0:0:
292,236,50126,1,8,0:0:0:0:
268,236,50231,1,0,0:0:0:0:
244,232,50336,1,0,0:0:0:0:
220,228,50441,1,0,0:0:0:0:
196,220,50546,5,0,0:0:0:0:
172,212,50651,1,0,0:0:0:0:
148,204,50756,1,0,0:0:0:0:
136,184,50861,1,0,0:0:0:0:
136,160,50966,1,8,0:0:0:0:
148,140,51071,1,0,0:0:0:0:
168,128,51176,1,0,0:0:0:0:
192,124,51281,1,0,0:0:0:0:
212,140,51386,1,0,0:0:0:0:
216,164,51491,1,0,0:0:0:0:
212,188,51596,1,0,0:0:0:0:
208,212,51701,1,0,0:0:0:0:
200,236,51806,1,8,0:0:0:0:
212,256,51911,1,0,0:0:0:0:
232,268,52016,1,0,0:0:0:0:
256,272,52121,1,0,0:0:0:0:
276,260,52226,5,0,0:0:0:0:
296,244,52331,1,0,0:0:0:0:
308,224,52436,1,0,0:0:0:0:
312,200,52541,1,0,0:0:0:0:
300,180,52646,1,8,0:0:0:0:
280,168,52751,1,0,0:0:0:0:
256,168,52856,1,0,0:0:0:0:
236,180,52961,1,0,0:0:0:0:
216,192,53066,1,0,0:0:0:0:
196,204,53171,1,0,0:0:0:0:
172,204,53276,1,0,0:0:0:0:
148,216,53381,1,0,0:0:0:0:
136,236,53486,1,8,0:0:0:0:
152,256,53591,1,0,0:0:0:0:
176,264,53696,1,0,0:0:0:0:
200,268,53801,1,0,0:0:0:0:
224,268,53906,5,0,0:0:0:0:
252,260,54011,1,0,0:0:0:0:
280,248,54116,1,0,0:0:0:0:
292,220,54221,1,0,0:0:0:0:
300,192,54326,1,8,0:0:0:0:
296,160,54431,1,0,0:0:0:0:
288,132,54536,1,0,0:0:0:0:
268,108,54641,1,0,0:0:0:0:
240,100,54746,1,0,0:0:0:0:
212,108,54851,1,0,0:0:0:0:
188,124,54956,1,0,0:0:0:0:
168,148,55061,1,0,0:0:0:0:
148,172,55166,1,8,0:0:0:0:
136,200,55271,1,0,0:0:0:0:
140,232,55376,1,0,0:0:0:0:
164,252,55481,1,0,0:0:0:0:
192,264,55586,5,0,0:0:0:0:
224,260,55691,1,0,0:0:0:0:
244,236,55796,1,0,0:0:0:0:
224,212,55901,1,0,0:0:0:0:
196,200,56006,1,8,0:0:0:0:
184,172,56111,1,0,0:0:0:0:
208,152,56216,1,0,0:0:0:0:
240,156,56321,1,0,0:0:0:0:
268,168,56426,1,0,0:0:0:0:
292,188,56532,1,0,0:0:0:0:
316,208,56637,1,0,0:0:0:0:
344,224,56742,1,0,0:0:0:0:
372,208,56847,1,8,0:0:0:0:
376,176,56952,1,0,0:0:0:0:
372,144,57057,1,0,0:0:0:0:
360,116,57162,1,0,0:0:0:0:
332,100,57267,5,0,0:0:0:0:
300,100,57372,1,0,0:0:0:0:
268,100,57477,1,0,0:0:0:0:
244,120,57582,1,0,0:0:0:0:
240,152,57687,1,8,0:0:0:0:
256,176,57792,1,0,0:0:0:0:
284,164,57897,1,0,0:0:0:0:
296,136,58002,1,0,0:0:0:0:
284,108,58107,1,0,0:0:0:0:
252,108,58212,1,0,0:0:0:0:
224,124,58317,1,0,0:0:0:0:
212,152,58422,1,0,0:0:0:0:
204,180,58527,1,8,0:0:0:0:
184,200,58632,1,0,0:0:0:0:
164,224,58737,1,0,0:0:0:0:
172,252,58842,1,0,0:0:0:0:
188,280,58947,6,0,L|216:244,1,43.75
228,272,59157,2,0,L|248:224,1,43.75
264,252,59367,1,8,0:0:0:0:
296,256,59472,1,0,0:0:0:0:
328,252,59577,1,0,0:0:0:0:
356,236,59682,1,0,0:0:0:0:
356,204,59787,2,0,L|304:204,1,43.75
336,184,59997,2,0,L|288:168,1,43.75
308,144,60207,2,0,L|272:100,1,43.75,8|0,0:0|0:0,0:0:0:0:
252,104,60417,1,0,0:0:0:0:
224,96,60522,1,0,0:0:0:0:
200,116,60627,5,0,0:0:0:0:
188,144,60732,1,0,0:0:0:0:
200,172,60837,1,0,0:0:0:0:
224,192,60942,1,0,0:0:0:0:
248,208,61047,1,8,0:0:0:0:
276,216,61152,1,0,0:0:0:0:
304,204,61257,1,0,0:0:0:0:
328,184,61362,1,0,0:0:0:0:
340,156,61467,1,0,0:0:0:0:
320,132,61572,1,0,0:0:0:0:
292,124,61677,1,0,0:0:0:0:
260,128,61782,1,0,0:0:0:0:
244,156,61887,1,8,0:0:0:0:
252,184,61992,1,0,0:0:0:0:
272,208,62097,1,0,0:0:0:0:
296,228,62202,1,0,0:0:0:0:
320,248,62307,5,0,0:0:0:0:
328,280,62412,1,0,0:0:0:0:
304,296,62517,1,0,0:0:0:0:
272,296,62622,1,0,0:0:0:0:
248,280,62727,1,8,0:0:0:0:
232,256,62832,1,0,0:0:0:0:
208,232,62937,1,0,0:0:0:0:
176,240,63042,1,0,0:0:0:0:
160,264,63147,1,0,0:0:0:0:
136,280,63252,1,0,0:0:0:0:
104,272,63357,1,0,0:0:0:0:
88,248,63462,1,0,0:0:0:0:
88,216,63568,1,8,0:0:0:0:
104,192,63673,1,0,0:0:0:0:
128,176,63778,1,0,0:0:0:0:
160,168,63883,1,0,0:0:0:0:
192,176,63988,5,0,0:0:0:0:
208,200,64093,1,0,0:0:0:0:
240,192,64198,1,0,0:0:0:0:
256,168,64303,1,0,0:0:0:0:
272,144,64408,1,8,0:0:0:0:
304,144,64513,1,0,0:0:0:0:
328,168,64618,1,0,0:0:0:0:
344,192,64723,1,0,0:0:0:0:
344,224,64828,1,0,0:0:0:0:
328,248,64933,1,0,0:0:0:0:
304,264,65038,1,0,0:0:0:0:
328,288,65143,1,0,0:0:0:0:
360,296,65248,1,8,0:0:0:0:
392,288,65353,1,0,0:0:0:0:
416,264,65458,1,0,0:0:0:0:
424,232,65563,1,0,0:0:0:0:
424,200,65668,5,0,0:0:0:0:
224,128,65983,1,0,0:0:0:0:
224,128,66088,1,8,0:0:0:0:
208,232,66298,1,0,0:0:0:0:
408,112,66613,1,0,0:0:0:0:
312,104,66928,1,8,0:0:0:0:
248,104,67138,1,0,0:0:0:0:
192,120,67348,5,4,0:0:0:0:
168,136,67453,1,0,0:0:0:0:
152,160,67558,1,0,0:0:0:0:
160,192,67663,1,0,0:0:0:0:
184,216,67768,1,8,0:0:0:0:
192,248,67873,1,0,0:0:0:0:
224,264,67978,1,0,0:0:0:0:
256,256,68083,1,0,0:0:0:0:
272,232,68188,1,0,0:0:0:0:
288,208,68293,1,0,0:0:0:0:
312,192,68398,1,0,0:0:0:0:
336,208,68503,1,0,0:0:0:0:
344,240,68608,1,8,0:0:0:0:
328,264,68713,1,0,0:0:0:0:
304,288,68818,1,0,0:0:0:0:
336,288,68923,1,0,0:0:0:0:
368,296,69028,5,0,0:0:0:0:
400,288,69133,1,0,0:0:0:0:
424,272,69238,1,0,0:0:0:0:
416,240,69343,1,0,0:0:0:0:
424,208,69448,1,8,0:0:0:0:
400,184,69553,1,0,0:0:0:0:
368,176,69658,1,0,0:0:0:0:
336,184,69763,1,0,0:0:0:0:
304,184,69868,1,0,0:0:0:0:
280,160,69973,1,0,0:0:0:0:
248,160,70078,1,0,0:0:0:0:
232,184,70183,1,0,0:0:0:0:
224,216,70288,1,8,0:0:0:0:
208,240,70393,1,0,0:0:0:0:
176,232,70499,1,0,0:0:0:0:
144,240,70604,1,0,0:0:0:0:
144,272,70709,5,0,0:0:0:0:
112,280,70814,1,0,0:0:0:0:
88,256,70919,1,0,0:0:0:0:
96,224,71024,1,0,0:0:0:0:
104,192,71129,1,8,0:0:0:0:
128,168,71234,1,0,0:0:0:0:
152,144,71339,1,0,0:0:0:0:
184,136,71444,1,0,0:0:0:0:
216,144,71549,1,0,0:0:0:0:
224,176,71654,1,0,0:0:0:0:
232,208,71759,1,0,0:0:0:0:
256,232,71864,1,0,0:0:0:0:
288,240,71969,1,8,0:0:0:0:
320,248,72074,1,0,0:0:0:0:
352,232,72179,1,0,0:0:0:0:
368,200,72284,1,0,0:0:0:0:
360,168,72389,5,0,0:0:0:0:
344,144,72494,1,0,0:0:0:0:
328,120,72599,1,0,0:0:0:0:
296,128,72704,1,0,0:0:0:0:
272,144,72809,1,8,0:0:0:0:
240,152,72914,1,0,0:0:0:0:
208,144,73019,1,0,0:0:0:0:
184,128,73124,1,0,0:0:0:0:
152,136,73229,1,0,0:0:0:0:
144,168,73334,1,0,0:0:0:0:
152,200,73439,1,0,0:0:0:0:
176,216,73544,1,0,0:0:0:0:
208,224,73649,1,8,0:0:0:0:
240,216,73754,1,0,0:0:0:0:
272,216,73859,1,0,0:0:0:0:
296,232,73964,1,0,0:0:0:0:
328,248,74069,5,0,0:0:0:0:
360,240,74174,1,0,0:0:0:0:
368,208,74279,1,0,0:0:0:0:
360,176,74384,1,0,0:0:0:0:
336,152,74489,1,8,0:0:0:0:
304,144,74594,1,0,0:0:0:0:
280,160,74699,1,0,0:0:0:0:
256,136,74804,1,0,0:0:0:0:
272,112,74909,1,0,0:0:0:0:
296,88,75014,1,0,0:0:0:0:
328,80,75119,1,0,0:0:0:0:
360,88,75224,1,0,0:0:0:0:
384,112,75329,1,8,0:0:0:0:
400,136,75434,1,0,0:0:0:0:
400,168,75539,1,0,0:0:0:0:
392,200,75644,1,0,0:0:0:0:
376,224,75749,5,0,0:0:0:0:
248,224,75959,1,0,0:0:0:0:
136,192,76169,1,8,0:0:0:0:
176,304,76379,1,0,0:0:0:0:
328,312,77009,1,8,0:0:0:0:
448,200,77219,1,0,0:0:0:0:
336,96,77429,5,0,0:0:0:0:
312,112,77535,1,0,0:0:0:0:
280,104,77640,1,0,0:0:0:0:
248,96,77745,1,0,0:0:0:0:
224,120,77850,1,8,0:0:0:0:
208,144,77955,1,0,0:0:0:0:
184,128,78060,1,0,0:0:0:0:
152,136,78165,1,0,0:0:0:0:
144,168,78270,1,0,0:0:0:0:
136,200,78375,1,0,0:0:0:0:
160,224,78480,1,0,0:0:0:0:
184,240,78585,1,0,0:0:0:0:
216,240,78690,1,8,0:0:0:0:
440,304,79110,5,0,0:0:0:0:
360,128,79530,1,0,0:0:0:0:
312,288,79950,1,0,0:0:0:0:
312,288,80055,1,0,0:0:0:0:
312,288,80160,1,0,0:0:0:0:
200,176,80370,1,0,0:0:0:0:
112,288,80580,1,0,0:0:0:0:
64,200,80790,5,0,0:0:0:0:
80,176,80895,1,0,0:0:0:0:
96,152,81000,1,0,0:0:0:0:
120,136,81105,1,0,0:0:0:0:
152,136,81210,1,8,0:0:0:0:
168,160,81315,1,0,0:0:0:0:
192,176,81420,1,0,0:0:0:0:
224,160,81525,1,0,0:0:0:0:
248,144,81630,1,0,0:0:0:0:
280,144,81735,1,0,0:0:0:0:
304,168,81840,1,0,0:0:0:0:
320,192,81945,1,0,0:0:0:0:
328,224,82050,1,8,0:0:0:0:
304,240,82155,1,0,0:0:0:0:
272,248,82260,1,0,0:0:0:0:
240,256,82365,1,0,0:0:0:0:
208,264,82470,5,0,0:0:0:0:
176,264,82575,1,0,0:0:0:0:
160,240,82680,1,0,0:0:0:0:
152,208,82785,1,0,0:0:0:0:
128,192,82890,1,8,0:0:0:0:
112,216,82995,1,0,0:0:0:0:
112,248,83100,1,0,0:0:0:0:
128,272,83205,1,0,0:0:0:0:
152,288,83310,1,0,0:0:0:0:
184,296,83415,1,0,0:0:0:0:
216,304,83520,1,0,0:0:0:0:
248,304,83625,1,0,0:0:0:0:
280,304,83730,1,8,0:0:0:0:
312,288,83835,1,0,0:0:0:0:
328,264,83940,1,0,0:0:0:0:
336,232,84045,1,0,0:0:0:0:
328,200,84150,5,0,0:0:0:0:
336,168,84255,1,0,0:0:0:0:
328,136,84360,1,0,0:0:0:0:
304,120,84465,1,0,0:0:0:0:
280,144,84571,1,8,0:0:0:0:
264,168,84676,1,0,0:0:0:0:
240,192,84781,1,0,0:0:0:0:
208,200,84886,1,0,0:0:0:0:
176,184,84991,1,0,0:0:0:0:
152,168,85096,1,0,0:0:0:0:
120,184,85201,1,0,0:0:0:0:
120,216,85306,1,0,0:0:0:0:
136,240,85411,1,8,0:0:0:0:
160,256,85516,1,0,0:0:0:0:
192,264,85621,1,0,0:0:0:0:
224,272,85726,1,0,0:0:0:0:
256,272,85831,5,0,0:0:0:0:
288,272,85936,1,0,0:0:0:0:
312,248,86041,1,0,0:0:0:0:
320,216,86146,1,0,0:0:0:0:
304,192,86251,1,0,0:0:0:0:
280,168,86356,1,0,0:0:0:0:
256,152,86461,1,0,0:0:0:0:
232,136,86566,1,0,0:0:0:0:
200,128,86671,1,0,0:0:0:0:
176,152,86776,1,0,0:0:0:0:
176,184,86881,1,0,0:0:0:0:
184,216,86986,1,0,0:0:0:0:
216,232,87091,1,8,0:0:0:0:
232,256,87196,1,0,0:0:0:0:
256,280,87301,1,0,0:0:0:0:
288,280,87406,1,0,0:0:0:0:
320,272,87511,5,0,0:0:0:0:
352,264,87616,1,0,0:0:0:0:
360,232,87721,1,0,0:0:0:0:
352,200,87826,1,0,0:0:0:0:
328,176,87931,1,8,0:0:0:0:
296,168,88036,1,0,0:0:0:0:
264,168,88141,1,0,0:0:0:0:
232,168,88246,1,0,0:0:0:0:
200,160,88351,1,0,0:0:0:0:
192,128,88456,1,0,0:0:0:0:
224,120,88561,1,0,0:0:0:0:
248,104,88666,1,0,0:0:0:0:
272,88,88771,1,8,0:0:0:0:
304,88,88876,1,0,0:0:0:0:
328,104,88981,1,0,0:0:0:0:
344,128,89086,1,0,0:0:0:0:
352,160,89191,5,0,0:0:0:0:
336,184,89296,1,0,0:0:0:0:
312,200,89401,1,0,0:0:0:0:
280,200,89506,1,0,0:0:0:0:
248,192,89611,1,8,0:0:0:0:
216,184,89716,1,0,0:0:0:0:
184,184,89821,1,0,0:0:0:0:
168,208,89926,1,0,0:0:0:0:
160,240,90031,1,0,0:0:0:0:
184,264,90136,1,0,0:0:0:0:
208,280,90241,1,0,0:0:0:0:
240,288,90346,1,0,0:0:0:0:
272,288,90451,1,8,0:0:0:0:
304,296,90556,1,0,0:0:0:0:
320,272,90661,1,0,0:0:0:0:
328,240,90766,1,0,0:0:0:0:
328,208,90871,5,0,0:0:0:0:
144,160,91291,1,8,0:0:0:0:
248,304,91712,1,0,0:0:0:0:
248,104,92132,1,8,0:0:0:0:
256,192,92552,5,0,0:0:0:0:
256,192,92972,5,0,0:0:0:0:
256,192,93392,5,0,0:0:0:0:
456,112,94232,5,0,0:0:0:0:
432,112,94337,1,0,0:0:0:0:
416,96,94442,1,0,0:0:0:0:
392,88,94547,1,0,0:0:0:0:
368,88,94652,1,8,0:0:0:0:
352,120,94757,1,0,0:0:0:0:
344,144,94862,1,0,0:0:0:0:
320,136,94967,1,0,0:0:0:0:
304,120,95072,1,0,0:0:0:0:
280,120,95177,1,0,0:0:0:0:
264,144,95282,1,0,0:0:0:0:
264,168,95387,1,0,0:0:0:0:
280,192,95492,1,8,0:0:0:0:
296,216,95597,1,0,0:0:0:0:
304,240,95702,1,0,0:0:0:0:
296,264,95807,1,0,0:0:0:0:
272,280,95912,5,0,0:0:0:0:
248,288,96017,1,0,0:0:0:0:
232,272,96122,1,0,0:0:0:0:
216,256,96227,1,0,0:0:0:0:
192,248,96332,1,8,0:0:0:0:
168,256,96437,1,0,0:0:0:0:
144,264,96542,1,0,0:0:0:0:
120,256,96647,1,0,0:0:0:0:
104,240,96752,1,0,0:0:0:0:
112,216,96857,1,0,0:0:0:0:
128,200,96962,1,0,0:0:0:0:
144,184,97067,1,0,0:0:0:0:
160,168,97172,1,8,0:0:0:0:
184,168,97277,1,0,0:0:0:0:
208,176,97382,1,0,0:0:0:0:
232,200,97487,1,0,0:0:0:0:
240,224,97592,5,0,0:0:0:0:
240,248,97697,1,0,0:0:0:0:
248,272,97802,1,0,0:0:0:0:
272,280,97907,1,0,0:0:0:0:
296,280,98012,1,8,0:0:0:0:
320,272,98117,1,0,0:0:0:0:
328,248,98222,1,0,0:0:0:0:
336,224,98327,1,0,0:0:0:0:
336,200,98432,1,0,0:0:0:0:
336,176,98537,1,0,0:0:0:0:
352,160,98643,1,0,0:0:0:0:
376,152,98748,1,0,0:0:0:0:
400,160,98853,1,8,0:0:0:0:
424,176,98958,1,0,0:0:0:0:
432,200,99063,1,0,0:0:0:0:
424,224,99168,1,0,0:0:0:0:
416,248,99273,5,0,0:0:0:0:
400,272,99378,1,0,0:0:0:0:
376,272,99483,1,0,0:0:0:0:
352,256,99588,1,0,0:0:0:0:
336,240,99693,1,8,0:0:0:0:
312,232,99798,1,0,0:0:0:0:
288,232,99903,1,0,0:0:0:0:
280,256,100008,1,0,0:0:0:0:
272,280,100113,1,0,0:0:0:0:
256,296,100218,1,0,0:0:0:0:
240,280,100323,1,0,0:0:0:0:
224,256,100428,1,0,0:0:0:0:
232,232,100533,1,8,0:0:0:0:
240,208,100638,1,0,0:0:0:0:
264,200,100743,1,0,0:0:0:0:
288,192,100848,1,0,0:0:0:0:
312,184,100953,5,0,0:0:0:0:
336,184,101058,1,0,0:0:0:0:
352,200,101163,1,0,0:0:0:0:
368,224,101268,1,0,0:0:0:0:
392,216,101373,1,8,0:0:0:0:
408,200,101478,1,0,0:0:0:0:
416,176,101583,1,0,0:0:0:0:
432,160,101688,1,0,0:0:0:0:
432,128,101793,1,0,0:0:0:0:
416,112,101898,1,0,0:0:0:0:
392,104,102003,1,0,0:0:0:0:
368,112,102108,1,0,0:0:0:0:
352,128,102213,1,8,0:0:0:0:
344,152,102318,1,0,0:0:0:0:
336,176,102423,1,0,0:0:0:0:
320,192,102528,1,0,0:0:0:0:
296,200,102633,6,0,L|288:240,1,35
272,216,102843,2,0,L|256:264,1,35
248,224,103053,2,0,L|224:256,1,35,8|0,0:0|0:0,0:0:0:0:
216,232,103263,2,0,L|168:248,1,35
184,216,103473,2,0,L|128:208,1,35
152,184,103683,2,0,L|112:176,1,35
128,152,103893,2,0,L|96:136,1,35,8|0,0:0|0:0,0:0:0:0:
120,120,104103,2,0,L|96:80,1,35
128,88,104313,5,0,0:0:0:0:
152,88,104418,1,0,0:0:0:0:
176,72,104523,1,0,0:0:0:0:
200,80,104628,1,0,0:0:0:0:
208,104,104733,1,8,0:0:0:0:
224,120,104838,1,0,0:0:0:0:
240,136,104943,1,0,0:0:0:0:
264,144,105048,1,0,0:0:0:0:
288,128,105153,1,0,0:0:0:0:
312,120,105258,1,0,0:0:0:0:
328,136,105363,1,0,0:0:0:0:
344,160,105468,1,0,0:0:0:0:
352,184,105573,1,8,0:0:0:0:
344,208,105679,1,0,0:0:0:0:
328,224,105784,1,0,0:0:0:0:
304,232,105889,1,0,0:0:0:0:
280,240,105994,5,0,0:0:0:0:
144,184,106309,1,0,0:0:0:0:
144,184,106414,1,8,0:0:0:0:
192,304,106624,1,0,0:0:0:0:
288,304,106834,1,0,0:0:0:0:
320,296,106939,1,0,0:0:0:0:
352,272,107044,1,0,0:0:0:0:
368,240,107149,1,0,0:0:0:0:
384,192,107254,1,8,0:0:0:0:
384,144,107359,1,0,0:0:0:0:
352,104,107464,1,0,0:0:0:0:
296,80,107569,1,0,0:0:0:0:
240,80,107674,5,0,0:0:0:0:
200,112,107779,1,0,0:0:0:0:
176,160,107884,1,0,0:0:0:0:
128,200,107989,1,0,0:0:0:0:
128,256,108094,1,8,0:0:0:0:
168,304,108199,1,0,0:0:0:0:
224,312,108304,1,0,0:0:0:0:
280,296,108409,1,0,0:0:0:0:
336,264,108514,1,0,0:0:0:0:
376,216,108619,1,0,0:0:0:0:
360,160,108724,1,0,0:0:0:0:
312,120,108829,1,0,0:0:0:0:
272,160,108934,1,8,0:0:0:0:
224,192,109039,1,0,0:0:0:0:
168,168,109144,1,0,0:0:0:0:
152,112,109249,1,0,0:0:0:0:
184,56,109354,5,0,0:0:0:0:
232,24,109459,1,0,0:0:0:0:
288,24,109564,1,0,0:0:0:0:
344,40,109669,1,0,0:0:0:0:
376,88,109774,1,8,0:0:0:0:
392,144,109879,1,0,0:0:0:0:
392,200,109984,1,0,0:0:0:0:
360,248,110089,1,0,0:0:0:0:
304,256,110194,1,0,0:0:0:0:
248,256,110299,1,0,0:0:0:0:
192,256,110404,1,0,0:0:0:0:
144,224,110509,1,0,0:0:0:0:
160,168,110614,1,8,0:0:0:0:
216,152,110719,1,0,0:0:0:0:
272,152,110824,1,0,0:0:0:0:
328,176,110929,1,0,0:0:0:0:
352,232,111034,5,0,0:0:0:0:
384,288,111139,1,0,0:0:0:0:
440,280,111244,1,0,0:0:0:0:
448,224,111349,1,0,0:0:0:0:
448,168,111454,1,8,0:0:0:0:
432,112,111559,1,0,0:0:0:0:
384,80,111664,1,0,0:0:0:0:
328,104,111769,1,0,0:0:0:0:
296,152,111874,1,0,0:0:0:0:
256,200,111979,1,0,0:0:0:0:
208,232,112084,1,0,0:0:0:0:
152,240,112189,1,0,0:0:0:0:
104,208,112294,1,8,0:0:0:0:
104,152,112399,1,0,0:0:0:0:
152,112,112504,1,0,0:0:0:0:
208,104,112609,1,0,0:0:0:0:
272,104,112715,5,0,0:0:0:0:
328,120,112820,1,0,0:0:0:0:
384,120,112925,1,0,0:0:0:0:
408,176,113030,1,0,0:0:0:0:
408,232,113135,1,0,0:0:0:0:
352,256,113240,1,0,0:0:0:0:
296,264,113345,1,0,0:0:0:0:
240,256,113450,1,0,0:0:0:0:
184,232,113555,1,0,0:0:0:0:
128,224,113660,1,0,0:0:0:0:
80,256,113765,1,0,0:0:0:0:
96,312,113870,1,0,0:0:0:0:
152,336,113975,1,0,0:0:0:0:
208,336,114080,1,0,0:0:0:0:
256,304,114185,1,0,0:0:0:0:
264,248,114290,1,0,0:0:0:0:
264,192,114395,5,0,0:0:0:0:
248,136,114500,1,0,0:0:0:0:
200,104,114605,1,0,0:0:0:0:
144,128,114710,1,0,0:0:0:0:
160,184,114815,1,8,0:0:0:0:
208,224,114920,1,0,0:0:0:0:
264,240,115025,1,0,0:0:0:0:
312,200,115130,1,0,0:0:0:0:
336,144,115235,1,0,0:0:0:0:
384,112,115340,1,0,0:0:0:0:
432,144,115445,1,0,0:0:0:0:
456,200,115550,1,0,0:0:0:0:
416,248,115655,1,8,0:0:0:0:
360,272,115760,1,0,0:0:0:0:
304,256,115865,1,0,0:0:0:0:
264,216,115970,1,0,0:0:0:0:
240,160,116075,5,0,0:0:0:0:
184,136,116180,1,0,0:0:0:0:
136,176,116285,1,0,0:0:0:0:
120,232,116390,1,0,0:0:0:0:
152,288,116495,1,8,0:0:0:0:
208,296,116600,1,0,0:0:0:0:
256,264,116705,1,0,0:0:0:0:
296,216,116810,1,0,0:0:0:0:
312,160,116915,1,0,0:0:0:0:
312,104,117020,1,0,0:0:0:0:
264,72,117125,1,0,0:0:0:0:
208,80,117230,1,0,0:0:0:0:
176,128,117335,1,8,0:0:0:0:
200,184,117440,1,0,0:0:0:0:
256,208,117545,1,0,0:0:0:0:
312,224,117650,1,0,0:0:0:0:
368,240,117755,5,0,0:0:0:0:
424,256,117860,1,0,0:0:0:0:
456,208,117965,1,0,0:0:0:0:
440,152,118070,1,0,0:0:0:0:
408,104,118175,1,8,0:0:0:0:
352,104,118280,1,0,0:0:0:0:
296,120,118385,1,0,0:0:0:0:
240,128,118490,1,0,0:0:0:0:
184,120,118595,1,0,0:0:0:0:
128,128,118700,1,0,0:0:0:0:
72,152,118805,1,0,0:0:0:0:
80,208,118910,1,0,0:0:0:0:
128,240,119015,1,8,0:0:0:0:
176,280,119120,1,0,0:0:0:0:
232,296,119225,1,0,0:0:0:0:
288,296,119330,1,0,0:0:0:0:
344,272,119435,5,0,0:0:0:0:
360,216,119540,1,0,0:0:0:0:
400,168,119645,1,0,0:0:0:0:
424,112,119751,1,0,0:0:0:0:
384,64,119856,1,8,0:0:0:0:
328,56,119961,1,0,0:0:0:0:
272,48,120066,1,0,0:0:0:0:
216,56,120171,1,0,0:0:0:0:
160,72,120276,1,0,0:0:0:0:
112,104,120381,1,0,0:0:0:0:
72,152,120486,1,0,0:0:0:0:
64,208,120591,1,0,0:0:0:0:
88,264,120696,1,8,0:0:0:0:
120,312,120801,1,0,0:0:0:0:
176,336,120906,1,0,0:0:0:0:
232,336,121011,1,0,0:0:0:0:
280,296,121116,5,0,0:0:0:0:
312,248,121221,1,0,0:0:0:0:
336,192,121326,1,0,0:0:0:0:
328,136,121431,1,0,0:0:0:0:
296,88,121536,1,8,0:0:0:0:
240,64,121641,1,0,0:0:0:0:
184,72,121746,1,0,0:0:0:0:
128,96,121851,1,0,0:0:0:0:
104,152,121956,1,0,0:0:0:0:
152,184,122061,1,0,0:0:0:0:
208,200,122166,1,0,0:0:0:0:
264,192,122271,1,0,0:0:0:0:
320,184,122376,1,8,0:0:0:0:
360,224,122481,1,0,0:0:0:0:
344,280,122586,1,0,0:0:0:0:
288,304,122691,1,0,0:0:0:0:
232,312,122796,5,0,0:0:0:0:
176,296,122901,1,0,0:0:0:0:
152,240,123006,1,0,0:0:0:0:
192,192,123111,1,0,0:0:0:0:
240,152,123216,1,8,0:0:0:0:
288,120,123321,1,0,0:0:0:0:
344,120,123426,1,0,0:0:0:0:
400,136,123531,1,0,0:0:0:0:
448,176,123636,1,0,0:0:0:0:
488,216,123741,1,0,0:0:0:0:
480,272,123846,1,0,0:0:0:0:
424,296,123951,1,0,0:0:0:0:
368,280,124056,1,8,0:0:0:0:
328,232,124161,1,0,0:0:0:0:
312,176,124266,1,0,0:0:0:0:
264,144,124371,1,0,0:0:0:0:
208,168,124476,5,0,0:0:0:0:
152,160,124581,1,0,0:0:0:0:
112,120,124686,1,0,0:0:0:0:
64,152,124791,1,0,0:0:0:0:
72,208,124896,1,8,0:0:0:0:
120,248,125001,1,0,0:0:0:0:
176,272,125106,1,0,0:0:0:0:
232,280,125211,1,0,0:0:0:0:
288,280,125316,1,0,0:0:0:0:
344,256,125421,1,0,0:0:0:0:
392,216,125526,1,0,0:0:0:0:
416,160,125631,1,0,0:0:0:0:
400,104,125736,1,8,0:0:0:0:
360,56,125841,1,0,0:0:0:0:
304,56,125946,1,0,0:0:0:0:
256,88,126051,1,0,0:0:0:0:
200,104,126156,5,0,0:0:0:0:
144,112,126261,1,0,0:0:0:0:
88,104,126366,1,0,0:0:0:0:
40,72,126471,1,0,0:0:0:0:
40,128,126576,1,8,0:0:0:0:
48,184,126682,1,0,0:0:0:0:
72,240,126787,1,0,0:0:0:0:
112,280,126892,1,0,0:0:0:0:
168,296,126997,1,0,0:0:0:0:
224,304,127102,1,0,0:0:0:0:
280,304,127207,1,0,0:0:0:0:
336,288,127312,1,0,0:0:0:0:
376,248,127417,1,8,0:0:0:0:
392,192,127522,1,0,0:0:0:0:
368,136,127627,1,0,0:0:0:0:
312,120,127732,1,0,0:0:0:0:
256,136,127837,5,0,0:0:0:0:
208,176,127942,1,0,0:0:0:0:
256,208,128047,1,0,0:0:0:0:
312,200,128152,1,0,0:0:0:0:
312,144,128257,1,8,0:0:0:0:
288,88,128362,1,0,0:0:0:0:
232,64,128467,1,0,0:0:0:0:
176,80,128572,1,0,0:0:0:0:
136,120,128677,1,0,0:0:0:0:
136,176,128782,1,0,0:0:0:0:
168,224,128887,1,0,0:0:0:0:
224,248,128992,1,0,0:0:0:0:
280,264,129097,1,8,0:0:0:0:
336,264,129202,1,0,0:0:0:0:
392,240,129307,1,0,0:0:0:0:
432,192,129412,1,0,0:0:0:0:
432,136,129517,5,0,0:0:0:0:
408,80,129622,1,0,0:0:0:0:
368,40,129727,1,0,0:0:0:0:
312,40,129832,1,0,0:0:0:0:
256,48,129937,1,8,0:0:0:0:
200,64,130042,1,0,0:0:0:0:
184,120,130147,1,0,0:0:0:0:
176,176,130252,1,0,0:0:0:0:
136,216,130357,1,0,0:0:0:0:
88,176,130462,1,0,0:0:0:0:
64,232,130567,1,0,0:0:0:0:
96,288,130672,1,0,0:0:0:0:
152,304,130777,1,8,0:0:0:0:
208,304,130882,1,0,0:0:0:0:
264,288,130987,1,0,0:0:0:0:
304,240,131092,1,0,0:0:0:0:
320,184,131197,5,0,0:0:0:0:
312,128,131302,1,0,0:0:0:0:
264,88,131407,1,0,0:0:0:0:
208,96,131512,1,0,0:0:0:0:
168,144,131617,1,8,0:0:0:0:
176,200,131722,1,0,0:0:0:0:
232,192,131827,1,0,0:0:0:0:
288,192,131932,1,0,0:0:0:0:
344,200,132037,1,0,0:0:0:0:
392,168,132142,1,0,0:0:0:0:
424,112,132247,1,0,0:0:0:0:
464,152,132352,1,0,0:0:0:0:
456,208,132457,1,8,0:0:0:0:
440,264,132562,1,0,0:0:0:0:
384,288,132667,1,0,0:0:0:0:
328,288,132772,1,0,0:0:0:0:
272,288,132877,5,0,0:0:0:0:
104,152,133087,1,0,0:0:0:0:
104,288,133297,1,0,0:0:0:0:
264,136,133507,1,0,0:0:0:0:
184,192,133718,1,0,0:0:0:0:
184,192,133823,1,0,0:0:0:0:
184,192,133928,1,0,0:0:0:0:
408,56,134558,5,0,0:0:0:0:
368,48,134663,1,0,0:0:0:0:
328,48,134768,1,0,0:0:0:0:
288,48,134873,1,0,0:0:0:0:
248,48,134978,1,8,0:0:0:0:
208,48,135083,1,0,0:0:0:0:
168,40,135188,1,0,0:0:0:0:
128,64,135293,1,0,0:0:0:0:
128,104,135398,1,0,0:0:0:0:
128,144,135503,1,0,0:0:0:0:
160,176,135608,1,0,0:0:0:0:
200,192,135713,1,0,0:0:0:0:
240,192,135818,1,8,0:0:0:0:
280,184,135923,1,0,0:0:0:0:
320,168,136028,1,0,0:0:0:0:
352,136,136133,1,0,0:0:0:0:
376,96,136238,5,0,0:0:0:0:
416,96,136343,1,0,0:0:0:0:
456,120,136448,1,0,0:0:0:0:
448,160,136553,1,0,0:0:0:0:
432,200,136658,1,8,0:0:0:0:
400,224,136763,1,0,0:0:0:0:
360,232,136868,1,0,0:0:0:0:
320,224,136973,1,0,0:0:0:0:
280,208,137078,1,0,0:0:0:0:
240,192,137183,1,0,0:0:0:0:
200,176,137288,1,0,0:0:0:0:
160,184,137393,1,0,0:0:0:0:
112,192,137498,1,8,0:0:0:0:
88,232,137603,1,0,0:0:0:0:
88,272,137708,1,0,0:0:0:0:
120,296,137813,1,0,0:0:0:0:
160,304,137918,5,0,0:0:0:0:
200,296,138023,1,0,0:0:0:0:
240,288,138128,1,0,0:0:0:0:
280,272,138233,1,0,0:0:0:0:
304,232,138338,1,8,0:0:0:0:
344,216,138443,1,0,0:0:0:0:
368,176,138548,1,0,0:0:0:0:
376,136,138653,1,0,0:0:0:0:
360,96,138758,1,0,0:0:0:0:
328,72,138863,1,0,0:0:0:0:
288,56,138968,1,0,0:0:0:0:
248,48,139073,1,0,0:0:0:0:
208,64,139178,1,8,0:0:0:0:
176,96,139283,1,0,0:0:0:0:
136,112,139388,1,0,0:0:0:0:
120,152,139493,1,0,0:0:0:0:
144,192,139598,5,0,0:0:0:0:
168,224,139703,1,0,0:0:0:0:
208,240,139808,1,0,0:0:0:0:
248,240,139913,1,0,0:0:0:0:
288,216,140018,1,8,0:0:0:0:
320,184,140123,1,0,0:0:0:0:
352,152,140228,1,0,0:0:0:0:
392,168,140333,1,0,0:0:0:0:
416,208,140438,1,0,0:0:0:0:
432,248,140543,1,0,0:0:0:0:
400,280,140648,1,0,0:0:0:0:
360,296,140754,1,0,0:0:0:0:
320,304,140859,1,8,0:0:0:0:
280,296,140964,1,0,0:0:0:0:
240,280,141069,1,0,0:0:0:0:
200,256,141174,1,0,0:0:0:0:
168,224,141279,5,0,0:0:0:0:
184,184,141384,1,0,0:0:0:0:
208,144,141489,1,0,0:0:0:0:
248,144,141594,1,0,0:0:0:0:
288,168,141699,1,8,0:0:0:0:
320,200,141804,1,0,0:0:0:0:
344,240,141909,1,0,0:0:0:0:
384,248,142014,1,0,0:0:0:0:
416,216,142119,1,0,0:0:0:0:
424,176,142224,1,0,0:0:0:0:
408,136,142329,1,0,0:0:0:0:
376,104,142434,1,0,0:0:0:0:
336,96,142539,1,8,0:0:0:0:
296,96,142644,1,0,0:0:0:0:
256,112,142749,1,0,0:0:0:0:
224,136,142854,1,0,0:0:0:0:
192,168,142959,5,0,0:0:0:0:
152,160,143064,1,0,0:0:0:0:
120,136,143169,1,0,0:0:0:0:
80,144,143274,1,0,0:0:0:0:
64,184,143379,1,8,0:0:0:0:
64,224,143484,1,0,0:0:0:0:
96,256,143589,1,0,0:0:0:0:
136,264,143694,1,0,0:0:0:0:
176,256,143799,1,0,0:0:0:0:
216,248,143904,1,0,0:0:0:0:
256,232,144009,1,0,0:0:0:0:
296,224,144114,1,0,0:0:0:0:
336,232,144219,1,8,0:0:0:0:
376,248,144324,1,0,0:0:0:0:
416,264,144429,1,0,0:0:0:0:
448,296,144534,1,0,0:0:0:0:
416,320,144639,5,0,0:0:0:0:
376,328,144744,1,0,0:0:0:0:
336,320,144849,1,0,0:0:0:0:
304,296,144954,1,0,0:0:0:0:
272,264,145059,1,8,0:0:0:0:
232,248,145164,1,0,0:0:0:0:
192,256,145269,1,0,0:0:0:0:
152,272,145374,1,0,0:0:0:0:
120,248,145479,1,0,0:0:0:0:
96,208,145584,1,0,0:0:0:0:
104,168,145689,1,0,0:0:0:0:
136,136,145794,1,0,0:0:0:0:
176,128,145899,1,8,0:0:0:0:
216,144,146004,1,0,0:0:0:0:
256,168,146109,1,0,0:0:0:0:
296,192,146214,1,0,0:0:0:0:
336,192,146319,5,0,0:0:0:0:
448,288,146634,1,0,0:0:0:0:
448,288,146739,1,8,0:0:0:0:
352,288,146949,1,0,0:0:0:0:
432,192,147159,1,0,0:0:0:0:
432,192,147264,1,0,0:0:0:0:
288,168,147579,1,0,0:0:0:0:
48,88,147790,1,0,0:0:0:0:
216,256,148000,5,0,0:0:0:0:
256,272,148105,1,0,0:0:0:0:
296,280,148210,1,0,0:0:0:0:
336,264,148315,1,0,0:0:0:0:
360,232,148420,1,8,0:0:0:0:
376,192,148525,1,0,0:0:0:0:
368,152,148630,1,0,0:0:0:0:
344,120,148735,1,0,0:0:0:0:
312,96,148840,1,0,0:0:0:0:
272,96,148945,1,0,0:0:0:0:
232,112,149050,1,0,0:0:0:0:
200,144,149155,1,0,0:0:0:0:
168,176,149260,1,8,0:0:0:0:
144,216,149365,1,0,0:0:0:0:
104,216,149470,1,0,0:0:0:0:
72,248,149575,1,0,0:0:0:0:
88,288,149680,5,0,0:0:0:0:
120,312,149785,1,0,0:0:0:0:
160,312,149890,1,0,0:0:0:0:
200,296,149995,1,0,0:0:0:0:
224,256,150100,1,8,0:0:0:0:
248,216,150205,1,0,0:0:0:0:
280,192,150310,1,0,0:0:0:0:
320,200,150415,1,0,0:0:0:0:
360,224,150520,1,0,0:0:0:0:
384,256,150625,1,0,0:0:0:0:
416,280,150730,1,0,0:0:0:0:
448,256,150835,1,0,0:0:0:0:
448,216,150940,1,8,0:0:0:0:
440,176,151045,1,0,0:0:0:0:
424,136,151150,1,0,0:0:0:0:
384,112,151255,1,0,0:0:0:0:
344,104,151360,5,0,0:0:0:0:
304,96,151465,1,0,0:0:0:0:
264,80,151570,1,0,0:0:0:0:
224,56,151675,1,0,0:0:0:0:
184,64,151780,1,8,0:0:0:0:
144,88,151885,1,0,0:0:0:0:
144,128,151990,1,0,0:0:0:0:
136,176,152095,1,0,0:0:0:0:
128,216,152200,1,0,0:0:0:0:
152,256,152305,1,0,0:0:0:0:
192,264,152410,1,0,0:0:0:0:
232,256,152515,1,0,0:0:0:0:
256,216,152620,1,8,0:0:0:0:
272,176,152725,1,0,0:0:0:0:
304,152,152830,1,0,0:0:0:0:
344,152,152935,1,0,0:0:0:0:
376,184,153040,5,0,0:0:0:0:
376,224,153145,1,0,0:0:0:0:
368,264,153250,1,0,0:0:0:0:
328,288,153355,1,0,0:0:0:0:
296,312,153460,1,8,0:0:0:0:
256,304,153565,1,0,0:0:0:0:
240,264,153670,1,0,0:0:0:0:
240,224,153775,1,0,0:0:0:0:
256,184,153880,1,0,0:0:0:0:
288,152,153985,1,0,0:0:0:0:
320,120,154090,1,0,0:0:0:0:
320,80,154195,1,0,0:0:0:0:
288,48,154300,1,8,0:0:0:0:
248,32,154405,1,0,0:0:0:0:
208,40,154510,1,0,0:0:0:0:
168,48,154615,1,0,0:0:0:0:
128,72,154720,5,0,0:0:0:0:
96,104,154826,1,0,0:0:0:0:
80,144,154931,1,0,0:0:0:0:
88,184,155036,1,0,0:0:0:0:
104,224,155141,1,8,0:0:0:0:
128,264,155246,1,0,0:0:0:0:
176,272,155351,1,0,0:0:0:0:
216,280,155456,1,0,0:0:0:0:
256,264,155561,1,0,0:0:0:0:
296,240,155666,1,0,0:0:0:0:
312,200,155771,1,0,0:0:0:0:
312,160,155876,1,0,0:0:0:0:
280,128,155981,1,8,0:0:0:0:
240,112,156086,1,0,0:0:0:0:
200,120,156191,1,0,0:0:0:0:
160,152,156296,1,0,0:0:0:0:
176,192,156401,5,0,0:0:0:0:
168,232,156506,1,0,0:0:0:0:
192,272,156611,1,0,0:0:0:0:
232,280,156716,1,0,0:0:0:0:
272,272,156821,1,8,0:0:0:0:
304,240,156926,1,0,0:0:0:0:
320,200,157031,1,0,0:0:0:0:
320,160,157136,1,0,0:0:0:0:
336,120,157241,1,0,0:0:0:0:
376,104,157346,1,0,0:0:0:0:
416,104,157451,1,0,0:0:0:0:
432,144,157556,1,0,0:0:0:0:
448,184,157661,1,8,0:0:0:0:
448,224,157766,1,0,0:0:0:0:
440,264,157871,1,0,0:0:0:0:
400,288,157976,1,0,0:0:0:0:
360,304,158081,5,0,0:0:0:0:
320,312,158186,1,0,0:0:0:0:
304,272,158291,1,0,0:0:0:0:
304,232,158396,1,0,0:0:0:0:
288,192,158501,1,8,0:0:0:0:
264,160,158606,1,0,0:0:0:0:
224,144,158711,1,0,0:0:0:0:
192,176,158816,1,0,0:0:0:0:
160,208,158921,1,0,0:0:0:0:
144,248,159026,1,0,0:0:0:0:
104,256,159131,1,0,0:0:0:0:
80,216,159236,1,0,0:0:0:0:
80,176,159341,1,8,0:0:0:0:
104,144,159446,1,0,0:0:0:0:
144,120,159551,1,0,0:0:0:0:
184,112,159656,1,0,0:0:0:0:
224,104,159761,5,0,0:0:0:0:
264,96,159866,1,0,0:0:0:0:
304,96,159971,1,0,0:0:0:0:
344,104,160076,1,0,0:0:0:0:
384,120,160181,1,8,0:0:0:0:
424,144,160286,1,0,0:0:0:0:
448,176,160391,1,0,0:0:0:0:
448,216,160496,1,0,0:0:0:0:
424,248,160601,1,0,0:0:0:0:
384,264,160706,1,0,0:0:0:0:
344,264,160811,1,0,0:0:0:0:
304,248,160916,1,0,0:0:0:0:
296,208,161021,1,8,0:0:0:0:
296,168,161126,1,0,0:0:0:0:
280,128,161231,1,0,0:0:0:0:
240,104,161336,1,0,0:0:0:0:
200,128,161441,5,0,0:0:0:0:
184,168,161546,1,0,0:0:0:0:
184,208,161651,1,0,0:0:0:0:
168,248,161756,1,0,0:0:0:0:
128,256,161862,1,8,0:0:0:0:
96,224,161967,1,0,0:0:0:0:
96,184,162072,1,0,0:0:0:0:
112,144,162177,1,0,0:0:0:0:
136,104,162282,1,0,0:0:0:0:
176,80,162387,1,0,0:0:0:0:
216,72,162492,1,0,0:0:0:0:
256,72,162597,1,0,0:0:0:0:
296,88,162702,1,8,0:0:0:0:
328,120,162807,1,0,0:0:0:0:
352,160,162912,1,0,0:0:0:0:
352,200,163017,1,0,0:0:0:0:
320,232,163122,5,0,0:0:0:0:
280,224,163227,1,0,0:0:0:0:
248,192,163332,1,0,0:0:0:0:
224,152,163437,1,0,0:0:0:0:
184,136,163542,1,8,0:0:0:0:
144,136,163647,1,0,0:0:0:0:
104,152,163752,1,0,0:0:0:0:
88,192,163857,1,0,0:0:0:0:
96,232,163962,1,0,0:0:0:0:
120,272,164067,1,0,0:0:0:0:
160,288,164172,1,0,0:0:0:0:
200,296,164277,1,0,0:0:0:0:
240,280,164382,1,8,0:0:0:0:
280,256,164487,1,0,0:0:0:0:
304,216,164592,1,0,0:0:0:0:
320,176,164697,1,0,0:0:0:0:
296,144,164802,5,0,0:0:0:0:
272,112,164907,1,0,0:0:0:0:
232,88,165012,1,0,0:0:0:0:
192,96,165117,1,0,0:0:0:0:
152,120,165222,1,8,0:0:0:0:
120,144,165327,1,0,0:0:0:0:
112,184,165432,1,0,0:0:0:0:
136,224,165537,1,0,0:0:0:0:
176,240,165642,1,0,0:0:0:0:
216,248,165747,1,0,0:0:0:0:
256,224,165852,1,0,0:0:0:0:
280,192,165957,1,0,0:0:0:0:
280,152,166062,1,8,0:0:0:0:
240,128,166167,1,0,0:0:0:0:
200,144,166272,1,0,0:0:0:0:
200,184,166377,1,0,0:0:0:0:
160,184,166482,5,0,0:0:0:0:
120,184,166587,1,0,0:0:0:0:
80,192,166692,1,0,0:0:0:0:
48,224,166797,1,0,0:0:0:0:
64,264,166902,1,8,0:0:0:0:
104,288,167007,1,0,0:0:0:0:
144,296,167112,1,0,0:0:0:0:
184,288,167217,1,0,0:0:0:0:
224,272,167322,1,0,0:0:0:0:
264,256,167427,1,0,0:0:0:0:
304,240,167532,1,0,0:0:0:0:
328,200,167637,1,0,0:0:0:0:
328,160,167742,1,8,0:0:0:0:
304,120,167847,1,0,0:0:0:0:
264,104,167952,1,0,0:0:0:0:
232,128,168057,1,0,0:0:0:0:
216,168,168162,5,0,0:0:0:0:
176,184,168267,1,0,0:0:0:0:
144,152,168372,1,0,0:0:0:0:
120,112,168477,1,0,0:0:0:0:
80,112,168582,1,8,0:0:0:0:
56,152,168687,1,0,0:0:0:0:
48,192,168792,1,0,0:0:0:0:
56,232,168898,1,0,0:0:0:0:
88,272,169003,1,0,0:0:0:0:
128,296,169108,1,0,0:0:0:0:
168,296,169213,1,0,0:0:0:0:
200,272,169318,1,0,0:0:0:0:
216,232,169423,1,8,0:0:0:0:
232,192,169528,1,0,0:0:0:0:
264,160,169633,1,0,0:0:0:0:
304,160,169738,1,0,0:0:0:0:
344,184,169843,5,0,0:0:0:0:
368,224,169948,1,0,0:0:0:0:
376,264,170053,1,0,0:0:0:0:
344,296,170158,1,0,0:0:0:0:
304,304,170263,1,8,0:0:0:0:
280,272,170368,1,0,0:0:0:0:
264,232,170473,1,0,0:0:0:0:
240,192,170578,1,0,0:0:0:0:
240,152,170683,1,0,0:0:0:0:
216,120,170788,1,0,0:0:0:0:
176,112,170893,1,0,0:0:0:0:
136,112,170998,1,0,0:0:0:0:
104,136,171103,1,8,0:0:0:0:
88,176,171208,1,0,0:0:0:0:
80,216,171313,1,0,0:0:0:0:
104,256,171418,1,0,0:0:0:0:
144,272,171523,5,0,0:0:0:0:
184,288,171628,1,0,0:0:0:0:
224,280,171733,1,0,0:0:0:0:
256,248,171838,1,0,0:0:0:0:
256,208,171943,1,8,0:0:0:0:
256,168,172048,1,0,0:0:0:0:
288,136,172153,1,0,0:0:0:0:
328,136,172258,1,0,0:0:0:0:
360,160,172363,1,0,0:0:0:0:
376,200,172468,1,0,0:0:0:0:
376,240,172573,1,0,0:0:0:0:
408,272,172678,1,0,0:0:0:0:
440,240,172783,1,8,0:0:0:0:
456,200,172888,1,0,0:0:0:0:
456,160,172993,1,0,0:0:0:0:
448,120,173098,1,0,0:0:0:0:
432,80,173203,5,0,0:0:0:0:
256,72,173623,1,0,0:0:0:0:
208,240,174043,1,0,0:0:0:0:
240,192,174883,5,0,0:0:0:0:
416,56,184965,5,0,0:0:0:0:
408,88,185070,1,0,0:0:0:0:
384,120,185175,1,0,0:0:0:0:
352,120,185280,1,0,0:0:0:0:
320,112,185385,1,8,0:0:0:0:
296,88,185490,1,0,0:0:0:0:
264,72,185595,1,0,0:0:0:0:
240,104,185700,1,0,0:0:0:0:
216,128,185805,1,0,0:0:0:0:
184,128,185910,1,0,0:0:0:0:
152,120,186015,1,0,0:0:0:0:
128,96,186120,1,0,0:0:0:0:
112,64,186225,1,8,0:0:0:0:
80,48,186330,1,0,0:0:0:0:
64,80,186435,1,0,0:0:0:0:
56,112,186540,1,0,0:0:0:0:
56,144,186645,6,0,L|32:176,1,35
72,168,186855,2,0,L|64:216,1,35
96,192,187065,2,0,L|88:248,1,35,8|0,0:0|0:0,0:0:0:0:
136,200,187275,2,0,L|160:248,1,35
184,224,187485,2,0,L|224:264,1,35
224,216,187695,2,0,L|264:224,1,35
256,184,187905,2,0,L|304:160,1,35,8|0,0:0|0:0,0:0:0:0:
264,144,188115,2,0,L|288:96,1,35
248,120,188325,5,0,0:0:0:0:
216,112,188430,1,0,0:0:0:0:
184,104,188535,1,0,0:0:0:0:
152,112,188640,1,0,0:0:0:0:
120,128,188745,1,8,0:0:0:0:
96,152,188850,1,0,0:0:0:0:
80,184,188955,1,0,0:0:0:0:
88,216,189060,1,0,0:0:0:0:
104,248,189165,1,0,0:0:0:0:
136,264,189270,1,0,0:0:0:0:
168,256,189375,1,0,0:0:0:0:
192,232,189480,1,0,0:0:0:0:
208,200,189585,1,8,0:0:0:0:
216,168,189690,1,0,0:0:0:0:
248,152,189795,1,0,0:0:0:0:
280,160,189901,1,0,0:0:0:0:
312,176,190006,5,0,0:0:0:0:
344,192,190111,1,0,0:0:0:0:
368,216,190216,1,0,0:0:0:0:
352,248,190321,1,0,0:0:0:0:
320,264,190426,1,8,0:0:0:0:
288,248,190531,1,0,0:0:0:0:
256,232,190636,1,0,0:0:0:0:
240,200,190741,1,0,0:0:0:0:
240,168,190846,1,0,0:0:0:0:
248,136,190951,1,0,0:0:0:0:
224,112,191056,1,0,0:0:0:0:
192,96,191161,1,0,0:0:0:0:
160,104,191266,1,8,0:0:0:0:
136,128,191371,1,0,0:0:0:0:
120,160,191476,1,0,0:0:0:0:
128,192,191581,1,0,0:0:0:0:
144,224,191686,5,0,0:0:0:0:
152,256,191791,1,0,0:0:0:0:
176,280,191896,1,0,0:0:0:0:
208,280,192001,1,0,0:0:0:0:
240,264,192106,1,8,0:0:0:0:
248,232,192211,1,0,0:0:0:0:
240,200,192316,1,0,0:0:0:0:
264,176,192421,1,0,0:0:0:0:
296,160,192526,1,0,0:0:0:0:
320,136,192631,1,0,0:0:0:0:
352,136,192736,1,0,0:0:0:0:
384,152,192841,1,0,0:0:0:0:
392,184,192946,1,8,0:0:0:0:
392,216,193051,1,0,0:0:0:0:
368,240,193156,1,0,0:0:0:0:
344,264,193261,1,0,0:0:0:0:
312,272,193366,5,0,0:0:0:0:
280,264,193471,1,0,0:0:0:0:
248,256,193576,1,0,0:0:0:0:
216,264,193681,1,0,0:0:0:0:
184,280,193786,1,8,0:0:0:0:
152,288,193891,1,0,0:0:0:0:
120,288,193996,1,0,0:0:0:0:
88,272,194101,1,0,0:0:0:0:
72,240,194206,1,0,0:0:0:0:
72,208,194311,1,0,0:0:0:0:
88,176,194416,1,0,0:0:0:0:
120,160,194521,1,0,0:0:0:0:
152,152,194626,1,8,0:0:0:0:
184,168,194731,1,0,0:0:0:0:
216,176,194836,1,0,0:0:0:0:
248,176,194941,1,0,0:0:0:0:
280,168,195046,5,0,0:0:0:0:
312,168,195151,1,0,0:0:0:0:
344,168,195256,1,0,0:0:0:0:
376,168,195361,1,0,0:0:0:0:
408,168,195466,1,8,0:0:0:0:
440,176,195571,1,0,0:0:0:0:
456,208,195676,1,0,0:0:0:0:
448,240,195781,1,0,0:0:0:0:
416,248,195886,1,0,0:0:0:0:
384,256,195991,1,0,0:0:0:0:
352,256,196096,1,0,0:0:0:0:
328,232,196201,1,0,0:0:0:0:
320,200,196306,1,8,0:0:0:0:
312,168,196411,1,0,0:0:0:0:
288,144,196516,1,0,0:0:0:0:
256,136,196621,1,0,0:0:0:0:
224,144,196726,5,0,0:0:0:0:
192,160,196831,1,0,0:0:0:0:
160,144,196937,1,0,0:0:0:0:
128,128,197042,1,0,0:0:0:0:
96,136,197147,1,8,0:0:0:0:
80,168,197252,1,0,0:0:0:0:
72,200,197357,1,0,0:0:0:0:
96,224,197462,1,0,0:0:0:0:
128,232,197567,1,0,0:0:0:0:
160,240,197672,1,0,0:0:0:0:
192,232,197777,1,0,0:0:0:0:
224,224,197882,1,0,0:0:0:0:
224,192,197987,1,8,0:0:0:0:
224,160,198092,1,0,0:0:0:0:
224,128,198197,1,0,0:0:0:0:
256,120,198302,1,0,0:0:0:0:
288,120,198407,5,0,0:0:0:0:
320,128,198512,1,0,0:0:0:0:
328,160,198617,1,0,0:0:0:0:
304,184,198722,1,0,0:0:0:0:
296,216,198827,1,8,0:0:0:0:
304,248,198932,1,0,0:0:0:0:
336,264,199037,1,0,0:0:0:0:
368,256,199142,1,0,0:0:0:0:
392,232,199247,1,0,0:0:0:0:
408,200,199352,1,0,0:0:0:0:
424,168,199457,1,0,0:0:0:0:
424,136,199562,1,0,0:0:0:0:
408,104,199667,1,8,0:0:0:0:
392,72,199772,1,0,0:0:0:0:
360,64,199877,1,0,0:0:0:0:
328,56,199982,1,0,0:0:0:0:
296,56,200087,5,0,0:0:0:0:
264,48,200192,1,0,0:0:0:0:
232,40,200297,1,0,0:0:0:0:
200,40,200402,1,0,0:0:0:0:
168,48,200507,1,8,0:0:0:0:
136,56,200612,1,0,0:0:0:0:
96,64,200717,1,0,0:0:0:0:
80,96,200822,1,0,0:0:0:0:
72,128,200927,1,0,0:0:0:0:
80,160,201032,1,0,0:0:0:0:
112,176,201137,1,0,0:0:0:0:
144,184,201242,1,0,0:0:0:0:
176,184,201347,1,8,0:0:0:0:
192,152,201452,1,0,0:0:0:0:
216,128,201557,1,0,0:0:0:0:
248,120,201662,1,0,0:0:0:0:
280,136,201767,6,0,L|288:176,1,35
320,184,201977,2,0,L|304:224,1,35
336,240,202187,2,0,L|320:280,1,35,8|0,0:0|0:0,0:0:0:0:
352,296,202397,2,0,L|304:320,1,35
336,344,202607,2,0,L|280:336,1,35
304,304,202817,2,0,L|264:256,1,35
248,272,203027,2,0,L|208:216,1,35,8|0,0:0|0:0,0:0:0:0:
192,256,203237,2,0,L|208:216,1,35
176,200,203447,5,0,0:0:0:0:
176,168,203552,1,0,0:0:0:0:
160,136,203657,1,0,0:0:0:0:
128,120,203762,1,0,0:0:0:0:
104,96,203867,1,8,0:0:0:0:
104,64,203973,1,0,0:0:0:0:
136,48,204078,1,0,0:0:0:0:
168,40,204183,1,0,0:0:0:0:
200,48,204288,1,0,0:0:0:0:
232,56,204393,1,0,0:0:0:0:
264,72,204498,1,0,0:0:0:0:
296,80,204603,1,0,0:0:0:0:
328,96,204708,1,8,0:0:0:0:
352,120,204813,1,0,0:0:0:0:
352,152,204918,1,0,0:0:0:0:
344,184,205023,1,0,0:0:0:0:
328,216,205128,5,0,0:0:0:0:
296,232,205233,1,0,0:0:0:0:
264,224,205338,1,0,0:0:0:0:
240,200,205443,1,0,0:0:0:0:
224,168,205548,1,8,0:0:0:0:
200,144,205653,1,0,0:0:0:0:
168,136,205758,1,0,0:0:0:0:
136,152,205863,1,0,0:0:0:0:
112,184,205968,1,0,0:0:0:0:
112,216,206073,1,0,0:0:0:0:
128,248,206178,1,0,0:0:0:0:
152,272,206283,1,0,0:0:0:0:
184,288,206388,1,8,0:0:0:0:
216,280,206493,1,0,0:0:0:0:
248,272,206598,1,0,0:0:0:0:
280,256,206703,1,0,0:0:0:0:
304,232,206808,5,0,0:0:0:0:
320,200,206913,1,0,0:0:0:0:
328,168,207018,1,0,0:0:0:0:
296,152,207123,1,0,0:0:0:0:
312,120,207228,1,8,0:0:0:0:
344,104,207333,1,0,0:0:0:0:
352,72,207438,1,0,0:0:0:0:
336,40,207543,1,0,0:0:0:0:
304,40,207648,1,0,0:0:0:0:
272,56,207753,1,0,0:0:0:0:
248,80,207858,1,0,0:0:0:0:
224,104,207963,1,0,0:0:0:0:
200,128,208068,1,8,0:0:0:0:
168,136,208173,1,0,0:0:0:0:
136,144,208278,1,0,0:0:0:0:
104,160,208383,1,0,0:0:0:0:
88,192,208488,5,0,0:0:0:0:
80,224,208593,1,0,0:0:0:0:
88,256,208698,1,0,0:0:0:0:
120,272,208803,1,0,0:0:0:0:
152,264,208908,1,8,0:0:0:0:
184,256,209013,1,0,0:0:0:0:
216,248,209118,1,0,0:0:0:0:
248,256,209223,1,0,0:0:0:0:
280,272,209328,1,0,0:0:0:0:
312,280,209433,1,0,0:0:0:0:
336,256,209538,1,0,0:0:0:0:
336,224,209643,1,0,0:0:0:0:
328,192,209748,1,8,0:0:0:0:
320,160,209853,1,0,0:0:0:0:
304,128,209958,1,0,0:0:0:0:
272,104,210063,1,0,0:0:0:0:
240,104,210168,5,0,0:0:0:0:
208,120,210273,1,0,0:0:0:0:
176,104,210378,1,0,0:0:0:0:
144,96,210483,1,0,0:0:0:0:
112,96,210588,1,8,0:0:0:0:
88,120,210693,1,0,0:0:0:0:
72,152,210798,1,0,0:0:0:0:
72,184,210903,1,0,0:0:0:0:
96,216,211009,1,0,0:0:0:0:
120,240,211114,1,0,0:0:0:0:
152,248,211219,1,0,0:0:0:0:
184,248,211324,1,0,0:0:0:0:
216,240,211429,1,8,0:0:0:0:
248,216,211534,1,0,0:0:0:0:
280,200,211639,1,0,0:0:0:0:
312,200,211744,1,0,0:0:0:0:
344,216,211849,6,0,L|384:200,1,35
352,176,212059,2,0,L|376:144,1,35
336,152,212269,2,0,L|312:112,1,35,8|0,0:0|0:0,0:0:0:0:
288,136,212479,2,0,L|248:120,1,35
248,160,212689,2,0,L|192:176,1,35
224,200,212899,2,0,L|192:240,1,35
232,240,213109,2,0,L|224:288,1,35,8|0,0:0|0:0,0:0:0:0:
256,264,213319,2,0,L|256:312,1,35
288,288,213529,5,0,0:0:0:0:
320,288,213634,1,0,0:0:0:0:
352,280,213739,1,0,0:0:0:0:
376,256,213844,1,0,0:0:0:0:
384,224,213949,1,8,0:0:0:0:
384,192,214054,1,0,0:0:0:0:
360,168,214159,1,0,0:0:0:0:
328,152,214264,1,0,0:0:0:0:
296,136,214369,1,0,0:0:0:0:
280,104,214474,1,0,0:0:0:0:
288,72,214579,1,0,0:0:0:0:
320,64,214684,1,0,0:0:0:0:
352,64,214789,1,8,0:0:0:0:
384,64,214894,1,0,0:0:0:0:
408,88,214999,1,0,0:0:0:0:
432,112,215104,1,0,0:0:0:0:
448,144,215209,5,0,0:0:0:0:
448,176,215314,1,0,0:0:0:0:
448,208,215419,1,0,0:0:0:0:
432,240,215524,1,0,0:0:0:0:
400,256,215629,1,8,0:0:0:0:
368,264,215734,1,0,0:0:0:0:
336,272,215839,1,0,0:0:0:0:
304,272,215944,1,0,0:0:0:0:
272,264,216049,1,0,0:0:0:0:
248,240,216154,1,0,0:0:0:0:
232,208,216259,1,0,0:0:0:0:
232,176,216364,1,0,0:0:0:0:
248,144,216469,1,8,0:0:0:0:
280,136,216574,1,0,0:0:0:0:
312,144,216679,1,0,0:0:0:0:
336,168,216784,1,0,0:0:0:0:
360,192,216889,5,0,0:0:0:0:
368,224,216994,1,0,0:0:0:0:
392,248,217099,1,0,0:0:0:0:
376,280,217204,1,0,0:0:0:0:
344,288,217309,1,8,0:0:0:0:
312,288,217414,1,0,0:0:0:0:
280,272,217519,1,0,0:0:0:0:
256,240,217624,1,0,0:0:0:0:
272,208,217729,1,0,0:0:0:0:
280,176,217834,1,0,0:0:0:0:
272,144,217939,1,0,0:0:0:0:
240,120,218045,1,0,0:0:0:0:
208,120,218150,1,8,0:0:0:0:
184,144,218255,1,0,0:0:0:0:
160,168,218360,1,0,0:0:0:0:
144,200,218465,1,0,0:0:0:0:
136,232,218570,6,0,L|128:272,1,35
160,264,218780,2,0,L|160:304,1,35
192,296,218990,2,0,L|224:328,1,35,8|0,0:0|0:0,0:0:0:0:
240,296,219200,2,0,L|288:280,1,35
256,256,219410,2,0,L|304:232,1,35
264,216,219620,2,0,L|304:184,1,35
264,176,219830,2,0,L|272:128,1,35,8|0,0:0|0:0,0:0:0:0:
240,160,220040,2,0,L|200:128,1,35
176,144,220250,5,0,0:0:0:0:
144,152,220355,1,0,0:0:0:0:
112,160,220460,1,0,0:0:0:0:
80,152,220565,1,0,0:0:0:0:
64,120,220670,1,8,0:0:0:0:
72,88,220775,1,0,0:0:0:0:
104,72,220880,1,0,0:0:0:0:
136,88,220985,1,0,0:0:0:0:
176,72,221090,1,0,0:0:0:0:
208,88,221195,1,0,0:0:0:0:
232,112,221300,1,0,0:0:0:0:
256,136,221405,1,0,0:0:0:0:
288,144,221510,1,8,0:0:0:0:
320,144,221615,1,0,0:0:0:0:
352,128,221720,1,0,0:0:0:0:
360,96,221825,1,0,0:0:0:0:
336,72,221930,5,0,0:0:0:0:
304,56,222035,1,0,0:0:0:0:
272,64,222140,1,0,0:0:0:0:
240,80,222245,1,0,0:0:0:0:
224,112,222350,1,0,0:0:0:0:
216,144,222455,1,0,0:0:0:0:
216,176,222560,1,0,0:0:0:0:
216,208,222665,1,0,0:0:0:0:
232,240,222770,1,0,0:0:0:0:
256,264,222875,1,0,0:0:0:0:
280,288,222980,1,0,0:0:0:0:
312,296,223085,1,0,0:0:0:0:
344,280,223190,1,8,0:0:0:0:
368,256,223295,1,0,0:0:0:0:
376,224,223400,1,0,0:0:0:0:
384,192,223505,1,0,0:0:0:0:
392,160,223610,5,0,0:0:0:0:
384,128,223715,1,0,0:0:0:0:
368,96,223820,1,0,0:0:0:0:
336,88,223925,1,0,0:0:0:0:
304,96,224030,1,8,0:0:0:0:
280,120,224135,1,0,0:0:0:0:
264,152,224240,1,0,0:0:0:0:
256,184,224345,1,0,0:0:0:0:
240,216,224450,1,0,0:0:0:0:
224,248,224555,1,0,0:0:0:0:
184,264,224660,1,0,0:0:0:0:
152,280,224765,1,0,0:0:0:0:
120,272,224870,1,8,0:0:0:0:
96,248,224975,1,0,0:0:0:0:
88,216,225081,1,0,0:0:0:0:
96,184,225186,1,0,0:0:0:0:
120,160,225291,5,0,0:0:0:0:
152,160,225396,1,0,0:0:0:0:
184,160,225501,1,0,0:0:0:0:
216,176,225606,1,0,0:0:0:0:
232,208,225711,1,8,0:0:0:0:
248,240,225816,1,0,0:0:0:0:
280,256,225921,1,0,0:0:0:0:
312,248,226026,1,0,0:0:0:0:
336,224,226131,1,0,0:0:0:0:
352,192,226236,1,0,0:0:0:0:
352,160,226341,1,0,0:0:0:0:
336,128,226446,1,0,0:0:0:0:
304,112,226551,1,8,0:0:0:0:
272,120,226656,1,0,0:0:0:0:
240,136,226761,1,0,0:0:0:0:
216,160,226866,1,0,0:0:0:0:
192,184,226971,6,0,L|144:208,1,35
184,224,227181,2,0,L|160:264,1,35
200,256,227391,2,0,L|192:304,1,35,8|0,0:0|0:0,0:0:0:0:
224,272,227601,2,0,L|224:320,1,35
248,280,227811,2,0,L|280:312,1,35
272,272,228021,2,0,L|312:264,1,35
280,240,228231,2,0,L|320:216,1,35,8|0,0:0|0:0,0:0:0:0:
272,216,228441,2,0,L|288:176,1,35
256,168,228651,5,0,0:0:0:0:
112,104,228861,1,0,0:0:0:0:
112,104,228966,1,0,0:0:0:0:
112,104,229071,1,8,0:0:0:0:
112,104,229176,1,0,0:0:0:0:
112,104,229281,1,0,0:0:0:0:
192,160,229491,1,0,0:0:0:0:
432,128,229701,1,0,0:0:0:0:
192,264,229911,1,8,0:0:0:0:
344,256,230331,5,0,0:0:0:0:
328,144,230541,1,0,0:0:0:0:
328,144,230646,1,0,0:0:0:0:
328,144,230751,1,8,0:0:0:0:
328,144,230856,1,0,0:0:0:0:
328,144,230961,1,0,0:0:0:0:
112,144,231171,1,0,0:0:0:0:
208,312,231381,1,0,0:0:0:0:
280,136,231591,1,0,0:0:0:0:
256,200,232012,5,0,0:0:0:0:
432,192,232222,1,0,0:0:0:0:
432,192,232327,1,0,0:0:0:0:
432,192,232432,1,8,0:0:0:0:
432,192,232537,1,0,0:0:0:0:
432,192,232642,1,0,0:0:0:0:
384,304,232852,1,0,0:0:0:0:
400,64,233062,1,0,0:0:0:0:
464,304,233272,1,8,0:0:0:0:
352,272,233692,5,0,0:0:0:0:
216,168,233902,1,0,0:0:0:0:
216,168,234007,1,0,0:0:0:0:
216,168,234112,5,8,0:0:0:0:
336,168,234322,1,0,0:0:0:0:
336,168,234427,1,0,0:0:0:0:
336,168,234532,5,0,0:0:0:0:
224,64,234742,1,0,0:0:0:0:
224,64,234847,1,0,0:0:0:0:
224,64,234952,5,8,0:0:0:0:
224,64,235057,1,0,0:0:0:0:
224,64,235162,1,0,0:0:0:0:
224,64,235267,1,0,0:0:0:0:
224,64,235372,5,0,0:0:0:0:
144,160,235792,1,8,0:0:0:0:
248,168,236107,1,0,0:0:0:0:
248,168,236212,1,0,0:0:0:0:
368,184,236422,1,0,0:0:0:0:
368,184,236527,1,0,0:0:0:0:
368,184,236632,1,8,0:0:0:0:
328,80,236842,1,0,0:0:0:0:
328,80,236947,1,0,0:0:0:0:
328,80,237052,5,0,0:0:0:0:
152,112,237262,1,0,0:0:0:0:
224,232,237472,1,8,0:0:0:0:
384,248,237787,1,0,0:0:0:0:
384,248,237892,1,0,0:0:0:0:
312,120,238102,1,0,0:0:0:0:
312,120,238207,1,0,0:0:0:0:
312,120,238312,1,8,0:0:0:0:
144,128,238522,1,0,0:0:0:0:
144,128,238627,1,0,0:0:0:0:
144,128,238732,5,0,0:0:0:0:
56,272,238942,1,0,0:0:0:0:
240,280,239153,1,8,0:0:0:0:
144,128,239468,1,0,0:0:0:0:
144,128,239573,1,0,0:0:0:0:
392,264,239783,1,0,0:0:0:0:
392,264,239888,1,0,0:0:0:0:
392,264,239993,1,8,0:0:0:0:
320,96,240203,1,0,0:0:0:0:
320,96,240308,1,0,0:0:0:0:
320,96,240413,5,0,0:0:0:0:
160,176,240623,1,0,0:0:0:0:
216,56,240833,1,8,0:0:0:0:
344,192,241148,1,0,0:0:0:0:
344,192,241253,1,0,0:0:0:0:
232,256,241463,1,0,0:0:0:0:
232,256,241568,1,0,0:0:0:0:
232,256,241673,1,8,0:0:0:0:
88,120,241883,1,0,0:0:0:0:
128,120,241988,1,0,0:0:0:0:
168,120,242093,5,0,0:0:0:0:
200,128,242198,1,0,0:0:0:0:
232,144,242303,1,0,0:0:0:0:
264,152,242408,1,0,0:0:0:0:
296,144,242513,1,8,0:0:0:0:
328,136,242618,1,0,0:0:0:0:
360,120,242723,1,0,0:0:0:0:
392,120,242828,1,0,0:0:0:0:
408,152,242933,1,0,0:0:0:0:
416,184,243038,1,0,0:0:0:0:
392,208,243143,1,0,0:0:0:0:
360,216,243248,1,0,0:0:0:0:
328,216,243353,1,8,0:0:0:0:
296,216,243458,1,0,0:0:0:0:
264,216,243563,1,0,0:0:0:0:
224,216,243668,1,0,0:0:0:0:
192,232,243773,5,0,0:0:0:0:
160,224,243878,1,0,0:0:0:0:
144,192,243983,1,0,0:0:0:0:
160,160,244088,1,0,0:0:0:0:
184,136,244193,1,8,0:0:0:0:
216,128,244298,1,0,0:0:0:0:
248,136,244403,1,0,0:0:0:0:
256,168,244508,1,0,0:0:0:0:
264,200,244613,1,0,0:0:0:0:
264,232,244718,1,0,0:0:0:0:
288,256,244823,1,0,0:0:0:0:
320,272,244928,1,0,0:0:0:0:
352,272,245033,1,8,0:0:0:0:
384,256,245138,1,0,0:0:0:0:
408,232,245243,1,0,0:0:0:0:
424,200,245348,1,0,0:0:0:0:
432,168,245453,5,0,0:0:0:0:
432,136,245558,1,0,0:0:0:0:
408,112,245663,1,0,0:0:0:0:
376,96,245768,1,0,0:0:0:0:
344,96,245873,1,8,0:0:0:0:
312,112,245978,1,0,0:0:0:0:
280,128,246084,1,0,0:0:0:0:
248,120,246189,1,0,0:0:0:0:
216,112,246294,1,0,0:0:0:0:
184,112,246399,1,0,0:0:0:0:
152,128,246504,1,0,0:0:0:0:
136,160,246609,1,0,0:0:0:0:
144,192,246714,1,8,0:0:0:0:
168,224,246819,1,0,0:0:0:0:
200,240,246924,1,0,0:0:0:0:
232,248,247029,1,0,0:0:0:0:
264,248,247134,5,0,0:0:0:0:
296,256,247239,1,0,0:0:0:0:
328,256,247344,1,0,0:0:0:0:
360,248,247449,1,0,0:0:0:0:
392,240,247554,1,8,0:0:0:0:
424,224,247659,1,0,0:0:0:0:
432,192,247764,1,0,0:0:0:0:
432,160,247869,1,0,0:0:0:0:
416,128,247974,1,0,0:0:0:0:
384,112,248079,1,0,0:0:0:0:
352,112,248184,1,0,0:0:0:0:
320,120,248289,1,0,0:0:0:0:
288,128,248394,1,8,0:0:0:0:
256,128,248499,1,0,0:0:0:0:
224,112,248604,1,0,0:0:0:0:
192,112,248709,1,0,0:0:0:0:
160,128,248814,5,0,0:0:0:0:
128,136,248919,1,0,0:0:0:0:
96,144,249024,1,0,0:0:0:0:
80,176,249129,1,0,0:0:0:0:
80,208,249234,1,8,0:0:0:0:
104,232,249339,1,0,0:0:0:0:
136,248,249444,1,0,0:0:0:0:
168,248,249549,1,0,0:0:0:0:
200,240,249654,1,0,0:0:0:0:
232,224,249759,1,0,0:0:0:0:
256,200,249864,1,0,0:0:0:0:
280,176,249969,1,0,0:0:0:0:
312,160,250074,1,8,0:0:0:0:
344,176,250179,1,0,0:0:0:0:
368,208,250284,1,0,0:0:0:0:
376,240,250389,1,0,0:0:0:0:
360,272,250494,5,0,0:0:0:0:
328,280,250599,1,0,0:0:0:0:
296,280,250704,1,0,0:0:0:0:
272,256,250809,1,0,0:0:0:0:
256,224,250914,1,8,0:0:0:0:
224,208,251019,1,0,0:0:0:0:
192,200,251124,1,0,0:0:0:0:
160,208,251229,1,0,0:0:0:0:
128,224,251334,1,0,0:0:0:0:
104,200,251439,1,0,0:0:0:0:
96,168,251544,1,0,0:0:0:0:
96,136,251649,1,0,0:0:0:0:
128,120,251754,1,8,0:0:0:0:
160,112,251859,1,0,0:0:0:0:
192,120,251964,1,0,0:0:0:0:
224,136,252069,1,0,0:0:0:0:
256,152,252174,5,0,0:0:0:0:
288,144,252279,1,0,0:0:0:0:
320,128,252384,1,0,0:0:0:0:
352,128,252489,1,0,0:0:0:0:
384,144,252594,1,8,0:0:0:0:
400,176,252699,1,0,0:0:0:0:
392,208,252804,1,0,0:0:0:0:
368,232,252909,1,0,0:0:0:0:
336,248,253014,1,0,0:0:0:0:
304,256,253120,1,0,0:0:0:0:
272,256,253225,1,0,0:0:0:0:
240,240,253330,1,0,0:0:0:0:
208,224,253435,1,8,0:0:0:0:
184,200,253540,1,0,0:0:0:0:
160,176,253645,1,0,0:0:0:0:
128,168,253750,1,0,0:0:0:0:
104,192,253855,5,0,0:0:0:0:
88,224,253960,1,0,0:0:0:0:
72,256,254065,1,0,0:0:0:0:
88,288,254170,1,0,0:0:0:0:
120,304,254275,1,8,0:0:0:0:
152,304,254380,1,0,0:0:0:0:
184,288,254485,1,0,0:0:0:0:
208,256,254590,1,0,0:0:0:0:
224,224,254695,1,0,0:0:0:0:
240,192,254800,1,0,0:0:0:0:
272,176,254905,1,0,0:0:0:0:
304,184,255010,1,0,0:0:0:0:
336,200,255115,1,8,0:0:0:0:
352,232,255220,1,0,0:0:0:0:
368,264,255325,1,0,0:0:0:0:
400,280,255430,1,0,0:0:0:0:
432,264,255535,5,0,0:0:0:0:
448,232,255640,1,0,0:0:0:0:
448,200,255745,1,0,0:0:0:0:
440,168,255850,1,0,0:0:0:0:
416,144,255955,1,8,0:0:0:0:
384,128,256060,1,0,0:0:0:0:
352,112,256165,1,0,0:0:0:0:
320,120,256270,1,0,0:0:0:0:
296,144,256375,1,0,0:0:0:0:
280,176,256480,1,0,0:0:0:0:
256,200,256585,1,0,0:0:0:0:
224,208,256690,1,0,0:0:0:0:
192,216,256795,1,8,0:0:0:0:
160,208,256900,1,0,0:0:0:0:
136,184,257005,1,0,0:0:0:0:
128,152,257110,1,0,0:0:0:0:
96,136,257215,6,0,L|64:112,1,35
104,104,257425,2,0,L|120:64,1,35
136,104,257635,2,0,L|176:80,1,35,8|0,0:0|0:0,0:0:0:0:
184,120,257845,2,0,L|232:120,1,35
208,152,258055,2,0,L|264:176,1,35
224,200,258265,2,0,L|240:256,1,35
200,224,258475,2,0,L|192:272,1,35,8|0,0:0|0:0,0:0:0:0:
160,240,258685,2,0,L|120:272,1,35
136,296,258895,5,0,0:0:0:0:
160,320,259000,1,0,0:0:0:0:
192,320,259105,1,0,0:0:0:0:
224,312,259210,1,0,0:0:0:0:
256,296,259315,1,8,0:0:0:0:
288,296,259420,1,0,0:0:0:0:
320,296,259525,1,0,0:0:0:0:
352,280,259630,1,0,0:0:0:0:
384,264,259735,1,0,0:0:0:0:
400,232,259840,1,0,0:0:0:0:
424,208,259945,1,0,0:0:0:0:
432,176,260050,1,0,0:0:0:0:
416,144,260156,1,8,0:0:0:0:
392,120,260261,1,0,0:0:0:0:
360,112,260366,1,0,0:0:0:0:
328,112,260471,1,0,0:0:0:0:
296,120,260576,5,0,0:0:0:0:
288,120,260681,1,0,0:0:0:0:
272,120,260786,1,0,0:0:0:0:
264,128,260891,1,0,0:0:0:0:
256,136,260996,1,8,0:0:0:0:
240,144,261101,1,0,0:0:0:0:
224,160,261206,1,0,0:0:0:0:
224,176,261311,1,0,0:0:0:0:
216,200,261416,1,0,0:0:0:0:
224,216,261521,1,0,0:0:0:0:
256,248,261626,1,0,0:0:0:0:
296,264,261731,1,0,0:0:0:0:
344,280,261836,1,8,0:0:0:0:
392,288,261941,1,0,0:0:0:0:
440,280,262046,1,0,0:0:0:0:
464,240,262151,1,0,0:0:0:0:
472,184,262256,5,0,0:0:0:0:
440,136,262361,1,0,0:0:0:0:
392,96,262466,1,0,0:0:0:0:
336,88,262571,1,0,0:0:0:0:
280,104,262676,1,8,0:0:0:0:
232,144,262781,1,0,0:0:0:0:
200,192,262886,1,0,0:0:0:0:
176,248,262991,1,0,0:0:0:0:
232,272,263096,1,0,0:0:0:0:
288,296,263201,1,0,0:0:0:0:
344,280,263306,1,0,0:0:0:0:
384,240,263411,1,0,0:0:0:0:
384,184,263516,1,8,0:0:0:0:
352,136,263621,1,0,0:0:0:0:
296,112,263726,1,0,0:0:0:0:
240,128,263831,1,0,0:0:0:0:
216,184,263936,5,0,0:0:0:0:
168,216,264041,1,0,0:0:0:0:
112,216,264146,1,0,0:0:0:0:
56,232,264251,1,0,0:0:0:0:
56,288,264356,1,8,0:0:0:0:
104,328,264461,1,0,0:0:0:0:
160,336,264566,1,0,0:0:0:0:
216,320,264671,1,0,0:0:0:0:
264,280,264776,1,0,0:0:0:0:
296,232,264881,1,0,0:0:0:0:
320,176,264986,1,0,0:0:0:0:
312,120,265091,1,0,0:0:0:0:
256,96,265196,1,8,0:0:0:0:
200,80,265301,1,0,0:0:0:0:
144,96,265406,1,0,0:0:0:0:
120,152,265511,1,0,0:0:0:0:
168,192,265616,5,0,0:0:0:0:
224,216,265721,1,0,0:0:0:0:
280,240,265826,1,0,0:0:0:0:
336,232,265931,1,0,0:0:0:0:
384,200,266036,1,8,0:0:0:0:
400,144,266141,1,0,0:0:0:0:
352,104,266246,1,0,0:0:0:0:
296,88,266351,1,0,0:0:0:0:
256,136,266456,1,0,0:0:0:0:
232,192,266561,1,0,0:0:0:0:
216,248,266666,1,0,0:0:0:0:
176,296,266771,1,0,0:0:0:0:
120,312,266876,1,8,0:0:0:0:
64,304,266981,1,0,0:0:0:0:
56,248,267086,1,0,0:0:0:0:
80,192,267192,1,0,0:0:0:0:
136,168,267297,5,0,0:0:0:0:
192,184,267402,1,0,0:0:0:0:
240,216,267507,1,0,0:0:0:0:
288,248,267612,1,0,0:0:0:0:
344,248,267717,1,8,0:0:0:0:
400,240,267822,1,0,0:0:0:0:
432,192,267927,1,0,0:0:0:0:
424,136,268032,1,0,0:0:0:0:
376,96,268137,1,0,0:0:0:0:
320,104,268242,1,0,0:0:0:0:
296,160,268347,1,0,0:0:0:0:
272,216,268452,1,0,0:0:0:0:
232,264,268557,1,8,0:0:0:0:
176,288,268662,1,0,0:0:0:0:
128,256,268767,1,0,0:0:0:0:
120,200,268872,1,0,0:0:0:0:
160,160,268977,5,0,0:0:0:0:
216,128,269082,1,0,0:0:0:0:
272,120,269187,1,0,0:0:0:0:
288,64,269292,1,0,0:0:0:0:
232,40,269397,1,8,0:0:0:0:
176,48,269502,1,0,0:0:0:0:
120,72,269607,1,0,0:0:0:0:
80,112,269712,1,0,0:0:0:0:
72,168,269817,1,0,0:0:0:0:
112,208,269922,1,0,0:0:0:0:
168,232,270027,1,0,0:0:0:0:
224,240,270132,1,0,0:0:0:0:
280,224,270237,1,8,0:0:0:0:
336,216,270342,1,0,0:0:0:0:
392,192,270447,1,0,0:0:0:0:
424,144,270552,1,0,0:0:0:0:
408,88,270657,5,0,0:0:0:0:
360,56,270762,1,0,0:0:0:0:
304,48,270867,1,0,0:0:0:0:
248,56,270972,1,0,0:0:0:0:
200,88,271077,1,8,0:0:0:0:
160,128,271182,1,0,0:0:0:0:
128,176,271287,1,0,0:0:0:0:
152,232,271392,1,0,0:0:0:0:
184,280,271497,1,0,0:0:0:0:
240,288,271602,1,0,0:0:0:0:
296,264,271707,1,0,0:0:0:0:
336,224,271812,1,0,0:0:0:0:
352,168,271917,1,8,0:0:0:0:
320,120,272022,1,0,0:0:0:0:
264,112,272127,1,0,0:0:0:0:
224,160,272232,1,0,0:0:0:0:
176,192,272337,5,0,0:0:0:0:
120,200,272442,1,0,0:0:0:0:
64,208,272547,1,0,0:0:0:0:
48,264,272652,1,0,0:0:0:0:
88,312,272757,1,8,0:0:0:0:
144,320,272862,1,0,0:0:0:0:
200,296,272967,1,0,0:0:0:0:
256,272,273072,1,0,0:0:0:0:
296,224,273177,1,0,0:0:0:0:
328,176,273282,1,0,0:0:0:0:
384,160,273387,1,0,0:0:0:0:
432,192,273492,1,0,0:0:0:0:
448,248,273597,1,8,0:0:0:0:
416,296,273702,1,0,0:0:0:0:
360,296,273807,1,0,0:0:0:0:
320,256,273912,1,0,0:0:0:0:
288,208,274017,5,0,0:0:0:0:
144,48,274228,1,0,0:0:0:0:
128,200,274438,1,0,0:0:0:0:
296,56,274648,1,0,0:0:0:0:
216,128,274858,1,0,0:0:0:0:
216,128,274963,1,0,0:0:0:0:
216,128,275068,1,0,0:0:0:0:
216,128,275173,1,0,0:0:0:0:
216,128,275278,1,0,0:0:0:0:
256,192,275698,5,0,0:0:0:0:
448,312,275908,1,0,0:0:0:0:
448,312,276013,1,0,0:0:0:0:
368,176,276223,1,0,0:0:0:0:
240,304,276643,1,0,0:0:0:0:
240,304,276748,1,0,0:0:0:0:
240,304,276853,5,0,0:0:0:0:
88,56,277378,5,0,0:0:0:0:
144,80,277483,1,0,0:0:0:0:
200,80,277588,1,0,0:0:0:0:
256,64,277693,1,0,0:0:0:0:
312,64,277798,1,8,0:0:0:0:
368,64,277903,1,0,0:0:0:0:
416,96,278008,1,0,0:0:0:0:
432,152,278113,1,0,0:0:0:0:
424,208,278218,1,0,0:0:0:0:
376,240,278323,1,0,0:0:0:0:
320,256,278428,1,0,0:0:0:0:
264,264,278533,1,0,0:0:0:0:
208,272,278638,1,8,0:0:0:0:
160,240,278743,1,0,0:0:0:0:
136,184,278848,1,0,0:0:0:0:
192,152,278953,1,0,0:0:0:0:
248,152,279058,5,0,0:0:0:0:
304,144,279163,1,0,0:0:0:0:
352,104,279268,1,0,0:0:0:0:
312,56,279373,1,0,0:0:0:0:
256,48,279478,1,8,0:0:0:0:
200,56,279583,1,0,0:0:0:0:
144,72,279688,1,0,0:0:0:0:
104,120,279793,1,0,0:0:0:0:
96,176,279898,1,0,0:0:0:0:
136,216,280003,1,0,0:0:0:0:
192,248,280108,1,0,0:0:0:0:
248,264,280213,1,0,0:0:0:0:
304,256,280318,1,8,0:0:0:0:
344,216,280423,1,0,0:0:0:0:
384,168,280528,1,0,0:0:0:0:
400,112,280633,1,0,0:0:0:0:
376,56,280738,5,0,0:0:0:0:
320,72,280843,1,0,0:0:0:0:
288,120,280948,1,0,0:0:0:0:
232,152,281053,1,0,0:0:0:0:
176,168,281158,1,8,0:0:0:0:
128,200,281264,1,0,0:0:0:0:
136,256,281369,1,0,0:0:0:0:
192,272,281474,1,0,0:0:0:0:
248,288,281579,1,0,0:0:0:0:
304,280,281684,1,0,0:0:0:0:
352,248,281789,1,0,0:0:0:0:
376,192,281894,1,0,0:0:0:0:
368,136,281999,1,0,0:0:0:0:
328,96,282104,1,0,0:0:0:0:
272,96,282209,1,0,0:0:0:0:
232,136,282314,1,0,0:0:0:0:
176,160,282419,5,0,0:0:0:0:
120,136,282524,1,0,0:0:0:0:
64,120,282629,1,0,0:0:0:0:
56,176,282734,1,0,0:0:0:0:
88,224,282839,1,8,0:0:0:0:
136,256,282944,1,0,0:0:0:0:
192,264,283049,1,0,0:0:0:0:
248,256,283154,1,0,0:0:0:0:
288,208,283259,1,0,0:0:0:0:
288,152,283364,1,0,0:0:0:0:
240,120,283469,1,0,0:0:0:0:
184,144,283574,1,0,0:0:0:0:
224,184,283679,1,8,0:0:0:0:
280,208,283784,1,0,0:0:0:0:
336,232,283889,1,0,0:0:0:0:
392,264,283994,1,0,0:0:0:0:
360,320,284099,5,0,0:0:0:0:
304,328,284204,1,0,0:0:0:0:
248,328,284309,1,0,0:0:0:0:
192,312,284414,1,0,0:0:0:0:
144,272,284519,1,8,0:0:0:0:
144,216,284624,1,0,0:0:0:0:
192,184,284729,1,0,0:0:0:0:
248,184,284834,1,0,0:0:0:0:
296,216,284939,1,0,0:0:0:0:
352,240,285044,1,0,0:0:0:0:
400,200,285149,1,0,0:0:0:0:
424,144,285254,1,0,0:0:0:0:
432,88,285359,1,8,0:0:0:0:
384,56,285464,1,0,0:0:0:0:
328,64,285569,1,0,0:0:0:0:
272,88,285674,1,0,0:0:0:0:
216,112,285779,5,0,0:0:0:0:
160,128,285884,1,0,0:0:0:0:
104,128,285989,1,0,0:0:0:0:
72,176,286094,1,0,0:0:0:0:
80,232,286199,1,8,0:0:0:0:
128,272,286304,1,0,0:0:0:0:
184,288,286409,1,0,0:0:0:0:
240,272,286514,1,0,0:0:0:0:
280,232,286619,1,0,0:0:0:0:
312,184,286724,1,0,0:0:0:0:
360,152,286829,1,0,0:0:0:0:
376,96,286934,1,0,0:0:0:0:
336,56,287039,1,8,0:0:0:0:
280,64,287144,1,0,0:0:0:0:
232,96,287249,1,0,0:0:0:0:
208,152,287354,1,0,0:0:0:0:
160,184,287459,5,0,0:0:0:0:
152,240,287564,1,0,0:0:0:0:
192,288,287669,1,0,0:0:0:0:
248,304,287774,1,0,0:0:0:0:
304,296,287879,1,8,0:0:0:0:
352,264,287984,1,0,0:0:0:0:
368,208,288089,1,0,0:0:0:0:
336,160,288195,1,0,0:0:0:0:
280,136,288300,1,0,0:0:0:0:
232,168,288405,1,0,0:0:0:0:
176,192,288510,1,0,0:0:0:0:
120,192,288615,1,0,0:0:0:0:
80,152,288720,1,8,0:0:0:0:
112,96,288825,1,0,0:0:0:0:
168,80,288930,1,0,0:0:0:0:
224,72,289035,1,0,0:0:0:0:
280,80,289140,6,0,P|312:96|312:152,2,70,0|0|8,0:0|0:0|0:0,0:0:0:0:
400,288,289980,1,0,0:0:0:0:
416,232,290085,1,0,0:0:0:0:
416,176,290190,1,0,0:0:0:0:
392,120,290295,1,0,0:0:0:0:
336,120,290400,1,8,0:0:0:0:
304,176,290505,1,0,0:0:0:0:
280,232,290610,1,0,0:0:0:0:
224,256,290715,1,0,0:0:0:0:
168,232,290820,5,0,0:0:0:0:
120,192,290925,1,0,0:0:0:0:
112,136,291030,1,0,0:0:0:0:
168,120,291135,1,0,0:0:0:0:
224,128,291240,1,8,0:0:0:0:
256,176,291345,1,0,0:0:0:0:
280,232,291450,1,0,0:0:0:0:
320,272,291555,1,0,0:0:0:0:
376,280,291660,1,0,0:0:0:0:
416,232,291765,1,0,0:0:0:0:
424,176,291870,1,0,0:0:0:0:
408,120,291975,1,0,0:0:0:0:
368,80,292080,1,8,0:0:0:0:
312,88,292185,1,0,0:0:0:0:
272,128,292290,1,0,0:0:0:0:
224,160,292395,1,0,0:0:0:0:
200,216,292500,5,0,0:0:0:0:
144,232,292605,1,0,0:0:0:0:
96,264,292710,1,0,0:0:0:0:
136,304,292815,1,0,0:0:0:0:
192,304,292920,1,8,0:0:0:0:
248,304,293025,1,0,0:0:0:0:
304,288,293130,1,0,0:0:0:0:
360,272,293235,1,0,0:0:0:0:
408,240,293340,1,0,0:0:0:0:
416,184,293445,1,0,0:0:0:0:
400,128,293550,1,0,0:0:0:0:
352,96,293655,1,0,0:0:0:0:
296,96,293760,1,8,0:0:0:0:
280,152,293865,1,0,0:0:0:0:
272,208,293970,1,0,0:0:0:0:
216,232,294075,1,0,0:0:0:0:
160,224,294180,5,0,0:0:0:0:
136,168,294285,1,0,0:0:0:0:
128,112,294390,1,0,0:0:0:0:
176,80,294495,1,0,0:0:0:0:
232,80,294600,1,8,0:0:0:0:
288,104,294705,1,0,0:0:0:0:
336,144,294810,1,0,0:0:0:0:
344,200,294915,1,0,0:0:0:0:
360,256,295020,5,0,0:0:0:0:
304,280,295125,1,0,0:0:0:0:
248,304,295231,1,0,0:0:0:0:
192,304,295336,1,0,0:0:0:0:
136,288,295441,1,8,0:0:0:0:
104,232,295546,1,0,0:0:0:0:
96,176,295651,1,0,0:0:0:0:
128,128,295756,1,0,0:0:0:0:
128,72,295861,5,0,0:0:0:0:
128,72,295966,5,0,0:0:0:0:
128,72,296071,5,0,0:0:0:0:
128,72,296176,5,0,0:0:0:0:
128,72,296281,5,8,0:0:0:0:
288,104,296491,5,0,0:0:0:0:
168,232,296701,5,0,0:0:0:0:
168,232,296806,5,0,0:0:0:0:
168,232,296911,5,0,0:0:0:0:
168,232,297016,5,0,0:0:0:0:
168,232,297121,5,8,0:0:0:0:
288,184,297331,5,0,0:0:0:0:
408,144,297541,5,0,0:0:0:0:
400,200,297646,1,0,0:0:0:0:
368,248,297751,1,0,0:0:0:0:
320,280,297856,1,0,0:0:0:0:
264,288,297961,1,8,0:0:0:0:
208,288,298066,1,0,0:0:0:0:
152,264,298171,1,0,0:0:0:0:
128,208,298276,1,0,0:0:0:0:
160,160,298381,1,0,0:0:0:0:
216,152,298486,1,0,0:0:0:0:
272,176,298591,1,0,0:0:0:0:
312,216,298696,1,0,0:0:0:0:
368,216,298801,1,8,0:0:0:0:
416,184,298906,1,0,0:0:0:0:
408,128,299011,1,0,0:0:0:0:
368,80,299116,1,0,0:0:0:0:
312,72,299221,5,0,0:0:0:0:
256,72,299326,1,0,0:0:0:0:
200,80,299431,1,0,0:0:0:0:
144,88,299536,1,0,0:0:0:0:
96,128,299641,1,8,0:0:0:0:
88,184,299746,1,0,0:0:0:0:
88,240,299851,1,0,0:0:0:0:
128,280,299956,1,0,0:0:0:0:
184,280,300061,1,0,0:0:0:0:
232,248,300166,1,0,0:0:0:0:
248,192,300271,1,0,0:0:0:0:
248,136,300376,1,0,0:0:0:0:
272,80,300481,1,8,0:0:0:0:
320,112,300586,1,0,0:0:0:0:
376,120,300691,1,0,0:0:0:0:
408,168,300796,1,0,0:0:0:0:
400,224,300901,5,0,0:0:0:0:
384,280,301006,1,0,0:0:0:0:
328,304,301111,1,0,0:0:0:0:
272,304,301216,1,0,0:0:0:0:
216,280,301321,1,8,0:0:0:0:
184,232,301426,1,0,0:0:0:0:
184,176,301531,1,0,0:0:0:0:
208,120,301636,1,0,0:0:0:0:
264,112,301741,1,0,0:0:0:0:
320,128,301846,1,0,0:0:0:0:
344,184,301951,1,0,0:0:0:0:
344,240,302056,1,0,0:0:0:0:
304,288,302161,1,8,0:0:0:0:
248,296,302267,1,0,0:0:0:0:
192,280,302372,1,0,0:0:0:0:
144,240,302477,1,0,0:0:0:0:
152,184,302582,6,0,P|160:136|192:120,2,70
376,272,303422,1,0,0:0:0:0:
336,232,303527,1,0,0:0:0:0:
312,176,303632,1,0,0:0:0:0:
272,136,303737,1,0,0:0:0:0:
216,128,303842,1,8,0:0:0:0:
160,144,303947,1,0,0:0:0:0:
112,176,304052,1,0,0:0:0:0:
88,232,304157,1,0,0:0:0:0:
112,288,304262,5,0,0:0:0:0:
168,280,304367,1,0,0:0:0:0:
224,256,304472,1,0,0:0:0:0:
272,216,304577,1,0,0:0:0:0:
288,160,304682,1,8,0:0:0:0:
272,104,304787,1,0,0:0:0:0:
216,104,304892,1,0,0:0:0:0:
184,152,304997,1,0,0:0:0:0:
136,184,305102,1,0,0:0:0:0:
88,152,305207,1,0,0:0:0:0:
96,96,305312,1,0,0:0:0:0:
136,56,305417,1,0,0:0:0:0:
192,48,305522,1,8,0:0:0:0:
248,48,305627,1,0,0:0:0:0:
304,64,305732,1,0,0:0:0:0:
344,104,305837,1,0,0:0:0:0:
368,160,305942,5,0,0:0:0:0:
360,216,306047,1,0,0:0:0:0:
336,272,306152,1,0,0:0:0:0:
280,288,306257,1,0,0:0:0:0:
224,296,306362,1,8,0:0:0:0:
168,296,306467,1,0,0:0:0:0:
120,264,306572,1,0,0:0:0:0:
112,208,306677,1,0,0:0:0:0:
160,168,306782,1,0,0:0:0:0:
216,176,306887,1,0,0:0:0:0:
256,216,306992,1,0,0:0:0:0:
312,224,307097,1,0,0:0:0:0:
360,192,307202,1,8,0:0:0:0:
328,144,307307,1,0,0:0:0:0:
288,104,307412,1,0,0:0:0:0:
232,72,307517,1,0,0:0:0:0:
176,64,307622,5,0,0:0:0:0:
136,104,307727,1,0,0:0:0:0:
120,160,307832,1,0,0:0:0:0:
144,216,307937,1,0,0:0:0:0:
192,248,308042,1,8,0:0:0:0:
248,264,308147,1,0,0:0:0:0:
304,248,308252,1,0,0:0:0:0:
336,200,308357,1,0,0:0:0:0:
392,176,308462,1,0,0:0:0:0:
384,120,308567,1,0,0:0:0:0:
344,72,308672,1,0,0:0:0:0:
288,72,308777,1,0,0:0:0:0:
240,112,308882,1,8,0:0:0:0:
208,160,308987,1,0,0:0:0:0:
200,216,309092,1,0,0:0:0:0:
232,272,309197,1,0,0:0:0:0:
288,280,309303,6,0,P|288:240|320:232,2,70,0|0|8,0:0|0:0|0:0,0:0:0:0:
128,104,310143,1,0,0:0:0:0:
144,160,310248,1,0,0:0:0:0:
136,216,310353,1,0,0:0:0:0:
184,256,310458,1,0,0:0:0:0:
232,224,310563,1,8,0:0:0:0:
280,192,310668,1,0,0:0:0:0:
328,152,310773,1,0,0:0:0:0:
384,144,310878,1,0,0:0:0:0:
416,96,310983,5,0,0:0:0:0:
200,128,311193,1,0,0:0:0:0:
368,304,311403,1,0,0:0:0:0:
296,56,311613,1,0,0:0:0:0:
240,280,311928,1,0,0:0:0:0:
240,280,312033,1,0,0:0:0:0:
240,280,312138,1,0,0:0:0:0:
240,280,312243,1,0,0:0:0:0:
240,280,312348,1,0,0:0:0:0:
80,48,312663,5,0,0:0:0:0:
136,72,312768,1,0,0:0:0:0:
192,80,312873,1,0,0:0:0:0:
248,80,312978,1,0,0:0:0:0:
304,64,313083,1,8,0:0:0:0:
352,104,313188,1,0,0:0:0:0:
376,160,313293,1,0,0:0:0:0:
376,216,313398,1,0,0:0:0:0:
328,256,313503,1,0,0:0:0:0:
272,272,313608,1,0,0:0:0:0:
216,264,313713,1,0,0:0:0:0:
176,224,313818,1,0,0:0:0:0:
200,168,313923,1,8,0:0:0:0:
256,136,314028,1,0,0:0:0:0:
312,128,314133,1,0,0:0:0:0:
368,144,314238,1,0,0:0:0:0:
392,200,314343,5,0,0:0:0:0:
376,256,314448,1,0,0:0:0:0:
336,296,314553,1,0,0:0:0:0:
280,296,314658,1,0,0:0:0:0:
224,288,314763,1,8,0:0:0:0:
168,280,314868,1,0,0:0:0:0:
112,304,314973,1,0,0:0:0:0:
72,256,315078,1,0,0:0:0:0:
80,200,315183,1,0,0:0:0:0:
120,152,315288,1,0,0:0:0:0:
136,96,315393,1,0,0:0:0:0:
144,40,315498,1,0,0:0:0:0:
200,48,315603,1,8,0:0:0:0:
256,56,315708,1,0,0:0:0:0:
312,80,315813,1,0,0:0:0:0:
360,112,315918,1,0,0:0:0:0:
376,168,316023,5,0,0:0:0:0:
352,224,316128,1,0,0:0:0:0:
312,264,316233,1,0,0:0:0:0:
256,272,316339,1,0,0:0:0:0:
200,272,316444,1,8,0:0:0:0:
144,264,316549,1,0,0:0:0:0:
104,224,316654,1,0,0:0:0:0:
112,168,316759,1,0,0:0:0:0:
168,152,316864,1,0,0:0:0:0:
224,136,316969,1,0,0:0:0:0:
280,112,317074,1,0,0:0:0:0:
336,112,317179,1,0,0:0:0:0:
376,160,317284,1,8,0:0:0:0:
384,216,317389,1,0,0:0:0:0:
360,272,317494,1,0,0:0:0:0:
304,288,317599,1,0,0:0:0:0:
248,288,317704,5,0,0:0:0:0:
192,312,317809,1,0,0:0:0:0:
136,296,317914,1,0,0:0:0:0:
80,272,318019,1,0,0:0:0:0:
64,216,318124,1,8,0:0:0:0:
72,160,318229,1,0,0:0:0:0:
112,120,318334,1,0,0:0:0:0:
168,112,318439,1,0,0:0:0:0:
208,160,318544,1,0,0:0:0:0:
232,216,318649,1,0,0:0:0:0:
288,240,318754,1,0,0:0:0:0:
344,216,318859,1,0,0:0:0:0:
360,160,318964,1,8,0:0:0:0:
344,104,319069,1,0,0:0:0:0:
288,88,319174,1,0,0:0:0:0:
248,128,319279,1,0,0:0:0:0:
208,168,319384,5,0,0:0:0:0:
152,192,319489,1,0,0:0:0:0:
96,216,319594,1,0,0:0:0:0:
48,256,319699,1,0,0:0:0:0:
56,312,319804,1,8,0:0:0:0:
112,304,319909,1,0,0:0:0:0:
168,280,320014,1,0,0:0:0:0:
200,232,320119,1,0,0:0:0:0:
248,200,320224,1,0,0:0:0:0:
304,208,320329,1,0,0:0:0:0:
352,240,320434,1,0,0:0:0:0:
408,232,320539,1,0,0:0:0:0:
416,176,320644,1,8,0:0:0:0:
400,120,320749,1,0,0:0:0:0:
352,88,320854,1,0,0:0:0:0:
296,104,320959,1,0,0:0:0:0:
240,112,321064,5,0,0:0:0:0:
184,120,321169,1,0,0:0:0:0:
128,104,321274,1,0,0:0:0:0:
72,112,321379,1,0,0:0:0:0:
64,168,321484,1,8,0:0:0:0:
56,224,321589,1,0,0:0:0:0:
80,280,321694,1,0,0:0:0:0:
136,296,321799,1,0,0:0:0:0:
192,296,321904,1,0,0:0:0:0:
248,288,322009,1,0,0:0:0:0:
296,256,322114,1,0,0:0:0:0:
344,224,322219,1,0,0:0:0:0:
360,168,322324,1,8,0:0:0:0:
328,120,322429,1,0,0:0:0:0:
272,104,322534,1,0,0:0:0:0:
216,128,322639,1,0,0:0:0:0:
168,160,322744,5,0,0:0:0:0:
144,216,322849,1,0,0:0:0:0:
168,272,322954,1,0,0:0:0:0:
224,288,323059,1,0,0:0:0:0:
280,272,323164,1,8,0:0:0:0:
336,296,323269,1,0,0:0:0:0:
392,312,323375,1,0,0:0:0:0:
424,264,323480,1,0,0:0:0:0:
432,208,323585,1,0,0:0:0:0:
416,152,323690,1,0,0:0:0:0:
360,120,323795,1,0,0:0:0:0:
304,136,323900,1,0,0:0:0:0:
256,168,324005,1,8,0:0:0:0:
216,208,324110,1,0,0:0:0:0:
160,224,324215,1,0,0:0:0:0:
104,200,324320,1,0,0:0:0:0:
104,144,324425,5,0,0:0:0:0:
144,96,324530,1,0,0:0:0:0:
200,88,324635,1,0,0:0:0:0:
256,88,324740,1,0,0:0:0:0:
312,112,324845,1,8,0:0:0:0:
344,160,324950,1,0,0:0:0:0:
360,216,325055,1,0,0:0:0:0:
352,272,325160,1,0,0:0:0:0:
312,320,325265,1,0,0:0:0:0:
256,328,325370,1,0,0:0:0:0:
200,328,325475,1,0,0:0:0:0:
144,312,325580,1,0,0:0:0:0:
120,256,325685,1,8,0:0:0:0:
168,224,325790,1,0,0:0:0:0:
224,216,325895,1,0,0:0:0:0:
280,232,326000,1,0,0:0:0:0:
280,168,326105,5,0,0:0:0:0:
272,104,326210,1,0,0:0:0:0:
224,72,326315,1,0,0:0:0:0:
160,80,326420,1,0,0:0:0:0:
104,96,326525,1,8,0:0:0:0:
80,152,326630,1,0,0:0:0:0:
80,216,326735,1,0,0:0:0:0:
104,272,326840,1,0,0:0:0:0:
160,288,326945,1,0,0:0:0:0:
224,296,327050,1,0,0:0:0:0:
256,240,327155,1,0,0:0:0:0:
288,184,327260,1,0,0:0:0:0:
336,144,327365,1,8,0:0:0:0:
400,152,327470,1,0,0:0:0:0:
432,200,327575,1,0,0:0:0:0:
416,256,327680,1,0,0:0:0:0:
368,288,327785,5,0,0:0:0:0:
312,272,327890,1,0,0:0:0:0:
256,256,327995,1,0,0:0:0:0:
200,224,328100,1,0,0:0:0:0:
168,176,328205,1,8,0:0:0:0:
160,112,328310,1,0,0:0:0:0:
104,88,328415,1,0,0:0:0:0:
72,136,328520,1,0,0:0:0:0:
56,192,328625,1,0,0:0:0:0:
72,248,328730,1,0,0:0:0:0:
120,288,328835,1,0,0:0:0:0:
176,320,328940,1,0,0:0:0:0:
240,312,329045,1,8,0:0:0:0:
304,304,329150,1,0,0:0:0:0:
360,272,329255,1,0,0:0:0:0:
392,224,329360,1,0,0:0:0:0:
408,168,329465,6,0,L|424:128,1,43.75
384,168,329675,2,0,L|376:120,1,43.75
344,176,329885,2,0,L|320:120,1,43.75,8|0,0:0|0:0,0:0:0:0:
304,192,330095,2,0,L|280:136,1,43.75
256,200,330305,2,0,L|248:144,1,43.75
216,208,330516,2,0,L|208:160,1,43.75
168,208,330726,2,0,L|168:160,1,43.75,8|0,0:0|0:0,0:0:0:0:
120,208,330936,2,0,L|120:144,1,43.75
88,112,331146,5,0,0:0:0:0:
144,80,331251,1,0,0:0:0:0:
208,88,331356,1,0,0:0:0:0:
264,112,331461,1,0,0:0:0:0:
296,168,331566,1,8,0:0:0:0:
296,232,331671,1,0,0:0:0:0:
280,296,331776,1,0,0:0:0:0:
344,304,331881,1,0,0:0:0:0:
408,312,331986,1,0,0:0:0:0:
448,264,332091,1,0,0:0:0:0:
448,200,332196,1,0,0:0:0:0:
424,144,332301,1,0,0:0:0:0:
368,120,332406,1,8,0:0:0:0:
320,160,332511,1,0,0:0:0:0:
296,216,332616,1,0,0:0:0:0:
256,264,332721,1,0,0:0:0:0:
192,280,332826,5,0,0:0:0:0:
136,256,332931,1,0,0:0:0:0:
96,208,333036,1,0,0:0:0:0:
80,152,333141,1,0,0:0:0:0:
96,96,333246,1,8,0:0:0:0:
160,88,333351,1,0,0:0:0:0:
184,144,333456,1,0,0:0:0:0:
232,184,333561,1,0,0:0:0:0:
272,136,333666,1,0,0:0:0:0:
312,88,333771,1,0,0:0:0:0:
376,96,333876,1,0,0:0:0:0:
424,136,333981,1,0,0:0:0:0:
432,200,334086,1,8,0:0:0:0:
400,256,334191,1,0,0:0:0:0:
344,272,334296,1,0,0:0:0:0:
288,288,334401,1,0,0:0:0:0:
232,304,334506,5,0,0:0:0:0:
176,280,334611,1,0,0:0:0:0:
136,232,334716,1,0,0:0:0:0:
120,176,334821,1,0,0:0:0:0:
168,136,334926,1,8,0:0:0:0:
232,128,335031,1,0,0:0:0:0:
248,184,335136,1,0,0:0:0:0:
304,216,335241,1,0,0:0:0:0:
368,208,335346,1,0,0:0:0:0:
400,152,335451,1,0,0:0:0:0:
368,104,335556,1,0,0:0:0:0:
312,80,335661,1,0,0:0:0:0:
256,56,335766,1,8,0:0:0:0:
192,56,335871,1,0,0:0:0:0:
152,104,335976,1,0,0:0:0:0:
120,160,336081,1,0,0:0:0:0:
120,224,336186,5,0,0:0:0:0:
152,272,336291,1,0,0:0:0:0:
208,288,336396,1,0,0:0:0:0:
264,272,336501,1,0,0:0:0:0:
320,240,336606,1,8,0:0:0:0:
336,184,336711,1,0,0:0:0:0:
328,120,336816,1,0,0:0:0:0:
272,104,336921,1,0,0:0:0:0:
216,128,337026,1,0,0:0:0:0:
208,192,337131,1,0,0:0:0:0:
240,248,337236,1,0,0:0:0:0:
288,288,337341,1,0,0:0:0:0:
352,304,337447,1,8,0:0:0:0:
408,280,337552,1,0,0:0:0:0:
400,216,337657,1,0,0:0:0:0:
376,160,337762,1,0,0:0:0:0:
360,104,337867,5,0,0:0:0:0:
296,104,337972,1,0,0:0:0:0:
232,104,338077,1,0,0:0:0:0:
168,104,338182,1,0,0:0:0:0:
104,112,338287,1,8,0:0:0:0:
80,168,338392,1,0,0:0:0:0:
72,232,338497,1,0,0:0:0:0:
88,288,338602,1,0,0:0:0:0:
144,304,338707,1,0,0:0:0:0:
208,304,338812,1,0,0:0:0:0:
264,280,338917,1,0,0:0:0:0:
264,216,339022,1,0,0:0:0:0:
216,176,339127,1,8,0:0:0:0:
216,112,339232,1,0,0:0:0:0:
272,88,339337,1,0,0:0:0:0:
328,120,339442,1,0,0:0:0:0:
360,168,339547,5,0,0:0:0:0:
376,224,339652,1,0,0:0:0:0:
368,288,339757,1,0,0:0:0:0:
304,296,339862,1,0,0:0:0:0:
240,296,339967,1,8,0:0:0:0:
184,264,340072,1,0,0:0:0:0:
136,224,340177,1,0,0:0:0:0:
120,168,340282,1,0,0:0:0:0:
128,104,340387,1,0,0:0:0:0:
184,88,340492,1,0,0:0:0:0:
240,112,340597,1,0,0:0:0:0:
272,160,340702,1,0,0:0:0:0:
304,208,340807,1,8,0:0:0:0:
368,216,340912,1,0,0:0:0:0:
424,184,341017,1,0,0:0:0:0:
432,120,341122,1,0,0:0:0:0:
408,64,341227,5,0,0:0:0:0:
344,56,341332,1,0,0:0:0:0:
280,48,341437,1,0,0:0:0:0:
224,64,341542,1,0,0:0:0:0:
184,112,341647,1,8,0:0:0:0:
160,168,341752,1,0,0:0:0:0:
160,232,341857,1,0,0:0:0:0:
200,280,341962,1,0,0:0:0:0:
256,304,342067,1,0,0:0:0:0:
312,288,342172,1,0,0:0:0:0:
320,224,342277,1,0,0:0:0:0:
304,168,342382,1,0,0:0:0:0:
328,112,342487,1,8,0:0:0:0:
392,120,342592,1,0,0:0:0:0:
432,168,342697,1,0,0:0:0:0:
432,232,342802,1,0,0:0:0:0:
416,288,342907,5,0,0:0:0:0:
352,288,343012,1,0,0:0:0:0:
288,296,343117,1,0,0:0:0:0:
224,296,343222,1,0,0:0:0:0:
168,280,343327,1,8,0:0:0:0:
136,232,343432,1,0,0:0:0:0:
136,168,343537,1,0,0:0:0:0:
176,120,343642,1,0,0:0:0:0:
240,128,343747,1,0,0:0:0:0:
288,168,343852,1,0,0:0:0:0:
344,192,343957,1,0,0:0:0:0:
400,168,344062,1,0,0:0:0:0:
416,112,344167,1,8,0:0:0:0:
400,56,344272,1,0,0:0:0:0:
344,40,344378,1,0,0:0:0:0:
280,48,344483,1,0,0:0:0:0:
216,56,344588,5,0,0:0:0:0:
152,64,344693,1,0,0:0:0:0:
96,80,344798,1,0,0:0:0:0:
56,128,344903,1,0,0:0:0:0:
56,192,345008,1,8,0:0:0:0:
72,248,345113,1,0,0:0:0:0:
112,296,345218,1,0,0:0:0:0:
168,320,345323,1,0,0:0:0:0:
232,312,345428,1,0,0:0:0:0:
280,280,345533,1,0,0:0:0:0:
312,224,345638,1,0,0:0:0:0:
304,160,345743,1,0,0:0:0:0:
280,104,345848,1,8,0:0:0:0:
216,96,345953,1,0,0:0:0:0:
176,136,346058,1,0,0:0:0:0:
176,200,346163,1,0,0:0:0:0:
176,264,346268,5,0,0:0:0:0:
208,320,346373,1,0,0:0:0:0:
272,328,346478,1,0,0:0:0:0:
336,320,346583,1,0,0:0:0:0:
376,272,346688,1,8,0:0:0:0:
384,208,346793,1,0,0:0:0:0:
392,144,346898,1,0,0:0:0:0:
352,96,347003,1,0,0:0:0:0:
296,112,347108,1,0,0:0:0:0:
248,144,347213,1,0,0:0:0:0:
200,184,347318,1,0,0:0:0:0:
144,216,347423,1,0,0:0:0:0:
88,232,347528,1,8,0:0:0:0:
72,176,347633,1,0,0:0:0:0:
104,120,347738,1,0,0:0:0:0:
160,104,347843,1,0,0:0:0:0:
216,88,347948,5,0,0:0:0:0:
280,80,348053,1,0,0:0:0:0:
344,88,348158,1,0,0:0:0:0:
368,144,348263,1,0,0:0:0:0:
384,200,348368,1,8,0:0:0:0:
384,264,348473,1,0,0:0:0:0:
336,304,348578,1,0,0:0:0:0:
280,320,348683,1,0,0:0:0:0:
216,320,348788,1,0,0:0:0:0:
176,272,348893,1,0,0:0:0:0:
176,208,348998,1,0,0:0:0:0:
200,152,349103,1,0,0:0:0:0:
256,128,349208,1,8,0:0:0:0:
288,176,349313,1,0,0:0:0:0:
336,216,349418,1,0,0:0:0:0:
392,240,349523,1,0,0:0:0:0:
448,208,349628,5,0,0:0:0:0:
440,144,349733,1,0,0:0:0:0:
432,80,349838,1,0,0:0:0:0:
384,48,349943,1,0,0:0:0:0:
320,48,350048,1,8,0:0:0:0:
264,64,350153,1,0,0:0:0:0:
216,104,350258,1,0,0:0:0:0:
184,160,350363,1,0,0:0:0:0:
168,216,350468,1,0,0:0:0:0:
216,248,350573,1,0,0:0:0:0:
272,272,350678,1,0,0:0:0:0:
320,240,350783,1,0,0:0:0:0:
344,184,350888,1,8,0:0:0:0:
368,128,350993,1,0,0:0:0:0:
368,64,351098,1,0,0:0:0:0:
304,72,351203,1,0,0:0:0:0:
248,88,351308,5,0,0:0:0:0:
184,96,351414,1,0,0:0:0:0:
120,96,351519,1,0,0:0:0:0:
80,144,351624,1,0,0:0:0:0:
88,208,351729,1,8,0:0:0:0:
104,264,351834,1,0,0:0:0:0:
160,296,351939,1,0,0:0:0:0:
224,296,352044,1,0,0:0:0:0:
256,248,352149,1,0,0:0:0:0:
224,192,352254,1,0,0:0:0:0:
248,136,352359,1,0,0:0:0:0:
312,136,352464,1,0,0:0:0:0:
360,176,352569,1,8,0:0:0:0:
376,240,352674,1,0,0:0:0:0:
408,296,352779,1,0,0:0:0:0:
360,312,352884,1,0,0:0:0:0:
296,320,352989,5,0,0:0:0:0:
232,328,353094,1,0,0:0:0:0:
168,336,353199,1,0,0:0:0:0:
104,336,353304,1,0,0:0:0:0:
72,280,353409,1,8,0:0:0:0:
80,216,353514,1,0,0:0:0:0:
120,168,353619,1,0,0:0:0:0:
176,184,353724,1,0,0:0:0:0:
216,232,353829,1,0,0:0:0:0:
280,240,353934,1,0,0:0:0:0:
320,200,354039,1,0,0:0:0:0:
280,152,354144,1,0,0:0:0:0:
320,104,354249,1,8,0:0:0:0:
384,112,354354,1,0,0:0:0:0:
424,160,354459,1,0,0:0:0:0:
432,224,354564,1,0,0:0:0:0:
424,288,354669,5,0,0:0:0:0:
368,312,354774,1,0,0:0:0:0:
312,336,354879,1,0,0:0:0:0:
248,328,354984,1,0,0:0:0:0:
192,304,355089,1,8,0:0:0:0:
128,296,355194,1,0,0:0:0:0:
112,240,355299,1,0,0:0:0:0:
96,184,355404,1,0,0:0:0:0:
152,152,355509,1,0,0:0:0:0:
216,152,355614,1,0,0:0:0:0:
256,200,355719,1,0,0:0:0:0:
280,256,355824,1,0,0:0:0:0:
344,248,355929,1,8,0:0:0:0:
392,208,356034,1,0,0:0:0:0:
400,144,356139,1,0,0:0:0:0:
384,88,356244,1,0,0:0:0:0:
320,80,356349,5,0,0:0:0:0:
256,80,356454,1,0,0:0:0:0:
192,72,356559,1,0,0:0:0:0:
128,64,356664,1,0,0:0:0:0:
80,104,356769,1,8,0:0:0:0:
88,168,356874,1,0,0:0:0:0:
112,224,356979,1,0,0:0:0:0:
168,256,357084,1,0,0:0:0:0:
224,240,357189,1,0,0:0:0:0:
208,184,357294,1,0,0:0:0:0:
256,144,357399,1,0,0:0:0:0:
312,168,357504,1,0,0:0:0:0:
344,224,357609,1,8,0:0:0:0:
376,280,357714,1,0,0:0:0:0:
424,248,357819,1,0,0:0:0:0:
432,184,357924,1,0,0:0:0:0:
424,120,358029,5,0,0:0:0:0:
400,64,358134,1,0,0:0:0:0:
336,64,358239,1,0,0:0:0:0:
272,64,358344,1,0,0:0:0:0:
216,88,358450,1,8,0:0:0:0:
176,128,358555,1,0,0:0:0:0:
136,168,358660,1,0,0:0:0:0:
104,216,358765,1,0,0:0:0:0:
152,256,358870,1,0,0:0:0:0:
216,264,358975,1,0,0:0:0:0:
240,208,359080,1,0,0:0:0:0:
256,152,359185,1,0,0:0:0:0:
304,112,359290,1,8,0:0:0:0:
360,128,359395,1,0,0:0:0:0:
384,184,359500,1,0,0:0:0:0:
376,248,359605,1,0,0:0:0:0:
336,296,359710,5,0,0:0:0:0:
272,304,359815,1,0,0:0:0:0:
208,304,359920,1,0,0:0:0:0:
152,280,360025,1,0,0:0:0:0:
144,216,360130,1,8,0:0:0:0:
200,184,360235,1,0,0:0:0:0:
248,216,360340,1,0,0:0:0:0:
312,216,360445,1,0,0:0:0:0:
320,152,360550,1,0,0:0:0:0:
280,104,360655,1,0,0:0:0:0:
216,104,360760,1,0,0:0:0:0:
176,64,360865,1,0,0:0:0:0:
232,48,360970,1,8,0:0:0:0:
296,56,361075,1,0,0:0:0:0:
352,80,361180,1,0,0:0:0:0:
392,128,361285,1,0,0:0:0:0:
416,184,361390,5,0,0:0:0:0:
368,224,361495,1,0,0:0:0:0:
312,256,361600,1,0,0:0:0:0:
256,272,361705,1,0,0:0:0:0:
192,280,361810,1,8,0:0:0:0:
152,232,361915,1,0,0:0:0:0:
168,176,362020,1,0,0:0:0:0:
232,168,362125,1,0,0:0:0:0:
288,184,362230,1,0,0:0:0:0:
344,168,362335,1,0,0:0:0:0:
408,160,362440,1,0,0:0:0:0:
440,208,362545,1,0,0:0:0:0:
448,272,362650,1,8,0:0:0:0:
408,312,362755,1,0,0:0:0:0:
344,320,362860,1,0,0:0:0:0:
280,328,362965,1,0,0:0:0:0:
216,336,363070,5,0,0:0:0:0:
160,312,363175,1,0,0:0:0:0:
136,256,363280,1,0,0:0:0:0:
136,192,363385,1,0,0:0:0:0:
176,144,363490,1,8,0:0:0:0:
232,176,363595,1,0,0:0:0:0:
264,224,363700,1,0,0:0:0:0:
320,240,363805,1,0,0:0:0:0:
376,224,363910,1,0,0:0:0:0:
392,168,364015,1,0,0:0:0:0:
368,112,364120,1,0,0:0:0:0:
312,96,364225,1,0,0:0:0:0:
248,88,364330,1,8,0:0:0:0:
192,104,364435,1,0,0:0:0:0:
144,136,364540,1,0,0:0:0:0:
104,184,364645,1,0,0:0:0:0:
80,240,364750,6,0,L|48:280,1,43.75
112,248,364960,2,0,L|128:296,1,43.75
144,232,365170,2,0,L|192:280,1,43.75,8|0,0:0|0:0,0:0:0:0:
184,200,365380,2,0,L|224:240,1,43.75
208,168,365591,2,0,L|264:224,1,43.75
232,136,365801,2,0,L|288:192,1,43.75
272,104,366011,2,0,L|328:160,1,43.75,8|0,0:0|0:0,0:0:0:0:
304,72,366221,2,0,L|336:112,1,43.75
392,96,366431,5,0,0:0:0:0:
424,152,366536,1,0,0:0:0:0:
400,208,366641,1,0,0:0:0:0:
368,264,366746,1,0,0:0:0:0:
320,304,366851,1,8,0:0:0:0:
256,312,366956,1,0,0:0:0:0:
192,312,367061,1,0,0:0:0:0:
136,280,367166,1,0,0:0:0:0:
104,224,367271,1,0,0:0:0:0:
96,160,367376,1,0,0:0:0:0:
128,104,367481,1,0,0:0:0:0:
184,136,367586,1,0,0:0:0:0:
224,184,367691,1,8,0:0:0:0:
256,240,367796,1,0,0:0:0:0:
320,232,367901,1,0,0:0:0:0:
360,184,368006,1,0,0:0:0:0:
384,128,368111,5,0,0:0:0:0:
368,72,368216,1,0,0:0:0:0:
304,72,368321,1,0,0:0:0:0:
248,96,368426,1,0,0:0:0:0:
200,136,368531,1,8,0:0:0:0:
152,176,368636,1,0,0:0:0:0:
152,240,368741,1,0,0:0:0:0:
192,280,368846,1,0,0:0:0:0:
248,304,368951,1,0,0:0:0:0:
312,304,369056,1,0,0:0:0:0:
360,272,369161,1,0,0:0:0:0:
392,216,369266,1,0,0:0:0:0:
368,160,369371,1,8,0:0:0:0:
304,160,369476,1,0,0:0:0:0:
240,160,369581,1,0,0:0:0:0:
176,168,369686,1,0,0:0:0:0:
112,176,369791,6,0,L|88:224,1,43.75
88,152,370001,2,0,L|56:112,1,43.75
120,144,370211,2,0,L|112:96,1,43.75,8|0,0:0|0:0,0:0:0:0:
168,128,370421,2,0,L|192:80,1,43.75
232,136,370631,2,0,L|200:80,1,43.75
264,128,370841,2,0,L|272:80,1,43.75
312,136,371051,2,0,L|328:80,1,43.75,8|0,0:0|0:0,0:0:0:0:
368,136,371261,2,0,L|376:64,1,43.75
416,136,371471,5,0,0:0:0:0:
432,192,371576,1,0,0:0:0:0:
408,248,371681,1,0,0:0:0:0:
360,288,371786,1,0,0:0:0:0:
296,288,371891,1,8,0:0:0:0:
232,288,371996,1,0,0:0:0:0:
168,280,372101,1,0,0:0:0:0:
128,232,372206,1,0,0:0:0:0:
120,168,372311,1,0,0:0:0:0:
176,136,372416,1,0,0:0:0:0:
224,176,372522,1,0,0:0:0:0:
272,216,372627,1,0,0:0:0:0:
336,208,372732,1,8,0:0:0:0:
376,168,372837,1,0,0:0:0:0:
384,104,372942,1,0,0:0:0:0:
328,80,373047,1,0,0:0:0:0:
264,80,373152,5,0,0:0:0:0:
200,72,373257,1,0,0:0:0:0:
136,72,373362,1,0,0:0:0:0:
96,112,373467,1,0,0:0:0:0:
88,176,373572,1,8,0:0:0:0:
80,240,373677,1,0,0:0:0:0:
136,264,373782,1,0,0:0:0:0:
192,280,373887,1,0,0:0:0:0:
248,264,373992,1,0,0:0:0:0:
264,208,374097,1,0,0:0:0:0:
224,168,374202,1,0,0:0:0:0:
272,128,374307,1,0,0:0:0:0:
336,128,374412,1,8,0:0:0:0:
384,168,374517,1,0,0:0:0:0:
408,224,374622,1,0,0:0:0:0:
400,288,374727,1,0,0:0:0:0:
344,312,374832,5,0,0:0:0:0:
280,312,374937,1,0,0:0:0:0:
216,304,375042,1,0,0:0:0:0:
160,288,375147,1,0,0:0:0:0:
112,256,375252,1,8,0:0:0:0:
104,192,375357,1,0,0:0:0:0:
136,144,375462,1,0,0:0:0:0:
192,168,375567,1,0,0:0:0:0:
240,208,375672,1,0,0:0:0:0:
288,240,375777,1,0,0:0:0:0:
344,224,375882,1,0,0:0:0:0:
368,168,375987,1,0,0:0:0:0:
336,120,376092,1,8,0:0:0:0:
280,104,376197,1,0,0:0:0:0:
224,128,376302,1,0,0:0:0:0:
168,112,376407,1,0,0:0:0:0:
120,80,376512,5,0,0:0:0:0:
120,80,376617,1,0,0:0:0:0:
112,144,376722,1,0,0:0:0:0:
112,144,376827,1,0,0:0:0:0:
112,208,376932,1,0,0:0:0:0:
112,208,377037,1,0,0:0:0:0:
96,272,377142,1,0,0:0:0:0:
96,272,377247,1,0,0:0:0:0:
120,328,377352,1,0,0:0:0:0:
120,328,377457,1,0,0:0:0:0:
176,344,377562,1,0,0:0:0:0:
240,344,377667,1,0,0:0:0:0:
304,336,377772,1,0,0:0:0:0:
352,296,377877,1,0,0:0:0:0:
352,232,377982,1,0,0:0:0:0:
304,192,378087,1,0,0:0:0:0:
272,144,378192,5,0,0:0:0:0:
272,144,378612,5,0,0:0:0:0:
272,144,379032,5,0,0:0:0:0:
256,192,379873,5,0,0:0:0:0:
256,192,379978,12,0,383233,0:0:0:0:
