osu file format v14

[General]
AudioFilename: audio.mp3
AudioLeadIn: 0
PreviewTime: 73477
Countdown: 0
SampleSet: Soft
StackLeniency: 0.7
Mode: 3
LetterboxInBreaks: 0
SpecialStyle: 0
WidescreenStoryboard: 0

[Editor]
DistanceSpacing: 0.9
BeatDivisor: 4
GridSize: 32
TimelineZoom: 2.2

[Metadata]
Title:Yin
TitleUnicode:Yin
Artist:Culprate
ArtistUnicode:Culprate
Creator:Captain
Version:Shade of reality (SV)
Source:
Tags:
BeatmapID:1449286
BeatmapSetID:684816

[Difficulty]
HPDrainRate:8.5
CircleSize:4
OverallDifficulty:8.8
ApproachRate:5
SliderMultiplier:2
SliderTickRate:1

[Events]
//Background and Video events
0,0,"behind_the_red_curtain_by_nanomortis-db4jme0.png",0,0
//Break Periods
//Storyboard Layer 0 (Background)
//Storyboard Layer 1 (Fail)
//Storyboard Layer 2 (Pass)
//Storyboard Layer 3 (Foreground)
//Storyboard Sound Samples

[TimingPoints]
66,352.941176470588,4,2,1,50,1,0
66,-166.666666666667,4,2,1,50,0,0
7124,-250.000000000001,4,2,1,50,0,0
8192,-100,4,2,1,50,0,0
8271,-250,4,2,1,50,0,0
8360,-142.857142857143,4,2,1,50,0,0
8448,-100,4,1,1,60,0,0
8536,-133.333333333333,4,1,1,60,0,0
9771,-100,4,1,1,60,0,0
9948,-133.333333333333,4,1,1,60,0,0
11183,-117.647058823529,4,1,1,60,0,0
11271,-105.263157894737,4,1,1,60,0,0
11360,-100,4,1,1,60,0,0
12771,-133.333333333333,4,1,1,60,0,0
14007,-117.647058823529,4,1,1,60,0,0
14095,-105.263157894737,4,1,1,60,0,0
14183,-100,4,1,1,60,0,0
14889,-133.333333333333,4,1,1,60,0,0
15418,-100,4,1,1,60,0,0
15595,-133.333333333333,4,1,1,60,0,0
16830,-117.647058823529,4,1,1,60,0,0
16918,-105.263157894737,4,1,1,60,0,0
17007,-100,4,1,1,60,0,0
17713,-1000,4,1,1,60,0,0
17771,-83.3333333333333,4,1,1,60,0,0
17948,-1000,4,1,1,60,0,0
18007,-83.3333333333333,4,1,1,60,0,0
18183,-1000,4,1,1,60,0,0
18242,-83.3333333333333,4,1,1,60,0,0
18418,-100,4,1,1,60,0,0
18536,-133.333333333333,4,1,1,60,0,0
19360,-117.647058823529,4,1,1,60,0,0
19418,-105.263157894737,4,1,1,60,0,0
19477,-100,4,1,1,60,0,0
20536,-133.333333333333,4,1,1,60,0,0
21065,-100,4,1,1,60,0,0
31124,-50,4,1,1,60,0,0
31301,-100,4,1,1,60,0,0
31477,-117.647058823529,4,1,1,60,0,0
31654,-153.846153846153,4,1,1,60,0,0
31742,-114.942528735632,4,1,1,60,0,0
31830,-100,4,1,1,60,0,0
42418,-222.222222222221,4,1,1,60,0,0
42683,-100,4,1,1,60,0,0
50889,-200,4,1,1,60,0,0
51242,-100,4,1,1,60,0,0
51330,-200,4,1,1,60,0,0
51595,-100,4,1,1,60,0,0
51683,-200,4,1,1,60,0,0
51948,-66.6666666666667,4,1,1,60,0,0
52036,-200,4,1,1,60,0,0
52124,-66.6666666666667,4,1,1,60,0,0
52213,-200,4,1,1,60,0,0
52301,-66.6666666666667,4,1,1,60,0,0
52389,-200,4,1,1,60,0,0
52477,-66.6666666666667,4,1,1,60,0,0
52565,-200,4,1,1,60,0,0
52654,-66.6666666666667,4,1,1,60,0,0
52742,-133.333333333333,4,1,1,60,0,0
53536,-66.6666666666667,4,1,1,60,0,0
53713,-100,4,1,1,60,0,0
62183,-166.666666666667,4,1,1,60,0,0
62360,-125,4,1,1,60,0,0
62448,-100,4,1,1,60,0,0
63418,-66.6666666666667,4,1,1,60,0,0
63507,-133.333333333333,4,1,1,60,0,0
63595,-114.942528735632,4,1,1,60,0,0
63683,-100,4,1,1,60,0,0
63948,-62.5,4,1,1,60,0,0
64301,-100,4,1,1,60,0,0
64477,-62.5,4,1,1,60,0,0
64830,-100,4,1,1,60,0,0
65007,-250,4,1,1,60,0,0
65095,-142.857142857143,4,1,1,60,0,0
65183,-100,4,1,1,60,0,0
75242,-80,4,1,1,60,0,0
75771,-100,4,1,1,60,0,0
75948,-76.9230769230769,4,1,1,60,0,0
76301,-100,4,1,1,60,0,0
81948,-133.333333333333,4,1,1,60,0,0
82124,-200,4,1,1,60,0,0
82301,-100,4,1,1,60,0,0
82477,-105.263157894737,4,1,1,60,0,0
82654,-111.111111111111,4,1,1,60,0,0
82830,-117.647058823529,4,1,1,60,0,0
83007,-125,4,1,1,60,0,0
83183,-133.333333333333,4,1,1,60,0,0
83360,-142.857142857143,4,1,1,60,0,0
83536,-117.647058823529,4,1,1,60,0,0
83624,-100,4,1,1,60,0,0
84771,-133.333333333333,4,1,1,60,0,0
85124,-66.6666666666667,4,1,1,60,0,0
85213,-133.333333333333,4,1,1,60,0,0
85301,-66.6666666666667,4,1,1,60,0,0
85389,-133.333333333333,4,1,1,60,0,0
85477,-100,4,1,1,60,0,0
87595,-166.666666666667,4,1,1,60,0,0
87683,-125,4,1,1,60,0,0
87771,-100,4,1,1,60,0,0
92713,-66.6666666666667,4,1,1,60,0,0
92757,-100,4,1,1,60,0,0
92801,-66.6666666666667,4,1,1,60,0,0
92845,-100,4,1,1,60,0,0
92889,-66.6666666666667,4,1,1,60,0,0
92933,-100,4,1,1,60,0,0
92977,-66.6666666666667,4,1,1,60,0,0
93021,-100,4,1,1,60,0,0
93242,-153.846153846153,4,1,1,60,0,0
93507,-117.647058823529,4,1,1,60,0,0
93595,-100,4,1,1,60,0,0
96065,-133.333333333333,4,1,1,60,0,0
96418,-57.1428571428571,4,1,1,60,0,0
96771,-100,4,1,1,60,0,0
98536,-200,4,1,1,60,0,0
98889,-142.857142857143,4,2,1,50,0,0

[Colours]
Combo1 : 255,192,0
Combo2 : 0,202,0
Combo3 : 18,124,255
Combo4 : 242,24,57

[HitObjects]
64,192,66,128,0,2889:0:0:0:0:
192,192,2889,1,0,0:0:0:0:
320,192,2977,1,0,0:0:0:0:
448,192,3065,1,0,0:0:0:0:
64,192,3154,1,0,0:0:0:0:
192,192,3242,128,0,7124:0:0:0:0:
64,192,7124,128,0,8183:0:0:0:0:
320,192,8183,1,0,0:0:0:0:
320,192,8536,1,0,0:0:0:0:
448,192,8536,1,0,0:0:0:0:
192,192,8536,1,0,0:0:0:0:
320,192,8801,1,0,0:0:0:0:
192,192,8801,1,0,0:0:0:0:
320,192,9065,1,0,0:0:0:0:
64,192,9065,1,0,0:0:0:0:
192,192,9154,1,0,0:0:0:0:
64,192,9242,1,0,0:0:0:0:
320,192,9242,1,0,0:0:0:0:
448,192,9242,1,0,0:0:0:0:
320,192,9771,1,0,0:0:0:0:
448,192,9860,1,0,0:0:0:0:
320,192,9948,1,0,0:0:0:0:
192,192,10301,1,0,0:0:0:0:
64,192,10301,1,0,0:0:0:0:
64,192,10654,1,0,0:0:0:0:
192,192,10654,1,0,0:0:0:0:
320,192,10654,1,0,0:0:0:0:
320,192,11183,1,0,0:0:0:0:
448,192,11271,1,0,0:0:0:0:
192,192,11360,1,0,0:0:0:0:
320,192,11360,1,0,0:0:0:0:
64,192,11448,1,0,0:0:0:0:
192,192,11536,1,0,0:0:0:0:
320,192,11536,1,0,0:0:0:0:
448,192,11624,1,0,0:0:0:0:
64,192,11713,1,0,0:0:0:0:
320,192,11713,1,0,0:0:0:0:
192,192,11801,1,0,0:0:0:0:
64,192,11889,1,0,0:0:0:0:
320,192,11889,1,0,0:0:0:0:
448,192,11977,1,0,0:0:0:0:
64,192,12065,1,0,0:0:0:0:
192,192,12065,1,0,0:0:0:0:
320,192,12154,1,0,0:0:0:0:
448,192,12154,1,0,0:0:0:0:
192,192,12242,1,0,0:0:0:0:
64,192,12242,1,0,0:0:0:0:
320,192,12330,1,0,0:0:0:0:
448,192,12330,1,0,0:0:0:0:
192,192,12418,1,0,0:0:0:0:
64,192,12507,1,0,0:0:0:0:
448,192,12595,1,0,0:0:0:0:
320,192,12683,1,0,0:0:0:0:
64,192,12771,1,0,0:0:0:0:
192,192,12771,1,0,0:0:0:0:
320,192,13124,1,0,0:0:0:0:
448,192,13124,1,0,0:0:0:0:
192,192,13477,1,0,0:0:0:0:
320,192,13477,1,0,0:0:0:0:
448,192,13477,1,0,0:0:0:0:
192,192,14007,1,0,0:0:0:0:
64,192,14095,1,0,0:0:0:0:
320,192,14183,1,0,0:0:0:0:
448,192,14183,1,0,0:0:0:0:
64,192,14360,1,0,0:0:0:0:
320,192,14418,1,0,0:0:0:0:
448,192,14418,1,0,0:0:0:0:
192,192,14624,1,0,0:0:0:0:
320,192,14654,1,0,0:0:0:0:
448,192,14654,1,0,0:0:0:0:
192,192,14889,1,0,0:0:0:0:
320,192,14889,1,0,0:0:0:0:
448,192,14889,1,0,0:0:0:0:
320,192,15418,1,0,0:0:0:0:
448,192,15507,1,0,0:0:0:0:
320,192,15595,1,0,0:0:0:0:
192,192,15948,1,0,0:0:0:0:
64,192,15948,1,0,0:0:0:0:
64,192,16301,1,0,0:0:0:0:
192,192,16301,1,0,0:0:0:0:
320,192,16301,1,0,0:0:0:0:
192,192,16830,1,0,0:0:0:0:
320,192,16918,1,0,0:0:0:0:
448,192,17007,1,0,0:0:0:0:
64,192,17007,128,0,17183:0:0:0:0:
192,192,17183,128,0,17360:0:0:0:0:
448,192,17360,128,0,17536:0:0:0:0:
320,192,17360,1,0,0:0:0:0:
64,192,17536,128,0,17713:0:0:0:0:
192,192,17713,128,0,17889:0:0:0:0:
320,192,17713,128,0,17889:0:0:0:0:
192,192,17948,128,0,18124:0:0:0:0:
320,192,17948,128,0,18124:0:0:0:0:
192,192,18183,128,0,18360:0:0:0:0:
320,192,18183,128,0,18360:0:0:0:0:
64,192,18536,128,0,18771:0:0:0:0:
192,192,18771,128,0,19124:0:0:0:0:
64,192,19124,128,0,19360:0:0:0:0:
64,192,19477,1,0,0:0:0:0:
192,192,19521,1,0,0:0:0:0:
320,192,19565,1,0,0:0:0:0:
448,192,19610,1,0,0:0:0:0:
448,192,19742,1,0,0:0:0:0:
192,192,19830,1,0,0:0:0:0:
320,192,19830,1,0,0:0:0:0:
320,192,20095,1,0,0:0:0:0:
192,192,20095,1,0,0:0:0:0:
320,192,20360,1,0,0:0:0:0:
448,192,20360,1,0,0:0:0:0:
192,192,20448,1,0,0:0:0:0:
320,192,20448,1,0,0:0:0:0:
64,192,20536,1,0,0:0:0:0:
192,192,20536,1,0,0:0:0:0:
192,192,21065,1,0,0:0:0:0:
320,192,21065,1,0,0:0:0:0:
64,192,21154,1,0,0:0:0:0:
192,192,21242,1,0,0:0:0:0:
320,192,21242,1,0,0:0:0:0:
320,192,21418,1,0,0:0:0:0:
448,192,21418,1,0,0:0:0:0:
192,192,21507,1,0,0:0:0:0:
320,192,21595,1,0,0:0:0:0:
448,192,21595,1,0,0:0:0:0:
320,192,21771,1,0,0:0:0:0:
64,192,21948,1,0,0:0:0:0:
192,192,21992,1,0,0:0:0:0:
320,192,22036,1,0,0:0:0:0:
448,192,22080,1,0,0:0:0:0:
448,192,22213,1,0,0:0:0:0:
320,192,22301,1,0,0:0:0:0:
448,192,22389,1,0,0:0:0:0:
448,192,22477,1,0,0:0:0:0:
448,192,22565,1,0,0:0:0:0:
64,192,22654,1,0,0:0:0:0:
320,192,22654,1,0,0:0:0:0:
192,192,22742,1,0,0:0:0:0:
64,192,22830,1,0,0:0:0:0:
320,192,22830,1,0,0:0:0:0:
192,192,22918,1,0,0:0:0:0:
320,192,23007,1,0,0:0:0:0:
448,192,23007,1,0,0:0:0:0:
64,192,23095,1,0,0:0:0:0:
320,192,23183,1,0,0:0:0:0:
448,192,23183,1,0,0:0:0:0:
64,192,23271,1,0,0:0:0:0:
192,192,23360,1,0,0:0:0:0:
320,192,23360,1,0,0:0:0:0:
64,192,23448,1,0,0:0:0:0:
448,192,23448,1,0,0:0:0:0:
192,192,23536,1,0,0:0:0:0:
320,192,23536,1,0,0:0:0:0:
64,192,23624,1,0,0:0:0:0:
448,192,23624,1,0,0:0:0:0:
192,192,23713,1,0,0:0:0:0:
320,192,23713,1,0,0:0:0:0:
64,192,23801,1,0,0:0:0:0:
448,192,23889,1,0,0:0:0:0:
320,192,23933,1,0,0:0:0:0:
192,192,23977,1,0,0:0:0:0:
64,192,24021,1,0,0:0:0:0:
448,192,24065,1,0,0:0:0:0:
320,192,24110,1,0,0:0:0:0:
192,192,24154,1,0,0:0:0:0:
64,192,24198,1,0,0:0:0:0:
320,192,24242,1,0,0:0:0:0:
448,192,24242,1,0,0:0:0:0:
192,192,24330,1,0,0:0:0:0:
320,192,24418,128,0,24595:0:0:0:0:
448,192,24418,128,0,24595:0:0:0:0:
192,192,24595,1,0,0:0:0:0:
64,192,24683,1,0,0:0:0:0:
192,192,24771,1,0,0:0:0:0:
320,192,24860,1,0,0:0:0:0:
448,192,24948,1,0,0:0:0:0:
192,192,24948,1,0,0:0:0:0:
320,192,25036,1,0,0:0:0:0:
64,192,25124,1,0,0:0:0:0:
192,192,25124,1,0,0:0:0:0:
448,192,25213,1,0,0:0:0:0:
64,192,25301,1,0,0:0:0:0:
192,192,25345,1,0,0:0:0:0:
320,192,25389,1,0,0:0:0:0:
448,192,25433,1,0,0:0:0:0:
192,192,25477,1,0,0:0:0:0:
64,192,25477,128,0,25595:0:0:0:0:
64,192,25713,128,0,25830:0:0:0:0:
192,192,25713,1,0,0:0:0:0:
320,192,26007,1,0,0:0:0:0:
192,192,26007,1,0,0:0:0:0:
448,192,26095,1,0,0:0:0:0:
64,192,26183,128,0,26301:0:0:0:0:
192,192,26183,128,0,26301:0:0:0:0:
320,192,26183,128,0,26301:0:0:0:0:
64,192,26360,128,0,26477:0:0:0:0:
192,192,26360,128,0,26477:0:0:0:0:
320,192,26360,128,0,26477:0:0:0:0:
448,192,26536,1,0,0:0:0:0:
192,192,26624,1,0,0:0:0:0:
320,192,26624,1,0,0:0:0:0:
64,192,26713,1,0,0:0:0:0:
448,192,26713,1,0,0:0:0:0:
192,192,26801,1,0,0:0:0:0:
64,192,26889,1,0,0:0:0:0:
320,192,26889,1,0,0:0:0:0:
192,192,27065,1,0,0:0:0:0:
320,192,27065,1,0,0:0:0:0:
448,192,27154,1,0,0:0:0:0:
192,192,27242,1,0,0:0:0:0:
320,192,27242,1,0,0:0:0:0:
64,192,27418,1,0,0:0:0:0:
64,192,27595,128,0,27771:0:0:0:0:
320,192,27595,1,0,0:0:0:0:
192,192,27683,128,0,27771:0:0:0:0:
320,192,27860,1,0,0:0:0:0:
448,192,27948,1,0,0:0:0:0:
64,192,28036,1,0,0:0:0:0:
192,192,28036,1,0,0:0:0:0:
320,192,28124,1,0,0:0:0:0:
448,192,28124,1,0,0:0:0:0:
192,192,28213,1,0,0:0:0:0:
64,192,28213,1,0,0:0:0:0:
320,192,28301,1,0,0:0:0:0:
448,192,28301,1,0,0:0:0:0:
192,192,28301,1,0,0:0:0:0:
64,192,28389,1,0,0:0:0:0:
192,192,28477,1,0,0:0:0:0:
448,192,28477,1,0,0:0:0:0:
320,192,28565,1,0,0:0:0:0:
448,192,28654,1,0,0:0:0:0:
320,192,28698,1,0,0:0:0:0:
192,192,28742,1,0,0:0:0:0:
64,192,28786,1,0,0:0:0:0:
448,192,28830,1,0,0:0:0:0:
320,192,28874,1,0,0:0:0:0:
192,192,28918,1,0,0:0:0:0:
64,192,28963,1,0,0:0:0:0:
320,192,29007,1,0,0:0:0:0:
448,192,29007,1,0,0:0:0:0:
192,192,29095,1,0,0:0:0:0:
320,192,29183,1,0,0:0:0:0:
192,192,29271,1,0,0:0:0:0:
320,192,29536,1,0,0:0:0:0:
448,192,29536,1,0,0:0:0:0:
64,192,29713,1,0,0:0:0:0:
192,192,29713,1,0,0:0:0:0:
320,192,29713,1,0,0:0:0:0:
448,192,29889,128,0,30242:0:0:0:0:
192,192,29889,1,0,0:0:0:0:
64,192,30065,1,0,0:0:0:0:
192,192,30065,1,0,0:0:0:0:
320,192,30242,128,0,30418:0:0:0:0:
192,192,30242,1,0,0:0:0:0:
64,192,30330,1,0,0:0:0:0:
448,192,30418,128,0,30595:0:0:0:0:
192,192,30418,1,0,0:0:0:0:
192,192,30595,128,0,30771:0:0:0:0:
64,192,30595,128,0,30771:0:0:0:0:
64,192,30948,128,0,31124:0:0:0:0:
320,192,30948,128,0,31124:0:0:0:0:
192,192,31124,128,0,31301:0:0:0:0:
448,192,31301,1,0,0:0:0:0:
64,192,31477,1,0,0:0:0:0:
192,192,31477,1,0,0:0:0:0:
320,192,31654,1,0,0:0:0:0:
64,192,31830,1,0,0:0:0:0:
192,192,31918,1,0,0:0:0:0:
320,192,32007,1,0,0:0:0:0:
448,192,32095,1,0,0:0:0:0:
320,192,32183,1,0,0:0:0:0:
192,192,32183,1,0,0:0:0:0:
64,192,32271,1,0,0:0:0:0:
192,192,32360,1,0,0:0:0:0:
320,192,32360,1,0,0:0:0:0:
448,192,32360,1,0,0:0:0:0:
64,192,32448,1,0,0:0:0:0:
192,192,32536,1,0,0:0:0:0:
320,192,32536,1,0,0:0:0:0:
448,192,32713,1,0,0:0:0:0:
320,192,32801,1,0,0:0:0:0:
192,192,32889,1,0,0:0:0:0:
64,192,32889,1,0,0:0:0:0:
320,192,32977,1,0,0:0:0:0:
448,192,33065,1,0,0:0:0:0:
192,192,33154,1,0,0:0:0:0:
64,192,33242,1,0,0:0:0:0:
320,192,33330,1,0,0:0:0:0:
448,192,33330,1,0,0:0:0:0:
192,192,33418,1,0,0:0:0:0:
320,192,33507,1,0,0:0:0:0:
448,192,33507,1,0,0:0:0:0:
192,192,33595,1,0,0:0:0:0:
64,192,33683,1,0,0:0:0:0:
320,192,33771,1,0,0:0:0:0:
448,192,33860,1,0,0:0:0:0:
64,192,33948,128,0,34654:0:0:0:0:
192,192,33948,1,0,0:0:0:0:
320,192,34036,1,0,0:0:0:0:
448,192,34124,1,0,0:0:0:0:
192,192,34213,1,0,0:0:0:0:
320,192,34301,1,0,0:0:0:0:
448,192,34389,1,0,0:0:0:0:
320,192,34477,1,0,0:0:0:0:
192,192,34565,1,0,0:0:0:0:
448,192,34654,128,0,35183:0:0:0:0:
320,192,34654,1,0,0:0:0:0:
192,192,34742,1,0,0:0:0:0:
64,192,34830,1,0,0:0:0:0:
320,192,34918,1,0,0:0:0:0:
192,192,35007,1,0,0:0:0:0:
64,192,35095,1,0,0:0:0:0:
320,192,35183,1,0,0:0:0:0:
192,192,35183,128,0,35360:0:0:0:0:
64,192,35360,1,0,0:0:0:0:
320,192,35448,1,0,0:0:0:0:
192,192,35536,1,0,0:0:0:0:
448,192,35536,1,0,0:0:0:0:
64,192,35536,1,0,0:0:0:0:
320,192,35624,1,0,0:0:0:0:
192,192,35713,1,0,0:0:0:0:
448,192,35713,1,0,0:0:0:0:
320,192,35801,1,0,0:0:0:0:
192,192,35889,1,0,0:0:0:0:
64,192,35889,1,0,0:0:0:0:
320,192,35977,1,0,0:0:0:0:
448,192,36065,1,0,0:0:0:0:
320,192,36154,1,0,0:0:0:0:
192,192,36242,1,0,0:0:0:0:
64,192,36242,128,0,36771:0:0:0:0:
448,192,36330,1,0,0:0:0:0:
192,192,36418,1,0,0:0:0:0:
320,192,36463,1,0,0:0:0:0:
448,192,36507,1,0,0:0:0:0:
192,192,36551,1,0,0:0:0:0:
320,192,36595,1,0,0:0:0:0:
448,192,36639,1,0,0:0:0:0:
192,192,36683,1,0,0:0:0:0:
320,192,36771,1,0,0:0:0:0:
448,192,36771,1,0,0:0:0:0:
192,192,36948,1,0,0:0:0:0:
320,192,37036,1,0,0:0:0:0:
64,192,37124,1,0,0:0:0:0:
192,192,37124,1,0,0:0:0:0:
448,192,37124,1,0,0:0:0:0:
320,192,37301,1,0,0:0:0:0:
448,192,37301,1,0,0:0:0:0:
64,192,37477,1,0,0:0:0:0:
448,192,37477,1,0,0:0:0:0:
192,192,37565,1,0,0:0:0:0:
320,192,37654,1,0,0:0:0:0:
448,192,37742,1,0,0:0:0:0:
64,192,37830,1,0,0:0:0:0:
192,192,37918,1,0,0:0:0:0:
64,192,38007,1,0,0:0:0:0:
448,192,38007,1,0,0:0:0:0:
320,192,38095,1,0,0:0:0:0:
448,192,38183,1,0,0:0:0:0:
192,192,38183,1,0,0:0:0:0:
320,192,38271,1,0,0:0:0:0:
192,192,38360,1,0,0:0:0:0:
64,192,38360,1,0,0:0:0:0:
448,192,38360,1,0,0:0:0:0:
64,192,38536,1,0,0:0:0:0:
192,192,38536,1,0,0:0:0:0:
320,192,38536,1,0,0:0:0:0:
320,192,38713,1,0,0:0:0:0:
448,192,38713,1,0,0:0:0:0:
192,192,38801,1,0,0:0:0:0:
64,192,38889,1,0,0:0:0:0:
448,192,38889,1,0,0:0:0:0:
320,192,38977,1,0,0:0:0:0:
192,192,39065,1,0,0:0:0:0:
64,192,39065,1,0,0:0:0:0:
448,192,39065,1,0,0:0:0:0:
320,192,39242,1,0,0:0:0:0:
192,192,39242,1,0,0:0:0:0:
64,192,39330,1,0,0:0:0:0:
320,192,39418,1,0,0:0:0:0:
448,192,39418,1,0,0:0:0:0:
192,192,39507,1,0,0:0:0:0:
320,192,39595,1,0,0:0:0:0:
448,192,39595,1,0,0:0:0:0:
64,192,39595,1,0,0:0:0:0:
192,192,39771,1,0,0:0:0:0:
192,192,39948,1,0,0:0:0:0:
320,192,39948,1,0,0:0:0:0:
192,192,40124,1,0,0:0:0:0:
320,192,40213,1,0,0:0:0:0:
192,192,40301,1,0,0:0:0:0:
64,192,40301,1,0,0:0:0:0:
320,192,40389,1,0,0:0:0:0:
448,192,40477,1,0,0:0:0:0:
320,192,40565,1,0,0:0:0:0:
192,192,40654,1,0,0:0:0:0:
64,192,40742,1,0,0:0:0:0:
192,192,40830,1,0,0:0:0:0:
320,192,40830,1,0,0:0:0:0:
448,192,40830,1,0,0:0:0:0:
64,192,41007,1,0,0:0:0:0:
192,192,41095,1,0,0:0:0:0:
320,192,41183,1,0,0:0:0:0:
448,192,41183,1,0,0:0:0:0:
192,192,41360,1,0,0:0:0:0:
320,192,41360,1,0,0:0:0:0:
448,192,41360,1,0,0:0:0:0:
64,192,41536,128,0,41713:0:0:0:0:
320,192,41536,1,0,0:0:0:0:
192,192,41713,128,0,41889:0:0:0:0:
448,192,41713,1,0,0:0:0:0:
64,192,41889,128,0,42065:0:0:0:0:
320,192,41889,1,0,0:0:0:0:
192,192,42065,128,0,42418:0:0:0:0:
64,192,42418,1,0,0:0:0:0:
320,192,42418,1,0,0:0:0:0:
192,192,42683,1,0,0:0:0:0:
64,192,42771,1,0,0:0:0:0:
320,192,42771,1,0,0:0:0:0:
192,192,42948,1,0,0:0:0:0:
320,192,43124,1,0,0:0:0:0:
448,192,43124,1,0,0:0:0:0:
192,192,43213,1,0,0:0:0:0:
64,192,43301,1,0,0:0:0:0:
320,192,43389,1,0,0:0:0:0:
448,192,43389,1,0,0:0:0:0:
192,192,43477,1,0,0:0:0:0:
64,192,43565,1,0,0:0:0:0:
192,192,43654,1,0,0:0:0:0:
320,192,43654,1,0,0:0:0:0:
448,192,43654,1,0,0:0:0:0:
64,192,43742,1,0,0:0:0:0:
192,192,43830,1,0,0:0:0:0:
448,192,43918,1,0,0:0:0:0:
64,192,44007,1,0,0:0:0:0:
192,192,44007,1,0,0:0:0:0:
320,192,44007,1,0,0:0:0:0:
448,192,44095,1,0,0:0:0:0:
192,192,44183,1,0,0:0:0:0:
64,192,44271,1,0,0:0:0:0:
448,192,44360,1,0,0:0:0:0:
320,192,44404,1,0,0:0:0:0:
192,192,44448,1,0,0:0:0:0:
64,192,44492,1,0,0:0:0:0:
320,192,44536,1,0,0:0:0:0:
448,192,44536,1,0,0:0:0:0:
192,192,44624,1,0,0:0:0:0:
64,192,44713,1,0,0:0:0:0:
192,192,44801,1,0,0:0:0:0:
448,192,44889,1,0,0:0:0:0:
320,192,44933,1,0,0:0:0:0:
192,192,44977,1,0,0:0:0:0:
64,192,45021,1,0,0:0:0:0:
320,192,45065,1,0,0:0:0:0:
448,192,45065,1,0,0:0:0:0:
192,192,45154,1,0,0:0:0:0:
64,192,45242,1,0,0:0:0:0:
320,192,45242,1,0,0:0:0:0:
448,192,45242,1,0,0:0:0:0:
192,192,45330,1,0,0:0:0:0:
64,192,45418,1,0,0:0:0:0:
320,192,45418,1,0,0:0:0:0:
192,192,45507,1,0,0:0:0:0:
320,192,45595,1,0,0:0:0:0:
448,192,45595,1,0,0:0:0:0:
64,192,45683,1,0,0:0:0:0:
320,192,45771,1,0,0:0:0:0:
448,192,45771,1,0,0:0:0:0:
192,192,45860,1,0,0:0:0:0:
64,192,45948,1,0,0:0:0:0:
320,192,45948,1,0,0:0:0:0:
192,192,46036,1,0,0:0:0:0:
64,192,46124,1,0,0:0:0:0:
320,192,46124,1,0,0:0:0:0:
192,192,46213,1,0,0:0:0:0:
320,192,46301,1,0,0:0:0:0:
448,192,46389,1,0,0:0:0:0:
64,192,46477,1,0,0:0:0:0:
192,192,46521,1,0,0:0:0:0:
320,192,46565,1,0,0:0:0:0:
448,192,46610,1,0,0:0:0:0:
64,192,46654,1,0,0:0:0:0:
192,192,46742,1,0,0:0:0:0:
320,192,46830,1,0,0:0:0:0:
448,192,46830,1,0,0:0:0:0:
320,192,47007,1,0,0:0:0:0:
448,192,47007,1,0,0:0:0:0:
64,192,47183,1,0,0:0:0:0:
192,192,47183,1,0,0:0:0:0:
320,192,47271,1,0,0:0:0:0:
448,192,47360,1,0,0:0:0:0:
64,192,47448,1,0,0:0:0:0:
192,192,47448,1,0,0:0:0:0:
320,192,47536,1,0,0:0:0:0:
448,192,47624,1,0,0:0:0:0:
64,192,47713,1,0,0:0:0:0:
192,192,47757,1,0,0:0:0:0:
448,192,47801,1,0,0:0:0:0:
320,192,47845,1,0,0:0:0:0:
64,192,47889,1,0,0:0:0:0:
192,192,47933,1,0,0:0:0:0:
448,192,47977,1,0,0:0:0:0:
320,192,48021,1,0,0:0:0:0:
64,192,48065,1,0,0:0:0:0:
192,192,48065,1,0,0:0:0:0:
320,192,48242,1,0,0:0:0:0:
448,192,48242,1,0,0:0:0:0:
192,192,48330,1,0,0:0:0:0:
64,192,48330,1,0,0:0:0:0:
320,192,48418,1,0,0:0:0:0:
448,192,48418,1,0,0:0:0:0:
64,192,48595,1,0,0:0:0:0:
320,192,48771,1,0,0:0:0:0:
448,192,48771,1,0,0:0:0:0:
64,192,48860,1,0,0:0:0:0:
320,192,48948,1,0,0:0:0:0:
192,192,49036,1,0,0:0:0:0:
320,192,49124,1,0,0:0:0:0:
448,192,49124,1,0,0:0:0:0:
192,192,49213,1,0,0:0:0:0:
320,192,49301,1,0,0:0:0:0:
64,192,49389,1,0,0:0:0:0:
192,192,49389,1,0,0:0:0:0:
448,192,49477,1,0,0:0:0:0:
192,192,49565,1,0,0:0:0:0:
64,192,49565,1,0,0:0:0:0:
320,192,49654,1,0,0:0:0:0:
448,192,49654,1,0,0:0:0:0:
192,192,49830,1,0,0:0:0:0:
320,192,49830,1,0,0:0:0:0:
448,192,49830,1,0,0:0:0:0:
192,192,50007,1,0,0:0:0:0:
64,192,50007,1,0,0:0:0:0:
320,192,50095,1,0,0:0:0:0:
448,192,50183,1,0,0:0:0:0:
192,192,50271,1,0,0:0:0:0:
320,192,50271,1,0,0:0:0:0:
64,192,50360,1,0,0:0:0:0:
448,192,50360,1,0,0:0:0:0:
192,192,50536,1,0,0:0:0:0:
320,192,50536,1,0,0:0:0:0:
64,192,50624,1,0,0:0:0:0:
192,192,50713,1,0,0:0:0:0:
320,192,50713,1,0,0:0:0:0:
64,192,50801,1,0,0:0:0:0:
448,192,50801,1,0,0:0:0:0:
192,192,50889,1,0,0:0:0:0:
320,192,50889,1,0,0:0:0:0:
192,192,51242,1,0,0:0:0:0:
64,192,51595,1,0,0:0:0:0:
320,192,51595,1,0,0:0:0:0:
448,192,51595,1,0,0:0:0:0:
320,192,51948,1,0,0:0:0:0:
448,192,51948,1,0,0:0:0:0:
64,192,52124,1,0,0:0:0:0:
192,192,52124,1,0,0:0:0:0:
320,192,52301,1,0,0:0:0:0:
448,192,52301,1,0,0:0:0:0:
192,192,52477,1,0,0:0:0:0:
64,192,52477,1,0,0:0:0:0:
320,192,52654,1,0,0:0:0:0:
448,192,52654,1,0,0:0:0:0:
192,192,52654,1,0,0:0:0:0:
64,192,53007,128,0,53183:0:0:0:0:
192,192,53271,1,0,0:0:0:0:
320,192,53360,1,0,0:0:0:0:
448,192,53360,1,0,0:0:0:0:
192,192,53536,128,0,53713:0:0:0:0:
64,192,53713,1,0,0:0:0:0:
320,192,53713,128,0,53889:0:0:0:0:
64,192,53889,128,0,54595:0:0:0:0:
192,192,54065,1,0,0:0:0:0:
320,192,54065,1,0,0:0:0:0:
320,192,54242,1,0,0:0:0:0:
448,192,54330,1,0,0:0:0:0:
320,192,54418,1,0,0:0:0:0:
192,192,54507,1,0,0:0:0:0:
448,192,54595,1,0,0:0:0:0:
320,192,54595,1,0,0:0:0:0:
64,192,54771,128,0,55830:0:0:0:0:
192,192,54771,1,0,0:0:0:0:
320,192,54948,1,0,0:0:0:0:
448,192,54948,1,0,0:0:0:0:
192,192,55036,1,0,0:0:0:0:
320,192,55124,1,0,0:0:0:0:
448,192,55213,1,0,0:0:0:0:
192,192,55301,1,0,0:0:0:0:
320,192,55389,1,0,0:0:0:0:
192,192,55477,1,0,0:0:0:0:
448,192,55477,1,0,0:0:0:0:
320,192,55654,1,0,0:0:0:0:
448,192,55742,1,0,0:0:0:0:
192,192,55830,1,0,0:0:0:0:
320,192,55830,1,0,0:0:0:0:
448,192,55918,1,0,0:0:0:0:
64,192,56007,1,0,0:0:0:0:
320,192,56007,1,0,0:0:0:0:
192,192,56007,1,0,0:0:0:0:
320,192,56183,1,0,0:0:0:0:
448,192,56271,1,0,0:0:0:0:
320,192,56360,1,0,0:0:0:0:
64,192,56360,1,0,0:0:0:0:
448,192,56448,1,0,0:0:0:0:
64,192,56536,1,0,0:0:0:0:
320,192,56536,128,0,56713:0:0:0:0:
192,192,56536,1,0,0:0:0:0:
192,192,56713,128,0,57418:0:0:0:0:
320,192,56889,1,0,0:0:0:0:
448,192,56889,1,0,0:0:0:0:
320,192,57065,1,0,0:0:0:0:
64,192,57154,1,0,0:0:0:0:
320,192,57242,1,0,0:0:0:0:
448,192,57330,1,0,0:0:0:0:
64,192,57418,1,0,0:0:0:0:
320,192,57418,1,0,0:0:0:0:
192,192,57595,128,0,59007:0:0:0:0:
320,192,57595,1,0,0:0:0:0:
64,192,57595,1,0,0:0:0:0:
448,192,57683,1,0,0:0:0:0:
320,192,57771,1,0,0:0:0:0:
64,192,57860,1,0,0:0:0:0:
448,192,58036,1,0,0:0:0:0:
320,192,58124,1,0,0:0:0:0:
64,192,58124,128,0,58301:0:0:0:0:
320,192,58301,1,0,0:0:0:0:
448,192,58301,1,0,0:0:0:0:
320,192,58389,1,0,0:0:0:0:
448,192,58477,1,0,0:0:0:0:
64,192,58477,1,0,0:0:0:0:
64,192,58565,1,0,0:0:0:0:
320,192,58654,1,0,0:0:0:0:
448,192,58654,1,0,0:0:0:0:
64,192,58742,1,0,0:0:0:0:
320,192,58830,1,0,0:0:0:0:
448,192,58830,1,0,0:0:0:0:
64,192,59007,1,0,0:0:0:0:
320,192,59007,1,0,0:0:0:0:
192,192,59095,1,0,0:0:0:0:
64,192,59183,1,0,0:0:0:0:
320,192,59183,1,0,0:0:0:0:
192,192,59271,1,0,0:0:0:0:
64,192,59360,1,0,0:0:0:0:
320,192,59360,1,0,0:0:0:0:
448,192,59360,128,0,59536:0:0:0:0:
320,192,59536,128,0,60242:0:0:0:0:
64,192,59713,1,0,0:0:0:0:
192,192,59713,1,0,0:0:0:0:
192,192,59889,1,0,0:0:0:0:
448,192,59889,1,0,0:0:0:0:
64,192,59977,1,0,0:0:0:0:
448,192,60065,1,0,0:0:0:0:
64,192,60154,1,0,0:0:0:0:
192,192,60242,1,0,0:0:0:0:
448,192,60242,1,0,0:0:0:0:
320,192,60418,128,0,61830:0:0:0:0:
192,192,60418,1,0,0:0:0:0:
64,192,60507,1,0,0:0:0:0:
192,192,60595,1,0,0:0:0:0:
448,192,60683,1,0,0:0:0:0:
64,192,60771,1,0,0:0:0:0:
192,192,60771,1,0,0:0:0:0:
448,192,60860,1,0,0:0:0:0:
192,192,60948,1,0,0:0:0:0:
64,192,60948,1,0,0:0:0:0:
192,192,61124,1,0,0:0:0:0:
448,192,61124,1,0,0:0:0:0:
64,192,61301,1,0,0:0:0:0:
192,192,61389,1,0,0:0:0:0:
64,192,61477,1,0,0:0:0:0:
448,192,61477,1,0,0:0:0:0:
192,192,61565,1,0,0:0:0:0:
64,192,61654,1,0,0:0:0:0:
448,192,61654,1,0,0:0:0:0:
64,192,61830,1,0,0:0:0:0:
192,192,61830,1,0,0:0:0:0:
448,192,61918,1,0,0:0:0:0:
320,192,62007,1,0,0:0:0:0:
192,192,62095,1,0,0:0:0:0:
64,192,62183,128,0,62360:0:0:0:0:
320,192,62183,128,0,62360:0:0:0:0:
64,192,62536,1,0,0:0:0:0:
192,192,62536,1,0,0:0:0:0:
320,192,62536,1,0,0:0:0:0:
320,192,62713,1,0,0:0:0:0:
448,192,62713,1,0,0:0:0:0:
192,192,62801,1,0,0:0:0:0:
64,192,62889,1,0,0:0:0:0:
320,192,62977,1,0,0:0:0:0:
64,192,63065,1,0,0:0:0:0:
192,192,63065,1,0,0:0:0:0:
448,192,63242,1,0,0:0:0:0:
192,192,63242,1,0,0:0:0:0:
64,192,63418,1,0,0:0:0:0:
192,192,63418,1,0,0:0:0:0:
320,192,63418,1,0,0:0:0:0:
64,192,63683,1,0,0:0:0:0:
192,192,63771,1,0,0:0:0:0:
320,192,63860,1,0,0:0:0:0:
192,192,63948,128,0,64301:0:0:0:0:
448,192,63948,128,0,64301:0:0:0:0:
64,192,63948,128,0,64301:0:0:0:0:
64,192,64477,128,0,64830:0:0:0:0:
320,192,64477,128,0,64830:0:0:0:0:
448,192,64477,128,0,64830:0:0:0:0:
64,192,65007,1,0,0:0:0:0:
192,192,65007,1,0,0:0:0:0:
320,192,65007,1,0,0:0:0:0:
320,192,65271,1,0,0:0:0:0:
448,192,65360,1,0,0:0:0:0:
192,192,65360,128,0,65536:0:0:0:0:
64,192,65536,128,0,65889:0:0:0:0:
192,192,65713,1,0,0:0:0:0:
448,192,65713,1,0,0:0:0:0:
320,192,65801,1,0,0:0:0:0:
192,192,65889,1,0,0:0:0:0:
448,192,65889,1,0,0:0:0:0:
320,192,65977,1,0,0:0:0:0:
64,192,66065,128,0,67477:0:0:0:0:
192,192,66065,1,0,0:0:0:0:
448,192,66065,1,0,0:0:0:0:
320,192,66242,1,0,0:0:0:0:
448,192,66242,1,0,0:0:0:0:
192,192,66330,1,0,0:0:0:0:
320,192,66418,1,0,0:0:0:0:
448,192,66507,1,0,0:0:0:0:
320,192,66595,1,0,0:0:0:0:
192,192,66595,128,0,66771:0:0:0:0:
448,192,66771,1,0,0:0:0:0:
192,192,66948,1,0,0:0:0:0:
448,192,67036,1,0,0:0:0:0:
192,192,67124,1,0,0:0:0:0:
448,192,67213,1,0,0:0:0:0:
192,192,67301,1,0,0:0:0:0:
320,192,67301,1,0,0:0:0:0:
320,192,67477,1,0,0:0:0:0:
448,192,67477,1,0,0:0:0:0:
192,192,67565,1,0,0:0:0:0:
64,192,67654,1,0,0:0:0:0:
320,192,67654,1,0,0:0:0:0:
448,192,67742,1,0,0:0:0:0:
320,192,67830,128,0,68007:0:0:0:0:
192,192,68007,128,0,68713:0:0:0:0:
64,192,68183,1,0,0:0:0:0:
320,192,68183,1,0,0:0:0:0:
64,192,68360,1,0,0:0:0:0:
320,192,68360,1,0,0:0:0:0:
448,192,68448,1,0,0:0:0:0:
320,192,68536,1,0,0:0:0:0:
64,192,68624,1,0,0:0:0:0:
320,192,68713,1,0,0:0:0:0:
448,192,68713,1,0,0:0:0:0:
192,192,68889,128,0,70301:0:0:0:0:
64,192,68889,1,0,0:0:0:0:
320,192,68889,1,0,0:0:0:0:
64,192,69065,1,0,0:0:0:0:
320,192,69065,1,0,0:0:0:0:
448,192,69065,1,0,0:0:0:0:
320,192,69330,1,0,0:0:0:0:
64,192,69418,1,0,0:0:0:0:
448,192,69418,1,0,0:0:0:0:
64,192,69595,128,0,69771:0:0:0:0:
320,192,69595,1,0,0:0:0:0:
448,192,69771,1,0,0:0:0:0:
320,192,69860,1,0,0:0:0:0:
64,192,69948,1,0,0:0:0:0:
448,192,70036,1,0,0:0:0:0:
64,192,70124,1,0,0:0:0:0:
320,192,70124,1,0,0:0:0:0:
448,192,70213,1,0,0:0:0:0:
64,192,70301,1,0,0:0:0:0:
320,192,70389,1,0,0:0:0:0:
64,192,70477,1,0,0:0:0:0:
192,192,70477,1,0,0:0:0:0:
448,192,70477,1,0,0:0:0:0:
320,192,70654,128,0,70830:0:0:0:0:
192,192,70654,1,0,0:0:0:0:
448,192,70830,128,0,73124:0:0:0:0:
64,192,71007,1,0,0:0:0:0:
192,192,71007,1,0,0:0:0:0:
320,192,71183,1,0,0:0:0:0:
192,192,71271,1,0,0:0:0:0:
64,192,71360,1,0,0:0:0:0:
320,192,71360,1,0,0:0:0:0:
192,192,71448,1,0,0:0:0:0:
64,192,71536,1,0,0:0:0:0:
320,192,71536,1,0,0:0:0:0:
64,192,71713,1,0,0:0:0:0:
192,192,71713,1,0,0:0:0:0:
320,192,71801,1,0,0:0:0:0:
192,192,71889,1,0,0:0:0:0:
64,192,71977,1,0,0:0:0:0:
192,192,72065,1,0,0:0:0:0:
320,192,72065,1,0,0:0:0:0:
64,192,72242,1,0,0:0:0:0:
192,192,72242,1,0,0:0:0:0:
64,192,72418,1,0,0:0:0:0:
192,192,72418,1,0,0:0:0:0:
320,192,72418,1,0,0:0:0:0:
64,192,72595,1,0,0:0:0:0:
192,192,72683,1,0,0:0:0:0:
64,192,72771,1,0,0:0:0:0:
320,192,72771,1,0,0:0:0:0:
192,192,72860,1,0,0:0:0:0:
64,192,72948,1,0,0:0:0:0:
320,192,72948,1,0,0:0:0:0:
192,192,73124,1,0,0:0:0:0:
320,192,73213,1,0,0:0:0:0:
192,192,73301,1,0,0:0:0:0:
64,192,73301,1,0,0:0:0:0:
320,192,73389,1,0,0:0:0:0:
64,192,73477,1,0,0:0:0:0:
192,192,73521,1,0,0:0:0:0:
320,192,73565,1,0,0:0:0:0:
448,192,73610,1,0,0:0:0:0:
64,192,73654,1,0,0:0:0:0:
192,192,73698,1,0,0:0:0:0:
320,192,73742,1,0,0:0:0:0:
448,192,73786,1,0,0:0:0:0:
64,192,73830,1,0,0:0:0:0:
192,192,73830,1,0,0:0:0:0:
320,192,73918,1,0,0:0:0:0:
192,192,74007,1,0,0:0:0:0:
64,192,74007,1,0,0:0:0:0:
320,192,74095,1,0,0:0:0:0:
448,192,74183,1,0,0:0:0:0:
320,192,74227,1,0,0:0:0:0:
192,192,74271,1,0,0:0:0:0:
64,192,74315,1,0,0:0:0:0:
448,192,74360,1,0,0:0:0:0:
320,192,74404,1,0,0:0:0:0:
192,192,74448,1,0,0:0:0:0:
64,192,74492,1,0,0:0:0:0:
448,192,74536,1,0,0:0:0:0:
320,192,74624,1,0,0:0:0:0:
192,192,74713,1,0,0:0:0:0:
64,192,74713,1,0,0:0:0:0:
448,192,74713,1,0,0:0:0:0:
320,192,74801,1,0,0:0:0:0:
192,192,74889,1,0,0:0:0:0:
64,192,74889,1,0,0:0:0:0:
320,192,74977,1,0,0:0:0:0:
448,192,74977,1,0,0:0:0:0:
192,192,75065,1,0,0:0:0:0:
64,192,75065,1,0,0:0:0:0:
320,192,75154,1,0,0:0:0:0:
448,192,75154,1,0,0:0:0:0:
64,192,75242,128,0,75330:0:0:0:0:
192,192,75330,128,0,75418:0:0:0:0:
448,192,75418,128,0,75507:0:0:0:0:
320,192,75507,128,0,75595:0:0:0:0:
192,192,75595,128,0,75683:0:0:0:0:
448,192,75683,128,0,75771:0:0:0:0:
64,192,75771,128,0,75948:0:0:0:0:
192,192,75948,128,0,76036:0:0:0:0:
320,192,76036,128,0,76124:0:0:0:0:
448,192,76124,128,0,76213:0:0:0:0:
320,192,76301,1,0,0:0:0:0:
192,192,76301,1,0,0:0:0:0:
64,192,76301,1,0,0:0:0:0:
448,192,76477,128,0,76654:0:0:0:0:
64,192,76654,128,0,77007:0:0:0:0:
192,192,76654,128,0,77007:0:0:0:0:
320,192,77007,1,0,0:0:0:0:
320,192,77183,1,0,0:0:0:0:
448,192,77183,1,0,0:0:0:0:
64,192,77360,1,0,0:0:0:0:
192,192,77360,1,0,0:0:0:0:
320,192,77448,1,0,0:0:0:0:
448,192,77536,1,0,0:0:0:0:
192,192,77624,1,0,0:0:0:0:
64,192,77624,1,0,0:0:0:0:
448,192,77713,1,0,0:0:0:0:
320,192,77713,1,0,0:0:0:0:
64,192,77889,1,0,0:0:0:0:
320,192,77889,1,0,0:0:0:0:
320,192,78065,128,0,78418:0:0:0:0:
448,192,78065,128,0,78418:0:0:0:0:
192,192,78065,1,0,0:0:0:0:
64,192,78418,1,0,0:0:0:0:
192,192,78507,1,0,0:0:0:0:
320,192,78595,128,0,78948:0:0:0:0:
448,192,78595,128,0,78948:0:0:0:0:
64,192,78595,1,0,0:0:0:0:
192,192,78948,1,0,0:0:0:0:
64,192,79036,1,0,0:0:0:0:
192,192,79124,1,0,0:0:0:0:
448,192,79124,1,0,0:0:0:0:
320,192,79213,1,0,0:0:0:0:
192,192,79301,1,0,0:0:0:0:
448,192,79301,1,0,0:0:0:0:
320,192,79389,1,0,0:0:0:0:
64,192,79477,1,0,0:0:0:0:
192,192,79477,1,0,0:0:0:0:
320,192,79565,1,0,0:0:0:0:
192,192,79654,1,0,0:0:0:0:
64,192,79654,1,0,0:0:0:0:
448,192,79742,1,0,0:0:0:0:
320,192,79830,1,0,0:0:0:0:
192,192,79830,1,0,0:0:0:0:
64,192,79918,1,0,0:0:0:0:
192,192,80007,1,0,0:0:0:0:
320,192,80007,1,0,0:0:0:0:
448,192,80095,1,0,0:0:0:0:
320,192,80183,1,0,0:0:0:0:
64,192,80183,1,0,0:0:0:0:
192,192,80271,1,0,0:0:0:0:
320,192,80360,1,0,0:0:0:0:
448,192,80360,1,0,0:0:0:0:
192,192,80448,1,0,0:0:0:0:
64,192,80536,1,0,0:0:0:0:
320,192,80536,1,0,0:0:0:0:
64,192,80713,1,0,0:0:0:0:
192,192,80713,1,0,0:0:0:0:
320,192,80889,1,0,0:0:0:0:
448,192,80889,1,0,0:0:0:0:
320,192,81065,1,0,0:0:0:0:
192,192,81065,1,0,0:0:0:0:
448,192,81154,1,0,0:0:0:0:
320,192,81242,1,0,0:0:0:0:
192,192,81330,1,0,0:0:0:0:
64,192,81418,1,0,0:0:0:0:
320,192,81418,1,0,0:0:0:0:
192,192,81507,1,0,0:0:0:0:
448,192,81507,1,0,0:0:0:0:
320,192,81595,1,0,0:0:0:0:
192,192,81683,1,0,0:0:0:0:
64,192,81771,1,0,0:0:0:0:
448,192,81771,1,0,0:0:0:0:
320,192,81860,1,0,0:0:0:0:
192,192,81948,1,0,0:0:0:0:
64,192,81948,1,0,0:0:0:0:
448,192,81948,1,0,0:0:0:0:
320,192,82124,1,0,0:0:0:0:
64,192,82301,128,0,82477:0:0:0:0:
192,192,82301,128,0,82477:0:0:0:0:
320,192,82477,128,0,82654:0:0:0:0:
448,192,82477,128,0,82654:0:0:0:0:
64,192,82654,128,0,82830:0:0:0:0:
192,192,82654,128,0,82830:0:0:0:0:
320,192,82830,128,0,83007:0:0:0:0:
448,192,82830,128,0,83007:0:0:0:0:
192,192,83007,128,0,83183:0:0:0:0:
320,192,83183,128,0,83360:0:0:0:0:
192,192,83360,128,0,83536:0:0:0:0:
320,192,83536,128,0,83713:0:0:0:0:
64,192,83713,1,0,0:0:0:0:
448,192,83713,1,0,0:0:0:0:
192,192,83889,1,0,0:0:0:0:
448,192,83889,1,0,0:0:0:0:
320,192,83977,1,0,0:0:0:0:
192,192,84065,1,0,0:0:0:0:
448,192,84154,1,0,0:0:0:0:
320,192,84242,1,0,0:0:0:0:
64,192,84242,1,0,0:0:0:0:
320,192,84418,1,0,0:0:0:0:
448,192,84418,1,0,0:0:0:0:
192,192,84536,1,0,0:0:0:0:
448,192,84536,1,0,0:0:0:0:
64,192,84654,1,0,0:0:0:0:
192,192,84654,1,0,0:0:0:0:
320,192,84771,128,0,85124:0:0:0:0:
448,192,84771,128,0,85124:0:0:0:0:
64,192,85124,128,0,85477:0:0:0:0:
192,192,85124,128,0,85477:0:0:0:0:
448,192,85477,1,0,0:0:0:0:
320,192,85565,1,0,0:0:0:0:
64,192,85654,1,0,0:0:0:0:
448,192,85654,1,0,0:0:0:0:
192,192,85742,1,0,0:0:0:0:
320,192,85830,1,0,0:0:0:0:
448,192,85830,1,0,0:0:0:0:
192,192,85918,1,0,0:0:0:0:
64,192,85918,1,0,0:0:0:0:
320,192,86007,1,0,0:0:0:0:
448,192,86007,1,0,0:0:0:0:
192,192,86095,1,0,0:0:0:0:
64,192,86183,1,0,0:0:0:0:
192,192,86227,1,0,0:0:0:0:
320,192,86271,1,0,0:0:0:0:
448,192,86315,1,0,0:0:0:0:
64,192,86360,1,0,0:0:0:0:
192,192,86360,1,0,0:0:0:0:
320,192,86448,1,0,0:0:0:0:
448,192,86536,128,0,86713:0:0:0:0:
320,192,86713,1,0,0:0:0:0:
192,192,86801,1,0,0:0:0:0:
320,192,86889,1,0,0:0:0:0:
448,192,86889,1,0,0:0:0:0:
64,192,86977,1,0,0:0:0:0:
192,192,86977,1,0,0:0:0:0:
320,192,87065,1,0,0:0:0:0:
448,192,87154,1,0,0:0:0:0:
320,192,87242,1,0,0:0:0:0:
64,192,87242,1,0,0:0:0:0:
192,192,87330,1,0,0:0:0:0:
448,192,87330,1,0,0:0:0:0:
320,192,87418,1,0,0:0:0:0:
64,192,87507,128,0,87595:0:0:0:0:
192,192,87595,1,0,0:0:0:0:
448,192,87595,1,0,0:0:0:0:
320,192,87771,1,0,0:0:0:0:
64,192,87948,128,0,88301:0:0:0:0:
320,192,87948,128,0,88301:0:0:0:0:
192,192,88301,1,0,0:0:0:0:
448,192,88389,1,0,0:0:0:0:
64,192,88477,128,0,88830:0:0:0:0:
192,192,88477,128,0,88830:0:0:0:0:
320,192,88477,1,0,0:0:0:0:
320,192,88830,1,0,0:0:0:0:
448,192,88918,1,0,0:0:0:0:
320,192,89007,1,0,0:0:0:0:
64,192,89095,1,0,0:0:0:0:
192,192,89183,1,0,0:0:0:0:
320,192,89183,1,0,0:0:0:0:
192,192,89360,1,0,0:0:0:0:
320,192,89360,1,0,0:0:0:0:
448,192,89360,1,0,0:0:0:0:
64,192,89536,1,0,0:0:0:0:
192,192,89624,1,0,0:0:0:0:
320,192,89713,1,0,0:0:0:0:
448,192,89713,1,0,0:0:0:0:
192,192,89801,1,0,0:0:0:0:
64,192,89889,1,0,0:0:0:0:
448,192,89889,1,0,0:0:0:0:
320,192,89889,1,0,0:0:0:0:
192,192,89977,1,0,0:0:0:0:
64,192,90065,1,0,0:0:0:0:
320,192,90065,1,0,0:0:0:0:
192,192,90154,1,0,0:0:0:0:
64,192,90242,1,0,0:0:0:0:
448,192,90242,1,0,0:0:0:0:
320,192,90330,1,0,0:0:0:0:
192,192,90418,1,0,0:0:0:0:
64,192,90418,1,0,0:0:0:0:
448,192,90418,1,0,0:0:0:0:
448,192,90595,1,0,0:0:0:0:
192,192,90771,1,0,0:0:0:0:
320,192,90771,1,0,0:0:0:0:
64,192,90948,1,0,0:0:0:0:
320,192,90948,1,0,0:0:0:0:
192,192,91036,1,0,0:0:0:0:
320,192,91124,1,0,0:0:0:0:
448,192,91213,1,0,0:0:0:0:
192,192,91301,1,0,0:0:0:0:
64,192,91301,1,0,0:0:0:0:
320,192,91389,1,0,0:0:0:0:
192,192,91477,1,0,0:0:0:0:
448,192,91477,1,0,0:0:0:0:
64,192,91565,1,0,0:0:0:0:
320,192,91654,128,0,91830:0:0:0:0:
448,192,91654,128,0,91830:0:0:0:0:
192,192,91830,1,0,0:0:0:0:
64,192,91918,1,0,0:0:0:0:
192,192,92007,1,0,0:0:0:0:
448,192,92007,128,0,92360:0:0:0:0:
64,192,92183,1,0,0:0:0:0:
320,192,92183,1,0,0:0:0:0:
192,192,92360,1,0,0:0:0:0:
64,192,92360,1,0,0:0:0:0:
320,192,92448,1,0,0:0:0:0:
448,192,92536,1,0,0:0:0:0:
64,192,92624,1,0,0:0:0:0:
192,192,92713,128,0,93065:0:0:0:0:
448,192,92713,128,0,93065:0:0:0:0:
64,192,93065,1,0,0:0:0:0:
320,192,93154,1,0,0:0:0:0:
192,192,93242,1,0,0:0:0:0:
64,192,93242,1,0,0:0:0:0:
448,192,93242,1,0,0:0:0:0:
320,192,93595,1,0,0:0:0:0:
448,192,93595,1,0,0:0:0:0:
192,192,93595,1,0,0:0:0:0:
192,192,93771,1,0,0:0:0:0:
320,192,93771,1,0,0:0:0:0:
64,192,93860,1,0,0:0:0:0:
192,192,93948,1,0,0:0:0:0:
320,192,94036,1,0,0:0:0:0:
192,192,94124,1,0,0:0:0:0:
448,192,94124,1,0,0:0:0:0:
320,192,94213,1,0,0:0:0:0:
64,192,94301,1,0,0:0:0:0:
192,192,94301,1,0,0:0:0:0:
320,192,94389,1,0,0:0:0:0:
192,192,94477,1,0,0:0:0:0:
64,192,94477,1,0,0:0:0:0:
320,192,94565,1,0,0:0:0:0:
64,192,94654,1,0,0:0:0:0:
192,192,94654,1,0,0:0:0:0:
320,192,94742,1,0,0:0:0:0:
448,192,94830,1,0,0:0:0:0:
192,192,94830,1,0,0:0:0:0:
64,192,94830,1,0,0:0:0:0:
320,192,94918,1,0,0:0:0:0:
192,192,95007,1,0,0:0:0:0:
64,192,95095,1,0,0:0:0:0:
320,192,95183,1,0,0:0:0:0:
448,192,95183,1,0,0:0:0:0:
192,192,95271,1,0,0:0:0:0:
64,192,95360,1,0,0:0:0:0:
448,192,95360,1,0,0:0:0:0:
192,192,95448,1,0,0:0:0:0:
64,192,95536,1,0,0:0:0:0:
320,192,95536,1,0,0:0:0:0:
192,192,95624,1,0,0:0:0:0:
320,192,95713,1,0,0:0:0:0:
448,192,95713,1,0,0:0:0:0:
64,192,95801,1,0,0:0:0:0:
192,192,95889,1,0,0:0:0:0:
320,192,95977,1,0,0:0:0:0:
192,192,96065,128,0,96418:0:0:0:0:
64,192,96065,1,0,0:0:0:0:
448,192,96065,1,0,0:0:0:0:
448,192,96418,128,0,96771:0:0:0:0:
320,192,96771,1,0,0:0:0:0:
192,192,96860,1,0,0:0:0:0:
64,192,96948,1,0,0:0:0:0:
320,192,96948,1,0,0:0:0:0:
448,192,96948,1,0,0:0:0:0:
192,192,97036,1,0,0:0:0:0:
64,192,97124,1,0,0:0:0:0:
448,192,97124,1,0,0:0:0:0:
320,192,97213,1,0,0:0:0:0:
192,192,97301,1,0,0:0:0:0:
64,192,97301,1,0,0:0:0:0:
320,192,97389,1,0,0:0:0:0:
448,192,97389,1,0,0:0:0:0:
192,192,97477,1,0,0:0:0:0:
64,192,97477,1,0,0:0:0:0:
320,192,97565,1,0,0:0:0:0:
448,192,97565,1,0,0:0:0:0:
192,192,97654,1,0,0:0:0:0:
64,192,97654,1,0,0:0:0:0:
320,192,97742,1,0,0:0:0:0:
448,192,97742,1,0,0:0:0:0:
192,192,97830,1,0,0:0:0:0:
64,192,97918,1,0,0:0:0:0:
448,192,98007,1,0,0:0:0:0:
320,192,98095,1,0,0:0:0:0:
192,192,98183,1,0,0:0:0:0:
64,192,98271,1,0,0:0:0:0:
320,192,98360,1,0,0:0:0:0:
448,192,98360,1,0,0:0:0:0:
192,192,98448,1,0,0:0:0:0:
64,192,98536,128,0,98713:0:0:0:0:
448,192,98889,128,0,99065:0:0:0:0:
320,192,99065,128,0,99771:0:0:0:0:
320,192,99948,128,0,101360:0:0:0:0:
320,192,101713,128,0,101889:0:0:0:0:
192,192,101889,128,0,102595:0:0:0:0:
192,192,102771,128,0,104183:0:0:0:0:
192,192,104360,1,0,0:0:0:0:
192,192,104536,128,0,104713:0:0:0:0:
448,192,104536,128,0,107007:0:0:0:0:
64,192,104713,128,0,105418:0:0:0:0:
64,192,105595,128,0,107007:0:0:0:0:
320,192,107007,1,0,0:0:0:0:
320,192,107360,1,0,0:0:0:0:
320,192,108242,1,0,0:0:0:0:
448,192,108418,1,0,0:0:0:0:
448,192,108771,128,0,109830:0:0:0:0:
320,192,109918,1,0,0:0:0:0:
192,192,110007,1,0,0:0:0:0:
64,192,110095,1,0,0:0:0:0:
448,192,110183,128,0,110360:0:0:0:0:
64,192,110183,128,0,111595:0:0:0:0:
320,192,110360,128,0,111065:0:0:0:0:
320,192,111242,128,0,112654:0:0:0:0:
448,192,111595,128,0,113007:0:0:0:0:
320,192,113007,128,0,113183:0:0:0:0:
64,192,113007,1,0,0:0:0:0:
192,192,113183,128,0,113889:0:0:0:0:
192,192,114065,128,0,115477:0:0:0:0:
320,192,115477,128,0,115654:0:0:0:0:
192,192,115654,1,0,0:0:0:0:
448,192,115654,128,0,115830:0:0:0:0:
192,192,115830,128,0,116007:0:0:0:0:
320,192,115830,128,0,116183:0:0:0:0:
64,192,116007,128,0,116713:0:0:0:0:
448,192,116271,1,0,0:0:0:0:
320,192,116360,128,0,116713:0:0:0:0:
448,192,116801,1,0,0:0:0:0:
64,192,116889,128,0,118301:0:0:0:0:
320,192,116889,128,0,117242:0:0:0:0:
448,192,117330,1,0,0:0:0:0:
320,192,117418,128,0,117771:0:0:0:0:
448,192,117860,1,0,0:0:0:0:
320,192,117948,128,0,118301:0:0:0:0:
448,192,118389,1,0,0:0:0:0:
320,192,118477,128,0,118830:0:0:0:0:
64,192,118654,128,0,119536:0:0:0:0:
192,192,119536,1,0,0:0:0:0:
320,192,119830,1,0,0:0:0:0:
448,192,120065,128,0,121124:0:0:0:0:
320,192,121242,1,0,0:0:0:0:
448,192,121360,1,0,0:0:0:0:
448,192,121477,128,0,122889:0:0:0:0:
