osu file format v14

[General]
AudioFilename: audio.mp3
AudioLeadIn: 0
PreviewTime: 80060
Countdown: 0
SampleSet: Normal
StackLeniency: 0.7
Mode: 1
LetterboxInBreaks: 0
WidescreenStoryboard: 1

[Editor]
Bookmarks: 10060,20060,40060,60060,80060,90060,100060,120060,140060,160060
DistanceSpacing: 0.5
BeatDivisor: 4
GridSize: 8
TimelineZoom: 1.7

[Metadata]
Title:Yellow (A Second Glimpse)
TitleUnicode:Yellow (A Second Glimpse)
Artist:Culprate
ArtistUnicode:Culprate
Creator:Ulqui
Version:Muzukashii
Source:
Tags:colours dubstep electronic electronica experimental idm trip-hop Bristol
BeatmapID:1261677
BeatmapSetID:589814

[Difficulty]
HPDrainRate:5.5
CircleSize:2
OverallDifficulty:5
ApproachRate:10
SliderMultiplier:1.4
SliderTickRate:1

[Events]
//Background and Video events
0,0,"Konachan.com - 259701 sample.jpg",0,150
//Break Periods
//Storyboard Layer 0 (Background)
//Storyboard Layer 1 (Fail)
//Storyboard Layer 2 (Pass)
//Storyboard Layer 3 (Foreground)
//Storyboard Sound Samples

[TimingPoints]
80,312.5,4,1,0,100,1,0
10080,-100,4,1,0,40,0,0
59767,-100,4,1,0,10,0,0
60080,-100,4,1,0,60,0,1
80080,-100,4,1,0,60,0,0
99455,-100,4,1,0,60,0,0
99611,-105.263157894737,4,1,0,60,0,0
99767,-111.111111111111,4,1,0,60,0,0
99923,-117.647058823529,4,1,0,60,0,0
100080,-125,4,1,0,60,0,0
120080,-100,4,1,0,60,0,0
140080,-100,4,1,0,30,0,0

[HitObjects]
169,179,10080,5,8,0:0:0:0:
161,172,10236,1,0,0:0:0:0:
190,27,10548,1,0,0:0:0:0:
181,150,10705,1,8,0:0:0:0:
159,57,11330,1,8,0:0:0:0:
151,87,12580,1,8,0:0:0:0:
151,87,12736,1,0,0:0:0:0:
151,87,13205,1,8,0:0:0:0:
151,87,13830,1,0,0:0:0:0:
131,114,14455,1,8,0:0:0:0:
131,115,14611,1,0,0:0:0:0:
131,114,15080,1,8,0:0:0:0:
158,90,15236,1,0,0:0:0:0:
158,90,15705,1,8,0:0:0:0:
184,94,16330,1,8,0:0:0:0:
181,97,16955,1,0,0:0:0:0:
158,81,17267,1,8,0:0:0:0:
166,99,17580,1,8,0:0:0:0:
222,42,17736,1,0,0:0:0:0:
146,82,18205,1,8,0:0:0:0:
134,138,18830,1,0,0:0:0:0:
134,138,19142,1,8,0:0:0:0:
121,141,19455,1,0,0:0:0:0:
122,143,19611,1,8,0:0:0:0:
122,143,19923,1,8,0:0:0:0:
122,143,20080,1,0,0:0:0:0:
106,171,20548,1,0,0:0:0:0:
176,37,20705,1,8,0:0:0:0:
171,65,21330,1,8,0:0:0:0:
194,20,21955,1,8,0:0:0:0:
159,158,22267,1,0,0:0:0:0:
156,88,22580,1,8,0:0:0:0:
151,124,22736,1,0,0:0:0:0:
164,92,23205,1,8,0:0:0:0:
205,62,23830,1,0,0:0:0:0:
175,86,24455,1,8,0:0:0:0:
171,78,24611,1,0,0:0:0:0:
175,86,25080,1,8,0:0:0:0:
175,86,25236,1,0,0:0:0:0:
186,60,25705,1,8,0:0:0:0:
186,60,26330,1,8,0:0:0:0:
188,73,26955,1,0,0:0:0:0:
188,73,27267,1,8,0:0:0:0:
188,73,27580,1,8,0:0:0:0:
111,44,27736,1,0,0:0:0:0:
188,73,28205,1,8,0:0:0:0:
189,95,28830,1,0,0:0:0:0:
188,99,29142,1,8,0:0:0:0:
179,106,29455,1,0,0:0:0:0:
181,108,29611,1,8,0:0:0:0:
181,108,29923,1,8,0:0:0:0:
181,108,30080,1,0,0:0:0:0:
149,55,30548,1,0,0:0:0:0:
149,55,30705,1,8,0:0:0:0:
173,77,31330,1,8,0:0:0:0:
110,221,31955,1,8,0:0:0:0:
111,239,32267,1,0,0:0:0:0:
116,247,32580,1,8,0:0:0:0:
116,247,32736,1,0,0:0:0:0:
116,166,33205,1,8,0:0:0:0:
121,171,33830,1,8,0:0:0:0:
163,141,34142,1,0,0:0:0:0:
163,141,34455,1,8,0:0:0:0:
163,141,34611,1,0,0:0:0:0:
163,141,35080,1,8,0:0:0:0:
163,141,35236,1,0,0:0:0:0:
161,140,35705,1,8,0:0:0:0:
165,148,36330,1,8,0:0:0:0:
166,153,36955,1,0,0:0:0:0:
165,148,37267,1,8,0:0:0:0:
166,153,37580,1,8,0:0:0:0:
166,153,37736,1,0,0:0:0:0:
161,70,38205,1,8,0:0:0:0:
163,81,38830,1,0,0:0:0:0:
164,87,39142,1,8,0:0:0:0:
181,97,39455,1,0,0:0:0:0:
188,98,39611,1,8,0:0:0:0:
188,98,39923,1,8,0:0:0:0:
188,98,40080,1,0,0:0:0:0:
171,113,40548,1,0,0:0:0:0:
171,116,40705,1,8,0:0:0:0:
171,122,41330,1,8,0:0:0:0:
156,112,41955,1,8,0:0:0:0:
161,52,42267,1,0,0:0:0:0:
169,21,42580,1,8,0:0:0:0:
202,69,42736,1,0,0:0:0:0:
196,107,43205,1,8,0:0:0:0:
195,127,43439,1,8,0:0:0:0:
196,124,43830,1,0,0:0:0:0:
176,128,44455,1,8,0:0:0:0:
174,128,44611,1,0,0:0:0:0:
176,128,45080,1,8,0:0:0:0:
176,128,45236,1,0,0:0:0:0:
188,82,45705,1,8,0:0:0:0:
171,79,46330,1,8,0:0:0:0:
114,227,46955,1,0,0:0:0:0:
114,227,47267,1,8,0:0:0:0:
165,93,47580,1,8,0:0:0:0:
165,93,47736,1,0,0:0:0:0:
174,77,48205,1,8,0:0:0:0:
174,89,48830,1,0,0:0:0:0:
178,108,49142,1,8,0:0:0:0:
171,57,49455,1,0,0:0:0:0:
171,57,49611,1,8,0:0:0:0:
171,57,49923,1,8,0:0:0:0:
171,57,50080,1,0,0:0:0:0:
147,156,50548,1,0,0:0:0:0:
147,156,50705,1,8,0:0:0:0:
196,64,51330,1,8,0:0:0:0:
186,92,51955,1,8,0:0:0:0:
177,81,52267,1,0,0:0:0:0:
160,62,52580,1,8,0:0:0:0:
162,86,52736,1,0,0:0:0:0:
160,106,53205,1,8,0:0:0:0:
169,107,53830,1,8,0:0:0:0:
165,83,54142,1,0,0:0:0:0:
166,86,54455,1,8,0:0:0:0:
167,87,54611,1,0,0:0:0:0:
175,102,55080,1,8,0:0:0:0:
175,102,55236,1,0,0:0:0:0:
142,53,55705,1,8,0:0:0:0:
181,56,56330,1,8,0:0:0:0:
189,72,56955,1,0,0:0:0:0:
189,74,57267,1,8,0:0:0:0:
150,154,57580,1,0,0:0:0:0:
150,154,57736,1,0,0:0:0:0:
184,127,58205,1,8,0:0:0:0:
161,92,58517,1,0,0:0:0:0:
153,65,58830,1,8,0:0:0:0:
181,102,58986,1,0,0:0:0:0:
170,71,59142,1,0,0:0:0:0:
170,75,59455,1,0,0:0:0:0:
206,20,59767,1,8,0:0:0:0:
178,102,60080,1,8,0:0:0:0:
192,112,60392,1,0,0:0:0:0:
195,115,60548,1,8,0:0:0:0:
196,116,60705,1,0,0:0:0:0:
198,117,61017,1,8,0:0:0:0:
198,117,61330,1,0,0:0:0:0:
195,115,61486,1,8,0:0:0:0:
196,116,61798,1,0,0:0:0:0:
198,117,61955,1,8,0:0:0:0:
188,127,62580,1,0,0:0:0:0:
190,126,62892,1,8,0:0:0:0:
194,142,63048,1,0,0:0:0:0:
193,141,63361,1,8,0:0:0:0:
195,142,63517,1,0,0:0:0:0:
195,143,63830,1,0,0:0:0:0:
203,126,64064,1,0,0:0:0:0:
203,126,64298,1,0,0:0:0:0:
204,128,64455,1,8,0:0:0:0:
188,83,65080,1,0,0:0:0:0:
172,112,65392,1,8,0:0:0:0:
173,110,65705,1,0,0:0:0:0:
191,41,65861,1,8,0:0:0:0:
177,113,66017,1,0,0:0:0:0:
191,41,66173,1,8,0:0:0:0:
182,114,66330,1,0,0:0:0:0:
182,114,66642,1,8,0:0:0:0:
177,113,66955,1,0,0:0:0:0:
182,114,67580,1,0,0:0:0:0:
183,110,67892,1,8,0:0:0:0:
183,61,68048,1,8,0:0:0:0:
190,103,68205,1,8,0:0:0:0:
165,58,68361,1,8,0:0:0:0:
192,106,68517,1,8,0:0:0:0:
192,106,68830,1,0,0:0:0:0:
204,114,68986,1,8,0:0:0:0:
203,92,69142,1,0,0:0:0:0:
196,35,69220,1,0,0:0:0:0:
197,51,69298,1,0,0:0:0:0:
192,106,69455,1,8,0:0:0:0:
192,106,69767,1,8,0:0:0:0:
194,112,70080,1,0,0:0:0:0:
181,101,70392,1,8,0:0:0:0:
165,103,70705,1,0,0:0:0:0:
165,103,70861,1,8,0:0:0:0:
184,152,71173,1,0,0:0:0:0:
184,152,71330,1,0,0:0:0:0:
184,152,71486,1,8,0:0:0:0:
208,92,71798,1,0,0:0:0:0:
208,92,71955,1,0,0:0:0:0:
208,92,72267,1,8,0:0:0:0:
198,94,72580,1,0,0:0:0:0:
196,102,72892,1,8,0:0:0:0:
198,112,73205,1,0,0:0:0:0:
199,111,73361,1,8,0:0:0:0:
201,112,73673,1,0,0:0:0:0:
201,112,73830,1,0,0:0:0:0:
151,92,73986,1,8,0:0:0:0:
151,92,74142,1,0,0:0:0:0:
151,92,74298,1,8,0:0:0:0:
151,92,74455,1,0,0:0:0:0:
163,115,75080,1,0,0:0:0:0:
171,125,75392,1,8,0:0:0:0:
184,106,75705,1,0,0:0:0:0:
184,106,75861,1,8,0:0:0:0:
198,97,76173,1,8,0:0:0:0:
200,99,76330,1,0,0:0:0:0:
200,99,76642,1,8,0:0:0:0:
201,107,76955,1,0,0:0:0:0:
189,41,77111,1,8,0:0:0:0:
181,94,77267,1,0,0:0:0:0:
182,96,77580,1,8,0:0:0:0:
192,73,77892,1,0,0:0:0:0:
193,76,78205,1,0,0:0:0:0:
196,47,78517,1,8,0:0:0:0:
196,49,78830,1,0,0:0:0:0:
198,51,78986,1,8,0:0:0:0:
198,52,79142,1,8,0:0:0:0:
256,192,79455,12,0,79767,0:0:0:0:
181,121,80080,5,8,0:0:0:0:
175,102,80392,1,0,0:0:0:0:
175,102,80548,1,8,0:0:0:0:
175,102,80705,1,0,0:0:0:0:
175,97,81017,1,8,0:0:0:0:
192,128,81330,1,0,0:0:0:0:
196,121,81486,1,8,0:0:0:0:
213,123,81798,1,0,0:0:0:0:
196,124,81955,1,8,0:0:0:0:
200,136,82580,1,0,0:0:0:0:
235,135,82892,1,8,0:0:0:0:
156,117,83048,1,0,0:0:0:0:
156,117,83361,1,8,0:0:0:0:
156,117,83517,1,0,0:0:0:0:
152,127,83830,1,0,0:0:0:0:
172,94,84455,1,8,0:0:0:0:
168,101,85080,1,0,0:0:0:0:
166,107,85392,1,8,0:0:0:0:
168,101,85705,1,0,0:0:0:0:
168,82,85861,1,8,0:0:0:0:
165,117,86017,1,0,0:0:0:0:
168,83,86173,1,8,0:0:0:0:
165,122,86330,1,0,0:0:0:0:
165,74,86642,1,8,0:0:0:0:
162,96,86955,1,0,0:0:0:0:
162,96,87111,1,0,0:0:0:0:
162,96,87267,1,8,0:0:0:0:
199,85,87580,1,8,0:0:0:0:
188,88,87736,1,0,0:0:0:0:
247,171,88048,1,0,0:0:0:0:
194,84,88205,1,8,0:0:0:0:
205,37,88517,1,0,0:0:0:0:
205,37,88830,1,0,0:0:0:0:
205,37,89142,1,8,0:0:0:0:
171,34,89455,1,0,0:0:0:0:
176,36,89611,1,8,0:0:0:0:
176,37,89767,1,0,0:0:0:0:
177,37,89923,1,8,0:0:0:0:
178,37,90080,1,0,0:0:0:0:
195,122,90392,1,8,0:0:0:0:
195,62,90548,1,0,0:0:0:0:
191,62,90626,1,0,0:0:0:0:
195,122,90705,1,0,0:0:0:0:
195,122,91017,1,8,0:0:0:0:
195,122,91330,1,0,0:0:0:0:
223,59,91486,1,0,0:0:0:0:
195,122,91642,1,8,0:0:0:0:
195,122,91955,1,0,0:0:0:0:
198,87,92111,1,8,0:0:0:0:
195,122,92267,1,0,0:0:0:0:
192,58,92423,1,8,0:0:0:0:
195,122,92580,1,0,0:0:0:0:
195,122,93048,1,8,0:0:0:0:
195,122,93361,1,8,0:0:0:0:
209,54,93673,1,0,0:0:0:0:
195,122,93830,1,8,0:0:0:0:
195,122,94298,1,8,0:0:0:0:
195,122,94455,1,0,0:0:0:0:
141,67,95392,1,0,0:0:0:0:
141,67,95705,1,0,0:0:0:0:
141,67,96017,1,0,0:0:0:0:
172,94,96173,1,8,0:0:0:0:
141,67,96330,1,0,0:0:0:0:
173,95,96642,1,8,0:0:0:0:
172,94,96955,1,0,0:0:0:0:
173,95,97267,1,8,0:0:0:0:
173,95,97580,1,8,0:0:0:0:
173,127,97736,1,0,0:0:0:0:
171,126,98048,1,0,0:0:0:0:
170,125,98205,1,8,0:0:0:0:
173,68,98517,1,0,0:0:0:0:
173,68,98830,1,0,0:0:0:0:
173,68,99142,1,8,0:0:0:0:
176,87,99455,1,0,0:0:0:0:
167,102,99611,1,8,0:0:0:0:
176,90,99767,1,0,0:0:0:0:
167,104,99923,1,8,0:0:0:0:
176,91,100080,1,0,0:0:0:0:
216,85,100600,1,8,0:0:0:0:
166,222,100705,1,0,0:0:0:0:
158,175,101017,1,8,0:0:0:0:
182,85,101330,1,0,0:0:0:0:
221,115,101486,1,8,0:0:0:0:
182,85,101642,1,0,0:0:0:0:
220,123,101955,1,8,0:0:0:0:
216,147,102580,1,0,0:0:0:0:
216,147,103205,1,8,0:0:0:0:
177,112,103517,1,0,0:0:0:0:
177,112,103830,1,0,0:0:0:0:
178,92,104142,1,8,0:0:0:0:
178,93,104455,1,0,0:0:0:0:
190,124,105080,1,0,0:0:0:0:
180,152,105705,1,8,0:0:0:0:
195,173,106017,1,0,0:0:0:0:
236,106,106225,1,8,0:0:0:0:
195,173,106330,1,0,0:0:0:0:
187,180,106642,1,0,0:0:0:0:
187,180,106955,1,8,0:0:0:0:
165,110,107580,1,0,0:0:0:0:
186,67,108100,1,8,0:0:0:0:
165,110,108205,1,0,0:0:0:0:
171,77,108517,1,8,0:0:0:0:
167,77,108830,1,0,0:0:0:0:
167,79,108986,1,8,0:0:0:0:
171,77,109455,1,8,0:0:0:0:
171,87,109767,1,0,0:0:0:0:
172,89,110080,1,0,0:0:0:0:
210,131,110705,1,0,0:0:0:0:
178,98,111017,1,8,0:0:0:0:
178,97,111330,1,0,0:0:0:0:
181,106,111642,1,0,0:0:0:0:
181,104,111955,1,8,0:0:0:0:
185,62,112580,1,0,0:0:0:0:
206,38,112892,1,0,0:0:0:0:
185,77,113205,1,8,0:0:0:0:
170,44,113830,1,0,0:0:0:0:
165,79,114142,1,8,0:0:0:0:
180,91,114455,1,0,0:0:0:0:
157,85,114611,1,8,0:0:0:0:
158,86,114923,1,8,0:0:0:0:
187,55,115080,1,0,0:0:0:0:
226,136,115600,1,8,0:0:0:0:
203,77,115705,1,0,0:0:0:0:
194,89,116017,1,8,0:0:0:0:
220,80,116330,1,0,0:0:0:0:
213,91,116486,1,8,0:0:0:0:
215,93,116642,1,0,0:0:0:0:
212,108,116955,1,0,0:0:0:0:
191,125,117580,1,0,0:0:0:0:
207,22,117892,1,0,0:0:0:0:
164,80,118205,1,8,0:0:0:0:
181,82,118517,1,0,0:0:0:0:
212,84,118673,1,0,0:0:0:0:
182,84,118830,1,8,0:0:0:0:
204,72,119142,1,0,0:0:0:0:
169,182,120080,1,0,0:0:0:0:
161,169,120548,1,8,0:0:0:0:
161,169,120705,1,0,0:0:0:0:
160,168,121017,1,8,0:0:0:0:
161,169,121330,1,0,0:0:0:0:
144,166,121486,1,8,0:0:0:0:
144,166,121642,1,0,0:0:0:0:
144,166,121955,1,8,0:0:0:0:
133,172,122580,1,0,0:0:0:0:
196,117,122892,1,0,0:0:0:0:
196,117,123205,1,8,0:0:0:0:
168,113,123517,1,0,0:0:0:0:
168,113,123673,1,8,0:0:0:0:
168,113,123830,1,0,0:0:0:0:
156,145,124142,1,0,0:0:0:0:
156,145,124455,1,8,0:0:0:0:
159,138,125080,1,0,0:0:0:0:
240,96,125236,1,0,0:0:0:0:
159,138,125392,1,0,0:0:0:0:
159,137,125470,1,0,0:0:0:0:
159,138,125548,1,0,0:0:0:0:
163,130,125705,1,8,0:0:0:0:
169,68,126017,1,0,0:0:0:0:
163,58,126173,1,8,0:0:0:0:
169,68,126330,1,0,0:0:0:0:
161,119,126642,1,0,0:0:0:0:
161,119,126955,1,8,0:0:0:0:
171,101,127267,1,8,0:0:0:0:
161,119,127580,1,0,0:0:0:0:
182,72,127736,1,0,0:0:0:0:
166,125,128048,1,0,0:0:0:0:
154,153,128205,1,8,0:0:0:0:
153,143,128517,1,8,0:0:0:0:
158,156,129142,1,8,0:0:0:0:
157,157,129455,1,0,0:0:0:0:
157,157,129611,1,8,0:0:0:0:
157,157,129767,1,0,0:0:0:0:
158,156,129923,1,8,0:0:0:0:
158,156,130080,1,0,0:0:0:0:
174,178,130314,1,8,0:0:0:0:
154,103,130548,1,0,0:0:0:0:
171,180,130705,1,8,0:0:0:0:
150,172,131017,1,0,0:0:0:0:
150,172,131330,1,0,0:0:0:0:
169,91,131486,1,0,0:0:0:0:
154,127,131642,1,0,0:0:0:0:
151,141,131955,1,8,0:0:0:0:
149,139,132267,1,8,0:0:0:0:
143,98,132580,1,0,0:0:0:0:
143,87,133048,1,0,0:0:0:0:
166,86,133205,1,8,0:0:0:0:
166,137,133361,1,0,0:0:0:0:
143,98,133517,1,8,0:0:0:0:
166,137,133830,1,0,0:0:0:0:
166,137,133986,1,8,0:0:0:0:
166,137,134142,1,0,0:0:0:0:
164,123,134455,1,0,0:0:0:0:
155,131,135080,1,0,0:0:0:0:
151,129,135236,1,0,0:0:0:0:
152,119,135392,1,0,0:0:0:0:
151,118,135470,1,0,0:0:0:0:
152,119,135548,1,0,0:0:0:0:
155,131,135705,1,8,0:0:0:0:
171,120,136017,1,0,0:0:0:0:
170,121,136173,1,8,0:0:0:0:
170,121,136330,1,0,0:0:0:0:
123,116,136642,1,0,0:0:0:0:
123,116,136955,1,8,0:0:0:0:
123,116,137267,1,8,0:0:0:0:
133,141,137580,1,0,0:0:0:0:
131,133,137892,1,0,0:0:0:0:
131,133,138048,1,8,0:0:0:0:
151,121,138361,1,0,0:0:0:0:
151,122,138517,1,8,0:0:0:0:
151,122,138830,1,0,0:0:0:0:
151,122,138986,1,8,0:0:0:0:
151,121,139142,1,0,0:0:0:0:
159,150,139455,1,8,0:0:0:0:
159,150,139767,1,0,0:0:0:0:
199,144,140548,1,0,0:0:0:0:
199,144,140626,1,0,0:0:0:0:
191,158,140939,1,0,0:0:0:0:
167,67,141173,1,8,0:0:0:0:
167,67,141408,1,0,0:0:0:0:
185,44,141798,1,8,0:0:0:0:
183,45,142033,1,8,0:0:0:0:
180,84,142580,1,0,0:0:0:0:
180,84,142736,1,0,0:0:0:0:
167,90,143205,1,8,0:0:0:0:
177,90,144455,1,0,0:0:0:0:
177,90,145080,1,8,0:0:0:0:
172,84,145236,1,0,0:0:0:0:
154,70,145548,1,8,0:0:0:0:
157,75,145939,1,0,0:0:0:0:
202,67,146330,1,8,0:0:0:0:
228,98,146955,1,0,0:0:0:0:
228,98,147267,1,8,0:0:0:0:
228,98,147580,1,8,0:0:0:0:
226,90,147736,1,0,0:0:0:0:
173,55,147970,1,0,0:0:0:0:
173,55,148048,1,0,0:0:0:0:
173,55,148205,1,8,0:0:0:0:
184,96,148830,1,0,0:0:0:0:
184,96,149064,1,8,0:0:0:0:
184,96,149142,1,8,0:0:0:0:
184,81,149455,1,0,0:0:0:0:
184,81,149611,1,8,0:0:0:0:
184,81,149767,1,0,0:0:0:0:
184,81,149923,1,8,0:0:0:0:
184,81,150080,1,0,0:0:0:0:
215,224,150314,1,8,0:0:0:0:
207,225,150548,1,0,0:0:0:0:
208,227,150626,1,0,0:0:0:0:
187,120,150939,1,0,0:0:0:0:
157,115,151173,1,8,0:0:0:0:
155,80,151408,1,0,0:0:0:0:
160,127,151798,1,8,0:0:0:0:
158,104,152033,1,8,0:0:0:0:
187,131,152267,1,0,0:0:0:0:
188,131,152423,1,8,0:0:0:0:
188,131,152580,1,8,0:0:0:0:
156,104,152736,1,0,0:0:0:0:
159,108,153205,1,8,0:0:0:0:
173,133,154455,1,0,0:0:0:0:
172,123,155080,1,8,0:0:0:0:
173,133,155236,1,0,0:0:0:0:
172,123,155548,1,8,0:0:0:0:
147,118,155939,1,0,0:0:0:0:
149,119,156330,1,8,0:0:0:0:
170,110,156955,1,0,0:0:0:0:
171,112,157267,1,8,0:0:0:0:
150,130,157580,1,8,0:0:0:0:
150,130,157736,1,0,0:0:0:0:
142,125,157970,1,0,0:0:0:0:
142,123,158048,1,0,0:0:0:0:
146,95,158205,1,8,0:0:0:0:
167,109,158830,1,0,0:0:0:0:
170,115,159064,1,8,0:0:0:0:
172,117,159142,1,8,0:0:0:0:
177,152,159455,1,0,0:0:0:0:
177,152,159611,1,8,0:0:0:0:
177,152,159923,1,8,0:0:0:0:
222,46,160080,1,4,0:0:0:0:
