osu file format v14

[General]
AudioFilename: Culprate - Tentale VIP.mp3
AudioLeadIn: 0
PreviewTime: 54855
Countdown: 0
SampleSet: Soft
StackLeniency: 0.7
Mode: 3
LetterboxInBreaks: 0
SpecialStyle: 0
WidescreenStoryboard: 1

[Editor]
DistanceSpacing: 2
BeatDivisor: 4
GridSize: 8
TimelineZoom: 2.499998

[Metadata]
Title:Tentacle VIP
TitleUnicode:Tentacle VIP
Artist:Culprate
ArtistUnicode:Culprate
Creator:Nivrad00
Version:Inertia
Source:
Tags:Inspected
BeatmapID:916468
BeatmapSetID:424218

[Difficulty]
HPDrainRate:8
CircleSize:7
OverallDifficulty:8
ApproachRate:5
SliderMultiplier:1.4
SliderTickRate:1

[Events]
//Background and Video events
0,0,"Untitled.png",0,0
//Break Periods
2,97055,105087
//Storyboard Layer 0 (Background)
//Storyboard Layer 1 (Fail)
//Storyboard Layer 2 (Pass)
//Storyboard Layer 3 (Foreground)
//Storyboard Sound Samples

[TimingPoints]
-1,428.571428571429,4,2,0,0,1,0
-1,-333.333333333333,99,2,0,0,0,0
0,6,99,2,0,0,1,0
1,6,99,2,0,0,1,0
1,-10,4,2,0,0,0,0
10,428.571428571429,4,2,0,0,1,0
10,-333.333333333333,4,2,0,0,0,0
571,6,99,2,0,0,1,0
572,6,99,2,0,0,1,0
572,-10,4,2,0,0,0,0
581,428.571428571429,4,2,0,0,1,0
581,-333.333333333333,4,2,0,0,0,0
1143,6,99,2,0,0,1,0
1144,6,99,2,0,0,1,0
1144,-10,4,2,0,0,0,0
1153,428.571428571429,4,2,0,0,1,0
1153,-333.333333333333,4,2,0,0,0,0
1714,6,99,2,0,0,1,0
1715,6,99,2,0,0,1,0
1715,-10,4,2,0,0,0,0
1724,428.571428571429,4,2,0,0,1,0
1724,-333.333333333333,4,2,0,0,0,0
2285,6,99,2,0,0,1,0
2286,6,99,2,0,0,1,0
2286,-10,4,2,0,0,0,0
2295,428.571428571429,4,2,0,0,1,0
2295,-333.333333333333,4,2,0,0,0,0
2857,6,99,2,0,0,1,0
2858,6,99,2,0,0,1,0
2858,-10,99,2,0,0,0,0
2867,428.571428571429,4,2,0,0,1,0
2867,-333.333333333333,4,2,0,0,0,0
3153,9999999,4,2,0,0,1,0
3154,9999999,4,2,0,0,1,0
3155,9999999,4,2,0,0,1,0
3156,9999999,4,2,0,0,1,0
3157,9999999,4,2,0,0,1,0
3158,9999999,4,2,0,0,1,0
3159,9999999,4,2,0,0,1,0
3160,9999999,4,2,0,0,1,0
3161,9999999,4,2,0,0,1,0
3162,9999999,4,2,0,0,1,0
3163,9999999,4,2,0,0,1,0
3164,9999999,4,2,0,0,1,0
3165,9999999,4,2,0,0,1,0
3166,9999999,4,2,0,0,1,0
3167,9999999,4,2,0,0,1,0
3168,9999999,4,2,0,0,1,0
3169,9999999,4,2,0,0,1,0
3170,9999999,4,2,0,0,1,0
3171,9999999,4,2,0,0,1,0
3172,9999999,4,2,0,0,1,0
3173,9999999,4,2,0,0,1,0
3174,9999999,4,2,0,0,1,0
3175,9999999,4,2,0,0,1,0
3176,9999999,4,2,0,0,1,0
3177,9999999,4,2,0,0,1,0
3178,9999999,4,2,0,0,1,0
3179,9999999,4,2,0,0,1,0
3180,9999999,4,2,0,0,1,0
3181,9999999,4,2,0,0,1,0
3182,9999999,4,2,0,0,1,0
3183,9999999,4,2,0,0,1,0
3184,9999999,4,2,0,0,1,0
3185,9999999,4,2,0,0,1,0
3186,9999999,4,2,0,0,1,0
3187,9999999,4,2,0,0,1,0
3188,9999999,4,2,0,0,1,0
3189,9999999,4,2,0,0,1,0
3190,9999999,4,2,0,0,1,0
3191,9999999,4,2,0,0,1,0
3192,9999999,4,2,0,0,1,0
3193,9999999,4,2,0,0,1,0
3194,9999999,4,2,0,0,1,0
3195,9999999,4,2,0,0,1,0
3196,9999999,4,2,0,0,1,0
3197,9999999,4,2,0,0,1,0
3198,9999999,4,2,0,0,1,0
3199,9999999,4,2,0,0,1,0
3200,9999999,4,2,0,0,1,0
3201,9999999,4,2,0,0,1,0
3202,9999999,4,2,0,0,1,0
3203,9999999,4,2,0,0,1,0
3204,9999999,4,2,0,0,1,0
3205,9999999,4,2,0,0,1,0
3206,9999999,4,2,0,0,1,0
3207,9999999,4,2,0,0,1,0
3208,9999999,4,2,0,0,1,0
3209,9999999,4,2,0,0,1,0
3210,9999999,4,2,0,0,1,0
3211,9999999,4,2,0,0,1,0
3212,9999999,4,2,0,0,1,0
3213,9999999,4,2,0,0,1,0
3214,9999999,4,2,0,0,1,0
3215,9999999,4,2,0,0,1,0
3216,9999999,4,2,0,0,1,0
3217,9999999,4,2,0,0,1,0
3218,9999999,4,2,0,0,1,0
3219,9999999,4,2,0,0,1,0
3220,9999999,4,2,0,0,1,0
3221,9999999,4,2,0,0,1,0
3222,9999999,4,2,0,0,1,0
3223,9999999,4,2,0,0,1,0
3224,9999999,4,2,0,0,1,0
3225,9999999,4,2,0,0,1,0
3226,9999999,4,2,0,0,1,0
3227,9999999,4,2,0,0,1,0
3228,9999999,4,2,0,0,1,0
3229,9999999,4,2,0,0,1,0
3230,9999999,4,2,0,0,1,0
3231,9999999,4,2,0,0,1,0
3232,9999999,4,2,0,0,1,0
3233,9999999,4,2,0,0,1,0
3234,9999999,4,2,0,0,1,0
3235,9999999,4,2,0,0,1,0
3236,9999999,4,2,0,0,1,0
3237,9999999,4,2,0,0,1,0
3238,9999999,4,2,0,0,1,0
3239,9999999,4,2,0,0,1,0
3240,9999999,4,2,0,0,1,0
3241,9999999,4,2,0,0,1,0
3242,9999999,4,2,0,0,1,0
3243,9999999,4,2,0,0,1,0
3244,9999999,4,2,0,0,1,0
3245,9999999,4,2,0,0,1,0
3246,9999999,4,2,0,0,1,0
3247,9999999,4,2,0,0,1,0
3248,9999999,4,2,0,0,1,0
3249,9999999,4,2,0,0,1,0
3250,9999999,4,2,0,0,1,0
3251,9999999,4,2,0,0,1,0
3252,9999999,4,2,0,0,1,0
3253,9999999,4,2,0,0,1,0
3254,9999999,4,2,0,0,1,0
3255,9999999,4,2,0,0,1,0
3256,9999999,4,2,0,0,1,0
3257,9999999,4,2,0,0,1,0
3258,9999999,4,2,0,0,1,0
3259,9999999,4,2,0,0,1,0
3260,9999999,4,2,0,0,1,0
3261,9999999,4,2,0,0,1,0
3262,9999999,4,2,0,0,1,0
3263,9999999,4,2,0,0,1,0
3264,9999999,4,2,0,0,1,0
3265,9999999,4,2,0,0,1,0
3266,9999999,4,2,0,0,1,0
3267,9999999,4,2,0,0,1,0
3268,9999999,4,2,0,0,1,0
3269,9999999,4,2,0,0,1,0
3270,9999999,4,2,0,0,1,0
3271,9999999,4,2,0,0,1,0
3272,9999999,4,2,0,0,1,0
3273,9999999,4,2,0,0,1,0
3274,9999999,4,2,0,0,1,0
3275,9999999,4,2,0,0,1,0
3276,9999999,4,2,0,0,1,0
3277,9999999,4,2,0,0,1,0
3278,9999999,4,2,0,0,1,0
3279,9999999,4,2,0,0,1,0
3280,9999999,4,2,0,0,1,0
3281,9999999,4,2,0,0,1,0
3282,9999999,4,2,0,0,1,0
3283,9999999,4,2,0,0,1,0
3284,9999999,4,2,0,0,1,0
3285,9999999,4,2,0,0,1,0
3286,9999999,4,2,0,0,1,0
3287,9999999,4,2,0,0,1,0
3288,9999999,4,2,0,0,1,0
3289,9999999,4,2,0,0,1,0
3290,9999999,4,2,0,0,1,0
3291,9999999,4,2,0,0,1,0
3292,9999999,4,2,0,0,1,0
3293,9999999,4,2,0,0,1,0
3294,9999999,4,2,0,0,1,0
3295,9999999,4,2,0,0,1,0
3296,9999999,4,2,0,0,1,0
3297,9999999,4,2,0,0,1,0
3298,9999999,4,2,0,0,1,0
3299,9999999,4,2,0,0,1,0
3300,9999999,4,2,0,0,1,0
3301,9999999,4,2,0,0,1,0
3302,9999999,4,2,0,0,1,0
3303,9999999,4,2,0,0,1,0
3304,9999999,4,2,0,0,1,0
3305,9999999,4,2,0,0,1,0
3306,9999999,4,2,0,0,1,0
3307,9999999,4,2,0,0,1,0
3308,9999999,4,2,0,0,1,0
3309,9999999,4,2,0,0,1,0
3310,9999999,4,2,0,0,1,0
3311,9999999,4,2,0,0,1,0
3312,9999999,4,2,0,0,1,0
3313,9999999,4,2,0,0,1,0
3314,9999999,4,2,0,0,1,0
3315,9999999,4,2,0,0,1,0
3316,9999999,4,2,0,0,1,0
3317,9999999,4,2,0,0,1,0
3318,9999999,4,2,0,0,1,0
3319,9999999,4,2,0,0,1,0
3320,9999999,4,2,0,0,1,0
3321,9999999,4,2,0,0,1,0
3322,9999999,4,2,0,0,1,0
3323,9999999,4,2,0,0,1,0
3324,9999999,4,2,0,0,1,0
3325,9999999,4,2,0,0,1,0
3326,9999999,4,2,0,0,1,0
3327,9999999,4,2,0,0,1,0
3328,9999999,4,2,0,0,1,0
3329,9999999,4,2,0,0,1,0
3330,9999999,4,2,0,0,1,0
3331,9999999,4,2,0,0,1,0
3332,9999999,4,2,0,0,1,0
3333,9999999,4,2,0,0,1,0
3334,9999999,4,2,0,0,1,0
3335,9999999,4,2,0,0,1,0
3336,9999999,4,2,0,0,1,0
3337,9999999,4,2,0,0,1,0
3338,9999999,4,2,0,0,1,0
3339,9999999,4,2,0,0,1,0
3340,9999999,4,2,0,0,1,0
3341,9999999,4,2,0,0,1,0
3342,9999999,4,2,0,0,1,0
3343,9999999,4,2,0,0,1,0
3344,9999999,4,2,0,0,1,0
3345,9999999,4,2,0,0,1,0
3346,9999999,4,2,0,0,1,0
3347,9999999,4,2,0,0,1,0
3348,9999999,4,2,0,0,1,0
3349,9999999,4,2,0,0,1,0
3350,9999999,4,2,0,0,1,0
3351,9999999,4,2,0,0,1,0
3352,9999999,4,2,0,0,1,0
3353,9999999,4,2,0,0,1,0
3354,9999999,4,2,0,0,1,0
3355,9999999,4,2,0,0,1,0
3356,9999999,4,2,0,0,1,0
3357,9999999,4,2,0,0,1,0
3358,9999999,4,2,0,0,1,0
3359,9999999,4,2,0,0,1,0
3360,9999999,4,2,0,0,1,0
3361,9999999,4,2,0,0,1,0
3362,9999999,4,2,0,0,1,0
3363,9999999,4,2,0,0,1,0
3364,9999999,4,2,0,0,1,0
3365,9999999,4,2,0,0,1,0
3366,9999999,4,2,0,0,1,0
3367,9999999,4,2,0,0,1,0
3368,9999999,4,2,0,0,1,0
3369,9999999,4,2,0,0,1,0
3370,9999999,4,2,0,0,1,0
3371,9999999,4,2,0,0,1,0
3372,9999999,4,2,0,0,1,0
3373,9999999,4,2,0,0,1,0
3374,9999999,4,2,0,0,1,0
3375,9999999,4,2,0,0,1,0
3376,9999999,4,2,0,0,1,0
3377,9999999,4,2,0,0,1,0
3378,9999999,4,2,0,0,1,0
3379,9999999,4,2,0,0,1,0
3380,9999999,4,2,0,0,1,0
3381,9999999,4,2,0,0,1,0
3382,9999999,4,2,0,0,1,0
3383,9999999,4,2,0,0,1,0
3384,9999999,4,2,0,0,1,0
3385,9999999,4,2,0,0,1,0
3386,9999999,4,2,0,0,1,0
3387,9999999,4,2,0,0,1,0
3388,9999999,4,2,0,0,1,0
3389,9999999,4,2,0,0,1,0
3390,9999999,4,2,0,0,1,0
3391,9999999,4,2,0,0,1,0
3392,9999999,4,2,0,0,1,0
3393,9999999,4,2,0,0,1,0
3394,9999999,4,2,0,0,1,0
3395,9999999,4,2,0,0,1,0
3396,9999999,4,2,0,0,1,0
3397,9999999,4,2,0,0,1,0
3398,9999999,4,2,0,0,1,0
3399,9999999,4,2,0,0,1,0
3400,9999999,4,2,0,0,1,0
3401,9999999,4,2,0,0,1,0
3402,9999999,4,2,0,0,1,0
3403,9999999,4,2,0,0,1,0
3404,9999999,4,2,0,0,1,0
3405,9999999,4,2,0,0,1,0
3406,9999999,4,2,0,0,1,0
3407,9999999,4,2,0,0,1,0
3408,9999999,4,2,0,0,1,0
3409,9999999,4,2,0,0,1,0
3410,9999999,4,2,0,0,1,0
3411,9999999,4,2,0,0,1,0
3412,9999999,4,2,0,0,1,0
3413,9999999,4,2,0,0,1,0
3414,9999999,4,2,0,0,1,0
3415,9999999,4,2,0,0,1,0
3416,9999999,4,2,0,0,1,0
3417,9999999,4,2,0,0,1,0
3418,9999999,4,2,0,0,1,0
3419,9999999,4,2,0,0,1,0
3420,9999999,4,2,0,0,1,0
3421,9999999,4,2,0,0,1,0
3422,9999999,4,2,0,0,1,0
3423,9999999,4,2,0,0,1,0
3424,9999999,4,2,0,0,1,0
3425,9999999,4,2,0,0,1,0
3426,9999999,4,2,0,0,1,0
3427,6,4,2,0,0,1,0
3428,6,4,2,0,0,1,0
3429,6,99,2,0,0,1,0
3429,-10,99,2,0,0,0,0
3438,428.571428571429,4,2,0,0,1,0
3438,-333.333333333333,4,2,0,0,0,0
4000,6,99,2,0,0,1,0
4001,6,99,2,0,0,1,0
4001,-10,99,2,0,0,0,0
4010,428.571428571429,4,2,0,0,1,0
4010,-333.333333333333,4,2,0,0,0,0
4571,6,99,2,0,0,1,0
4572,6,99,2,0,0,1,0
4572,-10,4,2,0,0,0,0
4581,428.571428571429,4,2,0,0,1,0
4581,-333.333333333333,4,2,0,0,0,0
5142,6,99,2,0,0,1,0
5143,6,99,2,0,0,1,0
5143,-10,4,2,0,0,0,0
5152,428.571428571429,4,2,0,0,1,0
5152,-333.333333333333,4,2,0,0,0,0
5714,6,99,2,0,0,1,0
5715,6,99,2,0,0,1,0
5715,-10,4,2,0,0,0,0
5723,428.571428571429,4,2,0,0,1,0
5723,-333.333333333333,4,2,0,0,0,0
6285,6,99,2,0,0,1,0
6286,6,99,2,0,0,1,0
6286,-10,4,2,0,0,0,0
6295,9999999,4,2,0,0,1,0
6580,12,99,2,0,0,1,0
6582,12,99,2,0,0,1,0
6584,12,99,2,0,0,1,0
6586,6,99,2,0,0,1,0
6586,-10,99,2,0,0,0,0
6588,428.571428571429,99,2,0,0,1,0
6588,-333.333333333333,99,2,0,0,0,0
6857,6,99,2,0,0,1,0
6858,6,99,2,0,0,1,0
6858,-10,99,2,0,0,0,0
6867,428.571428571429,4,2,0,0,1,0
6867,-333.333333333333,4,2,0,0,0,0
7428,6,99,2,0,0,1,0
7429,6,99,2,0,0,1,0
7429,-10,4,2,0,0,0,0
7438,428.571428571429,4,2,0,0,1,0
7438,-333.333333333333,4,2,0,0,0,0
8000,6,99,2,0,0,1,0
8001,6,99,2,0,0,1,0
8001,-10,4,2,0,0,0,0
8010,428.571428571429,4,2,0,0,1,0
8010,-333.333333333333,4,2,0,0,0,0
8571,6,99,2,0,0,1,0
8572,6,99,2,0,0,1,0
8572,-10,4,2,0,0,0,0
8581,428.571428571429,4,2,0,0,1,0
8581,-333.333333333333,4,2,0,0,0,0
9142,6,99,2,0,0,1,0
9143,6,99,2,0,0,1,0
9143,-10,4,2,0,0,0,0
9152,9999999,4,2,0,0,1,0
9724,12,4,2,0,0,1,0
9726,12,4,2,0,0,1,0
9728,12,4,2,0,0,1,0
9730,6,4,2,0,0,1,0
9730,-10,4,2,0,0,0,0
9732,428.571428571429,4,2,0,0,1,0
9732,-90.9090909090909,4,2,0,0,0,0
9803,-125,4,2,0,0,0,0
9874,-166.666666666667,4,2,0,0,0,0
9946,-333.333333333333,4,2,0,0,0,0
10285,3000,99,2,0,0,1,0
10285,-10,4,2,0,0,0,0
10396,-13.8504155124654,4,2,0,0,0,0
10481,-21.2314225053079,4,2,0,0,0,0
10566,-36.7647058823529,4,2,0,0,0,0
10651,-69.4444444444444,4,2,0,0,0,0
10736,-100,4,2,0,0,0,0
10821,-69.4444444444444,4,2,0,0,0,0
10906,-36.7647058823529,4,2,0,0,0,0
10991,-21.2314225053079,4,2,0,0,0,0
11076,-13.8504155124654,99,2,0,0,0,0
11161,-10,4,2,0,0,0,0
11246,-13.8504155124654,4,2,0,0,0,0
11331,-21.2314225053079,4,2,0,0,0,0
11416,-36.7647058823529,4,2,0,0,0,0
11501,-69.4444444444444,4,2,0,0,0,0
11586,-100,4,2,0,0,0,0
11671,-69.4444444444444,4,2,0,0,0,0
11756,-36.7647058823529,4,2,0,0,0,0
11841,-21.2314225053079,4,2,0,0,0,0
11926,-13.8504155124654,4,2,0,0,0,0
12011,-10,99,2,0,0,0,0
12096,-13.8504155124654,4,2,0,0,0,0
12181,-21.2314225053079,4,2,0,0,0,0
12266,-36.7647058823529,4,2,0,0,0,0
12351,-69.4444444444444,4,2,0,0,0,0
12436,-100,4,2,0,0,0,0
12521,-69.4444444444444,4,2,0,0,0,0
12606,-36.7647058823529,4,2,0,0,0,0
12691,-21.2314225053079,4,2,0,0,0,0
12776,-13.8504155124654,4,2,0,0,0,0
12868,-10,4,2,0,0,0,0
12946,-13.8504155124654,4,2,0,0,0,0
13031,-21.2314225053079,4,2,0,0,0,0
13116,-36.7647058823529,4,2,0,0,0,0
13201,-69.4444444444444,4,2,0,0,0,0
13286,-100,4,2,0,0,0,0
13371,-69.4444444444444,4,2,0,0,0,0
13456,-36.7647058823529,4,2,0,0,0,0
13541,-21.2314225053079,4,2,0,0,0,0
13626,-13.8504155124654,4,2,0,0,0,0
13714,6,99,2,0,0,1,0
13714,-10,99,2,0,0,0,0
13724,428.571428571429,4,2,0,0,1,0
13724,-333.333333333333,4,2,0,0,0,0
14285,6,99,2,0,0,1,0
14286,6,99,2,0,0,1,0
14286,-10,4,2,0,0,0,0
14295,428.571428571429,4,2,0,0,1,0
14295,-333.333333333333,4,2,0,0,0,0
14857,6,99,2,0,0,1,0
14858,6,99,2,0,0,1,0
14858,-10,4,2,0,0,0,0
14867,428.571428571429,4,2,0,0,1,0
14867,-333.333333333333,4,2,0,0,0,0
15428,6,99,2,0,0,1,0
15429,6,99,2,0,0,1,0
15429,-10,4,2,0,0,0,0
15438,428.571428571429,4,2,0,0,1,0
15438,-333.333333333333,4,2,0,0,0,0
16000,6,99,2,0,0,1,0
16001,6,99,2,0,0,1,0
16001,-10,4,2,0,0,0,0
16010,428.571428571429,4,2,0,0,1,0
16010,-333.333333333333,4,2,0,0,0,0
16571,6,99,2,0,0,1,0
16572,6,99,2,0,0,1,0
16572,-10,99,2,0,0,0,0
16581,428.571428571429,4,2,0,0,1,0
16581,-333.333333333333,4,2,0,0,0,0
16867,9999999,4,2,0,0,1,0
16868,9999999,4,2,0,0,1,0
16869,9999999,4,2,0,0,1,0
16870,9999999,4,2,0,0,1,0
16871,9999999,4,2,0,0,1,0
16872,9999999,4,2,0,0,1,0
16873,9999999,4,2,0,0,1,0
16874,9999999,4,2,0,0,1,0
16875,9999999,4,2,0,0,1,0
16876,9999999,4,2,0,0,1,0
16877,9999999,4,2,0,0,1,0
16878,9999999,4,2,0,0,1,0
16879,9999999,4,2,0,0,1,0
16880,9999999,4,2,0,0,1,0
16881,9999999,4,2,0,0,1,0
16882,9999999,4,2,0,0,1,0
16883,9999999,4,2,0,0,1,0
16884,9999999,4,2,0,0,1,0
16885,9999999,4,2,0,0,1,0
16886,9999999,4,2,0,0,1,0
16887,9999999,4,2,0,0,1,0
16888,9999999,4,2,0,0,1,0
16889,9999999,4,2,0,0,1,0
16890,9999999,4,2,0,0,1,0
16891,9999999,4,2,0,0,1,0
16892,9999999,4,2,0,0,1,0
16893,9999999,4,2,0,0,1,0
16894,9999999,4,2,0,0,1,0
16895,9999999,4,2,0,0,1,0
16896,9999999,4,2,0,0,1,0
16897,9999999,4,2,0,0,1,0
16898,9999999,4,2,0,0,1,0
16899,9999999,4,2,0,0,1,0
16900,9999999,4,2,0,0,1,0
16901,9999999,4,2,0,0,1,0
16902,9999999,4,2,0,0,1,0
16903,9999999,4,2,0,0,1,0
16904,9999999,4,2,0,0,1,0
16905,9999999,4,2,0,0,1,0
16906,9999999,4,2,0,0,1,0
16907,9999999,4,2,0,0,1,0
16908,9999999,4,2,0,0,1,0
16909,9999999,4,2,0,0,1,0
16910,9999999,4,2,0,0,1,0
16911,9999999,4,2,0,0,1,0
16912,9999999,4,2,0,0,1,0
16913,9999999,4,2,0,0,1,0
16914,9999999,4,2,0,0,1,0
16915,9999999,4,2,0,0,1,0
16916,9999999,4,2,0,0,1,0
16917,9999999,4,2,0,0,1,0
16918,9999999,4,2,0,0,1,0
16919,9999999,4,2,0,0,1,0
16920,9999999,4,2,0,0,1,0
16921,9999999,4,2,0,0,1,0
16922,9999999,4,2,0,0,1,0
16923,9999999,4,2,0,0,1,0
16924,9999999,4,2,0,0,1,0
16925,9999999,4,2,0,0,1,0
16926,9999999,4,2,0,0,1,0
16927,9999999,4,2,0,0,1,0
16928,9999999,4,2,0,0,1,0
16929,9999999,4,2,0,0,1,0
16930,9999999,4,2,0,0,1,0
16931,9999999,4,2,0,0,1,0
16932,9999999,4,2,0,0,1,0
16933,9999999,4,2,0,0,1,0
16934,9999999,4,2,0,0,1,0
16935,9999999,4,2,0,0,1,0
16936,9999999,4,2,0,0,1,0
16937,9999999,4,2,0,0,1,0
16938,9999999,4,2,0,0,1,0
16939,9999999,4,2,0,0,1,0
16940,9999999,4,2,0,0,1,0
16941,9999999,4,2,0,0,1,0
16942,9999999,4,2,0,0,1,0
16943,9999999,4,2,0,0,1,0
16944,9999999,4,2,0,0,1,0
16945,9999999,4,2,0,0,1,0
16946,9999999,4,2,0,0,1,0
16947,9999999,4,2,0,0,1,0
16948,9999999,4,2,0,0,1,0
16949,9999999,4,2,0,0,1,0
16950,9999999,4,2,0,0,1,0
16951,9999999,4,2,0,0,1,0
16952,9999999,4,2,0,0,1,0
16953,9999999,4,2,0,0,1,0
16954,9999999,4,2,0,0,1,0
16955,9999999,4,2,0,0,1,0
16956,9999999,4,2,0,0,1,0
16957,9999999,4,2,0,0,1,0
16958,9999999,4,2,0,0,1,0
16959,9999999,4,2,0,0,1,0
16960,9999999,4,2,0,0,1,0
16961,9999999,4,2,0,0,1,0
16962,9999999,4,2,0,0,1,0
16963,9999999,4,2,0,0,1,0
16964,9999999,4,2,0,0,1,0
16965,9999999,4,2,0,0,1,0
16966,9999999,4,2,0,0,1,0
16967,9999999,4,2,0,0,1,0
16968,9999999,4,2,0,0,1,0
16969,9999999,4,2,0,0,1,0
16970,9999999,4,2,0,0,1,0
16971,9999999,4,2,0,0,1,0
16972,9999999,4,2,0,0,1,0
16973,9999999,4,2,0,0,1,0
16974,9999999,4,2,0,0,1,0
16975,9999999,4,2,0,0,1,0
16976,9999999,4,2,0,0,1,0
16977,9999999,4,2,0,0,1,0
16978,9999999,4,2,0,0,1,0
16979,9999999,4,2,0,0,1,0
16980,9999999,4,2,0,0,1,0
16981,9999999,4,2,0,0,1,0
16982,9999999,4,2,0,0,1,0
16983,9999999,4,2,0,0,1,0
16984,9999999,4,2,0,0,1,0
16985,9999999,4,2,0,0,1,0
16986,9999999,4,2,0,0,1,0
16987,9999999,4,2,0,0,1,0
16988,9999999,4,2,0,0,1,0
16989,9999999,4,2,0,0,1,0
16990,9999999,4,2,0,0,1,0
16991,9999999,4,2,0,0,1,0
16992,9999999,4,2,0,0,1,0
16993,9999999,4,2,0,0,1,0
16994,9999999,4,2,0,0,1,0
16995,9999999,4,2,0,0,1,0
16996,9999999,4,2,0,0,1,0
16997,9999999,4,2,0,0,1,0
16998,9999999,4,2,0,0,1,0
16999,9999999,4,2,0,0,1,0
17000,9999999,4,2,0,0,1,0
17001,9999999,4,2,0,0,1,0
17002,9999999,4,2,0,0,1,0
17003,9999999,4,2,0,0,1,0
17004,9999999,4,2,0,0,1,0
17005,9999999,4,2,0,0,1,0
17006,9999999,4,2,0,0,1,0
17007,9999999,4,2,0,0,1,0
17008,9999999,4,2,0,0,1,0
17009,9999999,4,2,0,0,1,0
17010,9999999,4,2,0,0,1,0
17011,9999999,4,2,0,0,1,0
17012,9999999,4,2,0,0,1,0
17013,9999999,4,2,0,0,1,0
17014,9999999,4,2,0,0,1,0
17015,9999999,4,2,0,0,1,0
17016,9999999,4,2,0,0,1,0
17017,9999999,4,2,0,0,1,0
17018,9999999,4,2,0,0,1,0
17019,9999999,4,2,0,0,1,0
17020,9999999,4,2,0,0,1,0
17021,9999999,4,2,0,0,1,0
17022,9999999,4,2,0,0,1,0
17023,9999999,4,2,0,0,1,0
17024,9999999,4,2,0,0,1,0
17025,9999999,4,2,0,0,1,0
17026,9999999,4,2,0,0,1,0
17027,9999999,4,2,0,0,1,0
17028,9999999,4,2,0,0,1,0
17029,9999999,4,2,0,0,1,0
17030,9999999,4,2,0,0,1,0
17031,9999999,4,2,0,0,1,0
17032,9999999,4,2,0,0,1,0
17033,9999999,4,2,0,0,1,0
17034,9999999,4,2,0,0,1,0
17035,9999999,4,2,0,0,1,0
17036,9999999,4,2,0,0,1,0
17037,9999999,4,2,0,0,1,0
17038,9999999,4,2,0,0,1,0
17039,9999999,4,2,0,0,1,0
17040,9999999,4,2,0,0,1,0
17041,9999999,4,2,0,0,1,0
17042,9999999,4,2,0,0,1,0
17043,9999999,4,2,0,0,1,0
17044,9999999,4,2,0,0,1,0
17045,9999999,4,2,0,0,1,0
17046,9999999,4,2,0,0,1,0
17047,9999999,4,2,0,0,1,0
17048,9999999,4,2,0,0,1,0
17049,9999999,4,2,0,0,1,0
17050,9999999,4,2,0,0,1,0
17051,9999999,4,2,0,0,1,0
17052,9999999,4,2,0,0,1,0
17053,9999999,4,2,0,0,1,0
17054,9999999,4,2,0,0,1,0
17055,9999999,4,2,0,0,1,0
17056,9999999,4,2,0,0,1,0
17057,9999999,4,2,0,0,1,0
17058,9999999,4,2,0,0,1,0
17059,9999999,4,2,0,0,1,0
17060,9999999,4,2,0,0,1,0
17061,9999999,4,2,0,0,1,0
17062,9999999,4,2,0,0,1,0
17063,9999999,4,2,0,0,1,0
17064,9999999,4,2,0,0,1,0
17065,9999999,4,2,0,0,1,0
17066,9999999,4,2,0,0,1,0
17067,9999999,4,2,0,0,1,0
17068,9999999,4,2,0,0,1,0
17069,9999999,4,2,0,0,1,0
17070,9999999,4,2,0,0,1,0
17071,9999999,4,2,0,0,1,0
17072,9999999,4,2,0,0,1,0
17073,9999999,4,2,0,0,1,0
17074,9999999,4,2,0,0,1,0
17075,9999999,4,2,0,0,1,0
17076,9999999,4,2,0,0,1,0
17077,9999999,4,2,0,0,1,0
17078,9999999,4,2,0,0,1,0
17079,9999999,4,2,0,0,1,0
17080,9999999,4,2,0,0,1,0
17081,9999999,4,2,0,0,1,0
17082,9999999,4,2,0,0,1,0
17083,9999999,4,2,0,0,1,0
17084,9999999,4,2,0,0,1,0
17085,9999999,4,2,0,0,1,0
17086,9999999,4,2,0,0,1,0
17087,9999999,4,2,0,0,1,0
17088,9999999,4,2,0,0,1,0
17089,9999999,4,2,0,0,1,0
17090,9999999,4,2,0,0,1,0
17091,9999999,4,2,0,0,1,0
17092,9999999,4,2,0,0,1,0
17093,9999999,4,2,0,0,1,0
17094,9999999,4,2,0,0,1,0
17095,9999999,4,2,0,0,1,0
17096,9999999,4,2,0,0,1,0
17097,9999999,4,2,0,0,1,0
17098,9999999,4,2,0,0,1,0
17099,9999999,4,2,0,0,1,0
17100,9999999,4,2,0,0,1,0
17101,9999999,4,2,0,0,1,0
17102,9999999,4,2,0,0,1,0
17103,9999999,4,2,0,0,1,0
17104,9999999,4,2,0,0,1,0
17105,9999999,4,2,0,0,1,0
17106,9999999,4,2,0,0,1,0
17107,9999999,4,2,0,0,1,0
17108,9999999,4,2,0,0,1,0
17109,9999999,4,2,0,0,1,0
17110,9999999,4,2,0,0,1,0
17111,9999999,4,2,0,0,1,0
17112,9999999,4,2,0,0,1,0
17113,9999999,4,2,0,0,1,0
17114,9999999,4,2,0,0,1,0
17115,9999999,4,2,0,0,1,0
17116,9999999,4,2,0,0,1,0
17117,9999999,4,2,0,0,1,0
17118,9999999,4,2,0,0,1,0
17119,9999999,4,2,0,0,1,0
17120,9999999,4,2,0,0,1,0
17121,9999999,4,2,0,0,1,0
17122,9999999,4,2,0,0,1,0
17123,9999999,4,2,0,0,1,0
17124,9999999,4,2,0,0,1,0
17125,9999999,4,2,0,0,1,0
17126,9999999,4,2,0,0,1,0
17127,9999999,4,2,0,0,1,0
17128,9999999,4,2,0,0,1,0
17129,9999999,4,2,0,0,1,0
17130,9999999,4,2,0,0,1,0
17131,9999999,4,2,0,0,1,0
17132,9999999,4,2,0,0,1,0
17133,9999999,4,2,0,0,1,0
17134,9999999,4,2,0,0,1,0
17135,9999999,4,2,0,0,1,0
17136,9999999,4,2,0,0,1,0
17137,9999999,4,2,0,0,1,0
17138,9999999,4,2,0,0,1,0
17139,9999999,4,2,0,0,1,0
17140,9999999,4,2,0,0,1,0
17141,6,4,2,0,0,1,0
17142,6,4,2,0,0,1,0
17143,6,99,2,0,0,1,0
17143,-10,99,2,0,0,0,0
17152,428.571428571429,4,2,0,0,1,0
17152,-333.333333333333,4,2,0,0,0,0
17714,6,99,2,0,0,1,0
17715,6,99,2,0,0,1,0
17715,-10,99,2,0,0,0,0
17724,428.571428571429,4,2,0,0,1,0
17724,-333.333333333333,4,2,0,0,0,0
18285,6,99,2,0,0,1,0
18286,6,99,2,0,0,1,0
18286,-10,4,2,0,0,0,0
18295,428.571428571429,4,2,0,0,1,0
18295,-333.333333333333,4,2,0,0,0,0
18857,6,99,2,0,0,1,0
18858,6,99,2,0,0,1,0
18858,-10,4,2,0,0,0,0
18867,428.571428571429,4,2,0,0,1,0
18867,-333.333333333333,4,2,0,0,0,0
19428,6,99,2,0,0,1,0
19429,6,99,2,0,0,1,0
19429,-10,4,2,0,0,0,0
19437,428.571428571429,4,2,0,0,1,0
19437,-333.333333333333,4,2,0,0,0,0
20000,6,99,2,0,0,1,0
20001,6,99,2,0,0,1,0
20001,-10,4,2,0,0,0,0
20010,9999999,4,2,0,0,1,0
20294,12,99,2,0,0,1,0
20296,12,99,2,0,0,1,0
20298,12,99,2,0,0,1,0
20300,6,99,2,0,0,1,0
20300,-10,99,2,0,0,0,0
20302,428.571428571429,99,2,0,0,1,0
20302,-333.333333333333,99,2,0,0,0,0
20571,6,99,2,0,0,1,0
20572,6,99,2,0,0,1,0
20572,-10,99,2,0,0,0,0
20581,428.571428571429,4,2,0,0,1,0
20581,-333.333333333333,4,2,0,0,0,0
21142,6,99,2,0,0,1,0
21143,6,99,2,0,0,1,0
21143,-10,4,2,0,0,0,0
21152,428.571428571429,4,2,0,0,1,0
21152,-333.333333333333,4,2,0,0,0,0
21714,6,99,2,0,0,1,0
21715,6,99,2,0,0,1,0
21715,-10,4,2,0,0,0,0
21724,428.571428571429,4,2,0,0,1,0
21724,-333.333333333333,4,2,0,0,0,0
22285,6,99,2,0,0,1,0
22286,6,99,2,0,0,1,0
22286,-10,4,2,0,0,0,0
22295,428.571428571429,4,2,0,0,1,0
22295,-333.333333333333,4,2,0,0,0,0
22857,6,99,2,0,0,1,0
22858,6,99,2,0,0,1,0
22858,-10,4,2,0,0,0,0
22867,9999999,4,2,0,0,1,0
23438,12,4,2,0,0,1,0
23440,12,4,2,0,0,1,0
23442,12,4,2,0,0,1,0
23444,6,4,2,0,0,1,0
23444,-10,4,2,0,0,0,0
23446,428.571428571429,4,2,0,0,1,0
23446,-90.9090909090909,4,2,0,0,0,0
23517,-125,4,2,0,0,0,0
23588,-166.666666666667,4,2,0,0,0,0
23660,-333.333333333333,4,2,0,0,0,0
23999,4000,99,2,0,0,1,0
23999,-1000,4,2,0,0,0,0
24170.4,-558.659217877095,4,2,0,0,0,0
24341.8,-240.384615384615,4,2,0,0,0,0
24513.2,-123.304562268804,4,2,0,0,0,0
24684.6,-73.3137829912023,4,2,0,0,0,0
24856,-48.1927710843373,4,2,0,0,0,0
25027.4,-33.9673913043478,4,2,0,0,0,0
25198.8,-25.182573659028,4,2,0,0,0,0
25370.2,-19.3948797517455,4,2,0,0,0,0
25541.6,-15.3869826127096,4,2,0,0,0,0
25713,428.571428571429,4,2,0,0,1,0
25713,-250,4,2,0,0,0,0
27427,-250,4,2,0,0,0,0
27693.42,-242.718446601942,4,2,0,0,0,0
27959.84,-235.849056603774,4,2,0,0,0,0
28226.26,-229.357798165138,4,2,0,0,0,0
28492.68,-223.214285714286,4,2,0,0,0,0
28759.1,-217.391304347826,4,2,0,0,0,0
29025.52,-211.864406779661,4,2,0,0,0,0
29291.94,-206.611570247934,4,2,0,0,0,0
29558.36,-201.612903225806,4,2,0,0,0,0
29824.78,-196.850393700787,4,2,0,0,0,0
30091.2,-192.307692307692,4,2,0,0,0,0
30357.62,-187.96992481203,4,2,0,0,0,0
30624.04,-183.823529411765,4,2,0,0,0,0
30890.46,-179.856115107914,4,2,0,0,0,0
31156.88,-176.056338028169,4,2,0,0,0,0
31423.3,-172.413793103448,4,2,0,0,0,0
31689.72,-168.918918918919,4,2,0,0,0,0
31956.14,-165.562913907285,4,2,0,0,0,0
32222.56,-162.337662337662,4,2,0,0,0,0
32488.98,-159.235668789809,4,2,0,0,0,0
32755.4,-156.25,4,2,0,0,0,0
33021.82,-153.374233128834,4,2,0,0,0,0
33288.24,-150.602409638554,4,2,0,0,0,0
33554.66,-147.92899408284,4,2,0,0,0,0
33821.08,-145.348837209302,4,2,0,0,0,0
34087.5,-142.857142857143,4,2,0,0,0,0
34353.92,-140.449438202247,4,2,0,0,0,0
34620.34,-138.121546961326,4,2,0,0,0,0
34886.76,-135.869565217391,4,2,0,0,0,0
35153.18,-133.689839572193,4,2,0,0,0,0
35419.6,-131.578947368421,4,2,0,0,0,0
35686.02,-129.533678756477,4,2,0,0,0,0
35952.44,-127.551020408163,4,2,0,0,0,0
36218.86,-125.628140703518,4,2,0,0,0,0
36485.28,-123.762376237624,4,2,0,0,0,0
36751.7,-121.951219512195,4,2,0,0,0,0
37018.12,-120.192307692308,4,2,0,0,0,0
37284.54,-118.483412322275,4,2,0,0,0,0
37550.96,-116.822429906542,4,2,0,0,0,0
37817.38,-115.207373271889,4,2,0,0,0,0
38083.8,-113.636363636364,4,2,0,0,0,0
38350.22,-112.107623318386,4,2,0,0,0,0
38616.64,-110.619469026549,4,2,0,0,0,0
38883.06,-109.170305676856,4,2,0,0,0,0
39149.48,-107.758620689655,4,2,0,0,0,0
39415.9,-106.382978723404,4,2,0,0,0,0
39682.32,-105.042016806723,4,2,0,0,0,0
39948.74,-103.734439834025,4,2,0,0,0,0
40215.16,-102.459016393443,4,2,0,0,0,0
40481.58,-101.214574898785,4,2,0,0,0,0
40748,-100,4,2,0,0,0,0
41713,-100,4,2,0,0,0,0
42036.8,-102.040816326531,4,2,0,0,0,0
42360.6,-104.166666666667,4,2,0,0,0,0
42684.4,-106.382978723404,4,2,0,0,0,0
43008.2,-108.695652173913,4,2,0,0,0,0
43332,-111.111111111111,4,2,0,0,0,0
43655.8,-113.636363636364,4,2,0,0,0,0
43979.6,-116.279069767442,4,2,0,0,0,0
44303.4,-119.047619047619,4,2,0,0,0,0
44627.2,-121.951219512195,4,2,0,0,0,0
44951,-125,4,2,0,0,0,0
45274.8,-128.205128205128,4,2,0,0,0,0
45598.6,-131.578947368421,4,2,0,0,0,0
45922.4,-135.135135135135,4,2,0,0,0,0
46246.2,-138.888888888889,4,2,0,0,0,0
46570,-142.857142857143,4,2,0,0,0,0
46893.8,-147.058823529412,4,2,0,0,0,0
47217.6,-151.515151515152,4,2,0,0,0,0
47541.4,-156.25,4,2,0,0,0,0
47865.2,-161.290322580645,4,2,0,0,0,0
48189,-166.666666666667,4,2,0,0,0,0
48512.8,-172.413793103448,4,2,0,0,0,0
48836.6,-178.571428571429,4,2,0,0,0,0
49160.4,-185.185185185185,4,2,0,0,0,0
49484.2,-192.307692307692,4,2,0,0,0,0
49808,-200,4,2,0,0,0,0
50131.8,-208.333333333333,4,2,0,0,0,0
50455.6,-217.391304347826,4,2,0,0,0,0
50779.4,-227.272727272727,4,2,0,0,0,0
51103.2,-238.095238095238,4,2,0,0,0,0
51427,-250,4,2,0,0,0,0
52698,-200,4,2,0,0,0,0
52769,-333.333333333333,4,2,0,0,0,0
52840,-200,4,2,0,0,0,0
52912,-333.333333333333,4,2,0,0,0,0
52983,-200,4,2,0,0,0,0
53055,-333.333333333333,4,2,0,0,0,0
53126,-166.666666666667,4,2,0,0,0,0
53198,-500,4,2,0,0,0,0
53269,-166.666666666667,4,2,0,0,0,0
53340,-500,4,2,0,0,0,0
53412,-166.666666666667,4,2,0,0,0,0
53483,-500,4,2,0,0,0,0
53555,-142.857142857143,4,2,0,0,0,0
53626,-1000,4,2,0,0,0,0
53698,-142.857142857143,4,2,0,0,0,0
53769,-1000,4,2,0,0,0,0
53840,-142.857142857143,4,2,0,0,0,0
53912,-1000,4,2,0,0,0,0
53983,-100,4,2,0,0,0,0
81427,-111.111111111111,4,2,0,0,0,0
81534,-125,4,2,0,0,0,0
81641,-142.857142857143,4,2,0,0,0,0
81748,-166.666666666667,4,2,0,0,0,0
81855,-200,4,2,0,0,0,0
82284,-200,4,2,0,0,0,0
82391,-166.666666666667,4,2,0,0,0,0
82498,-142.857142857143,4,2,0,0,0,0
82605,-125,4,2,0,0,0,0
82713,-111.111111111111,4,2,0,0,0,0
82820,-100,4,2,0,0,0,0
82927,-90.9090909090909,4,2,0,0,0,0
83034,-83.3333333333333,4,2,0,0,0,0
83141,-500,4,2,0,0,0,0
83570,-10,4,2,0,0,0,0
83596,-500,4,2,0,0,0,0
83677,-333.333333333333,4,2,0,0,0,0
83784,-250,4,2,0,0,0,0
83891,-200,4,2,0,0,0,0
83998,-166.666666666667,4,2,0,0,0,0
84105,-142.857142857143,4,2,0,0,0,0
84213,-125,4,2,0,0,0,0
84320,-111.111111111111,4,2,0,0,0,0
84427,-100,4,2,0,0,0,0
86570,-1000,4,2,0,0,0,0
86730,-250,4,2,0,0,0,0
86784,-142.857142857143,4,2,0,0,0,0
86838,-66.6666666666667,4,2,0,0,0,0
86891,-142.857142857143,4,2,0,0,0,0
86945,-250,4,2,0,0,0,0
87105,-142.857142857143,4,2,0,0,0,0
87159,-66.6666666666667,4,2,0,0,0,0
87213,-142.857142857143,4,2,0,0,0,0
87266,-250,4,2,0,0,0,0
87427,-142.857142857143,4,2,0,0,0,0
87480,-66.6666666666667,4,2,0,0,0,0
87534,-100,4,2,0,0,0,0
90427,-10,4,2,0,0,0,0
90454,-500,4,2,0,0,0,0
90748,-100,4,2,0,0,0,0
90855,-71.4285714285714,4,2,0,0,0,0
90963,-83.3333333333333,4,2,0,0,0,0
91070,-100,4,2,0,0,0,0
95998,428.571428571429,8,2,0,0,1,0
96213,-1000,4,2,0,0,0,0
96534,-25,4,2,0,0,0,0
96588,-100,4,2,0,0,0,0
96855,-123.456790123457,4,2,0,0,0,0
96963,-500,4,2,0,0,0,0
97177,-138.888888888889,4,2,0,0,0,0
97284,-500,4,2,0,0,0,0
97498,-153.846153846154,4,2,0,0,0,0
97605,-500,4,2,0,0,0,0
97820,-169.491525423729,4,2,0,0,0,0
97927,-500,4,2,0,0,0,0
98141,-185.185185185185,4,2,0,0,0,0
98248,-500,4,2,0,0,0,0
98463,-200,4,2,0,0,0,0
98570,-500,4,2,0,0,0,0
98784,-212.765957446809,4,2,0,0,0,0
98891,-500,4,2,0,0,0,0
99105,-222.222222222222,4,2,0,0,0,0
99213,-500,4,2,0,0,0,0
99427,428.571428571429,2,2,0,0,1,0
99427,-1000,2,2,0,0,0,0
99480,-333.333333333333,2,2,0,0,0,0
99534,-200,2,2,0,0,0,0
99588,-142.857142857143,2,2,0,0,0,0
99640,6,2,2,0,0,1,0
99640,-10,2,2,0,0,0,0
99641,53.5714285714286,1,2,0,0,1,0
99641,-200,1,2,0,0,0,0
100016,99999999999,1,2,0,0,1,0
100309,6,2,2,0,0,1,0
100309,-20,2,2,0,0,0,0
100310,99999999999,2,2,0,0,1,0
100310,-1000,2,2,0,0,0,0
100570,6,4,2,0,0,1,0
100570,-83.3333333333333,4,2,0,0,0,0
100572,6,4,2,0,0,1,0
100572,-66.6666666666667,4,2,0,0,0,0
100574,6,4,2,0,0,1,0
100574,-133.333333333333,4,2,0,0,0,0
100576,1500,2,2,0,0,1,0
100576,-100,2,2,0,0,0,0
100824,6,2,2,0,0,1,0
100824,-10,2,2,0,0,0,0
100825,214.285714285714,1,2,0,0,1,0
100825,-66.6666666666667,2,2,0,0,0,0
100897,-100,2,2,0,0,0,0
101004,-66.6666666666667,2,2,0,0,0,0
101075,-1000,2,2,0,0,0,0
101165,-66.6666666666667,2,2,0,0,0,0
101254,-100,2,2,0,0,0,0
101325,-66.6666666666667,2,2,0,0,0,0
101397,-1000,2,2,0,0,0,0
101647,-16.6666666666667,2,2,0,0,0,0
101730,-200,2,2,0,0,0,0
102859,6,2,2,0,0,1,0
102859,-66.6666666666667,2,2,0,0,0,0
102860,6,2,2,0,0,1,0
102863,6,2,2,0,0,1,0
102866,6,2,2,0,0,1,0
102869,6,2,2,0,0,1,0
102872,99999999999,1,2,0,0,1,0
103071,6,2,2,0,0,1,0
103071,-10,2,2,0,0,0,0
103073,99999999999,2,2,0,0,1,0
103283,6,2,2,0,0,1,0
103285,6,2,2,0,0,1,0
103285,-10,2,2,0,0,0,0
103287,99999999999,2,2,0,0,1,0
103495,6,2,2,0,0,1,0
103497,6,2,2,0,0,1,0
103499,6,2,2,0,0,1,0
103499,-10,2,2,0,0,0,0
103501,99999999999,2,2,0,0,1,0
103926,6,2,2,0,0,1,0
103928,6,2,2,0,0,1,0
103930,6,2,2,0,0,1,0
103932,6,2,2,0,0,1,0
103932,-10,2,2,0,0,0,0
103934,428.571428571429,2,2,0,0,1,0
103934,-1000,2,2,0,0,0,0
103987,-333.333333333333,2,2,0,0,0,0
104041,-200,2,2,0,0,0,0
104094,-142.857142857143,2,2,0,0,0,0
104148,6,2,2,0,0,1,0
104149,6,2,2,0,0,1,0
104150,428.571428571429,2,2,0,0,1,0
104150,-1000,2,2,0,0,0,0
104203,-333.333333333333,2,2,0,0,0,0
104257,-200,2,2,0,0,0,0
104310,-142.857142857143,2,2,0,0,0,0
104364,-111.111111111111,2,2,0,0,0,0
104417,-100,2,2,0,0,0,0
104539,428.571428571429,2,2,0,0,1,0
104539,-50,2,2,0,0,0,0
104593,-25,2,2,0,0,0,0
104647,-1000,2,2,0,0,0,0
104754,428.571428571429,2,2,0,0,1,0
104754,-50,2,2,0,0,0,0
104807,-25,2,2,0,0,0,0
104860,-1000,2,2,0,0,0,0
105091,6,2,2,0,0,1,0
105091,-71.4285714285714,2,2,0,0,0,0
105092,99999999999,2,2,0,0,1,0
105093,99999999999,2,2,0,0,1,0
105094,99999999999,2,2,0,0,1,0
105095,99999999999,2,2,0,0,1,0
105096,99999999999,2,2,0,0,1,0
105097,99999999999,2,2,0,0,1,0
105098,99999999999,2,2,0,0,1,0
105099,99999999999,2,2,0,0,1,0
105100,99999999999,2,2,0,0,1,0
105101,99999999999,2,2,0,0,1,0
105102,99999999999,2,2,0,0,1,0
105103,99999999999,2,2,0,0,1,0
105104,99999999999,2,2,0,0,1,0
105105,99999999999,2,2,0,0,1,0
105106,99999999999,2,2,0,0,1,0
105107,99999999999,2,2,0,0,1,0
105108,99999999999,2,2,0,0,1,0
105109,99999999999,2,2,0,0,1,0
105110,99999999999,2,2,0,0,1,0
105111,99999999999,2,2,0,0,1,0
105112,99999999999,2,2,0,0,1,0
105113,99999999999,2,2,0,0,1,0
105114,99999999999,2,2,0,0,1,0
105115,99999999999,2,2,0,0,1,0
105116,99999999999,2,2,0,0,1,0
105117,99999999999,2,2,0,0,1,0
105118,99999999999,2,2,0,0,1,0
105119,99999999999,2,2,0,0,1,0
105120,99999999999,2,2,0,0,1,0
105121,99999999999,2,2,0,0,1,0
105122,99999999999,2,2,0,0,1,0
105123,99999999999,2,2,0,0,1,0
105124,99999999999,2,2,0,0,1,0
105125,99999999999,2,2,0,0,1,0
105126,99999999999,2,2,0,0,1,0
105127,99999999999,2,2,0,0,1,0
105128,99999999999,2,2,0,0,1,0
105129,99999999999,2,2,0,0,1,0
105130,99999999999,2,2,0,0,1,0
105131,99999999999,2,2,0,0,1,0
105132,99999999999,2,2,0,0,1,0
105133,99999999999,2,2,0,0,1,0
105134,99999999999,2,2,0,0,1,0
105135,99999999999,2,2,0,0,1,0
105136,99999999999,2,2,0,0,1,0
105137,99999999999,2,2,0,0,1,0
105138,99999999999,2,2,0,0,1,0
105139,99999999999,2,2,0,0,1,0
105140,99999999999,2,2,0,0,1,0
105141,99999999999,2,2,0,0,1,0
105142,99999999999,2,2,0,0,1,0
105143,99999999999,2,2,0,0,1,0
105144,99999999999,2,2,0,0,1,0
105145,99999999999,2,2,0,0,1,0
105146,99999999999,2,2,0,0,1,0
105147,99999999999,2,2,0,0,1,0
105148,99999999999,2,2,0,0,1,0
105149,99999999999,2,2,0,0,1,0
105150,99999999999,2,2,0,0,1,0
105151,99999999999,2,2,0,0,1,0
105152,99999999999,2,2,0,0,1,0
105153,99999999999,2,2,0,0,1,0
105154,99999999999,2,2,0,0,1,0
105155,99999999999,2,2,0,0,1,0
105156,99999999999,2,2,0,0,1,0
105157,99999999999,2,2,0,0,1,0
105158,99999999999,2,2,0,0,1,0
105159,99999999999,2,2,0,0,1,0
105160,99999999999,2,2,0,0,1,0
105161,99999999999,2,2,0,0,1,0
105162,99999999999,2,2,0,0,1,0
105163,99999999999,2,2,0,0,1,0
105164,99999999999,2,2,0,0,1,0
105165,99999999999,2,2,0,0,1,0
105166,99999999999,2,2,0,0,1,0
105167,99999999999,2,2,0,0,1,0
105168,99999999999,2,2,0,0,1,0
105169,99999999999,2,2,0,0,1,0
105170,99999999999,2,2,0,0,1,0
105171,99999999999,2,2,0,0,1,0
105172,99999999999,2,2,0,0,1,0
105173,99999999999,2,2,0,0,1,0
105174,99999999999,2,2,0,0,1,0
105175,99999999999,2,2,0,0,1,0
105176,99999999999,2,2,0,0,1,0
105177,99999999999,2,2,0,0,1,0
105178,99999999999,2,2,0,0,1,0
105179,99999999999,2,2,0,0,1,0
105180,99999999999,2,2,0,0,1,0
105181,99999999999,2,2,0,0,1,0
105182,99999999999,2,2,0,0,1,0
105183,99999999999,2,2,0,0,1,0
105184,99999999999,2,2,0,0,1,0
105185,99999999999,2,2,0,0,1,0
105186,99999999999,2,2,0,0,1,0
105187,99999999999,2,2,0,0,1,0
105188,99999999999,2,2,0,0,1,0
105189,99999999999,2,2,0,0,1,0
105190,99999999999,2,2,0,0,1,0
105191,99999999999,2,2,0,0,1,0
105192,99999999999,2,2,0,0,1,0
105193,99999999999,2,2,0,0,1,0
105194,99999999999,2,2,0,0,1,0
105195,99999999999,2,2,0,0,1,0
105196,99999999999,2,2,0,0,1,0
105197,99999999999,2,2,0,0,1,0
105198,6,2,2,0,0,1,0
105198,-83.3333333333333,2,2,0,0,0,0
105199,99999999999,2,2,0,0,1,0
105200,99999999999,2,2,0,0,1,0
105201,99999999999,2,2,0,0,1,0
105202,99999999999,2,2,0,0,1,0
105203,99999999999,2,2,0,0,1,0
105204,99999999999,2,2,0,0,1,0
105205,99999999999,2,2,0,0,1,0
105206,99999999999,2,2,0,0,1,0
105207,99999999999,2,2,0,0,1,0
105208,99999999999,2,2,0,0,1,0
105209,99999999999,2,2,0,0,1,0
105210,99999999999,2,2,0,0,1,0
105211,99999999999,2,2,0,0,1,0
105212,99999999999,2,2,0,0,1,0
105213,99999999999,2,2,0,0,1,0
105214,99999999999,2,2,0,0,1,0
105215,99999999999,2,2,0,0,1,0
105216,99999999999,2,2,0,0,1,0
105217,99999999999,2,2,0,0,1,0
105218,99999999999,2,2,0,0,1,0
105219,99999999999,2,2,0,0,1,0
105220,99999999999,2,2,0,0,1,0
105221,99999999999,2,2,0,0,1,0
105222,99999999999,2,2,0,0,1,0
105223,99999999999,2,2,0,0,1,0
105224,99999999999,2,2,0,0,1,0
105225,99999999999,2,2,0,0,1,0
105226,99999999999,2,2,0,0,1,0
105227,99999999999,2,2,0,0,1,0
105228,99999999999,2,2,0,0,1,0
105229,99999999999,2,2,0,0,1,0
105230,99999999999,2,2,0,0,1,0
105231,99999999999,2,2,0,0,1,0
105232,99999999999,2,2,0,0,1,0
105233,99999999999,2,2,0,0,1,0
105234,99999999999,2,2,0,0,1,0
105235,99999999999,2,2,0,0,1,0
105236,99999999999,2,2,0,0,1,0
105237,99999999999,2,2,0,0,1,0
105238,99999999999,2,2,0,0,1,0
105239,99999999999,2,2,0,0,1,0
105240,99999999999,2,2,0,0,1,0
105241,99999999999,2,2,0,0,1,0
105242,99999999999,2,2,0,0,1,0
105243,99999999999,2,2,0,0,1,0
105244,99999999999,2,2,0,0,1,0
105245,99999999999,2,2,0,0,1,0
105246,99999999999,2,2,0,0,1,0
105247,99999999999,2,2,0,0,1,0
105248,99999999999,2,2,0,0,1,0
105249,99999999999,2,2,0,0,1,0
105250,99999999999,2,2,0,0,1,0
105251,99999999999,2,2,0,0,1,0
105252,99999999999,2,2,0,0,1,0
105253,99999999999,2,2,0,0,1,0
105254,99999999999,2,2,0,0,1,0
105255,99999999999,2,2,0,0,1,0
105256,99999999999,2,2,0,0,1,0
105257,99999999999,2,2,0,0,1,0
105258,99999999999,2,2,0,0,1,0
105259,99999999999,2,2,0,0,1,0
105260,99999999999,2,2,0,0,1,0
105261,99999999999,2,2,0,0,1,0
105262,99999999999,2,2,0,0,1,0
105263,99999999999,2,2,0,0,1,0
105264,99999999999,2,2,0,0,1,0
105265,99999999999,2,2,0,0,1,0
105266,99999999999,2,2,0,0,1,0
105267,99999999999,2,2,0,0,1,0
105268,99999999999,2,2,0,0,1,0
105269,99999999999,2,2,0,0,1,0
105270,99999999999,2,2,0,0,1,0
105271,99999999999,2,2,0,0,1,0
105272,99999999999,2,2,0,0,1,0
105273,99999999999,2,2,0,0,1,0
105274,99999999999,2,2,0,0,1,0
105275,99999999999,2,2,0,0,1,0
105276,99999999999,2,2,0,0,1,0
105277,99999999999,2,2,0,0,1,0
105278,99999999999,2,2,0,0,1,0
105279,99999999999,2,2,0,0,1,0
105280,99999999999,2,2,0,0,1,0
105281,99999999999,2,2,0,0,1,0
105282,99999999999,2,2,0,0,1,0
105283,99999999999,2,2,0,0,1,0
105284,99999999999,2,2,0,0,1,0
105285,99999999999,2,2,0,0,1,0
105286,99999999999,2,2,0,0,1,0
105287,99999999999,2,2,0,0,1,0
105288,99999999999,2,2,0,0,1,0
105289,99999999999,2,2,0,0,1,0
105290,99999999999,2,2,0,0,1,0
105291,99999999999,2,2,0,0,1,0
105292,99999999999,2,2,0,0,1,0
105293,99999999999,2,2,0,0,1,0
105294,99999999999,2,2,0,0,1,0
105295,99999999999,2,2,0,0,1,0
105296,99999999999,2,2,0,0,1,0
105297,99999999999,2,2,0,0,1,0
105298,99999999999,2,2,0,0,1,0
105299,99999999999,2,2,0,0,1,0
105300,99999999999,2,2,0,0,1,0
105301,99999999999,2,2,0,0,1,0
105302,99999999999,2,2,0,0,1,0
105303,99999999999,2,2,0,0,1,0
105304,99999999999,2,2,0,0,1,0
105305,99999999999,2,2,0,0,1,0
105306,99999999999,2,2,0,0,1,0
105307,99999999999,2,2,0,0,1,0
105308,99999999999,2,2,0,0,1,0
105309,99999999999,2,2,0,0,1,0
105310,99999999999,2,2,0,0,1,0
105311,99999999999,2,2,0,0,1,0
105312,99999999999,2,2,0,0,1,0
105313,99999999999,2,2,0,0,1,0
105314,99999999999,2,2,0,0,1,0
105315,99999999999,2,2,0,0,1,0
105316,99999999999,2,2,0,0,1,0
105317,99999999999,2,2,0,0,1,0
105318,99999999999,2,2,0,0,1,0
105319,99999999999,2,2,0,0,1,0
105320,99999999999,2,2,0,0,1,0
105321,99999999999,2,2,0,0,1,0
105322,99999999999,2,2,0,0,1,0
105323,99999999999,2,2,0,0,1,0
105324,99999999999,2,2,0,0,1,0
105325,99999999999,2,2,0,0,1,0
105326,99999999999,2,2,0,0,1,0
105327,99999999999,2,2,0,0,1,0
105328,99999999999,2,2,0,0,1,0
105329,99999999999,2,2,0,0,1,0
105330,99999999999,2,2,0,0,1,0
105331,99999999999,2,2,0,0,1,0
105332,99999999999,2,2,0,0,1,0
105333,99999999999,2,2,0,0,1,0
105334,99999999999,2,2,0,0,1,0
105335,99999999999,2,2,0,0,1,0
105336,99999999999,2,2,0,0,1,0
105337,99999999999,2,2,0,0,1,0
105338,99999999999,2,2,0,0,1,0
105339,99999999999,2,2,0,0,1,0
105340,99999999999,2,2,0,0,1,0
105341,99999999999,2,2,0,0,1,0
105342,99999999999,2,2,0,0,1,0
105343,99999999999,2,2,0,0,1,0
105344,99999999999,2,2,0,0,1,0
105345,99999999999,2,2,0,0,1,0
105346,99999999999,2,2,0,0,1,0
105347,99999999999,2,2,0,0,1,0
105348,99999999999,2,2,0,0,1,0
105349,99999999999,2,2,0,0,1,0
105350,99999999999,2,2,0,0,1,0
105351,99999999999,2,2,0,0,1,0
105352,99999999999,2,2,0,0,1,0
105353,99999999999,2,2,0,0,1,0
105354,99999999999,2,2,0,0,1,0
105355,99999999999,2,2,0,0,1,0
105356,99999999999,2,2,0,0,1,0
105357,99999999999,2,2,0,0,1,0
105358,99999999999,2,2,0,0,1,0
105359,99999999999,2,2,0,0,1,0
105360,99999999999,2,2,0,0,1,0
105361,99999999999,2,2,0,0,1,0
105362,99999999999,2,2,0,0,1,0
105363,99999999999,2,2,0,0,1,0
105364,99999999999,2,2,0,0,1,0
105365,99999999999,2,2,0,0,1,0
105366,99999999999,2,2,0,0,1,0
105367,99999999999,2,2,0,0,1,0
105368,99999999999,2,2,0,0,1,0
105369,99999999999,2,2,0,0,1,0
105370,99999999999,2,2,0,0,1,0
105371,99999999999,2,2,0,0,1,0
105372,99999999999,2,2,0,0,1,0
105373,99999999999,2,2,0,0,1,0
105374,99999999999,2,2,0,0,1,0
105375,99999999999,2,2,0,0,1,0
105376,99999999999,2,2,0,0,1,0
105377,99999999999,2,2,0,0,1,0
105378,99999999999,2,2,0,0,1,0
105379,99999999999,2,2,0,0,1,0
105380,99999999999,2,2,0,0,1,0
105381,99999999999,2,2,0,0,1,0
105382,99999999999,2,2,0,0,1,0
105383,99999999999,2,2,0,0,1,0
105384,99999999999,2,2,0,0,1,0
105385,99999999999,2,2,0,0,1,0
105386,99999999999,2,2,0,0,1,0
105387,99999999999,2,2,0,0,1,0
105388,99999999999,2,2,0,0,1,0
105389,99999999999,2,2,0,0,1,0
105390,99999999999,2,2,0,0,1,0
105391,99999999999,2,2,0,0,1,0
105392,99999999999,2,2,0,0,1,0
105393,99999999999,2,2,0,0,1,0
105394,99999999999,2,2,0,0,1,0
105395,99999999999,2,2,0,0,1,0
105396,99999999999,2,2,0,0,1,0
105397,99999999999,2,2,0,0,1,0
105398,99999999999,2,2,0,0,1,0
105399,99999999999,2,2,0,0,1,0
105400,99999999999,2,2,0,0,1,0
105401,99999999999,2,2,0,0,1,0
105402,99999999999,2,2,0,0,1,0
105403,99999999999,2,2,0,0,1,0
105404,99999999999,2,2,0,0,1,0
105405,99999999999,2,2,0,0,1,0
105406,99999999999,2,2,0,0,1,0
105407,99999999999,2,2,0,0,1,0
105408,99999999999,2,2,0,0,1,0
105409,99999999999,2,2,0,0,1,0
105410,99999999999,2,2,0,0,1,0
105411,99999999999,2,2,0,0,1,0
105412,99999999999,2,2,0,0,1,0
105413,99999999999,2,2,0,0,1,0
105414,428.571428571429,4,2,0,0,1,0
105414,-1000,4,2,0,0,0,0
105514,-500,4,2,0,0,0,0
105614,-333.333333333333,4,2,0,0,0,0
105714,-250,4,2,0,0,0,0
105814,-200,4,2,0,0,0,0
105914,-166.666666666667,4,2,0,0,0,0
106014,-142.857142857143,4,2,0,0,0,0
106114,-125,4,2,0,0,0,0
106214,-111.111111111111,4,2,0,0,0,0
106287,428.571428571429,4,2,0,0,1,0
108858,-111.111111111111,4,2,0,0,0,0
108965,-125,4,2,0,0,0,0
109072,-142.857142857143,4,2,0,0,0,0
109179,-166.666666666667,4,2,0,0,0,0
109715,-142.857142857143,4,2,0,0,0,0
109822,-125,4,2,0,0,0,0
109929,-111.111111111111,4,2,0,0,0,0
110037,-100,4,2,0,0,0,0
134570,-111.111111111111,4,2,0,0,0,0
134677,-125,4,2,0,0,0,0
134784,-142.857142857143,4,2,0,0,0,0
134891,-166.666666666667,4,2,0,0,0,0
134998,-200,4,2,0,0,0,0
136715,-1000,5,2,0,0,0,0
136929,-12.1951219512195,5,2,0,0,0,0
136956,-1000,5,2,0,0,0,0
137117,-15.625,5,2,0,0,0,0
137144,-166.666666666667,5,2,0,0,0,0
137572,-133.333333333333,5,2,0,0,0,0
137679,-111.111111111111,5,2,0,0,0,0
137787,-95.2380952380952,5,2,0,0,0,0
137894,-83.3333333333333,5,2,0,0,0,0
138001,-333.333333333333,5,2,0,0,0,0
138215,-294.117647058824,5,2,0,0,0,0
138429,-208.333333333333,5,2,0,0,0,0
138644,-161.290322580645,5,2,0,0,0,0
138858,-131.578947368421,5,2,0,0,0,0
139072,-111.111111111111,5,2,0,0,0,0
139287,-96.1538461538461,5,2,0,0,0,0
139501,-84.7457627118644,5,2,0,0,0,0
139715,-100,5,2,0,0,0,0
139822,-1000,5,2,0,0,0,0
139904,-27.027027027027,4,2,0,0,0,0
139929,-1000,4,2,0,0,0,0
140011,-27.027027027027,4,2,0,0,0,0
140037,-1000,4,2,0,0,0,0
140118,-27.027027027027,4,2,0,0,0,0
140144,-1000,4,2,0,0,0,0
140225,-27.027027027027,4,2,0,0,0,0
140251,-1000,4,2,0,0,0,0
140332,-27.027027027027,4,2,0,0,0,0
140358,-1000,4,2,0,0,0,0
140440,-27.027027027027,4,2,0,0,0,0
140465,-1000,4,2,0,0,0,0
140547,-27.027027027027,4,2,0,0,0,0
140572,-1000,4,2,0,0,0,0
140654,-27.027027027027,4,2,0,0,0,0
140680,-1000,4,2,0,0,0,0
140761,-27.027027027027,4,2,0,0,0,0
140787,-1000,4,2,0,0,0,0
140868,-27.027027027027,4,2,0,0,0,0
140894,-1000,4,2,0,0,0,0
140975,-27.027027027027,4,2,0,0,0,0
141001,-1000,4,2,0,0,0,0
141106,-76.9230769230769,4,2,0,0,0,0
141159,-40,4,2,0,0,0,0
141213,-1000,4,2,0,0,0,0
141320,-76.9230769230769,4,2,0,0,0,0
141374,-40,4,2,0,0,0,0
141427,-100,4,2,0,0,0,0
142285,-50,4,2,0,0,0,0
142394,-200,4,2,0,0,0,0
142608,-100,4,2,0,0,0,0
143142,-500,4,2,0,0,0,0
143251,-55.5555555555556,4,2,0,0,0,0
143358,-500,4,2,0,0,0,0
143465,-55.5555555555556,4,2,0,0,0,0
143572,-500,4,2,0,0,0,0
143787,-38.4615384615385,5,2,0,0,0,0
143894,-100,5,2,0,0,0,0
146144,-1000,5,2,0,0,0,0
146251,-142.857142857143,5,2,0,0,0,0
146358,-76.9230769230769,5,2,0,0,0,0
146465,-52.6315789473684,5,2,0,0,0,0
146572,-100,5,2,0,0,0,0
147429,-500,5,2,0,0,0,0
147612,-10,5,2,0,0,0,0
147622,-500,5,2,0,0,0,0
147826,-10,5,2,0,0,0,0
147836,-500,5,2,0,0,0,0
147933,-20,5,2,0,0,0,0
147943,-500,5,2,0,0,0,0
148040,-20,5,2,0,0,0,0
148050,-500,5,2,0,0,0,0
148255,-10,5,2,0,0,0,0
148265,-500,5,2,0,0,0,0
148469,-10,5,2,0,0,0,0
148479,-500,5,2,0,0,0,0
148576,-20,5,2,0,0,0,0
148586,-500,5,2,0,0,0,0
148683,-20,5,2,0,0,0,0
148693,-500,5,2,0,0,0,0
148737,-40,5,2,0,0,0,0
148747,-500,5,2,0,0,0,0
148790,-40,5,2,0,0,0,0
148800,-500,5,2,0,0,0,0
148844,-40,5,2,0,0,0,0
148854,-500,5,2,0,0,0,0
148897,-40,5,2,0,0,0,0
148907,-500,5,2,0,0,0,0
149005,-20,5,2,0,0,0,0
149015,-500,5,2,0,0,0,0
149112,-20,5,2,0,0,0,0
149122,-100,5,2,0,0,0,0
161787,0.06,1000000000,2,0,0,1,0
161788,999999999,4,2,0,0,1,0
161789,999999999,4,2,0,0,1,0
161790,999999999,4,2,0,0,1,0
161791,999999999,4,2,0,0,1,0
161792,999999999,4,2,0,0,1,0
161793,999999999,4,2,0,0,1,0
161794,999999999,4,2,0,0,1,0
161795,999999999,4,2,0,0,1,0
161796,999999999,4,2,0,0,1,0
161797,999999999,4,2,0,0,1,0
161798,999999999,4,2,0,0,1,0
161799,999999999,4,2,0,0,1,0
161800,999999999,4,2,0,0,1,0
161801,999999999,4,2,0,0,1,0
161802,999999999,4,2,0,0,1,0
161803,999999999,4,2,0,0,1,0
161804,999999999,4,2,0,0,1,0
161805,60,4,2,0,0,1,0
161806,0.06,1000000000,2,0,0,1,0
161808,999999999,4,2,0,0,1,0
161809,999999999,4,2,0,0,1,0
161810,999999999,4,2,0,0,1,0
161811,999999999,4,2,0,0,1,0
161812,999999999,4,2,0,0,1,0
161813,999999999,4,2,0,0,1,0
161814,999999999,4,2,0,0,1,0
161815,999999999,4,2,0,0,1,0
161816,999999999,4,2,0,0,1,0
161817,999999999,4,2,0,0,1,0
161818,999999999,4,2,0,0,1,0
161819,999999999,4,2,0,0,1,0
161820,999999999,4,2,0,0,1,0
161821,999999999,4,2,0,0,1,0
161822,999999999,4,2,0,0,1,0
161823,999999999,4,2,0,0,1,0
161824,999999999,4,2,0,0,1,0
161825,59.5092552733534,4,2,0,0,1,0
161826,0.06,1000000000,2,0,0,1,0
161828,999999999,4,2,0,0,1,0
161829,999999999,4,2,0,0,1,0
161830,999999999,4,2,0,0,1,0
161831,999999999,4,2,0,0,1,0
161832,999999999,4,2,0,0,1,0
161833,999999999,4,2,0,0,1,0
161834,999999999,4,2,0,0,1,0
161835,999999999,4,2,0,0,1,0
161836,999999999,4,2,0,0,1,0
161837,999999999,4,2,0,0,1,0
161838,999999999,4,2,0,0,1,0
161839,999999999,4,2,0,0,1,0
161840,999999999,4,2,0,0,1,0
161841,999999999,4,2,0,0,1,0
161842,999999999,4,2,0,0,1,0
161843,999999999,4,2,0,0,1,0
161844,999999999,4,2,0,0,1,0
161845,58.0840336134454,4,2,0,0,1,0
161846,0.06,1000000000,2,0,0,1,0
161848,999999999,4,2,0,0,1,0
161849,999999999,4,2,0,0,1,0
161850,999999999,4,2,0,0,1,0
161851,999999999,4,2,0,0,1,0
161852,999999999,4,2,0,0,1,0
161853,999999999,4,2,0,0,1,0
161854,999999999,4,2,0,0,1,0
161855,999999999,4,2,0,0,1,0
161856,999999999,4,2,0,0,1,0
161857,999999999,4,2,0,0,1,0
161858,999999999,4,2,0,0,1,0
161859,999999999,4,2,0,0,1,0
161860,999999999,4,2,0,0,1,0
161861,999999999,4,2,0,0,1,0
161862,999999999,4,2,0,0,1,0
161863,999999999,4,2,0,0,1,0
161864,999999999,4,2,0,0,1,0
161865,55.8545454545455,4,2,0,0,1,0
161866,0.06,1000000000,2,0,0,1,0
161868,999999999,4,2,0,0,1,0
161869,999999999,4,2,0,0,1,0
161870,999999999,4,2,0,0,1,0
161871,999999999,4,2,0,0,1,0
161872,999999999,4,2,0,0,1,0
161873,999999999,4,2,0,0,1,0
161874,999999999,4,2,0,0,1,0
161875,999999999,4,2,0,0,1,0
161876,999999999,4,2,0,0,1,0
161877,999999999,4,2,0,0,1,0
161878,999999999,4,2,0,0,1,0
161879,999999999,4,2,0,0,1,0
161880,999999999,4,2,0,0,1,0
161881,999999999,4,2,0,0,1,0
161882,999999999,4,2,0,0,1,0
161883,999999999,4,2,0,0,1,0
161884,999999999,4,2,0,0,1,0
161885,53.0061349693252,4,2,0,0,1,0
161886,0.06,1000000000,2,0,0,1,0
161888,999999999,4,2,0,0,1,0
161889,999999999,4,2,0,0,1,0
161890,999999999,4,2,0,0,1,0
161891,999999999,4,2,0,0,1,0
161892,999999999,4,2,0,0,1,0
161893,999999999,4,2,0,0,1,0
161894,999999999,4,2,0,0,1,0
161895,999999999,4,2,0,0,1,0
161896,999999999,4,2,0,0,1,0
161897,999999999,4,2,0,0,1,0
161898,999999999,4,2,0,0,1,0
161899,999999999,4,2,0,0,1,0
161900,999999999,4,2,0,0,1,0
161901,999999999,4,2,0,0,1,0
161902,999999999,4,2,0,0,1,0
161903,999999999,4,2,0,0,1,0
161904,999999999,4,2,0,0,1,0
161905,49.7445124145376,4,2,0,0,1,0
161906,0.06,1000000000,2,0,0,1,0
161908,999999999,4,2,0,0,1,0
161909,999999999,4,2,0,0,1,0
161910,999999999,4,2,0,0,1,0
161911,999999999,4,2,0,0,1,0
161912,999999999,4,2,0,0,1,0
161913,999999999,4,2,0,0,1,0
161914,999999999,4,2,0,0,1,0
161915,999999999,4,2,0,0,1,0
161916,999999999,4,2,0,0,1,0
161917,999999999,4,2,0,0,1,0
161918,999999999,4,2,0,0,1,0
161919,999999999,4,2,0,0,1,0
161920,999999999,4,2,0,0,1,0
161921,999999999,4,2,0,0,1,0
161922,999999999,4,2,0,0,1,0
161923,999999999,4,2,0,0,1,0
161924,999999999,4,2,0,0,1,0
161925,46.2650602409639,4,2,0,0,1,0
161926,0.06,1000000000,2,0,0,1,0
161928,999999999,4,2,0,0,1,0
161929,999999999,4,2,0,0,1,0
161930,999999999,4,2,0,0,1,0
161931,999999999,4,2,0,0,1,0
161932,999999999,4,2,0,0,1,0
161933,999999999,4,2,0,0,1,0
161934,999999999,4,2,0,0,1,0
161935,999999999,4,2,0,0,1,0
161936,999999999,4,2,0,0,1,0
161937,999999999,4,2,0,0,1,0
161938,999999999,4,2,0,0,1,0
161939,999999999,4,2,0,0,1,0
161940,999999999,4,2,0,0,1,0
161941,999999999,4,2,0,0,1,0
161942,999999999,4,2,0,0,1,0
161943,999999999,4,2,0,0,1,0
161944,999999999,4,2,0,0,1,0
161945,42.7326120556414,4,2,0,0,1,0
161946,0.06,1000000000,2,0,0,1,0
161948,999999999,4,2,0,0,1,0
161949,999999999,4,2,0,0,1,0
161950,999999999,4,2,0,0,1,0
161951,999999999,4,2,0,0,1,0
161952,999999999,4,2,0,0,1,0
161953,999999999,4,2,0,0,1,0
161954,999999999,4,2,0,0,1,0
161955,999999999,4,2,0,0,1,0
161956,999999999,4,2,0,0,1,0
161957,999999999,4,2,0,0,1,0
161958,999999999,4,2,0,0,1,0
161959,999999999,4,2,0,0,1,0
161960,999999999,4,2,0,0,1,0
161961,999999999,4,2,0,0,1,0
161962,999999999,4,2,0,0,1,0
161963,999999999,4,2,0,0,1,0
161964,999999999,4,2,0,0,1,0
161965,39.2727272727273,4,2,0,0,1,0
161966,0.06,1000000000,2,0,0,1,0
161968,999999999,4,2,0,0,1,0
161969,999999999,4,2,0,0,1,0
161970,999999999,4,2,0,0,1,0
161971,999999999,4,2,0,0,1,0
161972,999999999,4,2,0,0,1,0
161973,999999999,4,2,0,0,1,0
161974,999999999,4,2,0,0,1,0
161975,999999999,4,2,0,0,1,0
161976,999999999,4,2,0,0,1,0
161977,999999999,4,2,0,0,1,0
161978,999999999,4,2,0,0,1,0
161979,999999999,4,2,0,0,1,0
161980,999999999,4,2,0,0,1,0
161981,999999999,4,2,0,0,1,0
161982,999999999,4,2,0,0,1,0
161983,999999999,4,2,0,0,1,0
161984,999999999,4,2,0,0,1,0
161985,35.9718969555035,4,2,0,0,1,0
161986,0.06,1000000000,2,0,0,1,0
161988,999999999,4,2,0,0,1,0
161989,999999999,4,2,0,0,1,0
161990,999999999,4,2,0,0,1,0
161991,999999999,4,2,0,0,1,0
161992,999999999,4,2,0,0,1,0
161993,999999999,4,2,0,0,1,0
161994,999999999,4,2,0,0,1,0
161995,999999999,4,2,0,0,1,0
161996,999999999,4,2,0,0,1,0
161997,999999999,4,2,0,0,1,0
161998,999999999,4,2,0,0,1,0
161999,999999999,4,2,0,0,1,0
162000,999999999,4,2,0,0,1,0
162001,999999999,4,2,0,0,1,0
162002,999999999,4,2,0,0,1,0
162003,999999999,4,2,0,0,1,0
162004,999999999,4,2,0,0,1,0
162005,32.8829686013321,4,2,0,0,1,0
162006,0.06,1000000000,2,0,0,1,0
162008,999999999,4,2,0,0,1,0
162009,999999999,4,2,0,0,1,0
162010,999999999,4,2,0,0,1,0
162011,999999999,4,2,0,0,1,0
162012,999999999,4,2,0,0,1,0
162013,999999999,4,2,0,0,1,0
162014,999999999,4,2,0,0,1,0
162015,999999999,4,2,0,0,1,0
162016,999999999,4,2,0,0,1,0
162017,999999999,4,2,0,0,1,0
162018,999999999,4,2,0,0,1,0
162019,999999999,4,2,0,0,1,0
162020,999999999,4,2,0,0,1,0
162021,999999999,4,2,0,0,1,0
162022,999999999,4,2,0,0,1,0
162023,999999999,4,2,0,0,1,0
162024,999999999,4,2,0,0,1,0
162025,30.032587442972,4,2,0,0,1,0
162026,0.06,1000000000,2,0,0,1,0
162028,999999999,4,2,0,0,1,0
162029,999999999,4,2,0,0,1,0
162030,999999999,4,2,0,0,1,0
162031,999999999,4,2,0,0,1,0
162032,999999999,4,2,0,0,1,0
162033,999999999,4,2,0,0,1,0
162034,999999999,4,2,0,0,1,0
162035,999999999,4,2,0,0,1,0
162036,999999999,4,2,0,0,1,0
162037,999999999,4,2,0,0,1,0
162038,999999999,4,2,0,0,1,0
162039,999999999,4,2,0,0,1,0
162040,999999999,4,2,0,0,1,0
162041,999999999,4,2,0,0,1,0
162042,999999999,4,2,0,0,1,0
162043,999999999,4,2,0,0,1,0
162044,999999999,4,2,0,0,1,0
162045,27.4285714285714,4,2,0,0,1,0
162046,0.06,1000000000,2,0,0,1,0
162048,999999999,4,2,0,0,1,0
162049,999999999,4,2,0,0,1,0
162050,999999999,4,2,0,0,1,0
162051,999999999,4,2,0,0,1,0
162052,999999999,4,2,0,0,1,0
162053,999999999,4,2,0,0,1,0
162054,999999999,4,2,0,0,1,0
162055,999999999,4,2,0,0,1,0
162056,999999999,4,2,0,0,1,0
162057,999999999,4,2,0,0,1,0
162058,999999999,4,2,0,0,1,0
162059,999999999,4,2,0,0,1,0
162060,999999999,4,2,0,0,1,0
162061,999999999,4,2,0,0,1,0
162062,999999999,4,2,0,0,1,0
162063,999999999,4,2,0,0,1,0
162064,999999999,4,2,0,0,1,0
162065,25.0661831368994,4,2,0,0,1,0
162066,0.06,1000000000,2,0,0,1,0
162068,999999999,4,2,0,0,1,0
162069,999999999,4,2,0,0,1,0
162070,999999999,4,2,0,0,1,0
162071,999999999,4,2,0,0,1,0
162072,999999999,4,2,0,0,1,0
162073,999999999,4,2,0,0,1,0
162074,999999999,4,2,0,0,1,0
162075,999999999,4,2,0,0,1,0
162076,999999999,4,2,0,0,1,0
162077,999999999,4,2,0,0,1,0
162078,999999999,4,2,0,0,1,0
162079,999999999,4,2,0,0,1,0
162080,999999999,4,2,0,0,1,0
162081,999999999,4,2,0,0,1,0
162082,999999999,4,2,0,0,1,0
162083,999999999,4,2,0,0,1,0
162084,999999999,4,2,0,0,1,0
162085,22.9329794293298,4,2,0,0,1,0
162086,0.06,1000000000,2,0,0,1,0
162088,999999999,4,2,0,0,1,0
162089,999999999,4,2,0,0,1,0
162090,999999999,4,2,0,0,1,0
162091,999999999,4,2,0,0,1,0
162092,999999999,4,2,0,0,1,0
162093,999999999,4,2,0,0,1,0
162094,999999999,4,2,0,0,1,0
162095,999999999,4,2,0,0,1,0
162096,999999999,4,2,0,0,1,0
162097,999999999,4,2,0,0,1,0
162098,999999999,4,2,0,0,1,0
162099,999999999,4,2,0,0,1,0
162100,999999999,4,2,0,0,1,0
162101,999999999,4,2,0,0,1,0
162102,999999999,4,2,0,0,1,0
162103,999999999,4,2,0,0,1,0
162104,999999999,4,2,0,0,1,0
162105,21.0123119015048,4,2,0,0,1,0
162106,0.06,1000000000,2,0,0,1,0
162108,999999999,4,2,0,0,1,0
162109,999999999,4,2,0,0,1,0
162110,999999999,4,2,0,0,1,0
162111,999999999,4,2,0,0,1,0
162112,999999999,4,2,0,0,1,0
162113,999999999,4,2,0,0,1,0
162114,999999999,4,2,0,0,1,0
162115,999999999,4,2,0,0,1,0
162116,999999999,4,2,0,0,1,0
162117,999999999,4,2,0,0,1,0
162118,999999999,4,2,0,0,1,0
162119,999999999,4,2,0,0,1,0
162120,999999999,4,2,0,0,1,0
162121,999999999,4,2,0,0,1,0
162122,999999999,4,2,0,0,1,0
162123,999999999,4,2,0,0,1,0
162124,999999999,4,2,0,0,1,0
162125,19.2857142857143,4,2,0,0,1,0
162126,0.06,1000000000,2,0,0,1,0
162128,999999999,4,2,0,0,1,0
162129,999999999,4,2,0,0,1,0
162130,999999999,4,2,0,0,1,0
162131,999999999,4,2,0,0,1,0
162132,999999999,4,2,0,0,1,0
162133,999999999,4,2,0,0,1,0
162134,999999999,4,2,0,0,1,0
162135,999999999,4,2,0,0,1,0
162136,999999999,4,2,0,0,1,0
162137,999999999,4,2,0,0,1,0
162138,999999999,4,2,0,0,1,0
162139,999999999,4,2,0,0,1,0
162140,999999999,4,2,0,0,1,0
162141,999999999,4,2,0,0,1,0
162142,999999999,4,2,0,0,1,0
162143,999999999,4,2,0,0,1,0
162144,999999999,4,2,0,0,1,0
162145,17.734445157152,4,2,0,0,1,0
162146,0.06,1000000000,2,0,0,1,0
162148,999999999,4,2,0,0,1,0
162149,999999999,4,2,0,0,1,0
162150,999999999,4,2,0,0,1,0
162151,999999999,4,2,0,0,1,0
162152,999999999,4,2,0,0,1,0
162153,999999999,4,2,0,0,1,0
162154,999999999,4,2,0,0,1,0
162155,999999999,4,2,0,0,1,0
162156,999999999,4,2,0,0,1,0
162157,999999999,4,2,0,0,1,0
162158,999999999,4,2,0,0,1,0
162159,999999999,4,2,0,0,1,0
162160,999999999,4,2,0,0,1,0
162161,999999999,4,2,0,0,1,0
162162,999999999,4,2,0,0,1,0
162163,999999999,4,2,0,0,1,0
162164,999999999,4,2,0,0,1,0
162165,16.3404255319149,4,2,0,0,1,0
162166,0.06,1000000000,2,0,0,1,0
162168,999999999,4,2,0,0,1,0
162169,999999999,4,2,0,0,1,0
162170,999999999,4,2,0,0,1,0
162171,999999999,4,2,0,0,1,0
162172,999999999,4,2,0,0,1,0
162173,999999999,4,2,0,0,1,0
162174,999999999,4,2,0,0,1,0
162175,999999999,4,2,0,0,1,0
162176,999999999,4,2,0,0,1,0
162177,999999999,4,2,0,0,1,0
162178,999999999,4,2,0,0,1,0
162179,999999999,4,2,0,0,1,0
162180,999999999,4,2,0,0,1,0
162181,999999999,4,2,0,0,1,0
162182,999999999,4,2,0,0,1,0
162183,999999999,4,2,0,0,1,0
162184,999999999,4,2,0,0,1,0
162185,15.0867619775183,4,2,0,0,1,0
162186,0.06,1000000000,2,0,0,1,0
162188,999999999,4,2,0,0,1,0
162189,999999999,4,2,0,0,1,0
162190,999999999,4,2,0,0,1,0
162191,999999999,4,2,0,0,1,0
162192,999999999,4,2,0,0,1,0
162193,999999999,4,2,0,0,1,0
162194,999999999,4,2,0,0,1,0
162195,999999999,4,2,0,0,1,0
162196,999999999,4,2,0,0,1,0
162197,999999999,4,2,0,0,1,0
162198,999999999,4,2,0,0,1,0
162199,999999999,4,2,0,0,1,0
162200,999999999,4,2,0,0,1,0
162201,999999999,4,2,0,0,1,0
162202,999999999,4,2,0,0,1,0
162203,999999999,4,2,0,0,1,0
162204,999999999,4,2,0,0,1,0
162205,13.9579967689822,4,2,0,0,1,0
162206,0.06,1000000000,2,0,0,1,0
162208,999999999,4,2,0,0,1,0
162209,999999999,4,2,0,0,1,0
162210,999999999,4,2,0,0,1,0
162211,999999999,4,2,0,0,1,0
162212,999999999,4,2,0,0,1,0
162213,999999999,4,2,0,0,1,0
162214,999999999,4,2,0,0,1,0
162215,999999999,4,2,0,0,1,0
162216,999999999,4,2,0,0,1,0
162217,999999999,4,2,0,0,1,0
162218,999999999,4,2,0,0,1,0
162219,999999999,4,2,0,0,1,0
162220,999999999,4,2,0,0,1,0
162221,999999999,4,2,0,0,1,0
162222,999999999,4,2,0,0,1,0
162223,999999999,4,2,0,0,1,0
162224,999999999,4,2,0,0,1,0
162225,12.9401853411963,4,2,0,0,1,0
162226,0.06,1000000000,2,0,0,1,0
162228,999999999,4,2,0,0,1,0
162229,999999999,4,2,0,0,1,0
162230,999999999,4,2,0,0,1,0
162231,999999999,4,2,0,0,1,0
162232,999999999,4,2,0,0,1,0
162233,999999999,4,2,0,0,1,0
162234,999999999,4,2,0,0,1,0
162235,999999999,4,2,0,0,1,0
162236,999999999,4,2,0,0,1,0
162237,999999999,4,2,0,0,1,0
162238,999999999,4,2,0,0,1,0
162239,999999999,4,2,0,0,1,0
162240,999999999,4,2,0,0,1,0
162241,999999999,4,2,0,0,1,0
162242,999999999,4,2,0,0,1,0
162243,999999999,4,2,0,0,1,0
162244,999999999,4,2,0,0,1,0
162245,12.0208695652174,4,2,0,0,1,0
162246,0.06,1000000000,2,0,0,1,0
162248,999999999,4,2,0,0,1,0
162249,999999999,4,2,0,0,1,0
162250,999999999,4,2,0,0,1,0
162251,999999999,4,2,0,0,1,0
162252,999999999,4,2,0,0,1,0
162253,999999999,4,2,0,0,1,0
162254,999999999,4,2,0,0,1,0
162255,999999999,4,2,0,0,1,0
162256,999999999,4,2,0,0,1,0
162257,999999999,4,2,0,0,1,0
162258,999999999,4,2,0,0,1,0
162259,999999999,4,2,0,0,1,0
162260,999999999,4,2,0,0,1,0
162261,999999999,4,2,0,0,1,0
162262,999999999,4,2,0,0,1,0
162263,999999999,4,2,0,0,1,0
162264,999999999,4,2,0,0,1,0
162265,11.1889923108053,4,2,0,0,1,0
162266,0.06,1000000000,2,0,0,1,0
162268,999999999,4,2,0,0,1,0
162269,999999999,4,2,0,0,1,0
162270,999999999,4,2,0,0,1,0
162271,999999999,4,2,0,0,1,0
162272,999999999,4,2,0,0,1,0
162273,999999999,4,2,0,0,1,0
162274,999999999,4,2,0,0,1,0
162275,999999999,4,2,0,0,1,0
162276,999999999,4,2,0,0,1,0
162277,999999999,4,2,0,0,1,0
162278,999999999,4,2,0,0,1,0
162279,999999999,4,2,0,0,1,0
162280,999999999,4,2,0,0,1,0
162281,999999999,4,2,0,0,1,0
162282,999999999,4,2,0,0,1,0
162283,999999999,4,2,0,0,1,0
162284,999999999,4,2,0,0,1,0
162285,10.4347826086957,4,2,0,0,1,0
162286,0.06,1000000000,2,0,0,1,0
162288,999999999,4,2,0,0,1,0
162289,999999999,4,2,0,0,1,0
162290,999999999,4,2,0,0,1,0
162291,999999999,4,2,0,0,1,0
162292,999999999,4,2,0,0,1,0
162293,999999999,4,2,0,0,1,0
162294,999999999,4,2,0,0,1,0
162295,999999999,4,2,0,0,1,0
162296,999999999,4,2,0,0,1,0
162297,999999999,4,2,0,0,1,0
162298,999999999,4,2,0,0,1,0
162299,999999999,4,2,0,0,1,0
162300,999999999,4,2,0,0,1,0
162301,999999999,4,2,0,0,1,0
162302,999999999,4,2,0,0,1,0
162303,999999999,4,2,0,0,1,0
162304,999999999,4,2,0,0,1,0
162305,9.74962973411383,4,2,0,0,1,0
162306,0.06,1000000000,2,0,0,1,0
162308,999999999,4,2,0,0,1,0
162309,999999999,4,2,0,0,1,0
162310,999999999,4,2,0,0,1,0
162311,999999999,4,2,0,0,1,0
162312,999999999,4,2,0,0,1,0
162313,999999999,4,2,0,0,1,0
162314,999999999,4,2,0,0,1,0
162315,999999999,4,2,0,0,1,0
162316,999999999,4,2,0,0,1,0
162317,999999999,4,2,0,0,1,0
162318,999999999,4,2,0,0,1,0
162319,999999999,4,2,0,0,1,0
162320,999999999,4,2,0,0,1,0
162321,999999999,4,2,0,0,1,0
162322,999999999,4,2,0,0,1,0
162323,999999999,4,2,0,0,1,0
162324,999999999,4,2,0,0,1,0
162325,9.12595722207552,4,2,0,0,1,0
162326,0.06,1000000000,2,0,0,1,0
162328,999999999,4,2,0,0,1,0
162329,999999999,4,2,0,0,1,0
162330,999999999,4,2,0,0,1,0
162331,999999999,4,2,0,0,1,0
162332,999999999,4,2,0,0,1,0
162333,999999999,4,2,0,0,1,0
162334,999999999,4,2,0,0,1,0
162335,999999999,4,2,0,0,1,0
162336,999999999,4,2,0,0,1,0
162337,999999999,4,2,0,0,1,0
162338,999999999,4,2,0,0,1,0
162339,999999999,4,2,0,0,1,0
162340,999999999,4,2,0,0,1,0
162341,999999999,4,2,0,0,1,0
162342,999999999,4,2,0,0,1,0
162343,999999999,4,2,0,0,1,0
162344,999999999,4,2,0,0,1,0
162345,8.55710306406685,4,2,0,0,1,0
162346,0.06,1000000000,2,0,0,1,0
162348,999999999,4,2,0,0,1,0
162349,999999999,4,2,0,0,1,0
162350,999999999,4,2,0,0,1,0
162351,999999999,4,2,0,0,1,0
162352,999999999,4,2,0,0,1,0
162353,999999999,4,2,0,0,1,0
162354,999999999,4,2,0,0,1,0
162355,999999999,4,2,0,0,1,0
162356,999999999,4,2,0,0,1,0
162357,999999999,4,2,0,0,1,0
162358,999999999,4,2,0,0,1,0
162359,999999999,4,2,0,0,1,0
162360,999999999,4,2,0,0,1,0
162361,999999999,4,2,0,0,1,0
162362,999999999,4,2,0,0,1,0
162363,999999999,4,2,0,0,1,0
162364,999999999,4,2,0,0,1,0
162365,8.03720930232558,4,2,0,0,1,0
162366,0.06,1000000000,2,0,0,1,0
162368,999999999,4,2,0,0,1,0
162369,999999999,4,2,0,0,1,0
162370,999999999,4,2,0,0,1,0
162371,999999999,4,2,0,0,1,0
162372,999999999,4,2,0,0,1,0
162373,999999999,4,2,0,0,1,0
162374,999999999,4,2,0,0,1,0
162375,999999999,4,2,0,0,1,0
162376,999999999,4,2,0,0,1,0
162377,999999999,4,2,0,0,1,0
162378,999999999,4,2,0,0,1,0
162379,999999999,4,2,0,0,1,0
162380,999999999,4,2,0,0,1,0
162381,999999999,4,2,0,0,1,0
162382,999999999,4,2,0,0,1,0
162383,999999999,4,2,0,0,1,0
162384,999999999,4,2,0,0,1,0
162385,7.56112235409944,4,2,0,0,1,0
162386,0.06,1000000000,2,0,0,1,0
162388,999999999,4,2,0,0,1,0
162389,999999999,4,2,0,0,1,0
162390,999999999,4,2,0,0,1,0
162391,999999999,4,2,0,0,1,0
162392,999999999,4,2,0,0,1,0
162393,999999999,4,2,0,0,1,0
162394,999999999,4,2,0,0,1,0
162395,999999999,4,2,0,0,1,0
162396,999999999,4,2,0,0,1,0
162397,999999999,4,2,0,0,1,0
162398,999999999,4,2,0,0,1,0
162399,999999999,4,2,0,0,1,0
162400,999999999,4,2,0,0,1,0
162401,999999999,4,2,0,0,1,0
162402,999999999,4,2,0,0,1,0
162403,999999999,4,2,0,0,1,0
162404,999999999,4,2,0,0,1,0
162405,7.12430426716141,4,2,0,0,1,0
162406,0.06,1000000000,2,0,0,1,0
162408,999999999,4,2,0,0,1,0
162409,999999999,4,2,0,0,1,0
162410,999999999,4,2,0,0,1,0
162411,999999999,4,2,0,0,1,0
162412,999999999,4,2,0,0,1,0
162413,999999999,4,2,0,0,1,0
162414,999999999,4,2,0,0,1,0
162415,999999999,4,2,0,0,1,0
162416,999999999,4,2,0,0,1,0
162417,999999999,4,2,0,0,1,0
162418,999999999,4,2,0,0,1,0
162419,999999999,4,2,0,0,1,0
162420,999999999,4,2,0,0,1,0
162421,999999999,4,2,0,0,1,0
162422,999999999,4,2,0,0,1,0
162423,999999999,4,2,0,0,1,0
162424,999999999,4,2,0,0,1,0
162425,6.72275446189758,4,2,0,0,1,0
162426,0.06,1000000000,2,0,0,1,0
162428,999999999,4,2,0,0,1,0
162429,999999999,4,2,0,0,1,0
162430,999999999,4,2,0,0,1,0
162431,999999999,4,2,0,0,1,0
162432,999999999,4,2,0,0,1,0
162433,999999999,4,2,0,0,1,0
162434,999999999,4,2,0,0,1,0
162435,999999999,4,2,0,0,1,0
162436,999999999,4,2,0,0,1,0
162437,999999999,4,2,0,0,1,0
162438,999999999,4,2,0,0,1,0
162439,999999999,4,2,0,0,1,0
162440,999999999,4,2,0,0,1,0
162441,999999999,4,2,0,0,1,0
162442,999999999,4,2,0,0,1,0
162443,999999999,4,2,0,0,1,0
162444,999999999,4,2,0,0,1,0
162445,6.35294117647059,4,2,0,0,1,0
162446,0.06,1000000000,2,0,0,1,0
162448,999999999,4,2,0,0,1,0
162449,999999999,4,2,0,0,1,0
162450,999999999,4,2,0,0,1,0
162451,999999999,4,2,0,0,1,0
162452,999999999,4,2,0,0,1,0
162453,999999999,4,2,0,0,1,0
162454,999999999,4,2,0,0,1,0
162455,999999999,4,2,0,0,1,0
162456,999999999,4,2,0,0,1,0
162457,999999999,4,2,0,0,1,0
162458,999999999,4,2,0,0,1,0
162459,999999999,4,2,0,0,1,0
162460,999999999,4,2,0,0,1,0
162461,999999999,4,2,0,0,1,0
162462,999999999,4,2,0,0,1,0
162463,999999999,4,2,0,0,1,0
162464,999999999,4,2,0,0,1,0
162465,6.01174168297456,4,2,0,0,1,0
162466,0.06,1000000000,2,0,0,1,0
162468,999999999,4,2,0,0,1,0
162469,999999999,4,2,0,0,1,0
162470,999999999,4,2,0,0,1,0
162471,999999999,4,2,0,0,1,0
162472,999999999,4,2,0,0,1,0
162473,999999999,4,2,0,0,1,0
162474,999999999,4,2,0,0,1,0
162475,999999999,4,2,0,0,1,0
162476,999999999,4,2,0,0,1,0
162477,999999999,4,2,0,0,1,0
162478,999999999,4,2,0,0,1,0
162479,999999999,4,2,0,0,1,0
162480,999999999,4,2,0,0,1,0
162481,999999999,4,2,0,0,1,0
162482,999999999,4,2,0,0,1,0
162483,999999999,4,2,0,0,1,0
162484,999999999,4,2,0,0,1,0
162485,5.69639030822482,4,2,0,0,1,0
162486,0.06,1000000000,2,0,0,1,0
162488,999999999,4,2,0,0,1,0
162489,999999999,4,2,0,0,1,0
162490,999999999,4,2,0,0,1,0
162491,999999999,4,2,0,0,1,0
162492,999999999,4,2,0,0,1,0
162493,999999999,4,2,0,0,1,0
162494,999999999,4,2,0,0,1,0
162495,999999999,4,2,0,0,1,0
162496,999999999,4,2,0,0,1,0
162497,999999999,4,2,0,0,1,0
162498,999999999,4,2,0,0,1,0
162499,999999999,4,2,0,0,1,0
162500,999999999,4,2,0,0,1,0
162501,999999999,4,2,0,0,1,0
162502,999999999,4,2,0,0,1,0
162503,999999999,4,2,0,0,1,0
162504,999999999,4,2,0,0,1,0
162505,5.40443332421127,4,2,0,0,1,0
162506,0.06,1000000000,2,0,0,1,0
162508,999999999,4,2,0,0,1,0
162509,999999999,4,2,0,0,1,0
162510,999999999,4,2,0,0,1,0
162511,999999999,4,2,0,0,1,0
162512,999999999,4,2,0,0,1,0
162513,999999999,4,2,0,0,1,0
162514,999999999,4,2,0,0,1,0
162515,999999999,4,2,0,0,1,0
162516,999999999,4,2,0,0,1,0
162517,999999999,4,2,0,0,1,0
162518,999999999,4,2,0,0,1,0
162519,999999999,4,2,0,0,1,0
162520,999999999,4,2,0,0,1,0
162521,999999999,4,2,0,0,1,0
162522,999999999,4,2,0,0,1,0
162523,999999999,4,2,0,0,1,0
162524,999999999,4,2,0,0,1,0
162525,5.13368983957219,4,2,0,0,1,0
162526,0.06,1000000000,2,0,0,1,0
162528,999999999,4,2,0,0,1,0
162529,999999999,4,2,0,0,1,0
162530,999999999,4,2,0,0,1,0
162531,999999999,4,2,0,0,1,0
162532,999999999,4,2,0,0,1,0
162533,999999999,4,2,0,0,1,0
162534,999999999,4,2,0,0,1,0
162535,999999999,4,2,0,0,1,0
162536,999999999,4,2,0,0,1,0
162537,999999999,4,2,0,0,1,0
162538,999999999,4,2,0,0,1,0
162539,999999999,4,2,0,0,1,0
162540,999999999,4,2,0,0,1,0
162541,999999999,4,2,0,0,1,0
162542,999999999,4,2,0,0,1,0
162543,999999999,4,2,0,0,1,0
162544,999999999,4,2,0,0,1,0
162545,4.88221790570369,4,2,0,0,1,0
162546,0.06,1000000000,2,0,0,1,0
162548,999999999,4,2,0,0,1,0
162549,999999999,4,2,0,0,1,0
162550,999999999,4,2,0,0,1,0
162551,999999999,4,2,0,0,1,0
162552,999999999,4,2,0,0,1,0
162553,999999999,4,2,0,0,1,0
162554,999999999,4,2,0,0,1,0
162555,999999999,4,2,0,0,1,0
162556,999999999,4,2,0,0,1,0
162557,999999999,4,2,0,0,1,0
162558,999999999,4,2,0,0,1,0
162559,999999999,4,2,0,0,1,0
162560,999999999,4,2,0,0,1,0
162561,999999999,4,2,0,0,1,0
162562,999999999,4,2,0,0,1,0
162563,999999999,4,2,0,0,1,0
162564,999999999,4,2,0,0,1,0
162565,4.64828513786147,4,2,0,0,1,0
162566,0.06,1000000000,2,0,0,1,0
162568,999999999,4,2,0,0,1,0
162569,999999999,4,2,0,0,1,0
162570,999999999,4,2,0,0,1,0
162571,999999999,4,2,0,0,1,0
162572,999999999,4,2,0,0,1,0
162573,999999999,4,2,0,0,1,0
162574,999999999,4,2,0,0,1,0
162575,999999999,4,2,0,0,1,0
162576,999999999,4,2,0,0,1,0
162577,999999999,4,2,0,0,1,0
162578,999999999,4,2,0,0,1,0
162579,999999999,4,2,0,0,1,0
162580,999999999,4,2,0,0,1,0
162581,999999999,4,2,0,0,1,0
162582,999999999,4,2,0,0,1,0
162583,999999999,4,2,0,0,1,0
162584,999999999,4,2,0,0,1,0
162585,4.43034323622729,4,2,0,0,1,0
162586,0.06,1000000000,2,0,0,1,0
162588,999999999,4,2,0,0,1,0
162589,999999999,4,2,0,0,1,0
162590,999999999,4,2,0,0,1,0
162591,999999999,4,2,0,0,1,0
162592,999999999,4,2,0,0,1,0
162593,999999999,4,2,0,0,1,0
162594,999999999,4,2,0,0,1,0
162595,999999999,4,2,0,0,1,0
162596,999999999,4,2,0,0,1,0
162597,999999999,4,2,0,0,1,0
162598,999999999,4,2,0,0,1,0
162599,999999999,4,2,0,0,1,0
162600,999999999,4,2,0,0,1,0
162601,999999999,4,2,0,0,1,0
162602,999999999,4,2,0,0,1,0
162603,999999999,4,2,0,0,1,0
162604,999999999,4,2,0,0,1,0
162605,4.22700587084149,4,2,0,0,1,0
162606,0.06,1000000000,2,0,0,1,0
162608,999999999,4,2,0,0,1,0
162609,999999999,4,2,0,0,1,0
162610,999999999,4,2,0,0,1,0
162611,999999999,4,2,0,0,1,0
162612,999999999,4,2,0,0,1,0
162613,999999999,4,2,0,0,1,0
162614,999999999,4,2,0,0,1,0
162615,999999999,4,2,0,0,1,0
162616,999999999,4,2,0,0,1,0
162617,999999999,4,2,0,0,1,0
162618,999999999,4,2,0,0,1,0
162619,999999999,4,2,0,0,1,0
162620,999999999,4,2,0,0,1,0
162621,999999999,4,2,0,0,1,0
162622,999999999,4,2,0,0,1,0
162623,999999999,4,2,0,0,1,0
162624,999999999,4,2,0,0,1,0
162625,4.03702946587624,4,2,0,0,1,0
162626,0.06,1000000000,2,0,0,1,0
162628,999999999,4,2,0,0,1,0
162629,999999999,4,2,0,0,1,0
162630,999999999,4,2,0,0,1,0
162631,999999999,4,2,0,0,1,0
162632,999999999,4,2,0,0,1,0
162633,999999999,4,2,0,0,1,0
162634,999999999,4,2,0,0,1,0
162635,999999999,4,2,0,0,1,0
162636,999999999,4,2,0,0,1,0
162637,999999999,4,2,0,0,1,0
162638,999999999,4,2,0,0,1,0
162639,999999999,4,2,0,0,1,0
162640,999999999,4,2,0,0,1,0
162641,999999999,4,2,0,0,1,0
162642,999999999,4,2,0,0,1,0
162643,999999999,4,2,0,0,1,0
162644,999999999,4,2,0,0,1,0
162645,3.85929648241206,4,2,0,0,1,0
162646,0.06,1000000000,2,0,0,1,0
162648,999999999,4,2,0,0,1,0
162649,999999999,4,2,0,0,1,0
162650,999999999,4,2,0,0,1,0
162651,999999999,4,2,0,0,1,0
162652,999999999,4,2,0,0,1,0
162653,999999999,4,2,0,0,1,0
162654,999999999,4,2,0,0,1,0
162655,999999999,4,2,0,0,1,0
162656,999999999,4,2,0,0,1,0
162657,999999999,4,2,0,0,1,0
162658,999999999,4,2,0,0,1,0
162659,999999999,4,2,0,0,1,0
162660,999999999,4,2,0,0,1,0
162661,999999999,4,2,0,0,1,0
162662,999999999,4,2,0,0,1,0
162663,999999999,4,2,0,0,1,0
162664,999999999,4,2,0,0,1,0
162665,3.69280085481501,4,2,0,0,1,0
162666,0.06,1000000000,2,0,0,1,0
162668,999999999,4,2,0,0,1,0
162669,999999999,4,2,0,0,1,0
162670,999999999,4,2,0,0,1,0
162671,999999999,4,2,0,0,1,0
162672,999999999,4,2,0,0,1,0
162673,999999999,4,2,0,0,1,0
162674,999999999,4,2,0,0,1,0
162675,999999999,4,2,0,0,1,0
162676,999999999,4,2,0,0,1,0
162677,999999999,4,2,0,0,1,0
162678,999999999,4,2,0,0,1,0
162679,999999999,4,2,0,0,1,0
162680,999999999,4,2,0,0,1,0
162681,999999999,4,2,0,0,1,0
162682,999999999,4,2,0,0,1,0
162683,999999999,4,2,0,0,1,0
162684,999999999,4,2,0,0,1,0
162685,3.53663528448629,4,2,0,0,1,0
162686,0.06,1000000000,2,0,0,1,0
162688,999999999,4,2,0,0,1,0
162689,999999999,4,2,0,0,1,0
162690,999999999,4,2,0,0,1,0
162691,999999999,4,2,0,0,1,0
162692,999999999,4,2,0,0,1,0
162693,999999999,4,2,0,0,1,0
162694,999999999,4,2,0,0,1,0
162695,999999999,4,2,0,0,1,0
162696,999999999,4,2,0,0,1,0
162697,999999999,4,2,0,0,1,0
162698,999999999,4,2,0,0,1,0
162699,999999999,4,2,0,0,1,0
162700,999999999,4,2,0,0,1,0
162701,999999999,4,2,0,0,1,0
162702,999999999,4,2,0,0,1,0
162703,999999999,4,2,0,0,1,0
162704,999999999,4,2,0,0,1,0
162705,3.38998013683514,4,2,0,0,1,0
162706,0.06,1000000000,2,0,0,1,0
162708,999999999,4,2,0,0,1,0
162709,999999999,4,2,0,0,1,0
162710,999999999,4,2,0,0,1,0
162711,999999999,4,2,0,0,1,0
162712,999999999,4,2,0,0,1,0
162713,999999999,4,2,0,0,1,0
162714,999999999,4,2,0,0,1,0
162715,999999999,4,2,0,0,1,0
162716,999999999,4,2,0,0,1,0
162717,999999999,4,2,0,0,1,0
162718,999999999,4,2,0,0,1,0
162719,999999999,4,2,0,0,1,0
162720,999999999,4,2,0,0,1,0
162721,999999999,4,2,0,0,1,0
162722,999999999,4,2,0,0,1,0
162723,999999999,4,2,0,0,1,0
162724,999999999,4,2,0,0,1,0
162725,3.25209372353439,4,2,0,0,1,0
162726,0.06,1000000000,2,0,0,1,0
162728,999999999,4,2,0,0,1,0
162729,999999999,4,2,0,0,1,0
162730,999999999,4,2,0,0,1,0
162731,999999999,4,2,0,0,1,0
162732,999999999,4,2,0,0,1,0
162733,999999999,4,2,0,0,1,0
162734,999999999,4,2,0,0,1,0
162735,999999999,4,2,0,0,1,0
162736,999999999,4,2,0,0,1,0
162737,999999999,4,2,0,0,1,0
162738,999999999,4,2,0,0,1,0
162739,999999999,4,2,0,0,1,0
162740,999999999,4,2,0,0,1,0
162741,999999999,4,2,0,0,1,0
162742,999999999,4,2,0,0,1,0
162743,999999999,4,2,0,0,1,0
162744,999999999,4,2,0,0,1,0
162745,3.12230378317335,4,2,0,0,1,0
162746,0.06,1000000000,2,0,0,1,0
162748,999999999,4,2,0,0,1,0
162749,999999999,4,2,0,0,1,0
162750,999999999,4,2,0,0,1,0
162751,999999999,4,2,0,0,1,0
162752,999999999,4,2,0,0,1,0
162753,999999999,4,2,0,0,1,0
162754,999999999,4,2,0,0,1,0
162755,999999999,4,2,0,0,1,0
162756,999999999,4,2,0,0,1,0
162757,999999999,4,2,0,0,1,0
162758,999999999,4,2,0,0,1,0
162759,999999999,4,2,0,0,1,0
162760,999999999,4,2,0,0,1,0
162761,999999999,4,2,0,0,1,0
162762,999999999,4,2,0,0,1,0
162763,999999999,4,2,0,0,1,0
162764,999999999,4,2,0,0,1,0
162765,3,4,2,0,0,1,0
162766,0.06,1000000000,2,0,0,1,0
162768,999999999,4,2,0,0,1,0
162769,999999999,4,2,0,0,1,0
162770,999999999,4,2,0,0,1,0
162771,999999999,4,2,0,0,1,0
162772,999999999,4,2,0,0,1,0
162773,999999999,4,2,0,0,1,0
162774,999999999,4,2,0,0,1,0
162775,999999999,4,2,0,0,1,0
162776,999999999,4,2,0,0,1,0
162777,999999999,4,2,0,0,1,0
162778,999999999,4,2,0,0,1,0
162779,999999999,4,2,0,0,1,0
162780,999999999,4,2,0,0,1,0
162781,999999999,4,2,0,0,1,0
162782,999999999,4,2,0,0,1,0
162783,999999999,4,2,0,0,1,0
162784,999999999,4,2,0,0,1,0
162785,2.88462742315798,4,2,0,0,1,0
162786,0.06,1000000000,2,0,0,1,0
162788,999999999,4,2,0,0,1,0
162789,999999999,4,2,0,0,1,0
162790,999999999,4,2,0,0,1,0
162791,999999999,4,2,0,0,1,0
162792,999999999,4,2,0,0,1,0
162793,999999999,4,2,0,0,1,0
162794,999999999,4,2,0,0,1,0
162795,999999999,4,2,0,0,1,0
162796,999999999,4,2,0,0,1,0
162797,999999999,4,2,0,0,1,0
162798,999999999,4,2,0,0,1,0
162799,999999999,4,2,0,0,1,0
162800,999999999,4,2,0,0,1,0
162801,999999999,4,2,0,0,1,0
162802,999999999,4,2,0,0,1,0
162803,999999999,4,2,0,0,1,0
162804,999999999,4,2,0,0,1,0
162805,2.77568066821942,4,2,0,0,1,0
162806,0.06,1000000000,2,0,0,1,0
162808,999999999,4,2,0,0,1,0
162809,999999999,4,2,0,0,1,0
162810,999999999,4,2,0,0,1,0
162811,999999999,4,2,0,0,1,0
162812,999999999,4,2,0,0,1,0
162813,999999999,4,2,0,0,1,0
162814,999999999,4,2,0,0,1,0
162815,999999999,4,2,0,0,1,0
162816,999999999,4,2,0,0,1,0
162817,999999999,4,2,0,0,1,0
162818,999999999,4,2,0,0,1,0
162819,999999999,4,2,0,0,1,0
162820,999999999,4,2,0,0,1,0
162821,999999999,4,2,0,0,1,0
162822,999999999,4,2,0,0,1,0
162823,999999999,4,2,0,0,1,0
162824,999999999,4,2,0,0,1,0
162825,2.67269879937359,4,2,0,0,1,0
162826,0.06,1000000000,2,0,0,1,0
162828,999999999,4,2,0,0,1,0
162829,999999999,4,2,0,0,1,0
162830,999999999,4,2,0,0,1,0
162831,999999999,4,2,0,0,1,0
162832,999999999,4,2,0,0,1,0
162833,999999999,4,2,0,0,1,0
162834,999999999,4,2,0,0,1,0
162835,999999999,4,2,0,0,1,0
162836,999999999,4,2,0,0,1,0
162837,999999999,4,2,0,0,1,0
162838,999999999,4,2,0,0,1,0
162839,999999999,4,2,0,0,1,0
162840,999999999,4,2,0,0,1,0
162841,999999999,4,2,0,0,1,0
162842,999999999,4,2,0,0,1,0
162843,999999999,4,2,0,0,1,0
162844,999999999,4,2,0,0,1,0
162845,2.575260804769,4,2,0,0,1,0
162846,0.06,1000000000,2,0,0,1,0
162848,999999999,4,2,0,0,1,0
162849,999999999,4,2,0,0,1,0
162850,999999999,4,2,0,0,1,0
162851,999999999,4,2,0,0,1,0
162852,999999999,4,2,0,0,1,0
162853,999999999,4,2,0,0,1,0
162854,999999999,4,2,0,0,1,0
162855,999999999,4,2,0,0,1,0
162856,999999999,4,2,0,0,1,0
162857,999999999,4,2,0,0,1,0
162858,999999999,4,2,0,0,1,0
162859,999999999,4,2,0,0,1,0
162860,999999999,4,2,0,0,1,0
162861,999999999,4,2,0,0,1,0
162862,999999999,4,2,0,0,1,0
162863,999999999,4,2,0,0,1,0
162864,999999999,4,2,0,0,1,0
162865,2.4829815895824,4,2,0,0,1,0
162866,0.06,1000000000,2,0,0,1,0
162868,999999999,4,2,0,0,1,0
162869,999999999,4,2,0,0,1,0
162870,999999999,4,2,0,0,1,0
162871,999999999,4,2,0,0,1,0
162872,999999999,4,2,0,0,1,0
162873,999999999,4,2,0,0,1,0
162874,999999999,4,2,0,0,1,0
162875,999999999,4,2,0,0,1,0
162876,999999999,4,2,0,0,1,0
162877,999999999,4,2,0,0,1,0
162878,999999999,4,2,0,0,1,0
162879,999999999,4,2,0,0,1,0
162880,999999999,4,2,0,0,1,0
162881,999999999,4,2,0,0,1,0
162882,999999999,4,2,0,0,1,0
162883,999999999,4,2,0,0,1,0
162884,999999999,4,2,0,0,1,0
162885,2.3955084217093,4,2,0,0,1,0
162886,0.06,1000000000,2,0,0,1,0
162888,999999999,4,2,0,0,1,0
162889,999999999,4,2,0,0,1,0
162890,999999999,4,2,0,0,1,0
162891,999999999,4,2,0,0,1,0
162892,999999999,4,2,0,0,1,0
162893,999999999,4,2,0,0,1,0
162894,999999999,4,2,0,0,1,0
162895,999999999,4,2,0,0,1,0
162896,999999999,4,2,0,0,1,0
162897,999999999,4,2,0,0,1,0
162898,999999999,4,2,0,0,1,0
162899,999999999,4,2,0,0,1,0
162900,999999999,4,2,0,0,1,0
162901,999999999,4,2,0,0,1,0
162902,999999999,4,2,0,0,1,0
162903,999999999,4,2,0,0,1,0
162904,999999999,4,2,0,0,1,0
162905,2.31251777380016,4,2,0,0,1,0
162906,0.06,1000000000,2,0,0,1,0
162908,999999999,4,2,0,0,1,0
162909,999999999,4,2,0,0,1,0
162910,999999999,4,2,0,0,1,0
162911,999999999,4,2,0,0,1,0
162912,999999999,4,2,0,0,1,0
162913,999999999,4,2,0,0,1,0
162914,999999999,4,2,0,0,1,0
162915,999999999,4,2,0,0,1,0
162916,999999999,4,2,0,0,1,0
162917,999999999,4,2,0,0,1,0
162918,999999999,4,2,0,0,1,0
162919,999999999,4,2,0,0,1,0
162920,999999999,4,2,0,0,1,0
162921,999999999,4,2,0,0,1,0
162922,999999999,4,2,0,0,1,0
162923,999999999,4,2,0,0,1,0
162924,999999999,4,2,0,0,1,0
162925,2.23371251292658,4,2,0,0,1,0
162926,0.06,1000000000,2,0,0,1,0
162928,999999999,4,2,0,0,1,0
162929,999999999,4,2,0,0,1,0
162930,999999999,4,2,0,0,1,0
162931,999999999,4,2,0,0,1,0
162932,999999999,4,2,0,0,1,0
162933,999999999,4,2,0,0,1,0
162934,999999999,4,2,0,0,1,0
162935,999999999,4,2,0,0,1,0
162936,999999999,4,2,0,0,1,0
162937,999999999,4,2,0,0,1,0
162938,999999999,4,2,0,0,1,0
162939,999999999,4,2,0,0,1,0
162940,999999999,4,2,0,0,1,0
162941,999999999,4,2,0,0,1,0
162942,999999999,4,2,0,0,1,0
162943,999999999,4,2,0,0,1,0
162944,999999999,4,2,0,0,1,0
162945,2.15881939564301,4,2,0,0,1,0
162946,0.06,1000000000,2,0,0,1,0
162948,999999999,4,2,0,0,1,0
162949,999999999,4,2,0,0,1,0
162950,999999999,4,2,0,0,1,0
162951,999999999,4,2,0,0,1,0
162952,999999999,4,2,0,0,1,0
162953,999999999,4,2,0,0,1,0
162954,999999999,4,2,0,0,1,0
162955,999999999,4,2,0,0,1,0
162956,999999999,4,2,0,0,1,0
162957,999999999,4,2,0,0,1,0
162958,999999999,4,2,0,0,1,0
162959,999999999,4,2,0,0,1,0
162960,999999999,4,2,0,0,1,0
162961,999999999,4,2,0,0,1,0
162962,999999999,4,2,0,0,1,0
162963,999999999,4,2,0,0,1,0
162964,999999999,4,2,0,0,1,0
162965,2.08758683177288,4,2,0,0,1,0
162966,0.06,1000000000,2,0,0,1,0
162968,999999999,4,2,0,0,1,0
162969,999999999,4,2,0,0,1,0
162970,999999999,4,2,0,0,1,0
162971,999999999,4,2,0,0,1,0
162972,999999999,4,2,0,0,1,0
162973,999999999,4,2,0,0,1,0
162974,999999999,4,2,0,0,1,0
162975,999999999,4,2,0,0,1,0
162976,999999999,4,2,0,0,1,0
162977,999999999,4,2,0,0,1,0
162978,999999999,4,2,0,0,1,0
162979,999999999,4,2,0,0,1,0
162980,999999999,4,2,0,0,1,0
162981,999999999,4,2,0,0,1,0
162982,999999999,4,2,0,0,1,0
162983,999999999,4,2,0,0,1,0
162984,999999999,4,2,0,0,1,0
162985,2.01978288502842,4,2,0,0,1,0
162986,0.06,1000000000,2,0,0,1,0
162988,999999999,4,2,0,0,1,0
162989,999999999,4,2,0,0,1,0
162990,999999999,4,2,0,0,1,0
162991,999999999,4,2,0,0,1,0
162992,999999999,4,2,0,0,1,0
162993,999999999,4,2,0,0,1,0
162994,999999999,4,2,0,0,1,0
162995,999999999,4,2,0,0,1,0
162996,999999999,4,2,0,0,1,0
162997,999999999,4,2,0,0,1,0
162998,999999999,4,2,0,0,1,0
162999,999999999,4,2,0,0,1,0
163000,999999999,4,2,0,0,1,0
163001,999999999,4,2,0,0,1,0
163002,999999999,4,2,0,0,1,0
163003,999999999,4,2,0,0,1,0
163004,999999999,4,2,0,0,1,0
163005,1.95519348268839,4,2,0,0,1,0
163006,0.06,1000000000,2,0,0,1,0
163008,999999999,4,2,0,0,1,0
163009,999999999,4,2,0,0,1,0
163010,999999999,4,2,0,0,1,0
163011,999999999,4,2,0,0,1,0
163012,999999999,4,2,0,0,1,0
163013,999999999,4,2,0,0,1,0
163014,999999999,4,2,0,0,1,0
163015,999999999,4,2,0,0,1,0
163016,999999999,4,2,0,0,1,0
163017,999999999,4,2,0,0,1,0
163018,999999999,4,2,0,0,1,0
163019,999999999,4,2,0,0,1,0
163020,999999999,4,2,0,0,1,0
163021,999999999,4,2,0,0,1,0
163022,999999999,4,2,0,0,1,0
163023,999999999,4,2,0,0,1,0
163024,999999999,4,2,0,0,1,0
163025,1.89362081010369,4,2,0,0,1,0
163026,0.06,1000000000,2,0,0,1,0
163028,999999999,4,2,0,0,1,0
163029,999999999,4,2,0,0,1,0
163030,999999999,4,2,0,0,1,0
163031,999999999,4,2,0,0,1,0
163032,999999999,4,2,0,0,1,0
163033,999999999,4,2,0,0,1,0
163034,999999999,4,2,0,0,1,0
163035,999999999,4,2,0,0,1,0
163036,999999999,4,2,0,0,1,0
163037,999999999,4,2,0,0,1,0
163038,999999999,4,2,0,0,1,0
163039,999999999,4,2,0,0,1,0
163040,999999999,4,2,0,0,1,0
163041,999999999,4,2,0,0,1,0
163042,999999999,4,2,0,0,1,0
163043,999999999,4,2,0,0,1,0
163044,999999999,4,2,0,0,1,0
163045,1.83488186886116,4,2,0,0,1,0
163046,0.06,1000000000,2,0,0,1,0
163048,999999999,4,2,0,0,1,0
163049,999999999,4,2,0,0,1,0
163050,999999999,4,2,0,0,1,0
163051,999999999,4,2,0,0,1,0
163052,999999999,4,2,0,0,1,0
163053,999999999,4,2,0,0,1,0
163054,999999999,4,2,0,0,1,0
163055,999999999,4,2,0,0,1,0
163056,999999999,4,2,0,0,1,0
163057,999999999,4,2,0,0,1,0
163058,999999999,4,2,0,0,1,0
163059,999999999,4,2,0,0,1,0
163060,999999999,4,2,0,0,1,0
163061,999999999,4,2,0,0,1,0
163062,999999999,4,2,0,0,1,0
163063,999999999,4,2,0,0,1,0
163064,999999999,4,2,0,0,1,0
163065,1.77880718008106,4,2,0,0,1,0
163066,0.06,1000000000,2,0,0,1,0
163068,999999999,4,2,0,0,1,0
163069,999999999,4,2,0,0,1,0
163070,999999999,4,2,0,0,1,0
163071,999999999,4,2,0,0,1,0
163072,999999999,4,2,0,0,1,0
163073,999999999,4,2,0,0,1,0
163074,999999999,4,2,0,0,1,0
163075,999999999,4,2,0,0,1,0
163076,999999999,4,2,0,0,1,0
163077,999999999,4,2,0,0,1,0
163078,999999999,4,2,0,0,1,0
163079,999999999,4,2,0,0,1,0
163080,999999999,4,2,0,0,1,0
163081,999999999,4,2,0,0,1,0
163082,999999999,4,2,0,0,1,0
163083,999999999,4,2,0,0,1,0
163084,999999999,4,2,0,0,1,0
163085,1.72523961661342,4,2,0,0,1,0
163086,0.06,1000000000,2,0,0,1,0
163088,999999999,4,2,0,0,1,0
163089,999999999,4,2,0,0,1,0
163090,999999999,4,2,0,0,1,0
163091,999999999,4,2,0,0,1,0
163092,999999999,4,2,0,0,1,0
163093,999999999,4,2,0,0,1,0
163094,999999999,4,2,0,0,1,0
163095,999999999,4,2,0,0,1,0
163096,999999999,4,2,0,0,1,0
163097,999999999,4,2,0,0,1,0
163098,999999999,4,2,0,0,1,0
163099,999999999,4,2,0,0,1,0
163100,999999999,4,2,0,0,1,0
163101,999999999,4,2,0,0,1,0
163102,999999999,4,2,0,0,1,0
163103,999999999,4,2,0,0,1,0
163104,999999999,4,2,0,0,1,0
163105,1.67403334988314,4,2,0,0,1,0
163106,0.06,1000000000,2,0,0,1,0
163108,999999999,4,2,0,0,1,0
163109,999999999,4,2,0,0,1,0
163110,999999999,4,2,0,0,1,0
163111,999999999,4,2,0,0,1,0
163112,999999999,4,2,0,0,1,0
163113,999999999,4,2,0,0,1,0
163114,999999999,4,2,0,0,1,0
163115,999999999,4,2,0,0,1,0
163116,999999999,4,2,0,0,1,0
163117,999999999,4,2,0,0,1,0
163118,999999999,4,2,0,0,1,0
163119,999999999,4,2,0,0,1,0
163120,999999999,4,2,0,0,1,0
163121,999999999,4,2,0,0,1,0
163122,999999999,4,2,0,0,1,0
163123,999999999,4,2,0,0,1,0
163124,999999999,4,2,0,0,1,0
163125,1.62505289885738,4,2,0,0,1,0
163126,0.06,1000000000,2,0,0,1,0
163128,999999999,4,2,0,0,1,0
163129,999999999,4,2,0,0,1,0
163130,999999999,4,2,0,0,1,0
163131,999999999,4,2,0,0,1,0
163132,999999999,4,2,0,0,1,0
163133,999999999,4,2,0,0,1,0
163134,999999999,4,2,0,0,1,0
163135,999999999,4,2,0,0,1,0
163136,999999999,4,2,0,0,1,0
163137,999999999,4,2,0,0,1,0
163138,999999999,4,2,0,0,1,0
163139,999999999,4,2,0,0,1,0
163140,999999999,4,2,0,0,1,0
163141,999999999,4,2,0,0,1,0
163142,999999999,4,2,0,0,1,0
163143,999999999,4,2,0,0,1,0
163144,999999999,4,2,0,0,1,0
163145,1.57817227010674,4,2,0,0,1,0
163146,0.06,1000000000,2,0,0,1,0
163148,999999999,4,2,0,0,1,0
163149,999999999,4,2,0,0,1,0
163150,999999999,4,2,0,0,1,0
163151,999999999,4,2,0,0,1,0
163152,999999999,4,2,0,0,1,0
163153,999999999,4,2,0,0,1,0
163154,999999999,4,2,0,0,1,0
163155,999999999,4,2,0,0,1,0
163156,999999999,4,2,0,0,1,0
163157,999999999,4,2,0,0,1,0
163158,999999999,4,2,0,0,1,0
163159,999999999,4,2,0,0,1,0
163160,999999999,4,2,0,0,1,0
163161,999999999,4,2,0,0,1,0
163162,999999999,4,2,0,0,1,0
163163,999999999,4,2,0,0,1,0
163164,999999999,4,2,0,0,1,0
163165,1.53327417923691,4,2,0,0,1,0
163166,0.06,1000000000,2,0,0,1,0
163168,999999999,4,2,0,0,1,0
163169,999999999,4,2,0,0,1,0
163170,999999999,4,2,0,0,1,0
163171,999999999,4,2,0,0,1,0
163172,999999999,4,2,0,0,1,0
163173,999999999,4,2,0,0,1,0
163174,999999999,4,2,0,0,1,0
163175,999999999,4,2,0,0,1,0
163176,999999999,4,2,0,0,1,0
163177,999999999,4,2,0,0,1,0
163178,999999999,4,2,0,0,1,0
163179,999999999,4,2,0,0,1,0
163180,999999999,4,2,0,0,1,0
163181,999999999,4,2,0,0,1,0
163182,999999999,4,2,0,0,1,0
163183,999999999,4,2,0,0,1,0
163184,999999999,4,2,0,0,1,0
163185,1.49024934510527,4,2,0,0,1,0
163186,0.06,1000000000,2,0,0,1,0
163188,999999999,4,2,0,0,1,0
163189,999999999,4,2,0,0,1,0
163190,999999999,4,2,0,0,1,0
163191,999999999,4,2,0,0,1,0
163192,999999999,4,2,0,0,1,0
163193,999999999,4,2,0,0,1,0
163194,999999999,4,2,0,0,1,0
163195,999999999,4,2,0,0,1,0
163196,999999999,4,2,0,0,1,0
163197,999999999,4,2,0,0,1,0
163198,999999999,4,2,0,0,1,0
163199,999999999,4,2,0,0,1,0
163200,999999999,4,2,0,0,1,0
163201,999999999,4,2,0,0,1,0
163202,999999999,4,2,0,0,1,0
163203,999999999,4,2,0,0,1,0
163204,999999999,4,2,0,0,1,0
163205,1.44899584923064,4,2,0,0,1,0
163206,0.06,1000000000,2,0,0,1,0
163208,999999999,4,2,0,0,1,0
163209,999999999,4,2,0,0,1,0
163210,999999999,4,2,0,0,1,0
163211,999999999,4,2,0,0,1,0
163212,999999999,4,2,0,0,1,0
163213,999999999,4,2,0,0,1,0
163214,999999999,4,2,0,0,1,0
163215,999999999,4,2,0,0,1,0
163216,999999999,4,2,0,0,1,0
163217,999999999,4,2,0,0,1,0
163218,999999999,4,2,0,0,1,0
163219,999999999,4,2,0,0,1,0
163220,999999999,4,2,0,0,1,0
163221,999999999,4,2,0,0,1,0
163222,999999999,4,2,0,0,1,0
163223,999999999,4,2,0,0,1,0
163224,999999999,4,2,0,0,1,0
163225,1.40941855367393,4,2,0,0,1,0
163226,0.06,1000000000,2,0,0,1,0
163228,999999999,4,2,0,0,1,0
163229,999999999,4,2,0,0,1,0
163230,999999999,4,2,0,0,1,0
163231,999999999,4,2,0,0,1,0
163232,999999999,4,2,0,0,1,0
163233,999999999,4,2,0,0,1,0
163234,999999999,4,2,0,0,1,0
163235,999999999,4,2,0,0,1,0
163236,999999999,4,2,0,0,1,0
163237,999999999,4,2,0,0,1,0
163238,999999999,4,2,0,0,1,0
163239,999999999,4,2,0,0,1,0
163240,999999999,4,2,0,0,1,0
163241,999999999,4,2,0,0,1,0
163242,999999999,4,2,0,0,1,0
163243,999999999,4,2,0,0,1,0
163244,999999999,4,2,0,0,1,0
163245,1.37142857142857,4,2,0,0,1,0
163246,0.06,1000000000,2,0,0,1,0
163248,999999999,4,2,0,0,1,0
163249,999999999,4,2,0,0,1,0
163250,999999999,4,2,0,0,1,0
163251,999999999,4,2,0,0,1,0
163252,999999999,4,2,0,0,1,0
163253,999999999,4,2,0,0,1,0
163254,999999999,4,2,0,0,1,0
163255,999999999,4,2,0,0,1,0
163256,999999999,4,2,0,0,1,0
163257,999999999,4,2,0,0,1,0
163258,999999999,4,2,0,0,1,0
163259,999999999,4,2,0,0,1,0
163260,999999999,4,2,0,0,1,0
163261,999999999,4,2,0,0,1,0
163262,999999999,4,2,0,0,1,0
163263,999999999,4,2,0,0,1,0
163264,999999999,4,2,0,0,1,0
163265,1.33494278402781,4,2,0,0,1,0
163266,0.06,1000000000,2,0,0,1,0
163268,999999999,4,2,0,0,1,0
163269,999999999,4,2,0,0,1,0
163270,999999999,4,2,0,0,1,0
163271,999999999,4,2,0,0,1,0
163272,999999999,4,2,0,0,1,0
163273,999999999,4,2,0,0,1,0
163274,999999999,4,2,0,0,1,0
163275,999999999,4,2,0,0,1,0
163276,999999999,4,2,0,0,1,0
163277,999999999,4,2,0,0,1,0
163278,999999999,4,2,0,0,1,0
163279,999999999,4,2,0,0,1,0
163280,999999999,4,2,0,0,1,0
163281,999999999,4,2,0,0,1,0
163282,999999999,4,2,0,0,1,0
163283,999999999,4,2,0,0,1,0
163284,999999999,4,2,0,0,1,0
163285,1.29988340166247,4,2,0,0,1,0
163286,0.06,1000000000,2,0,0,1,0
163288,999999999,4,2,0,0,1,0
163289,999999999,4,2,0,0,1,0
163290,999999999,4,2,0,0,1,0
163291,999999999,4,2,0,0,1,0
163292,999999999,4,2,0,0,1,0
163293,999999999,4,2,0,0,1,0
163294,999999999,4,2,0,0,1,0
163295,999999999,4,2,0,0,1,0
163296,999999999,4,2,0,0,1,0
163297,999999999,4,2,0,0,1,0
163298,999999999,4,2,0,0,1,0
163299,999999999,4,2,0,0,1,0
163300,999999999,4,2,0,0,1,0
163301,999999999,4,2,0,0,1,0
163302,999999999,4,2,0,0,1,0
163303,999999999,4,2,0,0,1,0
163304,999999999,4,2,0,0,1,0
163305,1.26617756161899,4,2,0,0,1,0
163306,0.06,1000000000,2,0,0,1,0
163308,999999999,4,2,0,0,1,0
163309,999999999,4,2,0,0,1,0
163310,999999999,4,2,0,0,1,0
163311,999999999,4,2,0,0,1,0
163312,999999999,4,2,0,0,1,0
163313,999999999,4,2,0,0,1,0
163314,999999999,4,2,0,0,1,0
163315,999999999,4,2,0,0,1,0
163316,999999999,4,2,0,0,1,0
163317,999999999,4,2,0,0,1,0
163318,999999999,4,2,0,0,1,0
163319,999999999,4,2,0,0,1,0
163320,999999999,4,2,0,0,1,0
163321,999999999,4,2,0,0,1,0
163322,999999999,4,2,0,0,1,0
163323,999999999,4,2,0,0,1,0
163324,999999999,4,2,0,0,1,0
163325,1.2337569613023,4,2,0,0,1,0
163326,0.06,1000000000,2,0,0,1,0
163328,999999999,4,2,0,0,1,0
163329,999999999,4,2,0,0,1,0
163330,999999999,4,2,0,0,1,0
163331,999999999,4,2,0,0,1,0
163332,999999999,4,2,0,0,1,0
163333,999999999,4,2,0,0,1,0
163334,999999999,4,2,0,0,1,0
163335,999999999,4,2,0,0,1,0
163336,999999999,4,2,0,0,1,0
163337,999999999,4,2,0,0,1,0
163338,999999999,4,2,0,0,1,0
163339,999999999,4,2,0,0,1,0
163340,999999999,4,2,0,0,1,0
163341,999999999,4,2,0,0,1,0
163342,999999999,4,2,0,0,1,0
163343,999999999,4,2,0,0,1,0
163344,999999999,4,2,0,0,1,0
163345,1.20255752250881,4,2,0,0,1,0
163346,0.06,1000000000,2,0,0,1,0
163348,999999999,4,2,0,0,1,0
163349,999999999,4,2,0,0,1,0
163350,999999999,4,2,0,0,1,0
163351,999999999,4,2,0,0,1,0
163352,999999999,4,2,0,0,1,0
163353,999999999,4,2,0,0,1,0
163354,999999999,4,2,0,0,1,0
163355,999999999,4,2,0,0,1,0
163356,999999999,4,2,0,0,1,0
163357,999999999,4,2,0,0,1,0
163358,999999999,4,2,0,0,1,0
163359,999999999,4,2,0,0,1,0
163360,999999999,4,2,0,0,1,0
163361,999999999,4,2,0,0,1,0
163362,999999999,4,2,0,0,1,0
163363,999999999,4,2,0,0,1,0
163364,999999999,4,2,0,0,1,0
163365,1.17251908396947,4,2,0,0,1,0
163366,0.06,1000000000,2,0,0,1,0
163368,999999999,4,2,0,0,1,0
163369,999999999,4,2,0,0,1,0
163370,999999999,4,2,0,0,1,0
163371,999999999,4,2,0,0,1,0
163372,999999999,4,2,0,0,1,0
163373,999999999,4,2,0,0,1,0
163374,999999999,4,2,0,0,1,0
163375,999999999,4,2,0,0,1,0
163376,999999999,4,2,0,0,1,0
163377,999999999,4,2,0,0,1,0
163378,999999999,4,2,0,0,1,0
163379,999999999,4,2,0,0,1,0
163380,999999999,4,2,0,0,1,0
163381,999999999,4,2,0,0,1,0
163382,999999999,4,2,0,0,1,0
163383,999999999,4,2,0,0,1,0
163384,999999999,4,2,0,0,1,0
163385,1.14358511949571,4,2,0,0,1,0
163386,0.06,1000000000,2,0,0,1,0
163388,999999999,4,2,0,0,1,0
163389,999999999,4,2,0,0,1,0
163390,999999999,4,2,0,0,1,0
163391,999999999,4,2,0,0,1,0
163392,999999999,4,2,0,0,1,0
163393,999999999,4,2,0,0,1,0
163394,999999999,4,2,0,0,1,0
163395,999999999,4,2,0,0,1,0
163396,999999999,4,2,0,0,1,0
163397,999999999,4,2,0,0,1,0
163398,999999999,4,2,0,0,1,0
163399,999999999,4,2,0,0,1,0
163400,999999999,4,2,0,0,1,0
163401,999999999,4,2,0,0,1,0
163402,999999999,4,2,0,0,1,0
163403,999999999,4,2,0,0,1,0
163404,999999999,4,2,0,0,1,0
163405,1.11570247933884,4,2,0,0,1,0
163406,0.06,1000000000,2,0,0,1,0
163408,999999999,4,2,0,0,1,0
163409,999999999,4,2,0,0,1,0
163410,999999999,4,2,0,0,1,0
163411,999999999,4,2,0,0,1,0
163412,999999999,4,2,0,0,1,0
163413,999999999,4,2,0,0,1,0
163414,999999999,4,2,0,0,1,0
163415,999999999,4,2,0,0,1,0
163416,999999999,4,2,0,0,1,0
163417,999999999,4,2,0,0,1,0
163418,999999999,4,2,0,0,1,0
163419,999999999,4,2,0,0,1,0
163420,999999999,4,2,0,0,1,0
163421,999999999,4,2,0,0,1,0
163422,999999999,4,2,0,0,1,0
163423,999999999,4,2,0,0,1,0
163424,999999999,4,2,0,0,1,0
163425,1.08882115261927,4,2,0,0,1,0
163426,0.06,1000000000,2,0,0,1,0
163428,999999999,4,2,0,0,1,0
163429,999999999,4,2,0,0,1,0
163430,999999999,4,2,0,0,1,0
163431,999999999,4,2,0,0,1,0
163432,999999999,4,2,0,0,1,0
163433,999999999,4,2,0,0,1,0
163434,999999999,4,2,0,0,1,0
163435,999999999,4,2,0,0,1,0
163436,999999999,4,2,0,0,1,0
163437,999999999,4,2,0,0,1,0
163438,999999999,4,2,0,0,1,0
163439,999999999,4,2,0,0,1,0
163440,999999999,4,2,0,0,1,0
163441,999999999,4,2,0,0,1,0
163442,999999999,4,2,0,0,1,0
163443,999999999,4,2,0,0,1,0
163444,999999999,4,2,0,0,1,0
163445,1.06289404890051,4,2,0,0,1,0
163446,0.06,1000000000,2,0,0,1,0
163448,999999999,4,2,0,0,1,0
163449,999999999,4,2,0,0,1,0
163450,999999999,4,2,0,0,1,0
163451,999999999,4,2,0,0,1,0
163452,999999999,4,2,0,0,1,0
163453,999999999,4,2,0,0,1,0
163454,999999999,4,2,0,0,1,0
163455,999999999,4,2,0,0,1,0
163456,999999999,4,2,0,0,1,0
163457,999999999,4,2,0,0,1,0
163458,999999999,4,2,0,0,1,0
163459,999999999,4,2,0,0,1,0
163460,999999999,4,2,0,0,1,0
163461,999999999,4,2,0,0,1,0
163462,999999999,4,2,0,0,1,0
163463,999999999,4,2,0,0,1,0
163464,999999999,4,2,0,0,1,0
163465,1.03787679717707,4,2,0,0,1,0
163466,0.06,1000000000,2,0,0,1,0
163468,999999999,4,2,0,0,1,0
163469,999999999,4,2,0,0,1,0
163470,999999999,4,2,0,0,1,0
163471,999999999,4,2,0,0,1,0
163472,999999999,4,2,0,0,1,0
163473,999999999,4,2,0,0,1,0
163474,999999999,4,2,0,0,1,0
163475,999999999,4,2,0,0,1,0
163476,999999999,4,2,0,0,1,0
163477,999999999,4,2,0,0,1,0
163478,999999999,4,2,0,0,1,0
163479,999999999,4,2,0,0,1,0
163480,999999999,4,2,0,0,1,0
163481,999999999,4,2,0,0,1,0
163482,999999999,4,2,0,0,1,0
163483,999999999,4,2,0,0,1,0
163484,999999999,4,2,0,0,1,0
163485,1.01372756071806,4,2,0,0,1,0
163486,0.06,1000000000,2,0,0,1,0
163488,999999999,4,2,0,0,1,0
163489,999999999,4,2,0,0,1,0
163490,999999999,4,2,0,0,1,0
163491,999999999,4,2,0,0,1,0
163492,999999999,4,2,0,0,1,0
163493,999999999,4,2,0,0,1,0
163494,999999999,4,2,0,0,1,0
163495,999999999,4,2,0,0,1,0
163496,999999999,4,2,0,0,1,0
163497,999999999,4,2,0,0,1,0
163498,999999999,4,2,0,0,1,0
163499,999999999,4,2,0,0,1,0
163500,999999999,4,2,0,0,1,0
163501,999999999,4,2,0,0,1,0
163502,999999999,4,2,0,0,1,0
163503,999999999,4,2,0,0,1,0
163504,999999999,4,2,0,0,1,0
163505,0.990406866362418,4,2,0,0,1,0
163506,0.06,1000000000,2,0,0,1,0
163508,999999999,4,2,0,0,1,0
163509,999999999,4,2,0,0,1,0
163510,999999999,4,2,0,0,1,0
163511,999999999,4,2,0,0,1,0
163512,999999999,4,2,0,0,1,0
163513,999999999,4,2,0,0,1,0
163514,999999999,4,2,0,0,1,0
163515,999999999,4,2,0,0,1,0
163516,999999999,4,2,0,0,1,0
163517,999999999,4,2,0,0,1,0
163518,999999999,4,2,0,0,1,0
163519,999999999,4,2,0,0,1,0
163520,999999999,4,2,0,0,1,0
163521,999999999,4,2,0,0,1,0
163522,999999999,4,2,0,0,1,0
163523,999999999,4,2,0,0,1,0
163524,999999999,4,2,0,0,1,0
163525,0.967877446999188,4,2,0,0,1,0
163526,0.06,1000000000,2,0,0,1,0
163528,999999999,4,2,0,0,1,0
163529,999999999,4,2,0,0,1,0
163530,999999999,4,2,0,0,1,0
163531,999999999,4,2,0,0,1,0
163532,999999999,4,2,0,0,1,0
163533,999999999,4,2,0,0,1,0
163534,999999999,4,2,0,0,1,0
163535,999999999,4,2,0,0,1,0
163536,999999999,4,2,0,0,1,0
163537,999999999,4,2,0,0,1,0
163538,999999999,4,2,0,0,1,0
163539,999999999,4,2,0,0,1,0
163540,999999999,4,2,0,0,1,0
163541,999999999,4,2,0,0,1,0
163542,999999999,4,2,0,0,1,0
163543,999999999,4,2,0,0,1,0
163544,999999999,4,2,0,0,1,0
163545,0.946104096088697,4,2,0,0,1,0
163546,0.06,1000000000,2,0,0,1,0
163548,999999999,4,2,0,0,1,0
163549,999999999,4,2,0,0,1,0
163550,999999999,4,2,0,0,1,0
163551,999999999,4,2,0,0,1,0
163552,999999999,4,2,0,0,1,0
163553,999999999,4,2,0,0,1,0
163554,999999999,4,2,0,0,1,0
163555,999999999,4,2,0,0,1,0
163556,999999999,4,2,0,0,1,0
163557,999999999,4,2,0,0,1,0
163558,999999999,4,2,0,0,1,0
163559,999999999,4,2,0,0,1,0
163560,999999999,4,2,0,0,1,0
163561,999999999,4,2,0,0,1,0
163562,999999999,4,2,0,0,1,0
163563,999999999,4,2,0,0,1,0
163564,999999999,4,2,0,0,1,0
163565,0.925053533190578,4,2,0,0,1,0
163566,0.06,1000000000,2,0,0,1,0
163568,999999999,4,2,0,0,1,0
163569,999999999,4,2,0,0,1,0
163570,999999999,4,2,0,0,1,0
163571,999999999,4,2,0,0,1,0
163572,999999999,4,2,0,0,1,0
163573,999999999,4,2,0,0,1,0
163574,999999999,4,2,0,0,1,0
163575,999999999,4,2,0,0,1,0
163576,999999999,4,2,0,0,1,0
163577,999999999,4,2,0,0,1,0
163578,999999999,4,2,0,0,1,0
163579,999999999,4,2,0,0,1,0
163580,999999999,4,2,0,0,1,0
163581,999999999,4,2,0,0,1,0
163582,999999999,4,2,0,0,1,0
163583,999999999,4,2,0,0,1,0
163584,999999999,4,2,0,0,1,0
163585,0.904694279562574,4,2,0,0,1,0
163586,0.06,1000000000,2,0,0,1,0
163588,999999999,4,2,0,0,1,0
163589,999999999,4,2,0,0,1,0
163590,999999999,4,2,0,0,1,0
163591,999999999,4,2,0,0,1,0
163592,999999999,4,2,0,0,1,0
163593,999999999,4,2,0,0,1,0
163594,999999999,4,2,0,0,1,0
163595,999999999,4,2,0,0,1,0
163596,999999999,4,2,0,0,1,0
163597,999999999,4,2,0,0,1,0
163598,999999999,4,2,0,0,1,0
163599,999999999,4,2,0,0,1,0
163600,999999999,4,2,0,0,1,0
163601,999999999,4,2,0,0,1,0
163602,999999999,4,2,0,0,1,0
163603,999999999,4,2,0,0,1,0
163604,999999999,4,2,0,0,1,0
163605,0.884996542982254,4,2,0,0,1,0
163606,0.06,1000000000,2,0,0,1,0
163608,999999999,4,2,0,0,1,0
163609,999999999,4,2,0,0,1,0
163610,999999999,4,2,0,0,1,0
163611,999999999,4,2,0,0,1,0
163612,999999999,4,2,0,0,1,0
163613,999999999,4,2,0,0,1,0
163614,999999999,4,2,0,0,1,0
163615,999999999,4,2,0,0,1,0
163616,999999999,4,2,0,0,1,0
163617,999999999,4,2,0,0,1,0
163618,999999999,4,2,0,0,1,0
163619,999999999,4,2,0,0,1,0
163620,999999999,4,2,0,0,1,0
163621,999999999,4,2,0,0,1,0
163622,999999999,4,2,0,0,1,0
163623,999999999,4,2,0,0,1,0
163624,999999999,4,2,0,0,1,0
163625,0.865932111022719,4,2,0,0,1,0
163626,0.06,1000000000,2,0,0,1,0
163628,999999999,4,2,0,0,1,0
163629,999999999,4,2,0,0,1,0
163630,999999999,4,2,0,0,1,0
163631,999999999,4,2,0,0,1,0
163632,999999999,4,2,0,0,1,0
163633,999999999,4,2,0,0,1,0
163634,999999999,4,2,0,0,1,0
163635,999999999,4,2,0,0,1,0
163636,999999999,4,2,0,0,1,0
163637,999999999,4,2,0,0,1,0
163638,999999999,4,2,0,0,1,0
163639,999999999,4,2,0,0,1,0
163640,999999999,4,2,0,0,1,0
163641,999999999,4,2,0,0,1,0
163642,999999999,4,2,0,0,1,0
163643,999999999,4,2,0,0,1,0
163644,999999999,4,2,0,0,1,0
163645,0.847474252084355,4,2,0,0,1,0
163646,0.06,1000000000,2,0,0,1,0
163648,999999999,4,2,0,0,1,0
163649,999999999,4,2,0,0,1,0
163650,999999999,4,2,0,0,1,0
163651,999999999,4,2,0,0,1,0
163652,999999999,4,2,0,0,1,0
163653,999999999,4,2,0,0,1,0
163654,999999999,4,2,0,0,1,0
163655,999999999,4,2,0,0,1,0
163656,999999999,4,2,0,0,1,0
163657,999999999,4,2,0,0,1,0
163658,999999999,4,2,0,0,1,0
163659,999999999,4,2,0,0,1,0
163660,999999999,4,2,0,0,1,0
163661,999999999,4,2,0,0,1,0
163662,999999999,4,2,0,0,1,0
163663,999999999,4,2,0,0,1,0
163664,999999999,4,2,0,0,1,0
163665,0.829597623548474,4,2,0,0,1,0
163666,0.06,1000000000,2,0,0,1,0
163668,999999999,4,2,0,0,1,0
163669,999999999,4,2,0,0,1,0
163670,999999999,4,2,0,0,1,0
163671,999999999,4,2,0,0,1,0
163672,999999999,4,2,0,0,1,0
163673,999999999,4,2,0,0,1,0
163674,999999999,4,2,0,0,1,0
163675,999999999,4,2,0,0,1,0
163676,999999999,4,2,0,0,1,0
163677,999999999,4,2,0,0,1,0
163678,999999999,4,2,0,0,1,0
163679,999999999,4,2,0,0,1,0
163680,999999999,4,2,0,0,1,0
163681,999999999,4,2,0,0,1,0
163682,999999999,4,2,0,0,1,0
163683,999999999,4,2,0,0,1,0
163684,999999999,4,2,0,0,1,0
163685,0.812278186476132,4,2,0,0,1,0
163686,0.06,1000000000,2,0,0,1,0
163688,999999999,4,2,0,0,1,0
163689,999999999,4,2,0,0,1,0
163690,999999999,4,2,0,0,1,0
163691,999999999,4,2,0,0,1,0
163692,999999999,4,2,0,0,1,0
163693,999999999,4,2,0,0,1,0
163694,999999999,4,2,0,0,1,0
163695,999999999,4,2,0,0,1,0
163696,999999999,4,2,0,0,1,0
163697,999999999,4,2,0,0,1,0
163698,999999999,4,2,0,0,1,0
163699,999999999,4,2,0,0,1,0
163700,999999999,4,2,0,0,1,0
163701,999999999,4,2,0,0,1,0
163702,999999999,4,2,0,0,1,0
163703,999999999,4,2,0,0,1,0
163704,999999999,4,2,0,0,1,0
163705,0.795493126327117,4,2,0,0,1,0
163706,0.06,1000000000,2,0,0,1,0
163708,999999999,4,2,0,0,1,0
163709,999999999,4,2,0,0,1,0
163710,999999999,4,2,0,0,1,0
163711,999999999,4,2,0,0,1,0
163712,999999999,4,2,0,0,1,0
163713,999999999,4,2,0,0,1,0
163714,999999999,4,2,0,0,1,0
163715,999999999,4,2,0,0,1,0
163716,999999999,4,2,0,0,1,0
163717,999999999,4,2,0,0,1,0
163718,999999999,4,2,0,0,1,0
163719,999999999,4,2,0,0,1,0
163720,999999999,4,2,0,0,1,0
163721,999999999,4,2,0,0,1,0
163722,999999999,4,2,0,0,1,0
163723,999999999,4,2,0,0,1,0
163724,999999999,4,2,0,0,1,0
163725,0.779220779220779,4,2,0,0,1,0
163726,0.06,1000000000,2,0,0,1,0
163727,428.571428571429,4,2,0,0,1,0
164572,428.571428571429,4,2,0,0,1,0
191143,-333.333333333333,4,2,0,0,0,0
192000,6,99,2,0,0,1,0
192001,6,99,2,0,0,1,0
192001,-10,4,2,0,0,0,0
192010,857.142857142857,4,2,0,0,1,0
192010,-333.333333333333,4,2,0,0,0,0
193142,6,99,2,0,0,1,0
193143,6,99,2,0,0,1,0
193143,-10,4,2,0,0,0,0
193152,857.142857142857,4,2,0,0,1,0
193152,-333.333333333333,4,2,0,0,0,0
194285,6,99,2,0,0,1,0
194286,6,99,2,0,0,1,0
194286,-10,4,2,0,0,0,0
194295,857.142857142857,4,2,0,0,1,0
194295,-333.333333333333,4,2,0,0,0,0
195428,6,99,2,0,0,1,0
195429,6,99,2,0,0,1,0
195429,-10,4,2,0,0,0,0
195438,857.142857142857,4,2,0,0,1,0
195438,-333.333333333333,4,2,0,0,0,0
196571,6,99,2,0,0,1,0
196572,6,99,2,0,0,1,0
196572,-10,4,2,0,0,0,0
196581,857.142857142857,4,2,0,0,1,0
196581,-333.333333333333,4,2,0,0,0,0
197714,6,99,2,0,0,1,0
197715,6,99,2,0,0,1,0
197715,-10,4,2,0,0,0,0
197724,857.142857142857,4,2,0,0,1,0
197724,-333.333333333333,4,2,0,0,0,0
198295,999999999,4,2,0,0,1,0
198296,999999999,4,2,0,0,1,0
198297,999999999,4,2,0,0,1,0
198298,999999999,4,2,0,0,1,0
198299,999999999,4,2,0,0,1,0
198300,999999999,4,2,0,0,1,0
198301,999999999,4,2,0,0,1,0
198302,999999999,4,2,0,0,1,0
198303,999999999,4,2,0,0,1,0
198304,999999999,4,2,0,0,1,0
198305,999999999,4,2,0,0,1,0
198306,999999999,4,2,0,0,1,0
198307,999999999,4,2,0,0,1,0
198308,999999999,4,2,0,0,1,0
198309,999999999,4,2,0,0,1,0
198310,999999999,4,2,0,0,1,0
198311,999999999,4,2,0,0,1,0
198312,999999999,4,2,0,0,1,0
198313,999999999,4,2,0,0,1,0
198314,999999999,4,2,0,0,1,0
198315,999999999,4,2,0,0,1,0
198316,999999999,4,2,0,0,1,0
198317,999999999,4,2,0,0,1,0
198318,999999999,4,2,0,0,1,0
198319,999999999,4,2,0,0,1,0
198320,999999999,4,2,0,0,1,0
198321,999999999,4,2,0,0,1,0
198322,999999999,4,2,0,0,1,0
198323,999999999,4,2,0,0,1,0
198324,999999999,4,2,0,0,1,0
198325,999999999,4,2,0,0,1,0
198326,999999999,4,2,0,0,1,0
198327,999999999,4,2,0,0,1,0
198328,999999999,4,2,0,0,1,0
198329,999999999,4,2,0,0,1,0
198330,999999999,4,2,0,0,1,0
198331,999999999,4,2,0,0,1,0
198332,999999999,4,2,0,0,1,0
198333,999999999,4,2,0,0,1,0
198334,999999999,4,2,0,0,1,0
198335,999999999,4,2,0,0,1,0
198336,999999999,4,2,0,0,1,0
198337,999999999,4,2,0,0,1,0
198338,999999999,4,2,0,0,1,0
198339,999999999,4,2,0,0,1,0
198340,999999999,4,2,0,0,1,0
198341,999999999,4,2,0,0,1,0
198342,999999999,4,2,0,0,1,0
198343,999999999,4,2,0,0,1,0
198344,999999999,4,2,0,0,1,0
198345,999999999,4,2,0,0,1,0
198346,999999999,4,2,0,0,1,0
198347,999999999,4,2,0,0,1,0
198348,999999999,4,2,0,0,1,0
198349,999999999,4,2,0,0,1,0
198350,999999999,4,2,0,0,1,0
198351,999999999,4,2,0,0,1,0
198352,999999999,4,2,0,0,1,0
198353,999999999,4,2,0,0,1,0
198354,999999999,4,2,0,0,1,0
198355,999999999,4,2,0,0,1,0
198356,999999999,4,2,0,0,1,0
198357,999999999,4,2,0,0,1,0
198358,999999999,4,2,0,0,1,0
198359,999999999,4,2,0,0,1,0
198360,999999999,4,2,0,0,1,0
198361,999999999,4,2,0,0,1,0
198362,999999999,4,2,0,0,1,0
198363,999999999,4,2,0,0,1,0
198364,999999999,4,2,0,0,1,0
198365,999999999,4,2,0,0,1,0
198366,999999999,4,2,0,0,1,0
198367,999999999,4,2,0,0,1,0
198368,999999999,4,2,0,0,1,0
198369,999999999,4,2,0,0,1,0
198370,999999999,4,2,0,0,1,0
198371,999999999,4,2,0,0,1,0
198372,999999999,4,2,0,0,1,0
198373,999999999,4,2,0,0,1,0
198374,999999999,4,2,0,0,1,0
198375,999999999,4,2,0,0,1,0
198376,999999999,4,2,0,0,1,0
198377,999999999,4,2,0,0,1,0
198378,999999999,4,2,0,0,1,0
198379,999999999,4,2,0,0,1,0
198380,999999999,4,2,0,0,1,0
198381,999999999,4,2,0,0,1,0
198382,999999999,4,2,0,0,1,0
198383,999999999,4,2,0,0,1,0
198384,999999999,4,2,0,0,1,0
198385,999999999,4,2,0,0,1,0
198386,999999999,4,2,0,0,1,0
198387,999999999,4,2,0,0,1,0
198388,999999999,4,2,0,0,1,0
198389,999999999,4,2,0,0,1,0
198390,999999999,4,2,0,0,1,0
198391,999999999,4,2,0,0,1,0
198392,999999999,4,2,0,0,1,0
198393,999999999,4,2,0,0,1,0
198394,999999999,4,2,0,0,1,0
198395,999999999,4,2,0,0,1,0
198396,999999999,4,2,0,0,1,0
198397,999999999,4,2,0,0,1,0
198398,999999999,4,2,0,0,1,0
198399,999999999,4,2,0,0,1,0
198400,999999999,4,2,0,0,1,0
198401,999999999,4,2,0,0,1,0
198402,999999999,4,2,0,0,1,0
198403,999999999,4,2,0,0,1,0
198404,999999999,4,2,0,0,1,0
198405,999999999,4,2,0,0,1,0
198406,999999999,4,2,0,0,1,0
198407,999999999,4,2,0,0,1,0
198408,999999999,4,2,0,0,1,0
198409,999999999,4,2,0,0,1,0
198410,999999999,4,2,0,0,1,0
198411,999999999,4,2,0,0,1,0
198412,999999999,4,2,0,0,1,0
198413,999999999,4,2,0,0,1,0
198414,999999999,4,2,0,0,1,0
198415,999999999,4,2,0,0,1,0
198416,999999999,4,2,0,0,1,0
198417,999999999,4,2,0,0,1,0
198418,999999999,4,2,0,0,1,0
198419,999999999,4,2,0,0,1,0
198420,999999999,4,2,0,0,1,0
198421,999999999,4,2,0,0,1,0
198422,999999999,4,2,0,0,1,0
198423,999999999,4,2,0,0,1,0
198424,999999999,4,2,0,0,1,0
198425,999999999,4,2,0,0,1,0
198426,999999999,4,2,0,0,1,0
198427,999999999,4,2,0,0,1,0
198428,999999999,4,2,0,0,1,0
198429,999999999,4,2,0,0,1,0
198430,999999999,4,2,0,0,1,0
198431,999999999,4,2,0,0,1,0
198432,999999999,4,2,0,0,1,0
198433,999999999,4,2,0,0,1,0
198434,999999999,4,2,0,0,1,0
198435,999999999,4,2,0,0,1,0
198436,999999999,4,2,0,0,1,0
198437,999999999,4,2,0,0,1,0
198438,999999999,4,2,0,0,1,0
198439,999999999,4,2,0,0,1,0
198440,999999999,4,2,0,0,1,0
198441,999999999,4,2,0,0,1,0
198442,999999999,4,2,0,0,1,0
198443,999999999,4,2,0,0,1,0
198444,999999999,4,2,0,0,1,0
198445,999999999,4,2,0,0,1,0
198446,999999999,4,2,0,0,1,0
198447,999999999,4,2,0,0,1,0
198448,999999999,4,2,0,0,1,0
198449,999999999,4,2,0,0,1,0
198450,999999999,4,2,0,0,1,0
198451,999999999,4,2,0,0,1,0
198452,999999999,4,2,0,0,1,0
198453,999999999,4,2,0,0,1,0
198454,999999999,4,2,0,0,1,0
198455,999999999,4,2,0,0,1,0
198456,999999999,4,2,0,0,1,0
198457,999999999,4,2,0,0,1,0
198458,999999999,4,2,0,0,1,0
198459,999999999,4,2,0,0,1,0
198460,999999999,4,2,0,0,1,0
198461,999999999,4,2,0,0,1,0
198462,999999999,4,2,0,0,1,0
198463,999999999,4,2,0,0,1,0
198464,999999999,4,2,0,0,1,0
198465,999999999,4,2,0,0,1,0
198466,999999999,4,2,0,0,1,0
198467,999999999,4,2,0,0,1,0
198468,999999999,4,2,0,0,1,0
198469,999999999,4,2,0,0,1,0
198470,999999999,4,2,0,0,1,0
198471,999999999,4,2,0,0,1,0
198472,999999999,4,2,0,0,1,0
198473,999999999,4,2,0,0,1,0
198474,999999999,4,2,0,0,1,0
198475,999999999,4,2,0,0,1,0
198476,999999999,4,2,0,0,1,0
198477,999999999,4,2,0,0,1,0
198478,999999999,4,2,0,0,1,0
198479,999999999,4,2,0,0,1,0
198480,999999999,4,2,0,0,1,0
198481,999999999,4,2,0,0,1,0
198482,999999999,4,2,0,0,1,0
198483,999999999,4,2,0,0,1,0
198484,999999999,4,2,0,0,1,0
198485,999999999,4,2,0,0,1,0
198486,999999999,4,2,0,0,1,0
198487,999999999,4,2,0,0,1,0
198488,999999999,4,2,0,0,1,0
198489,999999999,4,2,0,0,1,0
198490,999999999,4,2,0,0,1,0
198491,999999999,4,2,0,0,1,0
198492,999999999,4,2,0,0,1,0
198493,999999999,4,2,0,0,1,0
198494,999999999,4,2,0,0,1,0
198495,999999999,4,2,0,0,1,0
198496,999999999,4,2,0,0,1,0
198497,999999999,4,2,0,0,1,0
198498,999999999,4,2,0,0,1,0
198499,999999999,4,2,0,0,1,0
198500,999999999,4,2,0,0,1,0
198501,999999999,4,2,0,0,1,0
198502,999999999,4,2,0,0,1,0
198503,999999999,4,2,0,0,1,0
198504,999999999,4,2,0,0,1,0
198505,999999999,4,2,0,0,1,0
198506,999999999,4,2,0,0,1,0
198507,999999999,4,2,0,0,1,0
198508,999999999,4,2,0,0,1,0
198509,999999999,4,2,0,0,1,0
198510,999999999,4,2,0,0,1,0
198511,999999999,4,2,0,0,1,0
198512,999999999,4,2,0,0,1,0
198513,999999999,4,2,0,0,1,0
198514,999999999,4,2,0,0,1,0
198515,999999999,4,2,0,0,1,0
198516,999999999,4,2,0,0,1,0
198517,999999999,4,2,0,0,1,0
198518,999999999,4,2,0,0,1,0
198519,999999999,4,2,0,0,1,0
198520,999999999,4,2,0,0,1,0
198521,999999999,4,2,0,0,1,0
198522,999999999,4,2,0,0,1,0
198523,999999999,4,2,0,0,1,0
198524,999999999,4,2,0,0,1,0
198525,999999999,4,2,0,0,1,0
198526,999999999,4,2,0,0,1,0
198527,999999999,4,2,0,0,1,0
198528,999999999,4,2,0,0,1,0
198529,999999999,4,2,0,0,1,0
198530,999999999,4,2,0,0,1,0
198531,999999999,4,2,0,0,1,0
198532,999999999,4,2,0,0,1,0
198533,999999999,4,2,0,0,1,0
198534,999999999,4,2,0,0,1,0
198535,999999999,4,2,0,0,1,0
198536,999999999,4,2,0,0,1,0
198537,999999999,4,2,0,0,1,0
198538,999999999,4,2,0,0,1,0
198539,999999999,4,2,0,0,1,0
198540,999999999,4,2,0,0,1,0
198541,999999999,4,2,0,0,1,0
198542,999999999,4,2,0,0,1,0
198543,999999999,4,2,0,0,1,0
198544,999999999,4,2,0,0,1,0
198545,999999999,4,2,0,0,1,0
198546,999999999,4,2,0,0,1,0
198547,999999999,4,2,0,0,1,0
198548,999999999,4,2,0,0,1,0
198549,999999999,4,2,0,0,1,0
198550,999999999,4,2,0,0,1,0
198551,999999999,4,2,0,0,1,0
198552,999999999,4,2,0,0,1,0
198553,999999999,4,2,0,0,1,0
198554,999999999,4,2,0,0,1,0
198555,999999999,4,2,0,0,1,0
198556,999999999,4,2,0,0,1,0
198557,999999999,4,2,0,0,1,0
198558,999999999,4,2,0,0,1,0
198559,999999999,4,2,0,0,1,0
198560,999999999,4,2,0,0,1,0
198561,999999999,4,2,0,0,1,0
198562,999999999,4,2,0,0,1,0
198563,999999999,4,2,0,0,1,0
198564,999999999,4,2,0,0,1,0
198565,999999999,4,2,0,0,1,0
198566,999999999,4,2,0,0,1,0
198567,999999999,4,2,0,0,1,0
198568,999999999,4,2,0,0,1,0
198569,999999999,4,2,0,0,1,0
198570,999999999,4,2,0,0,1,0
198571,999999999,4,2,0,0,1,0
198572,999999999,4,2,0,0,1,0
198573,999999999,4,2,0,0,1,0
198574,999999999,4,2,0,0,1,0
198575,999999999,4,2,0,0,1,0
198576,999999999,4,2,0,0,1,0
198577,999999999,4,2,0,0,1,0
198578,999999999,4,2,0,0,1,0
198579,999999999,4,2,0,0,1,0
198580,999999999,4,2,0,0,1,0
198581,999999999,4,2,0,0,1,0
198582,999999999,4,2,0,0,1,0
198583,999999999,4,2,0,0,1,0
198584,999999999,4,2,0,0,1,0
198585,999999999,4,2,0,0,1,0
198586,999999999,4,2,0,0,1,0
198587,999999999,4,2,0,0,1,0
198588,999999999,4,2,0,0,1,0
198589,999999999,4,2,0,0,1,0
198590,999999999,4,2,0,0,1,0
198591,999999999,4,2,0,0,1,0
198592,999999999,4,2,0,0,1,0
198593,999999999,4,2,0,0,1,0
198594,999999999,4,2,0,0,1,0
198595,999999999,4,2,0,0,1,0
198596,999999999,4,2,0,0,1,0
198597,999999999,4,2,0,0,1,0
198598,999999999,4,2,0,0,1,0
198599,999999999,4,2,0,0,1,0
198600,999999999,4,2,0,0,1,0
198601,999999999,4,2,0,0,1,0
198602,999999999,4,2,0,0,1,0
198603,999999999,4,2,0,0,1,0
198604,999999999,4,2,0,0,1,0
198605,999999999,4,2,0,0,1,0
198606,999999999,4,2,0,0,1,0
198607,999999999,4,2,0,0,1,0
198608,999999999,4,2,0,0,1,0
198609,999999999,4,2,0,0,1,0
198610,999999999,4,2,0,0,1,0
198611,999999999,4,2,0,0,1,0
198612,999999999,4,2,0,0,1,0
198613,999999999,4,2,0,0,1,0
198614,999999999,4,2,0,0,1,0
198615,999999999,4,2,0,0,1,0
198616,999999999,4,2,0,0,1,0
198617,999999999,4,2,0,0,1,0
198618,999999999,4,2,0,0,1,0
198619,999999999,4,2,0,0,1,0
198620,999999999,4,2,0,0,1,0
198621,999999999,4,2,0,0,1,0
198622,999999999,4,2,0,0,1,0
198623,999999999,4,2,0,0,1,0
198624,999999999,4,2,0,0,1,0
198625,999999999,4,2,0,0,1,0
198626,999999999,4,2,0,0,1,0
198627,999999999,4,2,0,0,1,0
198628,999999999,4,2,0,0,1,0
198629,999999999,4,2,0,0,1,0
198630,999999999,4,2,0,0,1,0
198631,999999999,4,2,0,0,1,0
198632,999999999,4,2,0,0,1,0
198633,999999999,4,2,0,0,1,0
198634,999999999,4,2,0,0,1,0
198635,999999999,4,2,0,0,1,0
198636,999999999,4,2,0,0,1,0
198637,999999999,4,2,0,0,1,0
198638,999999999,4,2,0,0,1,0
198639,999999999,4,2,0,0,1,0
198640,999999999,4,2,0,0,1,0
198641,999999999,4,2,0,0,1,0
198642,999999999,4,2,0,0,1,0
198643,999999999,4,2,0,0,1,0
198644,999999999,4,2,0,0,1,0
198645,999999999,4,2,0,0,1,0
198646,999999999,4,2,0,0,1,0
198647,999999999,4,2,0,0,1,0
198648,999999999,4,2,0,0,1,0
198649,999999999,4,2,0,0,1,0
198650,999999999,4,2,0,0,1,0
198651,999999999,4,2,0,0,1,0
198652,999999999,4,2,0,0,1,0
198653,999999999,4,2,0,0,1,0
198654,999999999,4,2,0,0,1,0
198655,999999999,4,2,0,0,1,0
198656,999999999,4,2,0,0,1,0
198657,999999999,4,2,0,0,1,0
198658,999999999,4,2,0,0,1,0
198659,999999999,4,2,0,0,1,0
198660,999999999,4,2,0,0,1,0
198661,999999999,4,2,0,0,1,0
198662,999999999,4,2,0,0,1,0
198663,999999999,4,2,0,0,1,0
198664,999999999,4,2,0,0,1,0
198665,999999999,4,2,0,0,1,0
198666,999999999,4,2,0,0,1,0
198667,999999999,4,2,0,0,1,0
198668,999999999,4,2,0,0,1,0
198669,999999999,4,2,0,0,1,0
198670,999999999,4,2,0,0,1,0
198671,999999999,4,2,0,0,1,0
198672,999999999,4,2,0,0,1,0
198673,999999999,4,2,0,0,1,0
198674,999999999,4,2,0,0,1,0
198675,999999999,4,2,0,0,1,0
198676,999999999,4,2,0,0,1,0
198677,999999999,4,2,0,0,1,0
198678,999999999,4,2,0,0,1,0
198679,999999999,4,2,0,0,1,0
198680,999999999,4,2,0,0,1,0
198681,999999999,4,2,0,0,1,0
198682,999999999,4,2,0,0,1,0
198683,999999999,4,2,0,0,1,0
198684,999999999,4,2,0,0,1,0
198685,999999999,4,2,0,0,1,0
198686,999999999,4,2,0,0,1,0
198687,999999999,4,2,0,0,1,0
198688,999999999,4,2,0,0,1,0
198689,999999999,4,2,0,0,1,0
198690,999999999,4,2,0,0,1,0
198691,999999999,4,2,0,0,1,0
198692,999999999,4,2,0,0,1,0
198693,999999999,4,2,0,0,1,0
198694,999999999,4,2,0,0,1,0
198695,999999999,4,2,0,0,1,0
198696,999999999,4,2,0,0,1,0
198697,999999999,4,2,0,0,1,0
198698,999999999,4,2,0,0,1,0
198699,999999999,4,2,0,0,1,0
198700,999999999,4,2,0,0,1,0
198701,999999999,4,2,0,0,1,0
198702,999999999,4,2,0,0,1,0
198703,999999999,4,2,0,0,1,0
198704,999999999,4,2,0,0,1,0
198705,999999999,4,2,0,0,1,0
198706,999999999,4,2,0,0,1,0
198707,999999999,4,2,0,0,1,0
198708,999999999,4,2,0,0,1,0
198709,999999999,4,2,0,0,1,0
198710,999999999,4,2,0,0,1,0
198711,999999999,4,2,0,0,1,0
198712,999999999,4,2,0,0,1,0
198713,999999999,4,2,0,0,1,0
198714,999999999,4,2,0,0,1,0
198715,999999999,4,2,0,0,1,0
198716,999999999,4,2,0,0,1,0
198717,999999999,4,2,0,0,1,0
198718,999999999,4,2,0,0,1,0
198719,999999999,4,2,0,0,1,0
198720,999999999,4,2,0,0,1,0
198721,999999999,4,2,0,0,1,0
198722,999999999,4,2,0,0,1,0
198723,999999999,4,2,0,0,1,0
198724,999999999,4,2,0,0,1,0
198725,999999999,4,2,0,0,1,0
198726,999999999,4,2,0,0,1,0
198727,999999999,4,2,0,0,1,0
198728,999999999,4,2,0,0,1,0
198729,999999999,4,2,0,0,1,0
198730,999999999,4,2,0,0,1,0
198731,999999999,4,2,0,0,1,0
198732,999999999,4,2,0,0,1,0
198733,999999999,4,2,0,0,1,0
198734,999999999,4,2,0,0,1,0
198735,999999999,4,2,0,0,1,0
198736,999999999,4,2,0,0,1,0
198737,999999999,4,2,0,0,1,0
198738,999999999,4,2,0,0,1,0
198739,999999999,4,2,0,0,1,0
198740,999999999,4,2,0,0,1,0
198741,999999999,4,2,0,0,1,0
198742,999999999,4,2,0,0,1,0
198743,999999999,4,2,0,0,1,0
198744,999999999,4,2,0,0,1,0
198745,999999999,4,2,0,0,1,0
198746,999999999,4,2,0,0,1,0
198747,999999999,4,2,0,0,1,0
198748,999999999,4,2,0,0,1,0
198749,999999999,4,2,0,0,1,0
198750,999999999,4,2,0,0,1,0
198751,999999999,4,2,0,0,1,0
198752,999999999,4,2,0,0,1,0
198753,999999999,4,2,0,0,1,0
198754,999999999,4,2,0,0,1,0
198755,999999999,4,2,0,0,1,0
198756,999999999,4,2,0,0,1,0
198757,999999999,4,2,0,0,1,0
198758,999999999,4,2,0,0,1,0
198759,999999999,4,2,0,0,1,0
198760,999999999,4,2,0,0,1,0
198761,999999999,4,2,0,0,1,0
198762,999999999,4,2,0,0,1,0
198763,999999999,4,2,0,0,1,0
198764,999999999,4,2,0,0,1,0
198765,999999999,4,2,0,0,1,0
198766,999999999,4,2,0,0,1,0
198767,999999999,4,2,0,0,1,0
198768,999999999,4,2,0,0,1,0
198769,999999999,4,2,0,0,1,0
198770,999999999,4,2,0,0,1,0
198771,999999999,4,2,0,0,1,0
198772,999999999,4,2,0,0,1,0
198773,999999999,4,2,0,0,1,0
198774,999999999,4,2,0,0,1,0
198775,999999999,4,2,0,0,1,0
198776,999999999,4,2,0,0,1,0
198777,999999999,4,2,0,0,1,0
198778,999999999,4,2,0,0,1,0
198779,999999999,4,2,0,0,1,0
198780,999999999,4,2,0,0,1,0
198781,999999999,4,2,0,0,1,0
198782,999999999,4,2,0,0,1,0
198783,999999999,4,2,0,0,1,0
198784,999999999,4,2,0,0,1,0
198785,999999999,4,2,0,0,1,0
198786,999999999,4,2,0,0,1,0
198787,999999999,4,2,0,0,1,0
198788,999999999,4,2,0,0,1,0
198789,999999999,4,2,0,0,1,0
198790,999999999,4,2,0,0,1,0
198791,999999999,4,2,0,0,1,0
198792,999999999,4,2,0,0,1,0
198793,999999999,4,2,0,0,1,0
198794,999999999,4,2,0,0,1,0
198795,999999999,4,2,0,0,1,0
198796,999999999,4,2,0,0,1,0
198797,999999999,4,2,0,0,1,0
198798,999999999,4,2,0,0,1,0
198799,999999999,4,2,0,0,1,0
198800,999999999,4,2,0,0,1,0
198801,999999999,4,2,0,0,1,0
198802,999999999,4,2,0,0,1,0
198803,999999999,4,2,0,0,1,0
198804,999999999,4,2,0,0,1,0
198805,999999999,4,2,0,0,1,0
198806,999999999,4,2,0,0,1,0
198807,999999999,4,2,0,0,1,0
198808,999999999,4,2,0,0,1,0
198809,999999999,4,2,0,0,1,0
198810,999999999,4,2,0,0,1,0
198811,999999999,4,2,0,0,1,0
198812,999999999,4,2,0,0,1,0
198813,999999999,4,2,0,0,1,0
198814,999999999,4,2,0,0,1,0
198815,999999999,4,2,0,0,1,0
198816,999999999,4,2,0,0,1,0
198817,999999999,4,2,0,0,1,0
198818,999999999,4,2,0,0,1,0
198819,999999999,4,2,0,0,1,0
198820,999999999,4,2,0,0,1,0
198821,999999999,4,2,0,0,1,0
198822,999999999,4,2,0,0,1,0
198823,999999999,4,2,0,0,1,0
198824,999999999,4,2,0,0,1,0
198825,999999999,4,2,0,0,1,0
198826,999999999,4,2,0,0,1,0
198827,999999999,4,2,0,0,1,0
198828,999999999,4,2,0,0,1,0
198829,999999999,4,2,0,0,1,0
198830,999999999,4,2,0,0,1,0
198831,999999999,4,2,0,0,1,0
198832,999999999,4,2,0,0,1,0
198833,999999999,4,2,0,0,1,0
198834,999999999,4,2,0,0,1,0
198835,999999999,4,2,0,0,1,0
198836,999999999,4,2,0,0,1,0
198837,999999999,4,2,0,0,1,0
198838,999999999,4,2,0,0,1,0
198839,999999999,4,2,0,0,1,0
198840,999999999,4,2,0,0,1,0
198841,999999999,4,2,0,0,1,0
198842,999999999,4,2,0,0,1,0
198843,999999999,4,2,0,0,1,0
198844,999999999,4,2,0,0,1,0
198845,999999999,4,2,0,0,1,0
198846,999999999,4,2,0,0,1,0
198847,999999999,4,2,0,0,1,0
198848,999999999,4,2,0,0,1,0
198849,999999999,4,2,0,0,1,0
198850,999999999,4,2,0,0,1,0
198851,999999999,4,2,0,0,1,0
198852,999999999,4,2,0,0,1,0
198853,999999999,4,2,0,0,1,0
198854,999999999,4,2,0,0,1,0
198855,999999999,4,2,0,0,1,0
198856,6,99,2,0,0,1,0
198857,6,99,2,0,0,1,0
198858,6,99,2,0,0,1,0
198858,-10,4,2,0,0,0,0
198867,857.142857142857,4,2,0,0,1,0
198867,-333.333333333333,4,2,0,0,0,0
200000,6,99,2,0,0,1,0
200001,6,99,2,0,0,1,0
200001,-10,4,2,0,0,0,0
200010,857.142857142857,4,2,0,0,1,0
200010,-333.333333333333,4,2,0,0,0,0
201142,6,99,2,0,0,1,0
201143,6,99,2,0,0,1,0
201143,-10,4,2,0,0,0,0
201152,857.142857142857,4,2,0,0,1,0
201152,-333.333333333333,4,2,0,0,0,0
202285,6,99,2,0,0,1,0
202286,6,99,2,0,0,1,0
202286,-10,4,2,0,0,0,0
202295,857.142857142857,4,2,0,0,1,0
202295,-333.333333333333,4,2,0,0,0,0
203428,6,99,2,0,0,1,0
203429,6,99,2,0,0,1,0
203429,-10,4,2,0,0,0,0
203438,857.142857142857,4,2,0,0,1,0
203438,-333.333333333333,4,2,0,0,0,0
204571,6,99,2,0,0,1,0
204572,6,99,2,0,0,1,0
204572,-10,4,2,0,0,0,0
204581,857.142857142857,4,2,0,0,1,0
204581,-333.333333333333,4,2,0,0,0,0

[HitObjects]
36,192,0,5,0,0:0:0:0:
109,192,571,1,0,0:0:0:0:
182,192,1143,1,0,0:0:0:0:
256,192,1714,1,0,0:0:0:0:
329,192,2285,1,0,0:0:0:0:
402,192,2857,1,0,0:0:0:0:
475,192,3428,1,0,0:0:0:0:
402,192,4000,1,0,0:0:0:0:
329,192,4571,1,0,0:0:0:0:
256,192,5142,1,0,0:0:0:0:
182,192,5714,1,0,0:0:0:0:
109,192,6285,1,0,0:0:0:0:
36,192,6857,1,0,0:0:0:0:
109,192,7428,1,0,0:0:0:0:
182,192,8000,1,0,0:0:0:0:
256,192,8571,1,0,0:0:0:0:
329,192,9142,1,0,0:0:0:0:
256,192,10285,1,0,0:0:0:0:
256,192,11142,1,0,0:0:0:0:
256,192,12000,1,0,0:0:0:0:
256,192,12857,1,0,0:0:0:0:
36,192,13714,1,0,0:0:0:0:
475,192,13714,1,0,0:0:0:0:
109,192,14285,1,0,0:0:0:0:
182,192,14857,1,0,0:0:0:0:
36,192,15428,1,0,0:0:0:0:
256,192,15428,1,0,0:0:0:0:
329,192,16000,1,0,0:0:0:0:
402,192,16571,1,0,0:0:0:0:
36,192,17142,1,0,0:0:0:0:
475,192,17142,1,0,0:0:0:0:
402,192,17714,1,0,0:0:0:0:
329,192,18285,1,0,0:0:0:0:
36,192,18857,1,0,0:0:0:0:
256,192,18857,1,0,0:0:0:0:
182,192,19428,1,0,0:0:0:0:
109,192,20000,1,0,0:0:0:0:
475,192,20571,1,0,0:0:0:0:
36,192,20571,1,0,0:0:0:0:
109,192,21142,1,0,0:0:0:0:
182,192,21714,1,0,0:0:0:0:
36,192,22285,1,0,0:0:0:0:
256,192,22285,1,0,0:0:0:0:
329,192,22857,1,0,0:0:0:0:
36,192,23999,1,0,0:0:0:0:
36,192,25713,1,0,0:0:0:0:
402,192,25713,1,0,0:0:0:0:
475,192,26034,1,0,0:0:0:0:
402,192,26355,1,0,0:0:0:0:
402,192,26784,1,0,0:0:0:0:
329,192,26998,1,0,0:0:0:0:
109,192,27213,1,0,0:0:0:0:
36,192,27427,1,0,0:0:0:0:
329,192,27427,1,0,0:0:0:0:
256,192,27427,128,0,40713:0:0:0:0:
109,192,27641,1,0,0:0:0:0:
329,192,27855,1,0,0:0:0:0:
475,192,27855,1,0,0:0:0:0:
109,192,28070,1,0,0:0:0:0:
329,192,28284,1,0,0:0:0:0:
109,192,28498,1,0,0:0:0:0:
329,192,28713,1,0,0:0:0:0:
475,192,28713,1,0,0:0:0:0:
109,192,28927,1,0,0:0:0:0:
36,192,29141,1,0,0:0:0:0:
329,192,29141,1,0,0:0:0:0:
109,192,29355,1,0,0:0:0:0:
329,192,29570,1,0,0:0:0:0:
475,192,29570,1,0,0:0:0:0:
109,192,29784,1,0,0:0:0:0:
329,192,29998,1,0,0:0:0:0:
109,192,30213,1,0,0:0:0:0:
329,192,30427,1,0,0:0:0:0:
475,192,30427,1,0,0:0:0:0:
109,192,30641,1,0,0:0:0:0:
36,192,30855,1,0,0:0:0:0:
329,192,30855,1,0,0:0:0:0:
109,192,31070,1,0,0:0:0:0:
329,192,31284,1,0,0:0:0:0:
475,192,31284,1,0,0:0:0:0:
109,192,31498,1,0,0:0:0:0:
329,192,31713,1,0,0:0:0:0:
109,192,31927,1,0,0:0:0:0:
329,192,32141,1,0,0:0:0:0:
475,192,32141,1,0,0:0:0:0:
109,192,32355,1,0,0:0:0:0:
36,192,32570,1,0,0:0:0:0:
329,192,32570,1,0,0:0:0:0:
109,192,32784,1,0,0:0:0:0:
329,192,32998,1,0,0:0:0:0:
475,192,32998,1,0,0:0:0:0:
109,192,33213,1,0,0:0:0:0:
329,192,33427,1,0,0:0:0:0:
402,192,33641,128,0,40713:0:0:0:0:
109,192,33641,1,0,0:0:0:0:
329,192,33855,1,0,0:0:0:0:
475,192,33855,1,0,0:0:0:0:
109,192,34070,1,0,0:0:0:0:
36,192,34284,1,0,0:0:0:0:
329,192,34284,1,0,0:0:0:0:
109,192,34498,1,0,0:0:0:0:
329,192,34713,1,0,0:0:0:0:
475,192,34713,1,0,0:0:0:0:
109,192,34927,1,0,0:0:0:0:
329,192,35141,1,0,0:0:0:0:
109,192,35355,1,0,0:0:0:0:
475,192,35570,1,0,0:0:0:0:
329,192,35570,1,0,0:0:0:0:
109,192,35784,1,0,0:0:0:0:
329,192,35998,1,0,0:0:0:0:
36,192,35998,1,0,0:0:0:0:
109,192,36213,1,0,0:0:0:0:
475,192,36427,1,0,0:0:0:0:
329,192,36427,1,0,0:0:0:0:
182,192,36588,128,0,40713:0:0:0:0:
109,192,36641,1,0,0:0:0:0:
329,192,36855,1,0,0:0:0:0:
109,192,37070,1,0,0:0:0:0:
475,192,37284,1,0,0:0:0:0:
329,192,37284,1,0,0:0:0:0:
109,192,37498,1,0,0:0:0:0:
36,192,37713,1,0,0:0:0:0:
329,192,37713,1,0,0:0:0:0:
475,192,37748,128,0,40713:0:0:0:0:
109,192,37927,1,0,0:0:0:0:
329,192,38141,1,0,0:0:0:0:
109,192,38355,1,0,0:0:0:0:
329,192,38570,1,0,0:0:0:0:
109,192,38784,1,0,0:0:0:0:
329,192,38998,1,0,0:0:0:0:
109,192,39213,1,0,0:0:0:0:
36,192,39427,128,0,40713:0:0:0:0:
329,192,39427,1,0,0:0:0:0:
109,192,39641,1,0,0:0:0:0:
329,192,39855,1,0,0:0:0:0:
109,192,40070,1,0,0:0:0:0:
329,192,40284,1,0,0:0:0:0:
109,192,40498,1,0,0:0:0:0:
329,192,40713,1,0,0:0:0:0:
182,192,40927,1,0,0:0:0:0:
402,192,41034,1,0,0:0:0:0:
36,192,41141,1,0,0:0:0:0:
182,192,41355,1,0,0:0:0:0:
329,192,41570,1,0,0:0:0:0:
402,192,41713,128,0,49641:0:0:0:0:
182,192,41713,128,0,47927:0:0:0:0:
256,192,41713,128,0,53998:0:0:0:0:
36,192,41713,128,0,44284:0:0:0:0:
475,192,41713,128,0,46213:0:0:0:0:
109,192,41784,1,0,0:0:0:0:
329,192,41998,1,0,0:0:0:0:
109,192,42213,1,0,0:0:0:0:
329,192,42427,1,0,0:0:0:0:
109,192,42641,1,0,0:0:0:0:
329,192,42855,1,0,0:0:0:0:
109,192,43070,1,0,0:0:0:0:
329,192,43284,1,0,0:0:0:0:
109,192,43498,1,0,0:0:0:0:
329,192,43713,1,0,0:0:0:0:
109,192,43927,1,0,0:0:0:0:
329,192,44141,1,0,0:0:0:0:
109,192,44355,1,0,0:0:0:0:
329,192,44570,1,0,0:0:0:0:
36,192,44570,1,0,0:0:0:0:
109,192,44784,1,0,0:0:0:0:
329,192,44998,1,0,0:0:0:0:
109,192,45213,1,0,0:0:0:0:
329,192,45427,1,0,0:0:0:0:
109,192,45641,1,0,0:0:0:0:
329,192,45855,1,0,0:0:0:0:
109,192,46070,1,0,0:0:0:0:
329,192,46284,1,0,0:0:0:0:
36,192,46284,1,0,0:0:0:0:
109,192,46498,1,0,0:0:0:0:
329,192,46713,1,0,0:0:0:0:
475,192,46713,1,0,0:0:0:0:
109,192,46927,1,0,0:0:0:0:
329,192,47141,1,0,0:0:0:0:
109,192,47355,1,0,0:0:0:0:
329,192,47570,1,0,0:0:0:0:
475,192,47570,1,0,0:0:0:0:
109,192,47784,1,0,0:0:0:0:
329,192,47998,1,0,0:0:0:0:
36,192,47998,1,0,0:0:0:0:
109,192,48213,1,0,0:0:0:0:
329,192,48427,1,0,0:0:0:0:
475,192,48427,1,0,0:0:0:0:
109,192,48641,1,0,0:0:0:0:
329,192,48855,1,0,0:0:0:0:
109,192,49070,1,0,0:0:0:0:
475,192,49284,1,0,0:0:0:0:
329,192,49284,1,0,0:0:0:0:
109,192,49498,1,0,0:0:0:0:
36,192,49713,1,0,0:0:0:0:
329,192,49713,1,0,0:0:0:0:
109,192,49927,1,0,0:0:0:0:
329,192,50141,1,0,0:0:0:0:
475,192,50141,1,0,0:0:0:0:
109,192,50355,1,0,0:0:0:0:
329,192,50570,1,0,0:0:0:0:
109,192,50784,1,0,0:0:0:0:
329,192,50998,1,0,0:0:0:0:
475,192,50998,1,0,0:0:0:0:
109,192,51213,1,0,0:0:0:0:
182,192,53998,1,0,0:0:0:0:
36,192,53998,1,0,0:0:0:0:
475,192,53998,1,0,0:0:0:0:
402,192,54748,1,0,0:0:0:0:
36,192,54855,1,0,0:0:0:0:
109,192,55070,1,0,0:0:0:0:
182,192,55070,1,0,0:0:0:0:
402,192,55284,1,0,0:0:0:0:
109,192,55391,1,0,0:0:0:0:
182,192,55391,1,0,0:0:0:0:
402,192,55498,1,0,0:0:0:0:
475,192,55713,1,0,0:0:0:0:
329,192,55713,1,0,0:0:0:0:
109,192,55713,1,0,0:0:0:0:
182,192,55713,1,0,0:0:0:0:
402,192,56284,1,0,0:0:0:0:
36,192,56570,1,0,0:0:0:0:
109,192,56784,1,0,0:0:0:0:
182,192,56784,1,0,0:0:0:0:
402,192,56998,1,0,0:0:0:0:
182,192,57105,1,0,0:0:0:0:
109,192,57105,1,0,0:0:0:0:
402,192,57213,1,0,0:0:0:0:
475,192,57427,1,0,0:0:0:0:
256,192,57427,1,0,0:0:0:0:
109,192,57427,1,0,0:0:0:0:
182,192,57427,1,0,0:0:0:0:
109,192,58177,1,0,0:0:0:0:
36,192,58284,1,0,0:0:0:0:
109,192,58498,1,0,0:0:0:0:
329,192,58498,1,0,0:0:0:0:
402,192,58498,1,0,0:0:0:0:
109,192,58713,1,0,0:0:0:0:
329,192,58820,1,0,0:0:0:0:
402,192,58820,1,0,0:0:0:0:
109,192,58927,1,0,0:0:0:0:
182,192,59141,1,0,0:0:0:0:
475,192,59141,1,0,0:0:0:0:
329,192,59141,1,0,0:0:0:0:
402,192,59141,1,0,0:0:0:0:
109,192,59713,1,0,0:0:0:0:
36,192,59998,1,0,0:0:0:0:
109,192,60213,1,0,0:0:0:0:
402,192,60213,1,0,0:0:0:0:
329,192,60213,1,0,0:0:0:0:
109,192,60427,1,0,0:0:0:0:
329,192,60534,1,0,0:0:0:0:
402,192,60534,1,0,0:0:0:0:
109,192,60641,1,0,0:0:0:0:
256,192,60748,1,0,0:0:0:0:
182,192,60855,1,0,0:0:0:0:
329,192,60855,1,0,0:0:0:0:
402,192,60855,1,0,0:0:0:0:
475,192,60855,1,0,0:0:0:0:
256,192,61284,128,0,61713:0:0:0:0:
402,192,61605,1,0,0:0:0:0:
36,192,61713,1,0,0:0:0:0:
182,192,61927,1,0,0:0:0:0:
109,192,61927,1,0,0:0:0:0:
402,192,62141,1,0,0:0:0:0:
109,192,62248,1,0,0:0:0:0:
182,192,62248,1,0,0:0:0:0:
402,192,62355,1,0,0:0:0:0:
182,192,62570,1,0,0:0:0:0:
475,192,62570,1,0,0:0:0:0:
109,192,62570,1,0,0:0:0:0:
256,192,62570,1,0,0:0:0:0:
402,192,62605,1,0,0:0:0:0:
329,192,62641,1,0,0:0:0:0:
256,192,62677,1,0,0:0:0:0:
182,192,62730,1,0,0:0:0:0:
109,192,62784,1,0,0:0:0:0:
36,192,62838,1,0,0:0:0:0:
109,192,62891,1,0,0:0:0:0:
182,192,62945,1,0,0:0:0:0:
256,192,62998,1,0,0:0:0:0:
329,192,63070,1,0,0:0:0:0:
402,192,63141,1,0,0:0:0:0:
475,192,63213,1,0,0:0:0:0:
402,192,63293,1,0,0:0:0:0:
109,192,63320,1,0,0:0:0:0:
329,192,63373,1,0,0:0:0:0:
36,192,63427,1,0,0:0:0:0:
256,192,63454,1,0,0:0:0:0:
182,192,63534,1,0,0:0:0:0:
109,192,63641,1,0,0:0:0:0:
402,192,63641,1,0,0:0:0:0:
329,192,63641,1,0,0:0:0:0:
36,192,63748,1,0,0:0:0:0:
109,192,63855,1,0,0:0:0:0:
402,192,63963,1,0,0:0:0:0:
329,192,63963,1,0,0:0:0:0:
182,192,63963,1,0,0:0:0:0:
256,192,64070,1,0,0:0:0:0:
329,192,64177,1,0,0:0:0:0:
402,192,64284,1,0,0:0:0:0:
36,192,64284,1,0,0:0:0:0:
182,192,64284,1,0,0:0:0:0:
475,192,64284,1,0,0:0:0:0:
109,192,64391,128,0,64418:0:0:0:0:
329,192,64713,128,0,64739:0:0:0:0:
256,192,65034,128,0,65061:0:0:0:0:
109,192,65034,1,0,0:0:0:0:
475,192,65141,128,0,68570:0:0:0:0:
36,192,65141,1,0,0:0:0:0:
329,192,65141,128,0,68570:0:0:0:0:
109,192,65355,1,0,0:0:0:0:
109,192,65570,1,0,0:0:0:0:
402,192,65677,128,0,65838:0:0:0:0:
109,192,65784,1,0,0:0:0:0:
256,192,65784,128,0,65945:0:0:0:0:
182,192,65998,1,0,0:0:0:0:
36,192,65998,1,0,0:0:0:0:
182,192,66320,128,0,66480:0:0:0:0:
109,192,66427,1,0,0:0:0:0:
109,192,66748,1,0,0:0:0:0:
36,192,66855,1,0,0:0:0:0:
109,192,67070,1,0,0:0:0:0:
182,192,67070,1,0,0:0:0:0:
109,192,67284,1,0,0:0:0:0:
256,192,67284,1,0,0:0:0:0:
36,192,67498,128,0,67659:0:0:0:0:
182,192,67713,1,0,0:0:0:0:
402,192,67713,1,0,0:0:0:0:
256,192,67927,1,0,0:0:0:0:
109,192,68034,128,0,68195:0:0:0:0:
36,192,68141,1,0,0:0:0:0:
182,192,68141,1,0,0:0:0:0:
109,192,68463,1,0,0:0:0:0:
36,192,68570,1,0,0:0:0:0:
402,192,68570,1,0,0:0:0:0:
329,192,68713,1,0,0:0:0:0:
182,192,68784,1,0,0:0:0:0:
109,192,68784,1,0,0:0:0:0:
475,192,68784,1,0,0:0:0:0:
402,192,68855,1,0,0:0:0:0:
256,192,68971,1,0,0:0:0:0:
36,192,68998,1,0,0:0:0:0:
329,192,69079,1,0,0:0:0:0:
109,192,69105,1,0,0:0:0:0:
182,192,69105,1,0,0:0:0:0:
329,192,69284,1,0,0:0:0:0:
109,192,69427,1,0,0:0:0:0:
182,192,69427,1,0,0:0:0:0:
475,192,69427,1,0,0:0:0:0:
256,192,69427,1,0,0:0:0:0:
36,192,69427,1,0,0:0:0:0:
36,192,69855,1,0,0:0:0:0:
256,192,69963,1,0,0:0:0:0:
36,192,70284,1,0,0:0:0:0:
475,192,70284,1,0,0:0:0:0:
329,192,70498,1,0,0:0:0:0:
402,192,70498,1,0,0:0:0:0:
109,192,70498,1,0,0:0:0:0:
182,192,70498,1,0,0:0:0:0:
36,192,70713,1,0,0:0:0:0:
182,192,70713,1,0,0:0:0:0:
329,192,70820,1,0,0:0:0:0:
402,192,70820,1,0,0:0:0:0:
256,192,70820,1,0,0:0:0:0:
109,192,70820,1,0,0:0:0:0:
182,192,70927,1,0,0:0:0:0:
402,192,71141,1,0,0:0:0:0:
109,192,71141,1,0,0:0:0:0:
329,192,71141,1,0,0:0:0:0:
475,192,71141,1,0,0:0:0:0:
36,192,71141,1,0,0:0:0:0:
182,192,71355,1,0,0:0:0:0:
329,192,71463,1,0,0:0:0:0:
36,192,71570,1,0,0:0:0:0:
475,192,71570,1,0,0:0:0:0:
475,192,71677,1,0,0:0:0:0:
402,192,71784,1,0,0:0:0:0:
329,192,71891,1,0,0:0:0:0:
256,192,71945,1,0,0:0:0:0:
182,192,71998,1,0,0:0:0:0:
36,192,71998,1,0,0:0:0:0:
475,192,71998,1,0,0:0:0:0:
256,192,72105,1,0,0:0:0:0:
329,192,72213,1,0,0:0:0:0:
109,192,72213,1,0,0:0:0:0:
182,192,72213,1,0,0:0:0:0:
402,192,72320,1,0,0:0:0:0:
36,192,72427,1,0,0:0:0:0:
109,192,72534,1,0,0:0:0:0:
182,192,72534,1,0,0:0:0:0:
475,192,72534,1,0,0:0:0:0:
329,192,72534,1,0,0:0:0:0:
475,192,72748,1,0,0:0:0:0:
36,192,72855,1,0,0:0:0:0:
109,192,72855,1,0,0:0:0:0:
182,192,72855,1,0,0:0:0:0:
402,192,72855,128,0,73141:0:0:0:0:
256,192,72855,1,0,0:0:0:0:
329,192,72963,128,0,73213:0:0:0:0:
256,192,73141,128,0,73284:0:0:0:0:
36,192,73284,1,0,0:0:0:0:
182,192,73284,1,0,0:0:0:0:
256,192,73355,1,0,0:0:0:0:
329,192,73427,1,0,0:0:0:0:
402,192,73498,1,0,0:0:0:0:
109,192,73498,1,0,0:0:0:0:
256,192,73605,1,0,0:0:0:0:
36,192,73713,1,0,0:0:0:0:
475,192,73713,1,0,0:0:0:0:
402,192,73927,1,0,0:0:0:0:
329,192,73927,1,0,0:0:0:0:
109,192,73927,1,0,0:0:0:0:
109,192,74141,1,0,0:0:0:0:
329,192,74248,1,0,0:0:0:0:
402,192,74248,1,0,0:0:0:0:
109,192,74355,1,0,0:0:0:0:
256,192,74463,1,0,0:0:0:0:
475,192,74570,1,0,0:0:0:0:
329,192,74570,1,0,0:0:0:0:
402,192,74570,1,0,0:0:0:0:
182,192,74570,1,0,0:0:0:0:
36,192,74757,1,0,0:0:0:0:
109,192,74864,1,0,0:0:0:0:
182,192,75052,1,0,0:0:0:0:
256,192,75293,1,0,0:0:0:0:
402,192,75320,1,0,0:0:0:0:
36,192,75427,1,0,0:0:0:0:
329,192,75641,1,0,0:0:0:0:
402,192,75641,1,0,0:0:0:0:
329,192,75963,1,0,0:0:0:0:
402,192,75963,1,0,0:0:0:0:
109,192,76070,1,0,0:0:0:0:
475,192,76284,1,0,0:0:0:0:
329,192,76284,1,0,0:0:0:0:
36,192,76284,1,0,0:0:0:0:
402,192,76284,1,0,0:0:0:0:
109,192,76320,1,0,0:0:0:0:
182,192,76355,1,0,0:0:0:0:
256,192,76391,1,0,0:0:0:0:
329,192,76445,1,0,0:0:0:0:
402,192,76498,1,0,0:0:0:0:
475,192,76552,1,0,0:0:0:0:
402,192,76605,1,0,0:0:0:0:
329,192,76659,1,0,0:0:0:0:
256,192,76713,1,0,0:0:0:0:
182,192,76784,1,0,0:0:0:0:
109,192,76855,1,0,0:0:0:0:
36,192,76927,1,0,0:0:0:0:
109,192,77007,1,0,0:0:0:0:
402,192,77034,1,0,0:0:0:0:
182,192,77088,1,0,0:0:0:0:
475,192,77141,1,0,0:0:0:0:
256,192,77168,1,0,0:0:0:0:
329,192,77248,1,0,0:0:0:0:
402,192,77355,1,0,0:0:0:0:
182,192,77355,1,0,0:0:0:0:
109,192,77355,1,0,0:0:0:0:
475,192,77463,1,0,0:0:0:0:
402,192,77570,1,0,0:0:0:0:
329,192,77677,1,0,0:0:0:0:
182,192,77677,1,0,0:0:0:0:
109,192,77677,1,0,0:0:0:0:
256,192,77784,1,0,0:0:0:0:
182,192,77891,1,0,0:0:0:0:
109,192,77998,1,0,0:0:0:0:
36,192,77998,1,0,0:0:0:0:
475,192,77998,1,0,0:0:0:0:
329,192,77998,1,0,0:0:0:0:
182,192,78105,128,0,78132:0:0:0:0:
402,192,78427,128,0,78454:0:0:0:0:
402,192,78748,1,0,0:0:0:0:
256,192,78748,128,0,78775:0:0:0:0:
36,192,78855,128,0,81427:0:0:0:0:
182,192,78855,128,0,81427:0:0:0:0:
109,192,78855,1,0,0:0:0:0:
329,192,78909,128,0,78936:0:0:0:0:
402,192,79070,1,0,0:0:0:0:
109,192,79177,128,0,79204:0:0:0:0:
402,192,79284,1,0,0:0:0:0:
402,192,79498,1,0,0:0:0:0:
475,192,79713,128,0,81427:0:0:0:0:
256,192,79713,1,0,0:0:0:0:
329,192,79713,128,0,80570:0:0:0:0:
109,192,80463,1,0,0:0:0:0:
256,192,80570,128,0,81427:0:0:0:0:
402,192,80570,128,0,81427:0:0:0:0:
109,192,80784,1,0,0:0:0:0:
109,192,80998,1,0,0:0:0:0:
109,192,81213,1,0,0:0:0:0:
329,192,81427,1,0,0:0:0:0:
109,192,81427,1,0,0:0:0:0:
36,192,82284,1,0,0:0:0:0:
109,192,82498,1,0,0:0:0:0:
182,192,82498,1,0,0:0:0:0:
109,192,82820,1,0,0:0:0:0:
182,192,82820,1,0,0:0:0:0:
402,192,82927,1,0,0:0:0:0:
475,192,83141,1,0,0:0:0:0:
109,192,83141,1,0,0:0:0:0:
182,192,83141,1,0,0:0:0:0:
329,192,83141,1,0,0:0:0:0:
109,192,84213,1,0,0:0:0:0:
182,192,84213,1,0,0:0:0:0:
402,192,84427,1,0,0:0:0:0:
36,192,84427,1,0,0:0:0:0:
109,192,84534,1,0,0:0:0:0:
182,192,84534,1,0,0:0:0:0:
475,192,84855,1,0,0:0:0:0:
109,192,84855,1,0,0:0:0:0:
182,192,84855,1,0,0:0:0:0:
329,192,84855,1,0,0:0:0:0:
256,192,85177,1,0,0:0:0:0:
109,192,85605,1,0,0:0:0:0:
36,192,85713,1,0,0:0:0:0:
402,192,85927,1,0,0:0:0:0:
329,192,85927,1,0,0:0:0:0:
109,192,86141,1,0,0:0:0:0:
402,192,86248,1,0,0:0:0:0:
329,192,86248,1,0,0:0:0:0:
109,192,86355,1,0,0:0:0:0:
36,192,86355,1,0,0:0:0:0:
182,192,86570,1,0,0:0:0:0:
402,192,86570,1,0,0:0:0:0:
329,192,86570,1,0,0:0:0:0:
475,192,86570,1,0,0:0:0:0:
402,192,87641,1,0,0:0:0:0:
329,192,87641,1,0,0:0:0:0:
329,192,87963,1,0,0:0:0:0:
402,192,87963,1,0,0:0:0:0:
109,192,88070,1,0,0:0:0:0:
256,192,88177,1,0,0:0:0:0:
475,192,88284,1,0,0:0:0:0:
182,192,88284,1,0,0:0:0:0:
402,192,88284,1,0,0:0:0:0:
329,192,88284,1,0,0:0:0:0:
402,192,88927,1,0,0:0:0:0:
36,192,89141,1,0,0:0:0:0:
182,192,89355,1,0,0:0:0:0:
109,192,89355,1,0,0:0:0:0:
402,192,89570,1,0,0:0:0:0:
182,192,89677,1,0,0:0:0:0:
109,192,89677,1,0,0:0:0:0:
402,192,89784,1,0,0:0:0:0:
182,192,89998,1,0,0:0:0:0:
475,192,89998,1,0,0:0:0:0:
109,192,89998,1,0,0:0:0:0:
329,192,89998,1,0,0:0:0:0:
402,192,90748,1,0,0:0:0:0:
36,192,90855,1,0,0:0:0:0:
109,192,91070,1,0,0:0:0:0:
182,192,91070,1,0,0:0:0:0:
402,192,91284,1,0,0:0:0:0:
182,192,91391,1,0,0:0:0:0:
109,192,91391,1,0,0:0:0:0:
402,192,91498,1,0,0:0:0:0:
475,192,91713,1,0,0:0:0:0:
109,192,91713,1,0,0:0:0:0:
182,192,91713,1,0,0:0:0:0:
329,192,91713,1,0,0:0:0:0:
182,192,91820,128,0,91846:0:0:0:0:
402,192,92141,128,0,92168:0:0:0:0:
256,192,92463,128,0,92489:0:0:0:0:
475,192,92570,128,0,95998:0:0:0:0:
36,192,92570,1,0,0:0:0:0:
329,192,92570,128,0,95998:0:0:0:0:
182,192,92623,128,0,92650:0:0:0:0:
109,192,92891,128,0,92918:0:0:0:0:
36,192,92998,1,0,0:0:0:0:
402,192,93105,128,0,93266:0:0:0:0:
256,192,93213,128,0,93373:0:0:0:0:
109,192,93213,1,0,0:0:0:0:
182,192,93427,1,0,0:0:0:0:
36,192,93427,1,0,0:0:0:0:
182,192,93748,128,0,93909:0:0:0:0:
36,192,93855,1,0,0:0:0:0:
256,192,94070,1,0,0:0:0:0:
109,192,94070,1,0,0:0:0:0:
36,192,94284,1,0,0:0:0:0:
109,192,94284,1,0,0:0:0:0:
182,192,94498,1,0,0:0:0:0:
256,192,94713,1,0,0:0:0:0:
36,192,94713,1,0,0:0:0:0:
109,192,94713,1,0,0:0:0:0:
182,192,94927,128,0,95088:0:0:0:0:
402,192,95141,1,0,0:0:0:0:
256,192,95141,1,0,0:0:0:0:
36,192,95141,1,0,0:0:0:0:
256,192,95355,1,0,0:0:0:0:
109,192,95463,128,0,95623:0:0:0:0:
36,192,95570,1,0,0:0:0:0:
182,192,95570,1,0,0:0:0:0:
109,192,95891,1,0,0:0:0:0:
36,192,95998,1,0,0:0:0:0:
402,192,95998,1,0,0:0:0:0:
109,192,96640,1,0,0:0:0:0:
182,192,96855,1,0,0:0:0:0:
36,192,96855,1,0,0:0:0:0:
36,192,106287,5,0,0:0:0:0:
475,192,106287,128,0,108858:0:0:0:0:
329,192,106287,128,0,108858:0:0:0:0:
182,192,107144,128,0,108001:0:0:0:0:
36,192,107144,128,0,108858:0:0:0:0:
109,192,108001,128,0,108858:0:0:0:0:
256,192,108001,128,0,108858:0:0:0:0:
402,192,108858,1,0,0:0:0:0:
182,192,108858,1,0,0:0:0:0:
475,192,109715,128,0,123001:0:0:0:0:
36,192,109715,1,0,0:0:0:0:
256,192,109929,128,0,110251:0:0:0:0:
402,192,109929,1,0,0:0:0:0:
109,192,110144,1,0,0:0:0:0:
329,192,110251,128,0,110358:0:0:0:0:
256,192,110358,128,0,110572:0:0:0:0:
109,192,110358,1,0,0:0:0:0:
182,192,110572,1,0,0:0:0:0:
402,192,110572,1,0,0:0:0:0:
36,192,110858,1,0,0:0:0:0:
109,192,111001,1,0,0:0:0:0:
109,192,111144,1,0,0:0:0:0:
256,192,111144,1,0,0:0:0:0:
36,192,111429,1,0,0:0:0:0:
402,192,111644,1,0,0:0:0:0:
329,192,111644,128,0,111965:0:0:0:0:
109,192,111858,1,0,0:0:0:0:
402,192,111965,128,0,112072:0:0:0:0:
109,192,112072,1,0,0:0:0:0:
256,192,112072,128,0,112287:0:0:0:0:
182,192,112287,1,0,0:0:0:0:
329,192,112287,1,0,0:0:0:0:
109,192,112715,1,0,0:0:0:0:
109,192,113037,1,0,0:0:0:0:
36,192,113144,1,0,0:0:0:0:
329,192,113358,128,0,113679:0:0:0:0:
109,192,113572,1,0,0:0:0:0:
256,192,113679,128,0,113787:0:0:0:0:
109,192,113787,1,0,0:0:0:0:
329,192,113787,128,0,114001:0:0:0:0:
402,192,114001,1,0,0:0:0:0:
182,192,114001,1,0,0:0:0:0:
36,192,114287,1,0,0:0:0:0:
109,192,114429,1,0,0:0:0:0:
109,192,114572,1,0,0:0:0:0:
36,192,114858,1,0,0:0:0:0:
256,192,115072,1,0,0:0:0:0:
329,192,115072,128,0,115394:0:0:0:0:
109,192,115287,1,0,0:0:0:0:
256,192,115394,128,0,115501:0:0:0:0:
109,192,115501,1,0,0:0:0:0:
402,192,115501,128,0,115715:0:0:0:0:
182,192,115715,1,0,0:0:0:0:
329,192,115715,1,0,0:0:0:0:
109,192,116144,1,0,0:0:0:0:
109,192,116465,1,0,0:0:0:0:
36,192,116572,1,0,0:0:0:0:
256,192,116787,128,0,117108:0:0:0:0:
109,192,117001,1,0,0:0:0:0:
329,192,117108,128,0,117215:0:0:0:0:
256,192,117215,128,0,117429:0:0:0:0:
109,192,117215,1,0,0:0:0:0:
36,192,117429,1,0,0:0:0:0:
402,192,117429,1,0,0:0:0:0:
329,192,117465,1,0,0:0:0:0:
256,192,117501,1,0,0:0:0:0:
182,192,117537,1,0,0:0:0:0:
109,192,117572,1,0,0:0:0:0:
36,192,117617,1,0,0:0:0:0:
109,192,117670,1,0,0:0:0:0:
182,192,117724,1,0,0:0:0:0:
256,192,117778,1,0,0:0:0:0:
329,192,117831,1,0,0:0:0:0:
109,192,117858,1,0,0:0:0:0:
402,192,117885,1,0,0:0:0:0:
329,192,117965,1,0,0:0:0:0:
256,192,118045,1,0,0:0:0:0:
182,192,118126,1,0,0:0:0:0:
329,192,118179,1,0,0:0:0:0:
109,192,118206,1,0,0:0:0:0:
36,192,118287,1,0,0:0:0:0:
402,192,118287,1,0,0:0:0:0:
109,192,118394,1,0,0:0:0:0:
36,192,118501,128,0,118822:0:0:0:0:
182,192,118501,1,0,0:0:0:0:
256,192,118608,1,0,0:0:0:0:
329,192,118715,1,0,0:0:0:0:
402,192,118822,1,0,0:0:0:0:
182,192,118822,128,0,118929:0:0:0:0:
329,192,118929,1,0,0:0:0:0:
109,192,118929,128,0,119144:0:0:0:0:
256,192,119037,1,0,0:0:0:0:
402,192,119144,1,0,0:0:0:0:
182,192,119144,1,0,0:0:0:0:
36,192,119251,128,0,119278:0:0:0:0:
109,192,119572,1,0,0:0:0:0:
329,192,119572,128,0,119599:0:0:0:0:
109,192,119894,1,0,0:0:0:0:
256,192,119894,128,0,119920:0:0:0:0:
36,192,120001,1,0,0:0:0:0:
109,192,120215,1,0,0:0:0:0:
109,192,120429,1,0,0:0:0:0:
402,192,120537,128,0,120697:0:0:0:0:
109,192,120644,1,0,0:0:0:0:
256,192,120644,128,0,120804:0:0:0:0:
182,192,120858,1,0,0:0:0:0:
36,192,120858,1,0,0:0:0:0:
182,192,121179,128,0,121340:0:0:0:0:
109,192,121287,1,0,0:0:0:0:
109,192,121608,1,0,0:0:0:0:
36,192,121715,1,0,0:0:0:0:
109,192,121929,1,0,0:0:0:0:
182,192,121929,1,0,0:0:0:0:
109,192,122144,1,0,0:0:0:0:
256,192,122144,1,0,0:0:0:0:
36,192,122358,128,0,122519:0:0:0:0:
109,192,122358,1,0,0:0:0:0:
256,192,122572,1,0,0:0:0:0:
402,192,122572,1,0,0:0:0:0:
329,192,122787,1,0,0:0:0:0:
109,192,122894,128,0,123054:0:0:0:0:
182,192,123322,1,0,0:0:0:0:
36,192,123429,128,0,134572:0:0:0:0:
109,192,123429,1,0,0:0:0:0:
475,192,123429,1,0,0:0:0:0:
329,192,123572,1,0,0:0:0:0:
182,192,123644,128,0,123965:0:0:0:0:
402,192,123644,1,0,0:0:0:0:
256,192,123724,1,0,0:0:0:0:
475,192,123822,1,0,0:0:0:0:
329,192,123938,1,0,0:0:0:0:
109,192,123965,128,0,124072:0:0:0:0:
182,192,124072,128,0,124287:0:0:0:0:
402,192,124072,1,0,0:0:0:0:
475,192,124144,1,0,0:0:0:0:
256,192,124287,1,0,0:0:0:0:
329,192,124287,1,0,0:0:0:0:
109,192,124572,1,0,0:0:0:0:
402,192,124715,1,0,0:0:0:0:
182,192,124858,1,0,0:0:0:0:
402,192,125037,1,0,0:0:0:0:
109,192,125144,1,0,0:0:0:0:
475,192,125144,1,0,0:0:0:0:
329,192,125358,128,0,125679:0:0:0:0:
256,192,125358,1,0,0:0:0:0:
182,192,125358,1,0,0:0:0:0:
109,192,125572,1,0,0:0:0:0:
256,192,125572,1,0,0:0:0:0:
475,192,125679,128,0,125787:0:0:0:0:
182,192,125679,1,0,0:0:0:0:
402,192,125787,128,0,126001:0:0:0:0:
256,192,125787,1,0,0:0:0:0:
475,192,126001,1,0,0:0:0:0:
329,192,126001,1,0,0:0:0:0:
182,192,126215,1,0,0:0:0:0:
329,192,126322,1,0,0:0:0:0:
475,192,126429,1,0,0:0:0:0:
475,192,126537,1,0,0:0:0:0:
402,192,126644,1,0,0:0:0:0:
329,192,126751,1,0,0:0:0:0:
256,192,126804,1,0,0:0:0:0:
109,192,126858,1,0,0:0:0:0:
182,192,126858,1,0,0:0:0:0:
256,192,126965,1,0,0:0:0:0:
182,192,127072,128,0,127394:0:0:0:0:
329,192,127072,1,0,0:0:0:0:
402,192,127179,1,0,0:0:0:0:
109,192,127394,128,0,127501:0:0:0:0:
329,192,127394,1,0,0:0:0:0:
475,192,127394,1,0,0:0:0:0:
182,192,127501,128,0,127715:0:0:0:0:
475,192,127608,1,0,0:0:0:0:
256,192,127715,1,0,0:0:0:0:
402,192,127715,128,0,128010:0:0:0:0:
329,192,127822,128,0,128072:0:0:0:0:
109,192,128010,1,0,0:0:0:0:
256,192,128010,128,0,128144:0:0:0:0:
182,192,128144,1,0,0:0:0:0:
256,192,128224,1,0,0:0:0:0:
329,192,128287,1,0,0:0:0:0:
182,192,128358,1,0,0:0:0:0:
402,192,128358,1,0,0:0:0:0:
256,192,128465,1,0,0:0:0:0:
109,192,128572,1,0,0:0:0:0:
475,192,128572,1,0,0:0:0:0:
402,192,128787,1,0,0:0:0:0:
256,192,128787,128,0,129108:0:0:0:0:
402,192,129001,1,0,0:0:0:0:
109,192,129108,128,0,129215:0:0:0:0:
182,192,129215,128,0,129429:0:0:0:0:
402,192,129215,1,0,0:0:0:0:
475,192,129215,1,0,0:0:0:0:
109,192,129429,1,0,0:0:0:0:
329,192,129429,1,0,0:0:0:0:
256,192,129617,1,0,0:0:0:0:
182,192,129724,1,0,0:0:0:0:
402,192,129858,1,0,0:0:0:0:
182,192,130153,1,0,0:0:0:0:
329,192,130153,1,0,0:0:0:0:
402,192,130179,1,0,0:0:0:0:
109,192,130287,1,0,0:0:0:0:
256,192,130501,128,0,130822:0:0:0:0:
182,192,130822,128,0,130929:0:0:0:0:
402,192,130929,1,0,0:0:0:0:
256,192,130929,128,0,131144:0:0:0:0:
109,192,131144,1,0,0:0:0:0:
475,192,131144,1,0,0:0:0:0:
182,192,131179,1,0,0:0:0:0:
256,192,131215,1,0,0:0:0:0:
329,192,131251,1,0,0:0:0:0:
402,192,131287,1,0,0:0:0:0:
475,192,131331,1,0,0:0:0:0:
402,192,131385,1,0,0:0:0:0:
329,192,131438,1,0,0:0:0:0:
256,192,131492,1,0,0:0:0:0:
182,192,131545,1,0,0:0:0:0:
402,192,131572,1,0,0:0:0:0:
109,192,131599,1,0,0:0:0:0:
182,192,131679,1,0,0:0:0:0:
256,192,131760,1,0,0:0:0:0:
329,192,131840,1,0,0:0:0:0:
182,192,131894,1,0,0:0:0:0:
402,192,131920,1,0,0:0:0:0:
109,192,132001,1,0,0:0:0:0:
475,192,132001,1,0,0:0:0:0:
402,192,132108,1,0,0:0:0:0:
329,192,132215,1,0,0:0:0:0:
475,192,132215,128,0,132537:0:0:0:0:
256,192,132322,1,0,0:0:0:0:
182,192,132429,1,0,0:0:0:0:
109,192,132537,1,0,0:0:0:0:
329,192,132537,128,0,132644:0:0:0:0:
182,192,132644,1,0,0:0:0:0:
402,192,132644,128,0,132858:0:0:0:0:
256,192,132751,1,0,0:0:0:0:
109,192,132858,1,0,0:0:0:0:
329,192,132858,1,0,0:0:0:0:
475,192,132965,128,0,132992:0:0:0:0:
402,192,133287,1,0,0:0:0:0:
256,192,133287,128,0,133313:0:0:0:0:
402,192,133608,1,0,0:0:0:0:
109,192,133608,128,0,133635:0:0:0:0:
475,192,133715,1,0,0:0:0:0:
182,192,133769,128,0,133795:0:0:0:0:
402,192,133929,1,0,0:0:0:0:
256,192,134037,128,0,134063:0:0:0:0:
402,192,134144,1,0,0:0:0:0:
402,192,134358,1,0,0:0:0:0:
475,192,134572,1,0,0:0:0:0:
109,192,134572,1,0,0:0:0:0:
329,192,134572,1,0,0:0:0:0:
36,192,137144,1,0,0:0:0:0:
402,192,137572,128,0,138001:0:0:0:0:
256,192,137572,128,0,138001:0:0:0:0:
36,192,138001,128,0,139715:0:0:0:0:
182,192,138001,128,0,139715:0:0:0:0:
475,192,138001,128,0,139715:0:0:0:0:
109,192,139715,1,0,0:0:0:0:
329,192,139715,1,0,0:0:0:0:
256,192,139929,1,0,0:0:0:0:
109,192,140037,1,0,0:0:0:0:
329,192,140144,1,0,0:0:0:0:
475,192,140144,1,0,0:0:0:0:
402,192,140251,1,0,0:0:0:0:
182,192,140358,1,0,0:0:0:0:
329,192,140465,1,0,0:0:0:0:
475,192,140572,1,0,0:0:0:0:
36,192,140572,1,0,0:0:0:0:
402,192,141001,1,0,0:0:0:0:
109,192,141215,1,0,0:0:0:0:
36,192,141429,1,0,0:0:0:0:
329,192,141429,128,0,142287:0:0:0:0:
256,192,141429,1,0,0:0:0:0:
109,192,141858,1,0,0:0:0:0:
182,192,141858,1,0,0:0:0:0:
256,192,142072,1,0,0:0:0:0:
36,192,142287,1,0,0:0:0:0:
182,192,142287,1,0,0:0:0:0:
475,192,142287,1,0,0:0:0:0:
329,192,142608,1,0,0:0:0:0:
109,192,142715,1,0,0:0:0:0:
402,192,142822,1,0,0:0:0:0:
182,192,142929,1,0,0:0:0:0:
182,192,143037,1,0,0:0:0:0:
475,192,143144,1,0,0:0:0:0:
36,192,143144,128,0,144001:0:0:0:0:
402,192,143144,128,0,144001:0:0:0:0:
182,192,143358,1,0,0:0:0:0:
256,192,143572,1,0,0:0:0:0:
109,192,143572,1,0,0:0:0:0:
182,192,143894,1,0,0:0:0:0:
329,192,144001,1,0,0:0:0:0:
475,192,144001,1,0,0:0:0:0:
402,192,144429,1,0,0:0:0:0:
182,192,144429,1,0,0:0:0:0:
109,192,144644,1,0,0:0:0:0:
36,192,144858,1,0,0:0:0:0:
256,192,144858,1,0,0:0:0:0:
475,192,144858,1,0,0:0:0:0:
109,192,144912,1,0,0:0:0:0:
182,192,144965,1,0,0:0:0:0:
256,192,145019,1,0,0:0:0:0:
36,192,145072,1,0,0:0:0:0:
329,192,145072,1,0,0:0:0:0:
402,192,145126,1,0,0:0:0:0:
475,192,145179,1,0,0:0:0:0:
109,192,145233,1,0,0:0:0:0:
329,192,145287,1,0,0:0:0:0:
182,192,145340,1,0,0:0:0:0:
109,192,145394,1,0,0:0:0:0:
329,192,145447,1,0,0:0:0:0:
402,192,145501,1,0,0:0:0:0:
182,192,145608,1,0,0:0:0:0:
256,192,145715,1,0,0:0:0:0:
109,192,145715,1,0,0:0:0:0:
475,192,146144,1,0,0:0:0:0:
329,192,146144,1,0,0:0:0:0:
36,192,146144,1,0,0:0:0:0:
36,192,146572,1,0,0:0:0:0:
402,192,146572,1,0,0:0:0:0:
329,192,146626,1,0,0:0:0:0:
256,192,146679,1,0,0:0:0:0:
182,192,146733,1,0,0:0:0:0:
109,192,146787,1,0,0:0:0:0:
182,192,146840,1,0,0:0:0:0:
256,192,146894,1,0,0:0:0:0:
329,192,146947,1,0,0:0:0:0:
109,192,147001,1,0,0:0:0:0:
402,192,147001,1,0,0:0:0:0:
475,192,147054,1,0,0:0:0:0:
402,192,147108,1,0,0:0:0:0:
329,192,147162,1,0,0:0:0:0:
256,192,147215,1,0,0:0:0:0:
182,192,147269,1,0,0:0:0:0:
109,192,147322,1,0,0:0:0:0:
36,192,147376,1,0,0:0:0:0:
475,192,147429,1,0,0:0:0:0:
329,192,147429,1,0,0:0:0:0:
256,192,148287,1,0,0:0:0:0:
109,192,148287,1,0,0:0:0:0:
36,192,148287,1,0,0:0:0:0:
109,192,149144,1,0,0:0:0:0:
402,192,149251,1,0,0:0:0:0:
109,192,149358,1,0,0:0:0:0:
329,192,149465,1,0,0:0:0:0:
182,192,149465,1,0,0:0:0:0:
402,192,149572,1,0,0:0:0:0:
109,192,149679,1,0,0:0:0:0:
182,192,149787,1,0,0:0:0:0:
329,192,149787,1,0,0:0:0:0:
402,192,149894,1,0,0:0:0:0:
256,192,150001,1,0,0:0:0:0:
36,192,150001,1,0,0:0:0:0:
475,192,150001,1,0,0:0:0:0:
256,192,150135,1,0,0:0:0:0:
475,192,150135,1,0,0:0:0:0:
36,192,150322,1,0,0:0:0:0:
475,192,150322,1,0,0:0:0:0:
256,192,150322,1,0,0:0:0:0:
256,192,150429,1,0,0:0:0:0:
475,192,150429,1,0,0:0:0:0:
36,192,150644,1,0,0:0:0:0:
256,192,150644,1,0,0:0:0:0:
475,192,150644,1,0,0:0:0:0:
36,192,150858,1,0,0:0:0:0:
402,192,150965,1,0,0:0:0:0:
182,192,151072,1,0,0:0:0:0:
329,192,151072,1,0,0:0:0:0:
402,192,151287,1,0,0:0:0:0:
329,192,151287,1,0,0:0:0:0:
109,192,151501,1,0,0:0:0:0:
36,192,151715,1,0,0:0:0:0:
475,192,151715,1,0,0:0:0:0:
329,192,151715,1,0,0:0:0:0:
182,192,151822,1,0,0:0:0:0:
402,192,151929,1,0,0:0:0:0:
256,192,151929,128,0,154715:0:0:0:0:
109,192,152144,1,0,0:0:0:0:
329,192,152251,1,0,0:0:0:0:
475,192,152465,1,0,0:0:0:0:
402,192,152572,1,0,0:0:0:0:
182,192,152787,1,0,0:0:0:0:
329,192,152787,1,0,0:0:0:0:
182,192,153001,1,0,0:0:0:0:
109,192,153001,128,0,153429:0:0:0:0:
402,192,153215,1,0,0:0:0:0:
36,192,153429,1,0,0:0:0:0:
475,192,153429,1,0,0:0:0:0:
329,192,153429,1,0,0:0:0:0:
182,192,153858,1,0,0:0:0:0:
402,192,154072,1,0,0:0:0:0:
36,192,154179,1,0,0:0:0:0:
109,192,154287,1,0,0:0:0:0:
182,192,154501,1,0,0:0:0:0:
329,192,154501,1,0,0:0:0:0:
329,192,154715,1,0,0:0:0:0:
402,192,154715,1,0,0:0:0:0:
109,192,154929,1,0,0:0:0:0:
36,192,155144,1,0,0:0:0:0:
475,192,155144,1,0,0:0:0:0:
182,192,155144,1,0,0:0:0:0:
329,192,155251,1,0,0:0:0:0:
109,192,155358,1,0,0:0:0:0:
402,192,155572,1,0,0:0:0:0:
329,192,155572,1,0,0:0:0:0:
182,192,155787,1,0,0:0:0:0:
475,192,155894,1,0,0:0:0:0:
402,192,156001,1,0,0:0:0:0:
109,192,156108,1,0,0:0:0:0:
182,192,156215,1,0,0:0:0:0:
329,192,156215,1,0,0:0:0:0:
182,192,156429,1,0,0:0:0:0:
109,192,156429,128,0,156858:0:0:0:0:
402,192,156644,1,0,0:0:0:0:
475,192,156858,1,0,0:0:0:0:
329,192,156858,1,0,0:0:0:0:
36,192,156858,1,0,0:0:0:0:
182,192,156965,1,0,0:0:0:0:
402,192,157072,1,0,0:0:0:0:
109,192,157287,1,0,0:0:0:0:
182,192,157287,1,0,0:0:0:0:
329,192,157501,1,0,0:0:0:0:
109,192,157608,1,0,0:0:0:0:
475,192,157715,1,0,0:0:0:0:
402,192,157715,1,0,0:0:0:0:
256,192,158144,1,0,0:0:0:0:
109,192,158358,1,0,0:0:0:0:
36,192,158572,1,0,0:0:0:0:
329,192,158572,1,0,0:0:0:0:
475,192,158572,1,0,0:0:0:0:
109,192,158626,1,0,0:0:0:0:
182,192,158679,1,0,0:0:0:0:
256,192,158733,1,0,0:0:0:0:
329,192,158787,1,0,0:0:0:0:
402,192,158840,1,0,0:0:0:0:
475,192,158894,1,0,0:0:0:0:
36,192,158947,1,0,0:0:0:0:
109,192,159001,1,0,0:0:0:0:
182,192,159054,1,0,0:0:0:0:
256,192,159108,1,0,0:0:0:0:
329,192,159162,1,0,0:0:0:0:
402,192,159215,1,0,0:0:0:0:
475,192,159269,1,0,0:0:0:0:
109,192,159322,1,0,0:0:0:0:
36,192,159429,1,0,0:0:0:0:
256,192,159429,1,0,0:0:0:0:
109,192,159858,128,0,160287:0:0:0:0:
402,192,160072,1,0,0:0:0:0:
36,192,160287,1,0,0:0:0:0:
475,192,160287,1,0,0:0:0:0:
329,192,160287,1,0,0:0:0:0:
402,192,160715,128,0,160742:0:0:0:0:
256,192,161037,128,0,161063:0:0:0:0:
109,192,161144,1,0,0:0:0:0:
182,192,161465,128,0,161492:0:0:0:0:
402,192,164249,128,0,164316:0:0:0:0:
256,192,164464,128,0,164530:0:0:0:0:
36,192,164572,1,0,0:0:0:0:
109,192,164786,1,0,0:0:0:0:
182,192,164786,1,0,0:0:0:0:
402,192,165000,1,0,0:0:0:0:
109,192,165107,1,0,0:0:0:0:
182,192,165107,1,0,0:0:0:0:
402,192,165214,1,0,0:0:0:0:
475,192,165429,1,0,0:0:0:0:
329,192,165429,1,0,0:0:0:0:
109,192,165429,1,0,0:0:0:0:
182,192,165429,1,0,0:0:0:0:
109,192,165964,128,0,166036:0:0:0:0:
402,192,166000,1,0,0:0:0:0:
256,192,166000,1,0,0:0:0:0:
36,192,166286,1,0,0:0:0:0:
109,192,166500,1,0,0:0:0:0:
182,192,166500,1,0,0:0:0:0:
402,192,166714,1,0,0:0:0:0:
109,192,166822,1,0,0:0:0:0:
182,192,166822,1,0,0:0:0:0:
402,192,166929,1,0,0:0:0:0:
475,192,167143,1,0,0:0:0:0:
256,192,167143,1,0,0:0:0:0:
109,192,167143,1,0,0:0:0:0:
182,192,167143,1,0,0:0:0:0:
402,192,167679,128,0,167750:0:0:0:0:
109,192,167893,1,0,0:0:0:0:
256,192,167893,128,0,167964:0:0:0:0:
36,192,168000,1,0,0:0:0:0:
109,192,168214,1,0,0:0:0:0:
329,192,168214,1,0,0:0:0:0:
402,192,168214,1,0,0:0:0:0:
109,192,168429,1,0,0:0:0:0:
329,192,168536,1,0,0:0:0:0:
402,192,168536,1,0,0:0:0:0:
109,192,168643,1,0,0:0:0:0:
182,192,168857,1,0,0:0:0:0:
475,192,168857,1,0,0:0:0:0:
329,192,168857,1,0,0:0:0:0:
402,192,168857,1,0,0:0:0:0:
402,192,169393,128,0,169464:0:0:0:0:
109,192,169429,1,0,0:0:0:0:
36,192,169714,1,0,0:0:0:0:
109,192,169929,1,0,0:0:0:0:
402,192,169929,1,0,0:0:0:0:
329,192,169929,1,0,0:0:0:0:
109,192,170143,1,0,0:0:0:0:
329,192,170250,1,0,0:0:0:0:
402,192,170250,1,0,0:0:0:0:
109,192,170357,1,0,0:0:0:0:
256,192,170464,1,0,0:0:0:0:
182,192,170572,1,0,0:0:0:0:
475,192,170572,1,0,0:0:0:0:
402,192,170572,1,0,0:0:0:0:
329,192,170572,1,0,0:0:0:0:
109,192,171107,128,0,171179:0:0:0:0:
402,192,171322,1,0,0:0:0:0:
256,192,171322,128,0,171393:0:0:0:0:
36,192,171429,1,0,0:0:0:0:
182,192,171643,1,0,0:0:0:0:
109,192,171643,1,0,0:0:0:0:
402,192,171857,1,0,0:0:0:0:
109,192,171964,1,0,0:0:0:0:
182,192,171964,1,0,0:0:0:0:
402,192,172072,1,0,0:0:0:0:
182,192,172286,1,0,0:0:0:0:
475,192,172286,1,0,0:0:0:0:
109,192,172286,1,0,0:0:0:0:
256,192,172286,1,0,0:0:0:0:
402,192,172322,1,0,0:0:0:0:
329,192,172357,1,0,0:0:0:0:
256,192,172393,1,0,0:0:0:0:
182,192,172447,1,0,0:0:0:0:
109,192,172500,1,0,0:0:0:0:
36,192,172554,1,0,0:0:0:0:
109,192,172607,1,0,0:0:0:0:
182,192,172661,1,0,0:0:0:0:
256,192,172714,1,0,0:0:0:0:
329,192,172786,1,0,0:0:0:0:
109,192,172822,128,0,172893:0:0:0:0:
402,192,172857,1,0,0:0:0:0:
475,192,172929,1,0,0:0:0:0:
402,192,173009,1,0,0:0:0:0:
109,192,173036,1,0,0:0:0:0:
329,192,173089,1,0,0:0:0:0:
36,192,173143,1,0,0:0:0:0:
256,192,173170,1,0,0:0:0:0:
182,192,173250,1,0,0:0:0:0:
109,192,173357,1,0,0:0:0:0:
402,192,173357,1,0,0:0:0:0:
329,192,173357,1,0,0:0:0:0:
36,192,173464,1,0,0:0:0:0:
109,192,173572,1,0,0:0:0:0:
182,192,173679,1,0,0:0:0:0:
402,192,173679,1,0,0:0:0:0:
329,192,173679,1,0,0:0:0:0:
256,192,173786,1,0,0:0:0:0:
329,192,173893,1,0,0:0:0:0:
402,192,174000,1,0,0:0:0:0:
475,192,174000,1,0,0:0:0:0:
36,192,174000,1,0,0:0:0:0:
182,192,174000,1,0,0:0:0:0:
256,192,174107,128,0,174134:0:0:0:0:
402,192,174429,128,0,174455:0:0:0:0:
109,192,174536,128,0,174616:0:0:0:0:
182,192,174750,128,0,174777:0:0:0:0:
402,192,174750,1,0,0:0:0:0:
475,192,174857,128,0,178286:0:0:0:0:
36,192,174857,1,0,0:0:0:0:
329,192,174857,128,0,178286:0:0:0:0:
109,192,175072,1,0,0:0:0:0:
109,192,175286,1,0,0:0:0:0:
402,192,175393,128,0,175554:0:0:0:0:
109,192,175500,1,0,0:0:0:0:
256,192,175500,128,0,175661:0:0:0:0:
182,192,175714,1,0,0:0:0:0:
36,192,175714,1,0,0:0:0:0:
182,192,176036,128,0,176197:0:0:0:0:
109,192,176143,1,0,0:0:0:0:
402,192,176250,128,0,176322:0:0:0:0:
109,192,176464,1,0,0:0:0:0:
36,192,176572,1,0,0:0:0:0:
109,192,176786,1,0,0:0:0:0:
182,192,176786,1,0,0:0:0:0:
109,192,177000,1,0,0:0:0:0:
256,192,177000,1,0,0:0:0:0:
36,192,177214,128,0,177375:0:0:0:0:
109,192,177214,1,0,0:0:0:0:
182,192,177429,1,0,0:0:0:0:
402,192,177429,1,0,0:0:0:0:
256,192,177643,1,0,0:0:0:0:
109,192,177750,128,0,177911:0:0:0:0:
182,192,177857,1,0,0:0:0:0:
109,192,178179,1,0,0:0:0:0:
36,192,178286,1,0,0:0:0:0:
402,192,178286,1,0,0:0:0:0:
182,192,178500,1,0,0:0:0:0:
109,192,178500,1,0,0:0:0:0:
475,192,178500,1,0,0:0:0:0:
402,192,178714,1,0,0:0:0:0:
109,192,178822,1,0,0:0:0:0:
182,192,178822,1,0,0:0:0:0:
402,192,178929,1,0,0:0:0:0:
109,192,179143,1,0,0:0:0:0:
182,192,179143,1,0,0:0:0:0:
475,192,179143,1,0,0:0:0:0:
329,192,179143,1,0,0:0:0:0:
402,192,179572,1,0,0:0:0:0:
402,192,179714,1,0,0:0:0:0:
256,192,179714,1,0,0:0:0:0:
36,192,180000,1,0,0:0:0:0:
109,192,180214,1,0,0:0:0:0:
182,192,180214,1,0,0:0:0:0:
402,192,180429,1,0,0:0:0:0:
109,192,180536,1,0,0:0:0:0:
182,192,180536,1,0,0:0:0:0:
402,192,180643,1,0,0:0:0:0:
109,192,180857,1,0,0:0:0:0:
182,192,180857,1,0,0:0:0:0:
256,192,180857,1,0,0:0:0:0:
475,192,180857,1,0,0:0:0:0:
109,192,181286,1,0,0:0:0:0:
109,192,181607,1,0,0:0:0:0:
36,192,181714,1,0,0:0:0:0:
109,192,181929,1,0,0:0:0:0:
329,192,181929,1,0,0:0:0:0:
402,192,181929,1,0,0:0:0:0:
109,192,182143,1,0,0:0:0:0:
329,192,182250,1,0,0:0:0:0:
402,192,182250,1,0,0:0:0:0:
109,192,182357,1,0,0:0:0:0:
182,192,182572,1,0,0:0:0:0:
475,192,182572,1,0,0:0:0:0:
329,192,182572,1,0,0:0:0:0:
402,192,182572,1,0,0:0:0:0:
109,192,183000,1,0,0:0:0:0:
109,192,183143,1,0,0:0:0:0:
36,192,183429,1,0,0:0:0:0:
109,192,183643,1,0,0:0:0:0:
329,192,183643,1,0,0:0:0:0:
402,192,183643,1,0,0:0:0:0:
109,192,183857,1,0,0:0:0:0:
329,192,183964,1,0,0:0:0:0:
402,192,183964,1,0,0:0:0:0:
109,192,184072,1,0,0:0:0:0:
256,192,184179,1,0,0:0:0:0:
182,192,184286,1,0,0:0:0:0:
475,192,184286,1,0,0:0:0:0:
402,192,184286,1,0,0:0:0:0:
329,192,184286,1,0,0:0:0:0:
402,192,185036,1,0,0:0:0:0:
36,192,185143,1,0,0:0:0:0:
109,192,185357,1,0,0:0:0:0:
182,192,185357,1,0,0:0:0:0:
109,192,185679,1,0,0:0:0:0:
182,192,185679,1,0,0:0:0:0:
402,192,185786,1,0,0:0:0:0:
182,192,186000,1,0,0:0:0:0:
475,192,186000,1,0,0:0:0:0:
109,192,186000,1,0,0:0:0:0:
256,192,186000,1,0,0:0:0:0:
402,192,186036,1,0,0:0:0:0:
329,192,186072,1,0,0:0:0:0:
256,192,186107,1,0,0:0:0:0:
182,192,186161,1,0,0:0:0:0:
109,192,186214,1,0,0:0:0:0:
36,192,186268,1,0,0:0:0:0:
109,192,186322,1,0,0:0:0:0:
182,192,186375,1,0,0:0:0:0:
256,192,186429,1,0,0:0:0:0:
329,192,186500,1,0,0:0:0:0:
402,192,186572,1,0,0:0:0:0:
475,192,186643,1,0,0:0:0:0:
402,192,186723,1,0,0:0:0:0:
109,192,186750,1,0,0:0:0:0:
329,192,186804,1,0,0:0:0:0:
36,192,186857,1,0,0:0:0:0:
256,192,186884,1,0,0:0:0:0:
182,192,186964,1,0,0:0:0:0:
109,192,187072,1,0,0:0:0:0:
402,192,187072,1,0,0:0:0:0:
329,192,187072,1,0,0:0:0:0:
36,192,187179,1,0,0:0:0:0:
109,192,187286,1,0,0:0:0:0:
182,192,187393,1,0,0:0:0:0:
402,192,187393,1,0,0:0:0:0:
329,192,187393,1,0,0:0:0:0:
256,192,187500,1,0,0:0:0:0:
109,192,187500,1,0,0:0:0:0:
329,192,187607,1,0,0:0:0:0:
402,192,187714,1,0,0:0:0:0:
475,192,187714,1,0,0:0:0:0:
36,192,187714,1,0,0:0:0:0:
182,192,187714,1,0,0:0:0:0:
109,192,187822,128,0,187848:0:0:0:0:
329,192,188143,128,0,188170:0:0:0:0:
402,192,188464,1,0,0:0:0:0:
256,192,188464,128,0,188491:0:0:0:0:
36,192,188572,128,0,191143:0:0:0:0:
182,192,188572,128,0,191143:0:0:0:0:
109,192,188572,1,0,0:0:0:0:
402,192,188786,1,0,0:0:0:0:
402,192,189000,1,0,0:0:0:0:
402,192,189214,1,0,0:0:0:0:
475,192,189429,128,0,191143:0:0:0:0:
329,192,189429,128,0,190286:0:0:0:0:
256,192,189429,1,0,0:0:0:0:
109,192,190179,1,0,0:0:0:0:
256,192,190286,128,0,191143:0:0:0:0:
402,192,190286,128,0,191143:0:0:0:0:
109,192,190500,1,0,0:0:0:0:
109,192,190714,1,0,0:0:0:0:
109,192,190929,1,0,0:0:0:0:
329,192,191143,1,0,0:0:0:0:
109,192,191143,1,0,0:0:0:0:
36,192,192000,5,0,0:0:0:0:
109,192,193142,1,0,0:0:0:0:
182,192,194285,1,0,0:0:0:0:
256,192,195428,1,0,0:0:0:0:
329,192,196571,1,0,0:0:0:0:
402,192,197714,1,0,0:0:0:0:
475,192,198857,1,0,0:0:0:0:
402,192,200000,1,0,0:0:0:0:
329,192,201142,1,0,0:0:0:0:
256,192,202285,1,0,0:0:0:0:
182,192,203428,1,0,0:0:0:0:
109,192,204571,1,0,0:0:0:0:
