osu file format v14

[General]
AudioFilename: audio.mp3
AudioLeadIn: 0
PreviewTime: 77519
Countdown: 0
SampleSet: Soft
StackLeniency: 1
Mode: 0
LetterboxInBreaks: 0
WidescreenStoryboard: 1

[Editor]
Bookmarks: 2971,29988,53988,77988,101988,125988,149988,173988,191988,215988,239988,263988,287988,311988,328488,347988,368988,391488,425988
DistanceSpacing: 1.6
BeatDivisor: 4
GridSize: 4
TimelineZoom: 0.9000002

[Metadata]
Title:Relucent feat. ZES
TitleUnicode:Relucent feat. ZES
Artist:Culprate
ArtistUnicode:Culprate
Creator:Mao
Version:Luminescence
Source:osu!
Tags:deliverance collab collaboration pono pishifat fa featured artist mappers' guild
BeatmapID:1773372
BeatmapSetID:847996

[Difficulty]
HPDrainRate:5
CircleSize:3.5
OverallDifficulty:8.5
ApproachRate:9
SliderMultiplier:1
SliderTickRate:1

[Events]
//Background and Video events
0,0,"bg.jpg",0,0
//Break Periods
2,174000,188388
//Storyboard Layer 0 (Background)
//Storyboard Layer 1 (Fail)
//Storyboard Layer 2 (Pass)
//Storyboard Layer 3 (Foreground)
//Storyboard Sound Samples

[TimingPoints]
29988,375,4,2,0,10,1,0
29988,-66.6666666666667,4,2,0,60,0,0
30738,-83.3333333333333,4,2,0,60,0,0
31863,-66.6666666666667,4,2,0,60,0,0
41238,-55.5555555555556,4,2,0,60,0,0
44238,-1000,4,2,2,60,0,0
46488,-66.6666666666667,4,2,0,60,0,0
53425,-133.333333333333,4,2,0,60,0,0
53988,-83.3333333333333,4,2,0,60,0,0
55113,-66.6666666666667,4,2,0,60,0,0
55675,-55.5555555555556,4,2,0,60,0,0
56425,-66.6666666666667,4,2,0,60,0,0
56988,-83.3333333333333,4,2,0,60,0,0
57925,-66.6666666666667,4,2,0,60,0,0
58488,-55.5555555555556,4,2,0,60,0,0
59894,-83.3333333333333,4,2,0,60,0,0
61113,-66.6666666666667,4,2,0,60,0,0
61675,-55.5555555555556,4,2,0,60,0,0
62238,-66.6666666666667,4,2,0,60,0,0
62988,-83.3333333333333,4,2,0,60,0,0
63925,-66.6666666666667,4,2,0,60,0,0
64394,-55.5555555555556,4,2,0,60,0,0
65988,-83.3333333333333,4,2,0,60,0,0
67113,-66.6666666666667,4,2,0,60,0,0
67488,-55.5555555555556,4,2,0,60,0,0
68238,-66.6666666666667,4,2,0,60,0,0
70863,-55.5555555555556,4,2,0,60,0,0
71988,-83.3333333333333,4,2,0,60,0,0
73113,-66.6666666666667,4,2,0,60,0,0
73675,-55.5555555555556,4,2,0,60,0,0
74238,-66.6666666666667,4,2,0,60,0,0
74425,-66.6666666666667,4,2,0,30,0,0
74613,-66.6666666666667,4,2,0,60,0,0
74988,-83.3333333333333,4,2,0,60,0,0
75925,-100,4,2,0,60,0,0
76488,-133.333333333333,4,2,0,60,0,0
77988,-50,4,2,0,70,0,0
78738,-40,4,2,0,70,0,0
79675,-66.6666666666667,4,2,0,70,0,0
80238,-40,4,2,0,70,0,0
83238,-33.3333333333333,4,2,0,70,0,0
83988,-40,4,2,0,70,0,0
86613,-28.5714285714286,4,2,0,70,0,0
87175,-50,4,2,0,70,0,0
88019,-33.3333333333333,4,2,0,70,0,0
88300,-50,4,2,0,70,0,0
89050,-66.6666666666667,4,2,0,70,0,0
89988,-50,4,2,0,70,0,0
90738,-40,4,2,0,70,0,0
93363,-50,4,2,0,70,0,0
93738,-40,4,2,0,70,0,0
95050,-33.3333333333333,4,2,0,70,0,0
95988,-50,4,2,0,50,0,0
96550,-55.5555555555556,4,2,0,50,0,0
97863,-55.5555555555556,4,2,0,20,0,0
98988,-50,4,2,0,30,0,0
100488,-45.4545454545455,4,2,0,40,0,0
100863,-41.6666666666667,4,2,0,50,0,0
101988,-83.3333333333333,4,2,0,60,0,0
102738,-55.5555555555556,4,2,0,60,0,0
103863,-83.3333333333333,4,2,0,60,0,0
104613,-55.5555555555556,4,2,0,60,0,0
105363,-83.3333333333333,4,2,0,60,0,0
105738,-55.5555555555556,4,2,0,60,0,0
106113,-83.3333333333333,4,2,0,60,0,0
108738,-55.5555555555556,4,2,0,60,0,0
109863,-83.3333333333333,4,2,0,60,0,0
113238,-55.5555555555556,4,2,0,60,0,0
113988,-83.3333333333333,4,2,0,60,0,0
114738,-55.5555555555556,4,2,0,60,0,0
115863,-83.3333333333333,4,2,0,60,0,0
116238,-1000,4,2,2,50,0,0
118394,-1000,4,2,0,5,0,0
118488,-83.3333333333333,4,2,0,60,0,0
119238,-55.5555555555556,4,2,0,60,0,0
121863,-83.3333333333333,4,2,0,60,0,0
122050,-66.6666666666667,4,2,0,60,0,0
122238,-55.5555555555556,4,2,0,60,0,0
122425,-83.3333333333333,4,2,0,60,0,0
124300,-55.5555555555556,4,2,0,60,0,0
127300,-83.3333333333333,4,2,0,60,0,0
128238,-55.5555555555556,4,2,0,60,0,0
129738,-40,4,2,0,60,0,0
130488,-55.5555555555556,4,2,0,60,0,0
131613,-47.6190476190476,4,2,0,60,0,0
131988,-55.5555555555556,4,2,0,60,0,0
132738,-83.3333333333333,4,2,0,60,0,0
134238,-55.5555555555556,4,2,0,60,0,0
135738,-83.3333333333333,4,2,0,60,0,0
136113,-55.5555555555556,4,2,0,60,0,0
137238,-83.3333333333333,4,2,0,60,0,0
138738,-50,4,2,0,60,0,0
140238,-142.857142857143,4,2,2,30,0,0
142488,-55.5555555555556,4,2,0,60,0,0
143988,-83.3333333333333,4,2,0,60,0,0
144738,-50,4,2,0,60,0,0
146988,-83.3333333333333,4,2,0,60,0,0
147738,-100,4,2,0,50,0,0
148113,-76.9230769230769,4,2,0,50,0,0
149988,-83.3333333333333,4,2,0,40,0,0
167238,-66.6666666666667,4,2,0,40,0,0
191988,-99.009900990099,4,2,0,20,0,0
193206,-99.009900990099,4,2,0,5,0,0
193300,-99.009900990099,4,2,0,20,0,0
196206,-99.009900990099,4,2,0,5,0,0
196300,-99.009900990099,4,2,0,20,0,0
199206,-99.009900990099,4,2,0,5,0,0
199300,-99.009900990099,4,2,0,20,0,0
200238,-76.9230769230769,4,2,0,20,0,0
200988,-99.009900990099,4,2,0,20,0,0
202206,-99.009900990099,4,2,0,5,0,0
202300,-99.009900990099,4,2,0,20,0,0
212988,-86.9565217391304,4,2,0,30,0,0
216363,-76.9230769230769,4,2,0,30,0,0
227988,-76.9230769230769,4,2,0,40,0,0
229300,-50,4,2,0,40,0,0
230050,-66.6666666666667,4,2,0,40,0,0
232300,-50,4,2,0,50,0,0
233050,-66.6666666666667,4,2,0,50,0,0
238488,-200,4,2,0,50,0,0
239988,-66.6666666666667,4,2,0,60,0,0
245613,-50,4,2,0,60,0,0
245988,-66.6666666666667,4,2,0,60,0,0
251238,-60.6060606060606,4,2,0,60,0,0
258925,-66.6666666666667,4,2,0,60,0,0
263988,-76.9230769230769,4,2,0,25,0,0
269613,-133.333333333333,4,2,0,25,0,0
271113,-76.9230769230769,4,2,0,25,0,0
275425,-133.333333333333,4,2,0,25,0,0
284988,-133.333333333333,4,2,0,20,0,0
288175,-66.6666666666667,4,2,0,60,0,0
288738,-66.6666666666667,4,2,0,60,0,0
303363,-66.6666666666667,4,2,0,30,0,0
304488,-66.6666666666667,4,2,0,60,0,0
309363,-60.6060606060606,4,2,0,60,0,0
309925,-55.5555555555556,4,2,0,60,0,0
310675,-66.6666666666667,4,2,0,60,0,0
311519,-50,4,2,0,60,0,0
315738,-40,4,2,0,60,0,0
316113,-50,4,2,0,60,0,0
322488,-40,4,2,0,60,0,0
323988,-50,4,2,0,60,0,0
324738,-62.5,4,2,0,60,0,0
328488,-66.6666666666667,4,2,0,60,0,1
328581,-66.6666666666667,4,2,0,60,0,0
328956,-40,4,2,0,70,0,0
329613,-50,4,2,0,70,0,0
329988,-66.6666666666667,4,2,0,70,0,0
330550,-40,4,2,0,70,0,0
331019,-50,4,2,0,70,0,0
332238,-40,4,2,0,70,0,0
332613,-50,4,2,0,70,0,0
333269,-66.6666666666667,4,2,0,70,0,0
333738,-40,4,2,0,70,0,0
334488,-66.6666666666667,4,2,0,70,0,0
334956,-40,4,2,0,70,0,0
335988,-66.6666666666667,4,2,0,70,0,0
336738,-40,4,2,0,70,0,0
336925,-66.6666666666667,4,2,0,70,0,0
337581,-50,4,2,0,70,0,0
337769,-40,4,2,0,70,0,0
337956,-50,4,2,0,70,0,0
338238,-66.6666666666667,4,2,0,70,0,0
338519,-50,4,2,0,70,0,0
338800,-66.6666666666667,4,2,0,70,0,0
339269,-40,4,2,0,70,0,0
339738,-50,4,2,0,70,0,0
340300,-40,4,2,0,70,0,0
340956,-33.3333333333333,4,2,0,70,0,0
341238,-50,4,2,0,70,0,0
341519,-33.3333333333333,4,2,0,70,0,0
341800,-40,4,2,0,70,0,0
341988,-66.6666666666667,4,2,0,70,0,0
342550,-50,4,2,0,70,0,0
343019,-40,4,2,0,70,0,0
343300,-33.3333333333333,4,2,0,70,0,0
343488,-28.5714285714286,4,2,0,70,0,0
344238,-50,4,2,0,70,0,0
344613,-40,4,2,0,70,0,0
344988,-66.6666666666667,4,2,0,70,0,0
345644,-50,4,2,0,70,0,0
346675,-66.6666666666667,4,2,0,70,0,0
347238,-33.3333333333333,4,2,0,70,0,0
347988,-50,4,2,0,80,0,0
348925,-66.6666666666667,4,2,0,80,0,0
349488,-50,4,2,0,80,0,0
349769,-40,4,2,0,80,0,0
349956,-50,4,2,0,80,0,0
350238,-66.6666666666667,4,2,0,80,0,0
350519,-50,4,2,0,80,0,0
350800,-66.6666666666667,4,2,0,80,0,0
351363,-28.5714285714286,4,2,0,80,0,0
351644,-50,4,2,0,80,0,0
353988,-66.6666666666667,4,2,0,80,0,0
354550,-50,4,2,0,80,0,0
358300,-28.5714285714286,4,2,0,80,0,0
358488,-50,4,2,0,80,0,0
359519,-100,4,2,0,80,0,0
359988,-66.6666666666667,4,2,0,80,0,0
360363,-50,4,2,0,80,0,0
360925,-66.6666666666667,4,2,0,80,0,0
361488,-50,4,2,0,80,0,0
361863,-33.3333333333333,4,2,0,80,0,0
362613,-66.6666666666667,4,2,0,80,0,0
363175,-28.5714285714286,4,2,0,80,0,0
364488,-40,4,2,0,80,0,0
368988,-66.6666666666667,4,2,0,80,0,0
369363,-50,4,2,0,80,0,0
370206,-50,4,2,0,80,0,0
371800,-66.6666666666667,4,2,0,80,0,0
372175,-33.3333333333333,4,2,0,80,0,0
372925,-50,4,2,0,80,0,0
373488,-66.6666666666667,4,2,0,80,0,0
374050,-40,4,2,0,80,0,0
374238,-50,4,2,0,80,0,0
374425,-40,4,2,0,80,0,0
374894,-66.6666666666667,4,2,0,80,0,0
375363,-50,4,2,0,80,0,0
375831,-66.6666666666667,4,2,0,80,0,0
376113,-66.6666666666667,4,2,0,80,0,0
376488,-50,4,2,0,80,0,0
377613,-100,4,2,0,80,0,0
377988,-33.3333333333333,4,2,0,80,0,0
378363,-50,4,2,0,80,0,0
380800,-66.6666666666667,4,2,0,80,0,0
381175,-33.3333333333333,4,2,0,80,0,0
381550,-50,4,2,0,80,0,0
382488,-66.6666666666667,4,2,0,80,0,0
383519,-50,4,2,0,80,0,0
383800,-66.6666666666667,4,2,0,80,0,0
384363,-50,4,2,0,80,0,0
384831,-66.6666666666667,4,2,0,80,0,0
385113,-50,4,2,0,80,0,0
385769,-66.6666666666667,4,2,0,80,0,0
386238,-50,4,2,0,80,0,0
386988,-33.3333333333333,4,2,0,80,0,0
387550,-66.6666666666667,4,2,0,80,0,0
387925,-50,4,2,0,80,0,0
389800,-66.6666666666667,4,2,0,80,0,0
390175,-33.3333333333333,4,2,0,80,0,0
390550,-50,4,2,0,80,0,0
391488,-33.3333333333333,4,2,0,70,0,0
392144,-50,4,2,0,70,0,0
393363,-33.3333333333333,4,2,0,70,0,0
394113,-50,4,2,0,60,0,0
395613,-100,4,2,0,60,0,0
395988,-33.3333333333333,4,2,0,60,0,0
396550,-50,4,2,0,50,0,0
398613,-66.6666666666667,4,2,0,50,0,0
399175,-40,4,2,0,50,0,0
400488,-40,4,2,0,40,0,0
401144,-66.6666666666667,4,2,0,40,0,0
402363,-40,4,2,0,40,0,0
403394,-66.6666666666667,4,2,0,40,0,0
403769,-200,4,2,0,40,0,0
404613,-100,4,2,0,40,0,0
404988,-50,4,2,0,30,0,0
405925,-83.3333333333333,4,2,0,30,0,0
407238,-83.3333333333333,4,2,0,25,0,0
408175,-50,4,2,0,25,0,0
409488,-66.6666666666667,4,2,0,20,0,0
412113,-55.5555555555556,4,2,0,20,0,0
414925,-100,4,2,0,20,0,0
415488,-100,4,2,0,5,0,0
415675,-100,4,2,0,20,0,0
416613,-100,4,2,0,10,0,0
416800,-100,4,2,0,20,0,0
417175,-100,4,2,0,10,0,0
418488,-111.111111111111,4,2,0,15,0,0
419988,-125,4,2,0,10,0,0
421488,-142.857142857143,4,2,1,5,0,0

[Colours]
Combo1 : 118,135,152
Combo2 : 220,201,165
Combo3 : 141,141,226
Combo4 : 132,255,255
Combo5 : 153,251,106
Combo6 : 255,0,51
Combo7 : 255,121,0
Combo8 : 178,178,178

[HitObjects]
256,192,26988,12,0,29613,0:0:0:0:
32,44,29988,6,0,P|84:48|148:144,1,150.000005722046,6|0,1:2|0:0,0:0:0:0:
145,117,30456,1,0,0:0:0:0:
145,117,30550,1,8,0:3:0:0:
41,258,30738,2,0,P|28:227|57:140,1,119.999996337891,8|2,1:2|0:0,0:0:0:0:
123,319,31300,1,8,0:3:0:0:
123,319,31675,5,8,0:3:0:0:
123,319,31769,1,0,0:0:0:0:
123,319,31863,2,0,L|212:307,1,75.0000028610231,0|8,1:2|0:3,0:0:0:0:
353,362,32238,2,0,P|386:344|479:349,2,112.500004291535,6|2|0,3:0|0:0|0:0,0:0:0:0:
252,192,33175,101,4,3:0:0:0:
252,192,33269,1,0,0:0:0:0:
252,192,33363,2,0,P|280:211|300:269,1,75.0000028610231,2|0,3:0|0:0,0:0:0:0:
465,163,33738,2,0,P|422:188|393:252,2,112.500004291535,10|2|8,0:0|0:0|0:3,0:0:0:0:
332,28,34488,5,0,0:0:0:0:
358,121,34675,2,0,P|308:122|222:60,1,150.000005722046,2|4,0:0|0:3,0:0:0:0:
118,143,35238,1,8,1:2:0:0:
62,52,35425,1,2,0:0:0:0:
62,52,35519,1,0,0:0:0:0:
62,52,35613,1,2,0:0:0:0:
132,127,35800,1,0,0:0:0:0:
21,307,35988,102,0,P|35:253|75:214,2,112.500004291535,2|0|4,0:0|0:0|0:3,0:0:0:0:
266,281,36738,2,2,B|189:255|200:328|125:302,1,150.000005722046,10|0,0:0|0:0,0:0:0:0:
343,360,37300,1,2,0:0:0:0:
343,360,37675,5,2,0:0:0:0:
343,360,37768,1,0,0:0:0:0:
343,360,37862,1,0,1:2:0:0:
442,350,38050,1,8,0:3:0:0:
373,269,38238,2,0,P|369:231|379:195,1,75.0000028610231,6|0,0:3|0:0,0:0:0:0:
393,187,38519,2,0,P|396:224|386:260,1,75.0000028610231,10|0,0:3|0:0,0:0:0:0:
384,280,38800,1,4,0:3:0:0:
496,33,39175,101,2,0:0:0:0:
496,33,39269,1,0,0:0:0:0:
496,33,39363,2,0,L|421:23,1,75.0000028610231,6|0,3:0|0:0,0:0:0:0:
278,116,39738,2,0,P|280:78|296:44,1,75.0000028610231,8|0,0:0|0:0,0:0:0:0:
311,38,40019,2,0,P|308:75|292:109,1,75.0000028610231,4|0,0:3|0:0,0:0:0:0:
286,128,40300,1,0,3:0:0:0:
293,143,40394,1,0,3:0:0:0:
299,157,40488,5,0,3:0:0:0:
215,252,40675,1,2,0:0:0:0:
188,220,40769,1,0,0:0:0:0:
183,182,40863,1,4,3:0:0:0:
195,74,41050,1,0,0:0:0:0:
34,50,41238,2,0,P|60:95|122:120,1,89.9999972534181,8|0,0:0|0:0,0:0:0:0:
105,121,41519,2,0,P|53:121|0:162,1,89.9999972534181,2|0,0:0|0:0,0:0:0:0:
9,151,41800,1,0,0:0:0:0:
66,371,41988,101,4,0:0:0:0:
157,334,42175,1,2,0:0:0:0:
164,350,42269,1,8,0:0:0:0:
262,350,42456,1,2,0:0:0:0:
269,366,42550,1,4,3:0:0:0:
426,252,42738,5,12,1:3:0:0:
335,215,42925,1,2,0:0:0:0:
328,231,43019,1,8,0:0:0:0:
230,231,43206,1,2,0:0:0:0:
223,247,43300,1,4,3:0:0:0:
60,124,43488,101,0,0:0:0:0:
151,87,43675,1,2,0:0:0:0:
158,103,43769,1,8,0:0:0:0:
256,103,43956,1,2,0:0:0:0:
263,119,44050,1,4,0:3:0:0:
472,192,44238,22,0,L|416:192,1,55,14|0,1:2|0:0,0:0:0:0:
341,378,46488,86,0,P|317:335|341:239,1,150.000005722046,6|0,0:0|0:0,0:0:0:0:
412,308,47050,1,4,3:0:0:0:
327,149,47238,2,0,P|281:154|228:214,2,112.500004291535,8|8|0,1:2|0:0|0:0,0:0:0:0:
465,42,47988,6,0,P|418:54|349:38,1,112.500004291535,2|0,0:0|0:0,0:0:0:0:
336,29,48363,1,2,0:0:0:0:
233,197,48550,1,4,3:0:0:0:
272,116,48738,2,0,P|231:106|184:120,1,75.0000028610231,10|0,0:0|0:0,0:0:0:0:
187,91,49019,2,0,P|150:69|127:25,1,75.0000028610231,2|0,0:3|0:0,0:0:0:0:
121,21,49300,1,8,0:3:0:0:
28,302,49675,101,2,0:0:0:0:
28,302,49769,1,0,3:0:0:0:
28,302,49863,1,4,0:0:0:0:
71,223,50050,1,2,0:0:0:0:
157,248,50238,1,8,0:0:0:0:
163,264,50331,1,2,0:0:0:0:
127,347,50519,1,2,0:0:0:0:
132,364,50613,2,0,B|210:336|168:285|273:266,1,150.000005722046,2|4,3:0|3:0,0:0:0:0:
341,337,51175,5,2,0:0:0:0:
347,351,51269,2,0,P|374:287|370:196,1,150.000005722046,2|0,3:0|0:0,0:0:0:0:
364,189,51738,1,8,1:2:0:0:
278,26,51925,1,2,0:0:0:0:
278,26,52300,1,0,3:0:0:0:
278,26,52394,1,0,3:0:0:0:
278,26,52488,101,4,3:0:0:0:
233,121,52675,2,0,P|192:169|104:199,1,150.000005722046,2|0,0:0|0:0,0:0:0:0:
9,191,53238,1,8,1:2:0:0:
20,13,53425,22,2,P|37:39|34:103,1,93.7500035762788,2|0,0:0|0:0,0:0:0:0:
52,110,53988,86,2,P|134:92|173:-12,1,179.999994506836,4|0,0:0|0:0,0:0:0:0:
148,183,54738,2,0,P|189:222|217:225,1,59.9999981689454,8|0,0:0|0:0,0:0:0:0:
281,106,55113,2,0,P|264:170|275:196,1,75.0000028610231,4|0,3:0|0:0,0:0:0:0:
463,109,55488,37,2,3:0:0:0:
348,209,55675,2,0,P|385:184|429:183,1,89.9999972534181,2|4,0:1|0:3,0:0:0:0:
294,360,56050,101,2,0:0:0:0:
404,349,56238,1,8,1:2:0:0:
404,349,56425,2,0,P|387:316|357:295,2,75.0000028610231,2|2|0,0:1|0:0|0:0,0:0:0:0:
256,381,56988,86,0,L|272:243,2,119.999996337891,4|2|8,3:0|0:0|0:0,0:0:0:0:
166,228,57925,2,0,L|178:309,2,75.0000028610231,2|4|0,0:0|0:3|0:0,0:0:0:0:
256,381,58488,37,2,3:0:0:0:
18,333,58675,1,2,0:1:0:0:
18,333,58863,2,0,P|45:298|87:284,1,89.9999972534181,6|0,3:0|0:0,0:0:0:0:
176,302,59144,1,0,0:0:0:0:
176,302,59238,1,8,1:2:0:0:
156,143,59425,2,0,L|142:76,2,44.999998626709,2|0|0,0:0|0:0|0:0,0:0:0:0:
156,143,59988,70,0,P|225:173|247:230,1,119.999996337891,6|0,0:0|0:0,0:0:0:0:
293,283,60550,1,2,0:0:0:0:
420,279,60738,2,0,P|388:310|355:319,1,59.9999981689454,8|0,1:2|0:0,0:0:0:0:
339,121,61113,2,0,P|355:174|348:201,1,75.0000028610231,8|0,0:3|0:0,0:0:0:0:
133,80,61488,37,2,3:0:0:0:
243,208,61675,2,0,P|201:169|147:168,1,89.9999972534181,2|4,0:1|3:0,0:0:0:0:
49,371,62050,101,2,0:0:0:0:
105,246,62238,2,0,P|69:257|44:284,2,75.0000028610231,8|2|2,0:0|0:1|0:0,0:0:0:0:
105,246,62800,1,0,0:0:0:0:
281,326,62988,86,0,L|407:349,2,119.999996337891,6|2|8,3:0|0:0|1:2,0:0:0:0:
429,235,63925,2,0,L|339:253,2,75.0000028610231,2|4|0,0:0|3:0|0:0,0:0:0:0:
431,15,64488,37,2,3:0:0:0:
458,154,64675,1,2,0:1:0:0:
458,154,64863,2,0,P|455:198|430:234,1,89.9999972534181,4|0,0:3|0:0,0:0:0:0:
296,37,65238,102,0,P|240:44|200:94,1,89.9999972534181,10|0,1:2|0:0,0:0:0:0:
215,64,65519,1,0,0:0:0:0:
215,64,65613,1,2,0:0:0:0:
63,44,65800,1,0,0:0:0:0:
63,44,65894,1,0,0:0:0:0:
63,44,65988,86,0,P|119:69|134:149,1,119.999996337891,4|0,0:0|0:0,0:0:0:0:
86,191,66550,1,2,0:0:0:0:
186,303,66738,2,0,P|227:270|237:241,1,59.9999981689454,8|0,1:2|0:0,0:0:0:0:
349,293,67113,2,0,P|330:243|298:220,1,75.0000028610231,4|0,3:0|0:0,0:0:0:0:
459,73,67488,21,2,3:0:0:0:
301,140,67675,2,0,P|341:121|385:125,1,89.9999972534181,2|4,0:1|3:0,0:0:0:0:
163,5,68050,5,2,0:0:0:0:
214,129,68238,2,0,P|213:91|230:58,2,75.0000028610231,10|2|0,1:2|0:1|0:0,0:0:0:0:
214,129,68800,1,0,0:0:0:0:
106,188,68988,69,6,3:0:0:0:
106,188,69363,1,2,0:0:0:0:
106,188,69738,1,8,1:2:0:0:
258,214,69925,2,0,L|184:228,2,75.0000028610231,2|4|0,0:0|3:0|0:0,0:0:0:0:
50,258,70488,37,2,3:0:0:0:
165,381,70675,1,2,0:1:0:0:
165,381,70863,2,0,P|132:327|134:280,1,89.9999972534181,4|0,0:0|0:0,0:0:0:0:
265,213,71238,1,8,1:2:0:0:
54,262,71425,2,0,L|-19:273,2,44.999998626709,2|0|0,0:0|0:0|0:0,0:0:0:0:
54,262,71988,70,0,P|70:193|115:162,1,119.999996337891,6|0,0:0|0:0,0:0:0:0:
289,84,72550,1,0,0:0:0:0:
169,104,72738,2,0,P|209:133|234:136,1,59.9999981689454,8|0,1:2|0:0,0:0:0:0:
392,89,73113,2,0,P|363:129|357:162,1,75.0000028610231,4|0,3:0|0:0,0:0:0:0:
503,329,73488,21,2,0:0:0:0:
338,291,73675,2,0,P|374:302|416:342,1,89.9999972534181,2|4,0:1|3:0,0:0:0:0:
156,195,74050,5,2,0:0:0:0:
164,335,74238,2,0,P|189:307|200:272,2,75.0000028610231,8|2|0,1:2|0:1|0:0,0:0:0:0:
164,335,74800,1,0,0:0:0:0:
138,174,74988,70,0,L|277:194,2,119.999996337891,4|0|8,3:0|0:0|1:2,0:0:0:0:
275,91,75925,2,0,L|212:103,2,50,2|4|0,0:0|3:0|0:0,0:0:0:0:
421,187,76488,86,0,P|391:163|355:154,2,75.0000028610231,0|4|8,0:0|3:0|1:2,0:0:0:0:
40,307,77613,101,2,0:0:0:0:
77,285,77706,1,0,0:0:0:0:
70,266,77800,101,0,0:0:0:0:
124,290,77894,1,0,0:0:0:0:
96,371,77988,70,2,B|78:284|78:284|84:271|84:271|63:171,1,200,4|0,0:0|0:0,0:0:0:0:
64,176,78550,1,2,0:0:0:0:
279,108,78738,6,0,P|229:141|198:212,1,125,2|0,1:0|0:0,0:0:0:0:
182,195,79019,2,0,P|178:135|132:72,1,125,6|0,3:0|0:0,0:0:0:0:
72,42,79300,21,2,0:0:0:0:
149,67,79394,1,2,0:0:0:0:
340,13,79675,69,2,0:0:0:0:
340,13,79769,1,0,0:0:0:0:
340,13,79863,1,0,1:0:0:0:
301,111,80050,1,2,0:0:0:0:
491,181,80238,6,0,P|431:135|406:74,1,125,2|0,1:0|0:0,0:0:0:0:
426,90,80519,2,0,P|416:164|375:217,1,125,6|0,3:0|0:0,0:0:0:0:
311,252,80800,21,2,0:0:0:0:
392,222,80894,1,2,0:0:0:0:
134,301,81175,70,0,L|204:312,1,62.5,0|0,1:0|0:0,0:0:0:0:
208,326,81363,1,2,3:0:0:0:
331,379,81550,1,8,0:3:0:0:
195,204,81738,6,0,P|226:146|295:112,1,125,2|0,1:0|0:0,0:0:0:0:
273,92,82019,2,0,P|207:94|143:51,1,125,6|0,3:0|0:0,0:0:0:0:
95,10,82300,21,2,0:0:0:0:
145,82,82394,1,0,0:0:0:0:
112,347,82675,69,2,0:1:0:0:
112,347,82769,1,0,0:0:0:0:
112,347,82863,2,0,B|108:315|108:315|120:287,1,62.5
201,381,83050,2,0,B|223:359|223:359|232:329,1,62.5,8|0,1:3|0:0,0:0:0:0:
207,212,83238,54,2,B|178:195|178:195|327:169,1,150.000005722046,2|0,1:0|0:0,0:3:0:0:
461,85,83519,2,2,P|405:136|402:255,1,150.000005722046,6|0,3:0|0:0,0:3:0:0:
346,345,83800,1,2,0:0:0:0:
335,334,83894,1,0,0:0:0:0:
349,328,83988,54,2,B|335:243|335:243|343:233|343:233|320:74,1,250,4|0,1:2|0:0,0:0:0:0:
321,83,84550,2,0,P|336:52|378:29,1,62.5,2|0,0:1|0:0,0:0:0:0:
449,209,84738,6,2,B|343:260|317:137|211:199,1,250,6|0,3:0|0:0,0:0:0:0:
90,365,85300,1,2,0:0:0:0:
90,365,85394,1,0,0:0:0:0:
90,365,85488,38,2,P|132:343|123:257,1,125,4|0,0:0|0:0,0:3:0:0:
14,177,85769,2,0,P|36:197|67:203,2,62.5,2|8|0,3:0|0:3|0:0,0:0:0:0:
190,109,86050,2,0,P|160:118|140:141,1,62.5,8|0,3:0|0:0,0:0:0:0:
300,242,86238,2,0,P|214:218|230:161,1,125,2|0,1:2|0:0,0:0:0:0:
337,149,86519,1,0,0:0:0:0:
337,149,86613,70,2,P|320:291|211:198,1,350.00000333786,6|0,3:0|3:0,0:3:0:0:
458,35,87175,102,0,P|440:61|432:96,2,50,2|0|0,0:3|0:0|0:0,0:0:0:0:
470,173,87456,37,2,0:1:0:0:
433,98,87550,1,2,0:0:0:0:
431,354,87738,6,0,P|398:307|395:244,1,100,4|0,3:0|0:0,0:0:0:0:
349,185,88019,2,0,B|334:252|334:252|339:269|339:269|321:346,1,150.000005722046,4|0,0:0|0:0,0:0:0:0:
257,201,88300,2,0,P|266:144|309:97,1,100,2|0,0:0|0:0,0:0:0:0:
168,15,88581,2,0,L|183:137,1,100,2|2,0:1|0:3,0:0:0:0:
176,136,88863,1,8,0:3:0:0:
0,104,89050,70,0,B|35:105|35:105|78:75,1,75.0000028610231,2|0,0:0|0:0,0:0:0:0:
121,237,89425,1,0,3:0:0:0:
121,237,89519,1,0,3:0:0:0:
121,237,89613,21,2,0:0:0:0:
80,255,89706,1,0,0:0:0:0:
90,274,89800,5,2,0:0:0:0:
36,281,89894,1,0,0:0:0:0:
115,350,89988,54,2,P|89:260|-2:196,1,200,4|0,0:0|0:0,0:0:0:0:
6,198,90550,1,4,3:0:0:0:
162,23,90738,6,0,B|155:82|155:82|158:93|158:93|150:151,1,125,2|0,1:0|0:0,0:0:0:0:
165,158,91019,2,0,B|219:134|219:134|227:126|227:126|281:104,1,125,6|0,3:0|0:0,0:0:0:0:
328,35,91300,21,2,0:0:0:0:
292,119,91394,1,2,0:0:0:0:
483,186,91675,69,2,0:0:0:0:
483,186,91769,1,0,0:0:0:0:
483,186,91863,1,0,1:0:0:0:
469,52,92050,1,0,0:0:0:0:
329,276,92238,6,0,B|382:283|382:283|393:280|393:280|452:287,1,125,2|0,1:0|0:0,0:0:0:0:
438,301,92519,2,0,B|417:250|417:250|409:242|409:242|386:188,1,125,6|0,3:0|0:0,0:0:0:0:
374,100,92800,21,2,0:0:0:0:
368,180,92894,1,0,0:0:0:0:
350,137,92988,5,12,3:0:0:0:
246,317,93269,53,2,0:3:0:0:
246,317,93363,2,0,B|233:283|233:283|255:205,1,100,2|0,0:0|0:0,0:0:0:0:
176,372,93738,6,0,B|154:322|154:322|146:314|146:314|122:260,1,125,2|0,1:0|0:0,0:0:0:0:
135,245,94019,2,0,B|76:239|76:239|65:242|65:242|12:236,1,125,6|0,3:0|0:0,0:0:0:0:
58,327,94300,21,2,0:0:0:0:
13,255,94394,1,2,0:0:0:0:
21,306,94488,5,4,3:0:0:0:
19,37,94675,54,0,P|23:68|35:97,1,62.5,2|0,0:1|0:0,0:0:0:0:
121,162,94863,2,0,B|128:131|128:131|142:103,1,62.5,2|0,0:0|0:0,0:0:0:0:
304,30,95050,1,0,0:0:0:0:
304,30,95144,1,0,0:0:0:0:
304,30,95238,54,0,B|330:59|330:59|203:35,1,150.000005722046,2|0,1:0|0:0,0:0:0:0:
237,135,95519,2,2,P|318:76|410:100,1,150.000005722046,6|0,3:0|0:0,0:3:0:0:
504,25,95800,1,2,0:0:0:0:
493,39,95894,1,0,0:0:0:0:
480,22,95988,54,2,B|416:80|496:139|393:217,1,200,4|0,0:0|0:0,0:0:0:0:
290,247,96550,2,0,P|282:201|297:158,1,89.9999972534181,2|0,0:3|0:0,0:0:0:0:
249,350,96925,1,2,0:0:0:0:
249,350,97300,1,0,3:0:0:0:
249,350,97394,1,0,3:0:0:0:
249,350,97488,2,0,L|346:342,1,89.9999972534181,2|0,0:0|0:0,0:0:0:0:
465,384,97863,86,0,L|476:340,3,44.999998626709,0|0|0|0,3:0|3:0|3:0|3:0,3:0:0:0:
471,322,98238,2,0,L|482:278,3,44.999998626709,0|0|0|0,3:0|3:0|3:0|3:0,3:0:0:0:
477,260,98613,2,0,L|488:216,3,44.999998626709,0|0|0|0,3:0|3:0|3:0|3:0,3:0:0:0:
383,291,98988,22,0,L|396:240,3,50,0|0|0|0,3:0|3:0|3:0|3:0,3:0:0:0:
391,218,99363,2,0,L|404:167,3,50,0|0|0|0,3:0|3:0|3:0|3:0,3:0:0:0:
398,145,99738,2,0,L|411:94,3,50,0|0|0|0,3:0|3:0|3:0|3:0,3:0:0:0:
405,72,100113,2,0,L|418:21,3,50,0|0|0|0,3:0|3:0|3:0|3:0,3:0:0:0:
300,131,100488,86,0,L|316:68,3,55.0000016784668,0|0|0|0,3:0|3:0|3:0|3:0,3:0:0:0:
301,60,100863,2,0,L|317:-2,3,59.9999981689454,0|0|0|0,3:0|3:0|3:0|3:0,3:0:0:0:
208,77,101238,21,8,1:2:0:0:
36,259,101425,69,2,0:0:0:0:
28,224,101519,1,0,0:0:0:0:
54,209,101613,1,2,0:0:0:0:
66,170,101706,1,0,0:0:0:0:
41,154,101800,1,2,0:0:0:0:
24,112,101894,1,0,0:0:0:0:
22,15,101988,69,4,3:0:0:0:
22,15,102175,2,0,P|87:30|108:100,1,119.999996337891,2|0,0:1|0:0,0:0:0:0:
277,119,102738,2,2,P|207:137|165:241,1,179.999994506836,10|0,1:2|0:0,0:3:0:0:
163,229,103300,1,2,0:0:0:0:
163,229,103675,53,0,0:0:0:0:
163,229,103769,1,0,0:0:0:0:
163,229,103863,2,0,L|243:243,1,59.9999981689454,8|0,0:3|0:0,0:0:0:0:
319,266,104238,1,8,1:2:0:0:
319,266,104425,53,2,0:0:0:0:
319,266,104519,1,0,0:0:0:0:
319,266,104613,2,0,P|337:321|390:345,1,89.9999972534181,2|2,0:1|0:1,0:0:0:0:
361,338,105175,53,8,0:3:0:0:
447,318,105363,2,0,L|453:365,2,29.9999990844727,8|0|0,0:3|0:0|0:0,0:0:0:0:
471,137,105738,2,2,P|460:201|406:239,1,134.999995880127,8|0,1:2|0:0,0:3:0:0:
406,239,106113,1,2,3:0:0:0:
342,185,106300,1,0,0:0:0:0:
264,220,106488,53,2,0:0:0:0:
264,220,106675,2,0,L|192:231,1,59.9999981689454
119,244,107050,1,4,0:3:0:0:
252,67,107238,53,8,1:2:0:0:
132,30,107425,1,2,0:1:0:0:
166,47,107519,1,2,0:0:0:0:
126,46,107613,1,2,0:1:0:0:
256,71,107988,53,2,0:0:0:0:
256,71,108363,2,0,P|262:102|294:128,1,59.9999981689454,2|4,3:0|3:0,0:0:0:0:
414,209,108738,2,2,P|390:286|299:307,1,179.999994506836,8|0,1:2|0:0,0:3:0:0:
301,307,109300,1,2,0:0:0:0:
301,307,109675,53,2,0:0:0:0:
301,307,109769,1,0,0:0:0:0:
301,307,109863,2,0,L|225:325,2,59.9999981689454,4|2|8,0:3|0:0|1:2,0:0:0:0:
170,270,110425,2,0,P|127:238|119:210,1,59.9999981689454,2|4,0:1|3:0,0:0:0:0:
124,233,110800,1,2,0:0:0:0:
124,233,111175,53,2,0:1:0:0:
124,233,111269,1,0,0:0:0:0:
124,233,111363,1,8,0:3:0:0:
101,322,111550,1,2,0:0:0:0:
58,193,111738,1,2,1:0:0:0:
412,250,112113,53,6,0:3:0:0:
448,64,112300,1,2,0:1:0:0:
448,64,112675,53,0,0:0:0:0:
448,64,112769,1,0,0:0:0:0:
448,64,112863,2,0,P|410:82|396:116,1,59.9999981689454,2|0,0:1|0:0,0:0:0:0:
259,116,113238,2,2,P|305:131|336:217,2,134.999995880127,10|2|2,1:2|3:0|0:0,0:3:0:0:
115,255,113988,54,0,P|170:235|193:162,1,119.999996337891,6|0,0:0|0:0,0:0:0:0:
194,182,114550,1,4,3:0:0:0:
368,366,114738,2,2,P|295:353|262:262,1,179.999994506836,8|0,1:2|0:0,0:3:0:0:
384,382,115300,1,2,0:1:0:0:
384,382,115675,53,2,0:0:0:0:
384,382,115769,1,0,0:0:0:0:
384,382,115863,2,0,P|404:359|410:327,1,59.9999981689454,8|2,0:3|0:0,0:0:0:0:
256,192,116238,102,0,L|256:249,1,57.5,8|0,1:2|0:0,0:0:0:0:
256,336,118488,6,0,P|197:342|161:387,1,119.999996337891,12|2,0:0|0:0,0:0:0:0:
56,190,119050,1,8,0:3:0:0:
56,190,119144,1,0,0:0:0:0:
56,190,119238,2,0,P|77:246|169:261,1,134.999995880127,8|0,1:2|0:0,0:0:0:0:
143,269,119613,2,0,L|151:209,2,44.999998626709,2|0|0,0:1|0:0|0:0,0:0:0:0:
259,366,119988,54,2,B|250:320|250:320|252:309|252:309|219:86,1,269.999991760254,4|8,0:0|0:3,0:3:0:0:
342,299,120738,2,0,P|365:249|335:200,1,89.9999972534181,8|0,1:2|2:0,2:0:0:0:
374,237,121019,2,0,P|351:287|381:336,1,89.9999972534181,4|0,2:3|2:0,2:0:0:0:
361,317,121300,1,4,2:3:0:0:
361,317,121675,53,2,0:0:0:0:
361,317,121769,1,0,0:0:0:0:
361,317,121863,2,0,L|404:325,1,29.9999990844727,8|0,0:3|0:0,0:0:0:0:
359,222,122050,2,0,L|322:214,1,37.5000014305115,10|0,3:0|0:0,0:0:0:0:
404,141,122238,2,0,L|459:152,1,44.999998626709,8|0,1:2|0:0,0:0:0:0:
391,50,122425,54,0,L|309:33,1,59.9999981689454,2|2,0:1|0:1,0:0:0:0:
332,37,122988,53,8,0:3:0:0:
261,89,123175,1,2,0:0:0:0:
261,89,123269,1,0,0:0:0:0:
261,89,123363,1,2,0:3:0:0:
261,89,123738,54,0,P|214:111|202:136,1,59.9999981689454,8|0,1:2|0:0,0:0:0:0:
134,287,124113,1,2,0:1:0:0:
150,204,124300,2,0,P|132:163|94:138,1,89.9999972534181,2|4,0:1|3:0,0:0:0:0:
221,305,124675,2,0,P|258:278|273:212,2,89.9999972534181,2|8|8,0:1|0:3|0:3,0:0:0:0:
48,270,125238,53,12,1:2:0:0:
260,17,125988,54,0,B|325:80|272:122|324:179,1,179.999994506836,4|2,1:2|0:0,0:0:0:0:
414,214,126550,1,0,0:0:0:0:
414,214,126644,1,0,0:0:0:0:
414,214,126738,2,2,P|331:243|293:322,1,179.999994506836,2|0,0:1|0:0,0:0:0:0:
499,336,127300,38,0,P|461:307|380:323,1,119.999996337891,2|0,0:0|0:0,0:0:0:0:
216,365,127863,69,8,0:3:0:0:
209,266,128050,1,4,0:3:0:0:
228,371,128238,2,0,L|83:382,2,134.999995880127,8|2|2,1:2|0:3|0:0,0:0:0:0:
19,238,129175,2,0,L|81:254,1,44.999998626709,8|0,0:3|0:0,0:0:0:0:
80,266,129363,1,4,0:3:0:0:
172,222,129550,1,2,0:0:0:0:
15,132,129738,38,2,B|58:124|58:124|80:142|80:142|124:133|204:120,1,187.5,2|0,0:1|0:0,0:3:0:0:
210,129,130113,2,2,B|204:73|204:73|209:63|209:63|201:-2,1,125,2|2,3:0|3:0,3:0:0:0:
414,54,130488,70,0,P|360:72|296:185,1,179.999994506836,2|0,0:0|0:0,0:0:0:0:
485,146,131050,2,0,P|443:148|413:163,2,44.999998626709,2|0|8,0:3|0:0|1:2,0:0:0:0:
453,354,131425,1,2,0:0:0:0:
468,303,131519,1,0,0:0:0:0:
482,252,131613,2,2,B|404:266|433:326|348:350,1,157.499995193482,2|0,0:1|0:0,0:3:0:0:
339,351,131988,37,2,0:0:0:0:
264,283,132175,1,0,0:0:0:0:
264,283,132269,1,0,0:0:0:0:
264,283,132363,1,2,0:0:0:0:
61,350,132550,1,4,3:0:0:0:
156,365,132738,2,2,P|150:322|96:258,1,119.999996337891,8|0,1:2|0:0,0:3:0:0:
3,188,133300,2,0,P|46:182|110:128,1,119.999996337891,2|0,0:0|0:0,0:0:0:0:
240,38,133863,69,8,0:3:0:0:
260,145,134050,1,4,0:3:0:0:
219,26,134238,2,0,L|370:38,2,134.999995880127,8|2|2,1:2|0:0|0:1,0:0:0:0:
461,45,134988,37,0,0:0:0:0:
423,146,135175,1,2,0:0:0:0:
423,146,135269,1,0,0:0:0:0:
423,146,135363,1,8,0:3:0:0:
495,225,135550,1,4,0:3:0:0:
495,225,135738,70,0,P|476:248|467:276,1,59.9999981689454,10|0,1:2|0:0,0:0:0:0:
286,249,136113,1,4,3:0:0:0:
363,283,136300,2,0,P|386:321|384:366,1,89.9999972534181,2|0,0:1|0:0,0:0:0:0:
168,367,136675,2,0,P|205:340|220:274,2,89.9999972534181,6|4|8,3:0|3:0|0:3,0:0:0:0:
70,188,137238,38,2,B|123:223|123:223|136:305,1,119.999996337891,12|2,1:2|0:0,0:3:0:0:
132,279,137800,1,0,0:0:0:0:
0,384,137988,70,2,P|-3:338|44:275,1,119.999996337891,4|2,0:0|0:0,0:0:0:0:
12,20,138738,38,2,B|39:85|108:77|110:11|120:15|76:65|116:105|123:108|179:103|178:36|188:40|147:91|195:141|258:109,1,300,14|2,1:2|3:0,0:2:0:0:
482,19,139581,70,0,P|432:44|409:89,1,100,2|0,0:0|0:0,0:0:0:0:
408,100,139863,1,8,0:3:0:0:
490,164,140050,1,4,0:3:0:0:
424,292,140238,54,2,B|405:285|423:194|552:268|508:440|268:416|252:264,1,384.999988250733,2|0,0:0|0:0,0:0:0:0:
426,105,142488,54,0,P|413:151|278:176,1,179.999994506836,6|0,0:0|0:0,0:0:0:0:
261,106,142956,37,0,3:0:0:0:
267,76,143050,1,0,3:0:0:0:
284,48,143144,1,0,3:0:0:0:
268,7,143238,70,0,P|226:49|226:139,1,134.999995880127,2|0,1:0|0:0,0:0:0:0:
180,205,143613,1,2,0:0:0:0:
180,205,143706,1,0,0:0:0:0:
180,205,143800,1,2,0:0:0:0:
52,40,143988,37,2,0:0:0:0:
52,40,144175,2,0,P|50:96|84:151,1,119.999996337891,2|4,0:0|3:0,0:0:0:0:
118,298,144738,2,2,B|71:276|67:304|21:283,2,100,8|2|0,1:2|0:0|0:0,0:3:0:0:
204,357,145300,69,8,0:3:0:0:
204,357,145675,1,8,0:3:0:0:
204,357,145769,1,0,0:0:0:0:
204,357,145863,37,4,3:0:0:0:
197,338,145956,1,0,0:0:0:0:
200,313,146050,1,8,0:3:0:0:
214,286,146144,1,0,0:0:0:0:
243,267,146238,1,8,1:2:0:0:
282,265,146331,1,0,0:0:0:0:
318,289,146425,70,0,P|286:309|263:287,1,50,2|0,0:1|0:0,0:0:0:0:
405,294,146613,2,2,P|412:247|373:221,1,100,6|0,3:0|0:0,0:3:0:0:
503,104,146988,37,4,1:3:0:0:
503,104,147175,2,2,P|457:130|380:122,1,119.999996337891,2|0,3:0|0:0,0:0:0:0:
375,0,147738,70,0,P|356:23|345:48,1,50,8|0,1:2|0:0,0:0:0:0:
303,161,148113,1,2,0:0:0:0:
269,84,148300,2,0,P|231:61|192:62,1,64.9999970245363,2|0,0:0|1:0,0:0:0:0:
249,224,148675,2,0,P|309:244|367:220,1,129.999994049073,2|0,0:3|0:0,0:0:0:0:
481,87,149238,1,8,1:2:0:0:
134,119,149988,101,12,3:0:0:0:
59,158,150175,1,2,0:1:0:0:
189,184,150738,22,2,P|184:220|176:250,1,59.9999981689454,2|0,0:0|0:0,0:3:0:0:
263,139,151300,85,2,3:0:0:0:
409,165,152238,21,2,0:0:0:0:
329,193,152425,1,0,0:0:0:0:
263,139,152613,1,2,0:0:0:0:
457,237,153363,85,2,0:0:0:0:
409,165,153550,1,0,0:0:0:0:
329,193,153738,2,2,P|316:146|308:81,1,109.999996643066,2|0,0:0|0:0,0:3:0:0:
189,184,154675,21,2,0:0:0:0:
134,119,155238,2,2,P|89:126|52:175,1,89.9999972534181,2|2,3:0|0:0,0:3:0:0:
58,156,155988,1,2,0:0:0:0:
186,187,156363,85,2,3:0:0:0:
111,232,156550,1,0,0:0:0:0:
120,315,156738,1,2,0:0:0:0:
197,104,157488,21,2,0:0:0:0:
271,153,158425,86,0,P|335:173|340:173,1,59.9999981689454,2|0,0:3|0:0,0:0:0:0:
369,252,159175,21,0,0:0:0:0:
430,29,159738,86,0,P|380:62|324:80,1,119.999996337891,2|2,0:0|0:0,0:0:0:0:
324,80,160300,1,2,0:0:0:0:
305,169,160769,22,2,B|119:152|187:79|0:59,1,329.9999899292,2|0,0:0|0:0,0:0:0:0:
0,59,161988,1,2,0:1:0:0:
191,256,162738,86,0,P|135:274|74:331,1,119.999996337891,2|0,0:0|0:0,0:0:0:0:
87,312,163300,1,2,0:1:0:0:
356,251,163769,2,2,B|338:246|338:246|329:243|329:243|320:240|320:240|313:235|313:235|306:233|306:233|300:227|300:227|293:225|293:225|285:219|285:219|280:213|280:213|271:208|271:208|266:202|266:202|245:181,1,119.999996337891,2|0,3:0|0:0,3:2:0:0:
256,192,164238,12,2,166488,0:1:0:0:
113,72,167238,22,0,B|133:105|133:105|119:212,1,112.500004291535,2|0,3:0|0:0,0:0:0:0:
123,178,167613,2,0,L|118:215,1,37.5000014305115,2|0,0:3|0:0,0:0:0:0:
111,260,167800,2,0,B|93:283|93:283|85:328,1,75.0000028610231,2|2,0:0|3:0,0:0:0:0:
450,132,168738,86,2,B|412:138|412:138|406:146|406:146|203:183,1,225.000008583069,2|2,3:0|3:0,3:2:0:0:
232,177,169769,2,0,L|307:164,3,75.0000028610231,0|0|0|0,3:0|3:0|3:0|3:0,3:0:0:0:
309,168,170425,2,2,L|419:147,1,112.500004291535,2|0,2:0|0:0,3:2:0:0:
190,304,171175,21,2,0:0:0:0:
273,280,171738,85,2,3:0:0:0:
349,319,172113,21,2,0:3:0:0:
428,291,172300,1,2,0:3:0:0:
256,192,172394,12,0,173800,0:0:0:0:
256,192,188988,12,0,191613,0:0:0:0:
459,363,191988,102,0,B|500:307|468:216|362:196|304:285|340:364|408:368|449:337|444:304,1,328.249993488693,4|0,0:0|0:0,0:0:0:0:
442,318,193300,2,0,P|426:294|401:315,2,50.4999989982605,2|2|8,0:0|0:0|0:3,0:0:0:0:
215,346,194238,21,2,0:0:0:0:
138,331,194613,1,2,0:0:0:0:
61,315,194988,86,0,B|20:259|52:168|158:148|216:237|180:316|112:320|71:289|76:256,1,328.249993488693,4|0,0:0|0:0,0:0:0:0:
78,270,196300,2,0,P|94:246|119:267,2,50.4999989982605,2|2|8,0:0|0:0|0:3,0:0:0:0:
290,248,197238,21,2,0:0:0:0:
368,234,197613,2,0,L|425:224,1,50.4999989982605,2|0,0:0|0:0,0:0:0:0:
484,174,197988,86,0,B|505:148|495:114|474:98|446:94|426:108|426:108|405:125|369:133|344:108|310:72|349:10|415:3,1,328.249993488693,4|0,0:0|0:0,0:0:0:0:
396,7,199300,2,0,P|378:36|384:72,2,50.4999989982605,2|2|8,0:0|0:0|0:3,0:0:0:0:
193,202,200238,22,0,B|170:229|170:229|56:248,1,129.999994049073,2|0,0:0|0:0,0:0:0:0:
77,245,200988,86,0,B|56:219|66:185|87:169|115:165|135:179|135:179|156:196|192:204|217:176|251:143|212:81|144:71,1,328.249993488693,4|0,0:0|0:0,0:0:0:0:
165,77,202300,2,0,P|183:106|177:142,2,50.4999989982605,2|2|8,0:0|0:0|0:3,0:0:0:0:
354,237,203238,21,2,0:0:0:0:
366,159,203613,1,2,0:0:0:0:
374,79,203988,86,0,L|365:19,1,50.4999989982605,4|0,0:0|0:0,0:0:0:0:
293,90,204550,2,0,L|285:40,2,50.4999989982605,2|2|8,0:0|0:0|0:3,0:0:0:0:
312,335,205300,2,0,P|288:326|271:308,2,50.4999989982605,2|2|4,0:0|0:0|0:3,0:0:0:0:
158,147,206238,21,2,0:0:0:0:
146,225,206613,1,2,0:0:0:0:
138,305,206988,86,0,L|147:365,1,50.4999989982605,4|0,0:0|0:0,0:0:0:0:
219,294,207550,2,0,L|226:343,2,50.4999989982605,2|2|8,0:0|0:0|0:3,0:0:0:0:
200,49,208300,2,0,P|223:57|240:75,2,50.4999989982605,2|2|4,0:0|0:0|0:3,0:0:0:0:
177,125,208863,1,2,0:3:0:0:
375,67,209238,21,2,0:0:0:0:
451,43,209613,1,2,0:0:0:0:
498,110,209988,86,0,L|485:225,2,100.999997996521,4|2|0,0:0|0:0|0:0,0:0:0:0:
451,43,210925,1,2,0:0:0:0:
383,364,211300,2,0,P|359:357|339:343,2,50.4999989982605,2|2|4,0:0|0:0|0:3,0:0:0:0:
493,279,211863,21,2,3:0:0:0:
463,352,212050,1,2,0:0:0:0:
410,228,212425,1,2,0:0:0:0:
358,109,212800,1,2,0:0:0:0:
285,151,212988,86,0,L|149:136,2,115.000002193451,4|2|0,0:0|0:0|0:0,0:0:0:0:
358,109,213925,1,2,0:0:0:0:
182,274,214300,1,2,0:0:0:0:
268,282,214488,6,0,P|267:296|264:310,1,28.7500005483627,2|0,0:0|0:0,0:0:0:0:
200,362,214675,2,0,P|186:366|171:367,1,28.7500005483627,4|0,0:3|0:0,0:0:0:0:
102,322,214863,2,0,P|93:310|88:296,3,28.7500005483627,4|0|0|0,3:0|0:0|0:0|0:0,0:0:0:0:
109,216,215238,2,0,P|117:204|128:195,3,28.7500005483627,2|0|0|0,3:0|3:0|3:0|3:0,3:0:0:0:
211,189,215613,2,0,P|224:193|236:201,2,28.7500005483627,2|0|0,3:0|3:0|3:0,3:0:0:0:
289,274,215988,6,0,P|317:281|362:260,1,57.5000010967255,6|0,3:0|0:0,0:0:0:0:
463,285,216363,2,0,B|482:234|446:203|348:261|418:359,1,194.999991073609,2|4,3:0|0:3,0:0:0:0:
407,342,217300,2,0,P|447:346|465:385,2,64.9999970245363,2|2|4,0:0|0:3|3:0,0:0:0:0:
295,311,217863,102,0,L|289:357,1,32.4999985122681,2|0,1:3|0:0,0:0:0:0:
270,366,218050,2,0,L|254:222,1,129.999994049073,2|0,0:0|0:0,0:0:0:0:
331,172,218613,1,0,3:0:0:0:
336,125,218706,1,0,3:0:0:0:
294,142,218800,1,0,3:0:0:0:
281,52,218988,5,6,3:0:0:0:
214,103,219175,1,0,3:0:0:0:
203,18,219363,1,8,0:3:0:0:
134,67,219550,2,0,P|119:106|29:151,1,129.999994049073,4|0,0:3|0:0,0:0:0:0:
46,150,220300,2,0,P|65:119|97:118,2,64.9999970245363,2|2|4,0:0|0:3|0:3,0:0:0:0:
140,247,220863,102,0,L|133:284,1,32.4999985122681,2|0,0:1|0:0,0:0:0:0:
109,260,221050,2,0,L|261:284,1,129.999994049073,4|4,0:3|0:3,0:0:0:0:
152,372,221613,5,0,3:0:0:0:
106,357,221706,1,0,3:0:0:0:
62,383,221800,1,0,3:0:0:0:
237,280,221988,102,0,P|247:330|271:360,1,64.9999970245363,6|0,0:3|0:0,0:0:0:0:
386,283,222363,2,0,B|405:334|360:369|271:307|348:202,1,194.999991073609,6|6,0:3|0:3,0:0:0:0:
333,226,223300,2,0,P|305:197|273:217,2,64.9999970245363,2|2|4,0:0|0:3|0:3,0:0:0:0:
442,120,223863,6,0,L|481:125,1,32.4999985122681,2|0,0:1|0:0,0:0:0:0:
493,96,224050,2,0,L|365:127,1,129.999994049073,4|4,0:3|0:3,0:0:0:0:
258,17,224613,1,0,3:0:0:0:
286,50,224706,1,0,3:0:0:0:
272,92,224800,1,0,3:0:0:0:
190,69,224988,101,6,0:3:0:0:
210,150,225175,1,2,0:0:0:0:
158,217,225363,2,0,P|127:177|126:144,1,64.9999970245363,2|0,3:0|0:0,0:0:0:0:
95,45,225738,1,4,0:3:0:0:
63,72,225831,1,0,0:0:0:0:
49,112,225925,1,0,0:0:0:0:
49,112,226300,2,0,P|25:82|28:51,2,64.9999970245363,2|2|4,0:0|0:3|0:3,0:0:0:0:
10,245,226863,6,0,L|54:238,1,32.4999985122681,2|0,0:1|0:1,0:0:0:0:
60,218,227050,2,0,L|38:358,1,129.999994049073,4|4,0:3|0:3,0:0:0:0:
131,381,227613,1,2,0:0:0:0:
146,357,227706,1,0,3:0:0:0:
170,341,227800,1,0,3:0:0:0:
196,336,227894,1,0,3:0:0:0:
228,339,227988,102,0,P|258:352|292:382,1,64.9999970245363,6|0,3:0|0:0,0:0:0:0:
355,220,228363,2,0,P|328:251|233:234,1,129.999994049073,6|0,3:0|0:0,0:0:0:0:
371,358,228925,2,0,P|384:328|414:294,1,64.9999970245363,2|0,3:0|0:0,0:0:0:0:
506,365,229300,6,0,P|492:353|501:314,2,50,2|0|2,0:0|0:0|3:0,0:0:0:0:
469,233,229675,1,4,3:0:0:0:
492,89,229863,102,0,L|481:141,1,50,2|0,0:1|0:0,0:0:0:0:
495,156,230050,2,0,L|464:-1,1,150.000005722046,4|4,3:0|3:0,0:0:0:0:
341,123,230613,1,2,3:0:0:0:
351,75,230706,1,0,3:0:0:0:
359,28,230800,1,0,3:0:0:0:
244,81,230988,5,6,3:0:0:0:
244,178,231175,1,0,0:0:0:0:
326,230,231363,2,0,P|279:227|197:317,1,150.000005722046,6|0,3:0|0:0,0:0:0:0:
84,306,231925,2,0,P|131:338|146:385,1,75.0000028610231,6|2,0:3|0:1,0:0:0:0:
126,199,232300,2,0,P|95:211|82:154,2,100,2|2|4,0:0|3:0|3:0,0:0:0:0:
33,60,232863,102,0,L|105:51,1,50,2|0,0:1|0:0,0:0:0:0:
76,31,233050,2,0,L|238:57,1,150.000005722046,4|4,3:0|3:0,0:0:0:0:
385,38,233613,2,0,B|339:52|339:52|312:129,1,112.500004291535,2|0,0:0|0:0,0:0:0:0:
306,130,233988,6,0,P|353:134|386:174,1,75.0000028610231,6|0,3:0|0:0,0:0:0:0:
267,340,234363,2,0,P|275:268|339:236,1,150.000005722046,6|4,3:0|0:3,0:0:0:0:
512,189,234925,2,0,P|475:189|444:209,1,75.0000028610231,2|2,3:0|0:0,0:0:0:0:
444,209,235488,101,2,0:0:0:0:
365,375,235675,1,4,3:0:0:0:
494,329,235863,6,0,L|448:336,1,37.5000014305115,2|0,0:1|0:0,0:0:0:0:
448,352,236050,2,0,L|274:318,1,150.000005722046,4|4,3:0|3:0,0:0:0:0:
204,264,236613,1,2,0:0:0:0:
157,323,236706,1,2,0:0:0:0:
206,380,236800,1,2,0:0:0:0:
75,250,236988,102,0,P|44:229|7:230,1,75.0000028610231,4|0,3:0|3:0,0:0:0:0:
138,169,237363,2,0,P|130:132|104:107,1,75.0000028610231,4|0,3:0|3:0,0:0:0:0:
239,156,237738,1,4,3:0:0:0:
256,76,237925,1,8,0:3:0:0:
319,218,238113,2,0,P|355:210|380:184,1,75.0000028610231,4|0,0:3|0:0,0:0:0:0:
512,384,238488,22,2,B|498:342|498:342|503:335|503:335|487:287,1,100,2|2,0:0|3:0,0:0:0:0:
449,190,239425,69,0,3:0:0:0:
449,190,239519,1,0,3:0:0:0:
449,190,239613,1,2,3:0:0:0:
384,268,239800,1,2,0:1:0:0:
118,106,239988,85,4,1:2:0:0:
118,106,240363,1,2,3:0:0:0:
154,220,240550,1,2,3:0:0:0:
193,339,240738,1,8,1:2:0:0:
122,248,240925,5,2,0:0:0:0:
188,196,241113,2,0,L|199:97,1,75.0000028610231,2|4,0:0|0:3,0:0:0:0:
210,95,241394,1,0,0:0:0:0:
213,126,241488,5,2,3:0:0:0:
288,20,241675,2,0,L|296:94,1,75.0000028610231,2|4,0:3|0:3,0:0:0:0:
204,200,242050,2,0,L|212:126,1,75.0000028610231,2|8,0:0|1:2,0:0:0:0:
288,297,242425,1,2,0:3:0:0:
288,297,242613,2,0,L|279:243,2,50.0000019073487,2|0|2,3:0|0:0|0:1,0:0:0:0:
352,195,242988,85,4,3:0:0:0:
451,384,243175,2,0,B|409:350|409:350|419:251,1,150.000005722046,2|4,0:1|0:3,0:0:0:0:
437,68,243738,1,8,1:2:0:0:
497,125,243925,5,2,0:0:0:0:
408,73,244113,2,0,L|393:-5,1,75.0000028610231,4|0,0:3|0:0,0:0:0:0:
317,186,244488,5,2,0:3:0:0:
184,60,244675,2,0,L|171:151,1,75.0000028610231,2|4,3:0|3:0,0:0:0:0:
45,256,245050,1,8,0:3:0:0:
39,222,245144,1,0,0:0:0:0:
62,250,245238,85,10,1:2:0:0:
215,326,245425,1,2,0:0:0:0:
210,287,245519,1,0,0:0:0:0:
199,319,245613,2,0,L|191:360,6,25
113,321,245988,5,6,1:2:0:0:
113,321,246363,1,2,3:0:0:0:
188,197,246550,1,6,3:0:0:0:
266,79,246738,1,10,1:2:0:0:
156,171,246925,6,0,L|82:158,1,75.0000028610231,2|4,0:0|3:0,0:0:0:0:
228,225,247300,1,2,0:3:0:0:
156,171,247488,1,2,3:0:0:0:
228,225,247675,2,0,L|272:216,3,25.0000009536744,0|0|0|4,3:0|3:0|3:0|3:0,3:0:0:0:
94,320,248050,85,2,0:0:0:0:
52,311,248144,1,0,0:0:0:0:
89,338,248238,1,8,1:2:0:0:
272,304,248425,1,2,0:3:0:0:
455,262,248613,2,2,L|313:243,1,112.500004291535,2|0,3:0|0:0,0:0:0:0:
343,247,248988,5,4,1:2:0:0:
467,151,249175,2,0,L|384:165,1,75.0000028610231,2|0,0:1|0:0,0:0:0:0:
359,143,249456,2,0,L|395:149,1,37.5000014305115,2|0,0:1|0:0,0:0:0:0:
313,31,249738,5,10,1:2:0:0:
405,63,249925,2,0,L|321:50,1,75.0000028610231,2|2,0:0|1:3,0:0:0:0:
335,56,250675,86,0,L|268:66,1,37.5000014305115,2|0,0:0|0:0,0:0:0:0:
215,86,250863,1,6,3:0:0:0:
176,83,250956,1,0,0:0:0:0:
211,69,251050,1,2,0:0:0:0:
335,56,251238,6,2,L|59:103,1,247.500002360344,6|0,1:2|0:0,3:2:0:0:
91,97,251988,5,4,1:2:0:0:
91,97,252363,1,2,3:0:0:0:
197,162,252550,1,4,0:3:0:0:
150,260,252738,1,8,1:2:0:0:
169,174,252925,85,2,0:1:0:0:
181,262,253113,2,2,L|195:350,1,82.5000007867813,2|2,0:0|3:0,0:0:0:0:
441,44,253675,2,0,L|428:125,1,82.5000007867813,2|4,3:0|3:0,0:0:0:0:
359,183,254050,1,8,0:3:0:0:
213,102,254238,5,8,1:2:0:0:
311,111,254425,2,0,L|173:127,2,123.750001180172,2|2|4,0:0|0:3|3:0,0:0:0:0:
452,153,255175,5,2,0:0:0:0:
452,153,255550,1,4,3:0:0:0:
349,249,255738,1,8,1:2:0:0:
437,242,255925,85,2,0:0:0:0:
337,357,256113,1,2,3:0:0:0:
324,325,256206,1,0,1:0:0:0:
188,366,256394,1,2,0:0:0:0:
53,341,256581,1,2,3:0:0:0:
61,308,256675,1,2,0:3:0:0:
171,234,256863,5,6,3:0:0:0:
87,201,257050,1,6,0:3:0:0:
198,226,257238,6,0,L|211:151,1,55.0000005245209,2|2,0:0|0:1,0:0:0:0:
224,94,257488,1,2,0:0:0:0:
235,17,257613,2,0,L|250:122,1,82.5000007867813,2|2,3:0|0:0,0:0:0:0:
428,57,257988,85,2,3:0:0:0:
428,57,258175,1,2,3:0:0:0:
410,170,258363,1,2,0:0:0:0:
493,251,258550,1,4,3:0:0:0:
423,348,258738,1,8,1:2:0:0:
506,280,258925,5,2,3:0:0:0:
430,319,259113,2,0,L|345:308,1,75.0000028610231,6|0,3:0|0:0,0:0:0:0:
158,302,259488,5,2,3:0:0:0:
249,269,259675,2,0,L|166:282,2,75.0000028610231,6|4|0,3:0|3:0|0:0,0:0:0:0:
88,85,260238,85,8,1:2:0:0:
200,181,260425,2,0,L|118:170,1,75.0000028610231,2|2,3:0|0:3,0:0:0:0:
125,171,260800,1,2,0:0:0:0:
335,33,260988,5,2,1:0:0:0:
290,104,261175,2,0,L|304:192,1,75.0000028610231,2|0,0:1|0:0,0:0:0:0:
311,211,261456,2,0,L|320:157,1,37.5000014305115,2|0,0:1|0:0,0:0:0:0:
314,356,261738,5,10,1:2:0:0:
407,195,261925,2,2,L|393:283,1,75.0000028610231,2|4,0:0|3:0,0:0:0:0:
395,269,262675,86,0,L|375:198,1,37.5000014305115,2|0,0:0|0:0,0:0:0:0:
362,121,262863,1,2,0:0:0:0:
258,19,263050,1,0,0:0:0:0:
395,269,263238,2,2,P|364:126|251:15,1,300.000011444092,8|2,1:2|0:1,0:0:0:0:
161,17,264175,53,2,0:0:0:0:
222,93,264363,1,0,0:0:0:0:
206,104,264456,1,8,0:2:0:0:
41,344,264925,85,2,0:0:0:0:
41,344,265113,2,0,B|21:318|48:261|99:306|91:326|91:326|82:308|131:336|164:304,1,194.999991073609,2|0,0:1|0:0,0:1:0:0:
273,252,265863,2,0,B|261:285|261:285|278:321,1,64.9999970245363,2|0,0:0|0:0,0:0:0:0:
358,371,266238,1,0,3:0:0:0:
358,371,266425,1,0,3:0:0:0:
492,292,266613,22,2,B|457:307|404:272|432:224|508:224|500:160|440:148|432:224|404:272|377:299|292:176|364:72|452:84,1,389.999982147218,2|0,0:0|0:0,0:0:0:0:
300,4,267925,85,2,0:0:0:0:
300,4,268113,2,0,B|332:8|353:67|285:71|277:52|277:52|296:58|242:73|241:119,1,194.999991073609,2|0,0:1|0:0,0:0:0:0:
192,200,268863,2,0,P|164:168|160:80,1,129.999994049073,2|0,3:0|0:0,0:0:0:0:
76,24,269425,1,0,0:0:0:0:
76,24,269613,22,0,P|48:44|32:84,1,75.0000028610231,6|0,0:3|0:0,0:0:0:0:
25,175,270175,1,8,0:0:0:0:
108,220,270363,1,0,0:0:0:0:
104,200,270456,1,2,3:0:0:0:
498,261,270925,85,2,0:0:0:0:
498,261,271113,2,0,B|512:284|483:330|444:286|453:270|453:270|437:268|398:302|438:351,1,194.999991073609,2|0,0:1|0:0,0:0:0:0:
481,170,271863,2,0,B|455:191|455:191|397:186,1,64.9999970245363,2|0,0:0|0:0,0:0:0:0:
429,94,272238,1,2,3:0:0:0:
429,94,272425,1,2,3:0:0:0:
304,32,272613,22,2,B|285:105|300:150|396:149|378:260|268:232|300:150|264:91|199:99|138:195|226:233|263:179,1,389.999982147218,2|0,0:0|0:0,0:0:0:0:
352,360,273925,85,2,0:0:0:0:
352,360,274113,2,0,B|366:336|337:290|298:334|307:350|307:350|291:352|252:318|292:269,1,194.999991073609,2|0,0:1|0:0,0:0:0:0:
164,276,274863,2,0,P|184:328|252:360,1,129.999994049073,2|0,3:0|0:0,0:0:0:0:
112,192,275425,1,2,0:0:0:0:
112,192,275613,22,0,P|68:184|36:196,1,75.0000028610231,6|0,0:3|0:0,0:0:0:0:
256,192,276081,12,0,281988,0:0:0:0:
119,308,284988,86,0,B|114:256|30:217|-46:303|-11:434|164:448|209:336|194:254|211:182|318:167|376:211,1,562.500021457673,2|0,0:0|0:0,0:0:0:0:
319,95,287988,5,6,0:0:0:0:
319,95,288175,2,0,B|237:81|258:136|163:112,1,150.000005722046,2|4,0:0|3:0,0:0:0:0:
416,67,288738,22,2,B|330:22|224:108|258:113|177:189|68:140,1,375.000014305115,14|0,1:2|0:0,0:0:0:0:
70,141,289769,1,0,0:0:0:0:
70,141,289863,1,4,3:0:0:0:
11,208,290050,1,2,0:0:0:0:
138,320,290238,6,0,P|191:297|270:287,1,112.500004291535,10|2,1:2|0:0,0:0:0:0:
244,287,290613,2,0,P|305:311|337:315,1,75.0000028610231
406,288,290988,1,4,3:0:0:0:
406,288,291175,69,2,0:0:0:0:
406,288,291269,1,0,0:0:0:0:
406,288,291363,2,0,P|419:248|425:208,1,75.0000028610231,2|8,0:0|0:3,0:0:0:0:
242,197,291738,2,0,P|297:186|348:164,1,112.500004291535,8|2,1:2|0:0,0:0:0:0:
348,164,292300,2,0,L|341:127,2,37.5000014305115,0|0|0,3:0|3:0|3:0,3:0:0:0:
490,104,292675,22,0,P|454:94|408:69,1,75.0000028610231,4|2,3:0|0:0,0:0:0:0:
354,16,293050,1,4,3:0:0:0:
171,102,293238,2,0,P|234:69|290:58,1,112.500004291535,8|0,1:2|0:0,0:0:0:0:
273,59,293613,1,2,0:0:0:0:
42,293,293988,5,4,3:0:0:0:
42,293,294175,2,0,B|124:302|85:344|180:356,1,150.000005722046,2|4,0:0|3:0,0:0:0:0:
360,147,294738,69,8,1:2:0:0:
317,221,294925,2,0,P|257:253|161:264,2,150.000005722046,2|2|0,0:0|0:0|0:0,0:0:0:0:
317,221,295769,1,0,0:0:0:0:
317,221,295863,1,4,3:0:0:0:
398,279,296050,1,2,0:0:0:0:
404,107,296238,21,8,1:2:0:0:
475,155,296425,2,0,L|529:161,2,37.5000014305115,2|0|4,0:0|0:0|3:0,0:0:0:0:
404,107,296800,1,2,0:0:0:0:
335,156,296988,1,4,0:0:0:0:
335,156,297175,5,0,0:0:0:0:
335,156,297269,1,0,0:0:0:0:
335,156,297363,2,0,P|292:167|257:191,1,75.0000028610231,10|0,3:0|0:0,0:0:0:0:
90,87,297738,2,0,P|126:112|221:127,1,112.500004291535,14|2,1:2|0:0,0:0:0:0:
191,129,298113,1,4,3:0:0:0:
19,139,298300,70,0,P|51:214|121:270,1,150.000005722046,2|0,0:0|0:0,0:0:0:0:
100,259,298769,1,0,0:0:0:0:
100,259,298863,1,4,0:3:0:0:
185,232,299050,1,0,0:0:0:0:
233,362,299238,21,8,1:2:0:0:
344,288,299425,2,2,B|411:260|505:312|463:408|387:373|409:325,1,225.000008583069,2|4,0:0|3:0,0:0:0:0:
408,328,300175,6,0,B|439:245|384:265|418:169,1,150.000005722046,2|4,0:0|3:0,0:0:0:0:
293,12,300738,2,0,P|324:40|374:62,1,75.0000028610231,8|0,1:2|0:0,0:0:0:0:
352,55,301300,69,2,0:0:0:0:
331,143,301488,2,0,P|294:153|257:154,1,75.0000028610231,4|0,0:0|0:0,0:0:0:0:
257,154,301769,1,0,0:0:0:0:
257,154,301863,1,4,3:0:0:0:
195,217,302050,1,0,0:0:0:0:
256,368,302238,21,8,1:2:0:0:
256,368,303363,1,0,3:0:0:0:
256,336,303738,1,0,3:0:0:0:
256,288,304113,1,0,3:0:0:0:
259,24,304488,5,4,0:0:0:0:
259,24,304675,2,0,B|173:41|214:81|134:101,1,150.000005722046,2|4,0:0|3:0,0:0:0:0:
83,269,305238,70,0,P|125:210|179:184,1,112.500004291535,8|8,1:2|0:0,0:0:0:0:
158,190,305613,1,2,0:0:0:0:
40,120,305800,1,0,0:0:0:0:
40,120,305988,2,0,P|132:181|177:282,1,225.000008583069,4|4,0:0|3:0,0:0:0:0:
322,375,306738,2,0,P|391:345|433:300,1,112.500004291535,8|0,1:2|0:0,0:0:0:0:
417,320,307300,2,0,L|429:370,2,37.5000014305115,2|0|0,0:0|0:0|0:0,0:0:0:0:
435,127,307675,21,2,0:0:0:0:
435,127,307769,1,0,0:0:0:0:
435,127,307863,1,6,3:0:0:0:
381,193,308050,1,2,0:0:0:0:
206,102,308238,2,0,P|250:108|314:142,1,112.500004291535,8|8,1:2|3:0,0:0:0:0:
310,138,308613,2,0,P|272:177|224:193,1,75.0000028610231,2|0,0:0|0:0,0:0:0:0:
86,125,308988,1,6,3:0:0:0:
86,125,309175,5,0,0:0:0:0:
86,125,309269,1,0,3:0:0:0:
86,125,309363,2,0,P|84:185|47:264,1,123.750001180172,2|0,0:0|0:0,0:0:0:0:
61,243,309738,1,8,1:2:0:0:
177,377,309925,2,0,P|281:354|346:318,1,179.999994506836,2|0,0:0|3:0,0:0:0:0:
399,248,310394,5,8,3:0:0:0:
370,329,310488,1,4,3:0:0:0:
331,156,310675,6,0,L|336:180,3,25.0000009536744,0|0|0|0,1:0|3:0|3:0|3:0,3:0:0:0:
378,105,310956,2,0,L|367:163,2,37.5000014305115,2|0|0,3:0|3:0|3:0,3:0:0:0:
427,54,311238,2,0,L|407:101,2,37.5000014305115,10|0|0,1:2|3:0|3:0,3:0:0:0:
294,72,311519,102,0,B|276:55|276:55|279:23,2,50,2|0|0,1:2|3:0|3:0,3:0:0:0:
204,167,311800,2,0,P|229:161|249:147,1,50,14|0,3:0|0:0,0:0:0:0:
115,31,311988,53,6,1:2:0:0:
115,31,312175,2,0,P|71:78|83:182,1,150,2|0,0:0|0:0,0:0:0:0:
78,250,312550,2,0,L|24:238,1,50,4|0,3:0|0:0,0:0:0:0:
164,271,312738,1,8,1:2:0:0:
15,372,312925,2,0,P|64:341|139:355,1,100,2|0,0:0|0:0,0:0:0:0:
256,382,313300,1,2,3:0:0:0:
256,382,313675,5,2,0:0:0:0:
256,382,313769,1,0,0:0:0:0:
256,382,313863,1,4,3:0:0:0:
284,282,314050,1,2,0:0:0:0:
423,377,314238,2,0,B|421:334|421:334|429:321|429:321|424:274,1,100,8|0,1:2|0:0,0:0:0:0:
482,202,314519,37,2,0:0:0:0:
437,277,314613,2,0,B|441:318|441:318|433:331|433:331|435:374,1,100,14|0,3:0|0:0,0:0:0:0:
353,205,314988,86,0,P|340:149|400:57,1,150,4|0,0:0|0:0,0:0:0:0:
437,17,315363,1,0,3:0:0:0:
415,28,315456,1,0,3:0:0:0:
385,32,315550,1,0,3:0:0:0:
350,25,315644,1,0,3:0:0:0:
315,4,315738,2,0,P|276:35|265:61,1,62.5,8|0,1:2|0:0,0:0:0:0:
204,206,316019,1,2,0:0:0:0:
204,206,316113,2,0,P|160:164|147:71,1,150,2|0,0:0|0:0,0:0:0:0:
176,2,316488,85,2,0:0:0:0:
16,113,316675,2,0,P|36:54|71:32,2,100,4|2|6,3:0|0:3|3:0,0:0:0:0:
53,276,317238,2,0,B|96:274|96:274|109:282|109:282|156:277,1,100,8|0,1:2|0:0,0:0:0:0:
228,335,317519,53,0,1:0:0:0:
153,290,317613,2,0,B|112:294|112:294|99:286|99:286|56:288,1,100,6|0,3:0|0:0,0:0:0:0:
166,149,317988,70,0,B|255:173|255:173|263:169|263:169|368:194,1,200,6|0,1:2|0:0,0:0:0:0:
467,160,318550,1,4,3:0:0:0:
458,348,318738,2,0,P|463:292|435:241,1,100,8|0,1:2|0:0,0:0:0:0:
427,257,319019,2,0,P|421:312|449:363,1,100,4|0,0:3|0:0,0:0:0:0:
453,361,319300,1,4,0:0:0:0:
390,112,319488,5,0,3:0:0:0:
393,102,319581,1,0,3:0:0:0:
396,92,319675,1,0,3:0:0:0:
400,82,319769,1,0,3:0:0:0:
404,73,319863,2,0,L|509:60,2,100,4|2|8,3:0|0:0|1:2,0:0:0:0:
207,27,320425,1,2,0:1:0:0:
248,62,320519,1,2,0:0:0:0:
263,112,320613,1,6,3:0:0:0:
230,205,320800,1,8,0:3:0:0:
340,18,320988,86,0,P|267:85|171:106,1,200,6|4,0:0|3:0,0:0:0:0:
60,43,321550,1,2,0:0:0:0:
64,292,321738,2,0,B|66:249|66:249|58:236|58:236|63:189,1,100,2|0,0:1|0:0,0:0:0:0:
5,117,322019,53,2,0:0:0:0:
50,192,322113,2,0,B|46:233|46:233|54:246|54:246|52:289,1,100,4|0,3:0|0:0,0:0:0:0:
300,384,322488,6,2,B|325:367|327:323|327:323|327:323|342:323|327:323|327:323|329:281|291:243|291:243|309:226|291:243|291:243|254:206|212:208|212:208|212:193|212:208|212:208|167:209|149:238,1,375,4|0,3:0|0:0,0:1:0:0:
278,307,323238,53,8,1:2:0:0:
298,299,323331,1,2,0:0:0:0:
143,369,323519,2,0,L|117:362,9,20.8333333333333,0|0|0|0|0|0|0|0|0|0,3:0|3:0|3:0|3:0|3:0|3:0|3:0|3:0|3:0|3:0,3:0:0:0:
195,308,323894,1,2,0:0:0:0:
152,381,323988,6,2,P|138:276|81:196,1,200,6|0,1:2|0:0,0:0:0:0:
0,155,324550,1,4,3:0:0:0:
183,6,324738,2,0,P|153:79|62:109,1,160,8|0,1:2|0:0,0:0:0:0:
228,131,325300,86,0,P|279:118|312:125,1,80,2|0,0:0|0:0,0:0:0:0:
393,181,325675,1,2,0:0:0:0:
393,181,325769,1,0,0:0:0:0:
393,181,325863,1,4,3:0:0:0:
304,214,326050,1,2,0:0:0:0:
424,24,326238,5,14,1:2:0:0:
424,24,326613,1,0,3:0:0:0:
439,27,326706,1,0,3:0:0:0:
454,30,326800,1,0,3:0:0:0:
469,33,326894,1,0,3:0:0:0:
458,61,326988,5,0,1:0:0:0:
470,81,327081,1,0,1:0:0:0:
483,101,327175,1,0,1:0:0:0:
496,121,327269,1,0,1:0:0:0:
451,144,327363,85,0,1:0:0:0:
231,339,327925,1,2,1:3:0:0:
392,301,328206,1,2,3:0:0:0:
376,317,328300,1,2,0:0:0:0:
480,332,328488,22,0,P|477:262|407:211,1,150.000005722046,4|0,1:0|0:0,0:0:0:0:
333,224,328956,1,2,3:0:0:0:
333,224,329050,2,0,L|348:136,1,62.5,4|0,3:0|0:0,0:0:0:0:
248,74,329238,1,8,1:2:0:0:
248,74,329519,21,2,3:0:0:0:
259,174,329613,2,0,L|248:68,1,100,4|0,0:0|0:0,0:0:0:0:
6,186,329988,102,0,B|-14:331|-14:331|23:378,1,187.500007152558,4|0,1:0|0:0,0:0:0:0:
91,322,330550,2,0,L|100:383,1,62.5,4|0,3:0|0:0,0:0:0:0:
249,351,330738,2,0,L|265:227,1,125,8|0,1:2|0:0,0:0:0:0:
199,177,331019,1,8,0:3:0:0:
199,177,331206,5,8,0:3:0:0:
166,250,331300,2,0,L|170:277,2,25,0|0|0,3:0|3:0|3:0,3:0:0:0:
141,243,331488,85,2,0:0:0:0:
249,351,331675,1,0,0:0:0:0:
273,346,331769,1,0,0:0:0:0:
297,344,331863,2,0,L|368:359,1,50,4|0,3:0|0:0,0:0:0:0:
331,267,332050,2,0,L|379:277,1,50,2|0,0:0|0:0,0:0:0:0:
466,361,332238,6,0,B|423:332|423:332|399:185,1,187.5,8|0,1:2|0:0,0:0:0:0:
493,62,332613,2,0,L|475:154,2,100,2|0|4,0:0|0:0|3:0,0:0:0:0:
493,62,333175,101,2,0:0:0:0:
493,62,333269,2,0,L|440:72,1,37.5000014305115,2|0,0:3|0:0,0:0:0:0:
376,41,333456,1,2,0:3:0:0:
376,41,333644,21,2,0:3:0:0:
357,163,333738,2,0,B|320:-8|320:-8|385:49,1,250,8|0,1:2|0:0,0:0:0:0:
254,78,334206,5,2,3:0:0:0:
254,78,334394,2,0,L|249:116,1,31.25,2|0,3:0|3:0,3:0:0:0:
240,192,334488,86,0,B|171:204|171:204|157:197|157:197|78:211,1,150.000005722046,4|0,0:0|0:0,0:0:0:0:
7,177,334956,2,0,L|16:238,1,62.5,2|0,3:0|0:0,0:0:0:0:
107,316,335144,5,0,0:0:0:0:
93,208,335238,5,2,1:3:0:0:
82,296,335331,1,2,3:0:0:0:
510,1,335988,70,0,P|410:16|342:154,1,262.500010013581,6|0,1:2|0:0,0:0:0:0:
294,229,336738,2,0,L|355:239,1,62.5,8|0,1:2|0:0,0:0:0:0:
444,264,336925,1,2,0:0:0:0:
444,264,337019,1,0,0:0:0:0:
444,264,337300,2,0,L|468:257,2,18.7500007152558,0|0|0,3:0|3:0|3:0,3:0:0:0:
340,358,337488,5,2,1:0:0:0:
340,358,337581,2,0,B|323:339|323:339|313:293,1,50,2|0,0:0|0:0,0:0:0:0:
179,317,337769,2,0,B|192:289|192:289|236:261,1,62.5,2|8,0:1|1:2,0:0:0:0:
190,136,337956,1,2,0:0:0:0:
190,136,338050,2,0,B|215:143|215:143|250:172,1,50,2|0,0:1|0:0,0:0:0:0:
363,202,338238,101,4,1:2:0:0:
363,202,338331,2,0,L|354:238,1,37.5000014305115,2|0,0:0|0:0,0:0:0:0:
424,140,338519,2,0,L|450:155,2,25,2|0|0,0:1|0:0|0:0,0:0:0:0:
389,60,338706,1,2,0:0:0:0:
389,60,338800,2,0,L|417:35,1,37.5000014305115,2|0,0:1|0:0,0:0:0:0:
300,76,338988,6,2,B|166:106|190:-29|45:17,1,262.500010013581,6|0,1:2|0:0,0:3:0:0:
91,143,339738,2,0,L|101:94,1,50,8|0,1:2|0:0,0:0:0:0:
196,249,339925,5,0,1:0:0:0:
182,150,340019,2,0,L|196:250,1,100,2|0,0:0|0:0,0:0:0:0:
95,353,340300,85,0,1:0:0:0:
108,342,340394,1,0,0:0:0:0:
133,331,340488,1,2,0:1:0:0:
165,331,340581,1,0,0:0:0:0:
203,354,340675,1,4,3:0:0:0:
286,369,340769,2,0,B|314:357|314:357|336:319,1,62.5,2|0,0:1|0:0,0:0:0:0:
358,196,340956,2,0,B|364:233|364:233|397:272,1,75.0000028610231,2|4,0:0|3:0,0:0:0:0:
463,333,341144,21,2,0:1:0:0:
479,235,341238,2,0,L|462:343,1,100,8|0,1:2|0:0,0:0:0:0:
221,253,341519,2,2,B|279:225|279:225|296:226|296:226|372:189,1,150.000005722046,6|0,0:0|0:0,0:0:0:0:
387,78,341800,2,0,L|325:42,1,62.5,4|8,3:0|0:3,0:0:0:0:
117,224,341988,102,2,B|55:289|126:300|65:359,1,150.000005722046,6|0,1:2|0:0,0:3:0:0:
44,114,342456,1,2,0:0:0:0:
44,114,342550,2,0,L|54:173,1,50,2|0,0:3|0:0,0:0:0:0:
151,42,342738,1,8,1:2:0:0:
151,42,343019,5,2,0:0:0:0:
138,140,343113,2,0,L|147:72,1,62.5,2|0,0:0|0:0,0:0:0:0:
237,13,343300,2,0,L|228:90,1,75.0000028610231,0|4,1:0|0:3,0:0:0:0:
182,277,343488,6,0,B|165:243|165:243|80:211,1,87.500000834465,4|0,0:0|0:0,0:0:0:0:
348,152,343675,2,0,B|317:157|317:157|272:202,1,87.500000834465,4|0,0:0|0:0,0:0:0:0:
305,326,343863,69,2,0:0:0:0:
305,326,344050,1,2,0:0:0:0:
305,326,344238,5,8,1:2:0:0:
305,326,344331,2,0,L|370:335,1,50,2|0,0:1|0:0,0:0:0:0:
494,285,344519,1,2,0:0:0:0:
432,295,344613,2,0,L|507:283,1,62.5,2|0,0:1|0:0,0:0:0:0:
480,199,344800,2,0,L|418:208,1,62.5,4|0,3:0|0:0,0:0:0:0:
349,98,344988,102,0,L|432:114,1,75.0000028610231,6|0,3:0|0:0,0:0:0:0:
441,109,345269,1,2,0:0:0:0:
462,100,345363,1,0,0:0:0:0:
477,82,345456,1,0,0:0:0:0:
487,57,345550,1,0,0:0:0:0:
487,26,345644,2,0,L|423:37,1,50,4|2,3:0|3:0,0:0:0:0:
327,7,345831,2,0,B|355:48|355:48|348:107,1,100,2|0,0:0|0:0,0:0:0:0:
268,69,346113,21,0,0:0:0:0:
281,153,346206,5,0,1:0:0:0:
251,47,346300,2,0,B|237:146|237:146|196:193,1,150,4|0,3:0|0:0,0:0:0:0:
156,106,346675,86,0,L|41:130,1,112.500004291535,6|2,3:0|0:0,0:0:0:0:
45,128,347144,5,2,0:0:0:0:
63,280,347238,2,0,B|55:227|55:227|62:208|62:208|46:112,1,150.000005722046,4|0,0:0|0:0,0:0:0:0:
350,319,347519,2,0,B|228:279|228:279|214:264|214:264|142:237,1,225.000008583069,8|0,1:2|0:0,0:0:0:0:
373,174,347894,5,8,0:0:0:0:
280,209,347988,2,0,P|273:156|338:41,1,150,4|0,0:0|0:0,0:0:0:0:
238,14,348363,70,0,P|217:66|239:124,1,100,4|0,3:0|0:0,0:0:0:0:
445,34,348738,1,8,1:2:0:0:
445,34,348925,2,0,P|391:68|304:67,1,150.000005722046,2|0,0:1|0:0,0:0:0:0:
474,310,349488,5,2,1:0:0:0:
474,310,349581,2,0,P|450:298|403:303,1,50,2|0,0:0|0:0,0:0:0:0:
387,168,349769,2,0,P|362:190|350:238,1,62.5,2|8,0:1|1:2,0:0:0:0:
218,232,349956,1,2,0:0:0:0:
218,232,350050,2,0,P|231:256|269:278,1,50,2|0,0:1|0:0,0:0:0:0:
72,224,350238,101,6,1:2:0:0:
72,224,350331,2,0,L|52:255,1,37.5000014305115,2|0,0:0|0:0,0:0:0:0:
72,137,350519,2,0,L|47:130,2,25,2|0|0,0:1|0:0|0:0,0:0:0:0:
154,105,350706,1,2,3:0:0:0:
154,105,350800,2,0,L|151:67,1,37.5000014305115,2|0,1:1|1:0,0:0:0:0:
234,137,350988,5,4,3:0:0:0:
285,142,351081,1,0,0:0:0:0:
334,123,351175,1,4,0:3:0:0:
361,77,351269,1,0,0:0:0:0:
267,51,351363,102,0,B|275:178|275:178|284:187|284:187|296:316,1,262.500002503395,14|0,1:2|0:0,0:0:0:0:
290,334,351738,1,2,0:0:0:0:
468,353,351925,2,0,P|415:323|397:262,1,100,10|0,1:2|0:0,0:0:0:0:
454,222,352206,21,2,3:0:0:0:
408,298,352300,1,2,3:0:0:0:
485,87,352488,102,0,B|469:71|472:42|472:9,2,50,4|0|4,0:0|0:0|3:0,0:0:0:0:
485,87,352769,2,0,P|439:105|403:159,1,100,2|2,0:1|0:3,0:0:0:0:
320,118,353050,2,0,P|318:157|334:192,1,50,6|0,3:0|0:0,0:0:0:0:
341,357,353238,2,0,P|317:298|332:252,1,100,8|0,1:2|0:0,0:0:0:0:
248,217,353519,2,0,P|188:235|158:284,1,100,8|0,0:0|0:0,0:0:0:0:
137,363,353800,1,4,0:3:0:0:
137,363,353894,1,0,0:0:0:0:
137,363,353988,102,2,B|50:329|115:258|24:225,1,187.500007152558,6|0,1:2|0:0,0:0:0:0:
172,36,354550,1,2,0:0:0:0:
172,36,354644,1,0,0:0:0:0:
172,36,354738,2,0,P|189:92|150:172,1,150,8|4,1:2|3:0,0:0:0:0:
4,48,355206,1,8,0:3:0:0:
4,48,355300,2,0,P|46:88|113:92,1,100,8|0,1:2|0:0,0:0:0:0:
282,24,355675,5,2,0:0:0:0:
282,24,355769,1,0,0:0:0:0:
282,24,355863,2,0,L|271:87,1,50,4|0,3:0|0:0,0:0:0:0:
323,148,356050,2,0,L|312:211,1,50,4|0,3:0|0:0,0:0:0:0:
329,295,356238,5,8,1:2:0:0:
303,208,356331,1,2,0:0:0:0:
489,115,356519,85,4,0:3:0:0:
489,115,356613,2,0,P|437:137|413:176,1,100,10|0,0:0|0:0,0:0:0:0:
407,364,356988,5,4,1:2:0:0:
498,238,357175,1,8,3:0:0:0:
498,238,357269,1,0,3:0:0:0:
498,238,357363,1,6,3:0:0:0:
357,273,357550,1,2,0:0:0:0:
231,315,357738,2,0,P|305:257|307:151,1,200,8|0,1:2|0:0,0:0:0:0:
298,147,358206,1,0,0:0:0:0:
286,137,358300,2,0,P|267:185|288:205,1,87.500000834465,8|0,1:0|0:0,0:0:0:0:
342,60,358488,102,0,P|366:60|363:85,1,50,14|0,3:0|0:0,0:0:0:0:
190,10,358675,2,0,B|227:12|250:42|250:42|177:79|168:142,1,200,4|2,3:0|0:0,0:0:0:0:
38,19,359238,1,2,3:0:0:0:
19,73,359331,1,2,3:0:0:0:
44,130,359425,1,2,3:0:0:0:
100,72,359519,6,0,P|68:91|48:169,1,100,6|0,3:0|0:0,0:0:0:0:
222,238,359988,102,0,P|181:218|135:227,1,75.0000028610231,14|0,1:2|0:0,0:0:0:0:
33,352,360363,2,0,P|86:316|182:316,1,150,8|0,1:2|0:0,0:0:0:0:
240,352,360738,1,4,0:3:0:0:
317,151,360925,2,0,P|322:207|301:259,1,112.500004291535,8|0,1:2|0:0,0:0:0:0:
352,340,361300,1,2,0:0:0:0:
352,340,361394,1,0,0:0:0:0:
352,340,361488,6,0,B|379:339|379:339|430:359|430:359|458:358,1,100,0|0,1:0|0:0,0:0:0:0:
512,270,361769,1,2,0:0:0:0:
476,342,361863,2,0,B|439:340|439:340|369:367|369:367|331:366,1,150.000005722046,14|0,1:2|0:0,0:0:0:0:
222,238,362238,1,0,1:0:0:0:
216,201,362331,1,0,0:0:0:0:
219,163,362425,1,0,3:0:0:0:
232,128,362519,1,0,3:0:0:0:
252,97,362613,102,0,L|324:104,1,37.5000014305115,4|0,3:0|0:0,0:0:0:0:
366,66,362800,2,0,L|437:72,1,37.5000014305115,2|0,3:0|0:0,0:0:0:0:
471,21,362988,2,0,L|542:27,1,37.5000014305115,8|0,3:0|0:0,0:0:0:0:
465,153,363175,6,0,B|286:165|350:-4|161:10,1,350.00000333786,14|0,1:2|1:2,0:0:0:0:
40,121,363738,101,6,3:0:0:0:
65,125,363831,1,0,3:0:0:0:
76,102,363925,1,0,3:0:0:0:
57,84,364019,1,0,3:0:0:0:
34,96,364113,1,0,3:0:0:0:
164,152,364300,1,0,1:0:0:0:
34,281,364488,6,0,B|120:259|123:338|229:301,1,187.5,4|0,1:0|0:0,0:0:0:0:
236,294,364863,1,0,0:0:0:0:
259,285,364956,1,0,1:0:0:0:
284,285,365050,1,4,0:0:0:0:
308,290,365144,1,2,0:0:0:0:
331,299,365238,2,0,L|343:379,1,62.5,4|0,3:0|0:0,0:0:0:0:
419,231,365425,5,0,0:0:0:0:
440,341,365519,2,0,B|456:280|456:280|408:214,1,125,0|0,1:0|0:0,0:0:0:0:
356,156,365800,5,2,3:0:0:0:
442,218,365894,1,4,3:0:0:0:
479,32,366081,69,4,3:0:0:0:
283,107,366269,21,4,3:0:0:0:
390,77,366363,2,0,B|329:65|329:65|269:121,1,125,4|0,0:0|0:0,0:0:0:0:
231,270,366738,5,2,0:0:0:0:
350,265,366832,2,0,B|294:273|294:273|286:262|286:262|225:272,1,125,6|4,3:0|3:0,0:0:0:0:
118,295,367113,2,0,P|90:332|83:378,2,93.75,4|2|4,0:0|0:0|3:0,0:0:0:0:
217,260,367488,85,0,0:0:0:0:
27,56,367769,1,2,0:0:0:0:
44,99,367863,1,2,3:0:0:0:
125,38,368050,1,8,1:2:0:0:
41,197,368238,1,2,0:0:0:0:
87,214,368331,1,0,0:0:0:0:
122,248,368425,1,6,3:0:0:0:
138,295,368519,1,8,0:3:0:0:
143,344,368613,1,4,3:0:0:0:
143,344,368988,86,2,P|172:272|213:256,1,112.500004291535,14|0,1:2|0:0,0:0:0:0:
199,258,369363,2,0,L|79:241,1,100,8|0,1:2|0:0,0:0:0:0:
23,226,369644,1,0,0:0:0:0:
23,226,369738,1,2,0:0:0:0:
23,226,369925,6,0,L|159:206,1,100,8|2,1:2|0:0,0:0:0:0:
209,174,370206,1,0,0:0:0:0:
209,174,370300,2,0,L|291:187,1,50
340,195,370488,101,2,0:1:0:0:
254,94,370675,1,2,0:0:0:0:
254,94,370769,1,0,0:0:0:0:
254,94,370863,2,0,L|418:66,1,150,8|0,1:2|0:0,0:0:0:0:
451,145,371238,2,0,L|483:150,3,33.3333333333333,8|0|0|0,1:2|3:0|3:0|3:0,3:0:0:0:
340,195,371519,37,2,0:0:0:0:
423,165,371613,1,4,3:0:0:0:
314,348,371800,86,0,P|299:313|272:288,1,75.0000028610231,2|0,0:0|0:0,0:0:0:0:
272,288,372175,2,2,B|201:303|201:303|166:277|166:277|41:299,1,225.000008583069,14|0,1:2|0:0,0:0:0:0:
57,207,372550,1,8,1:2:0:0:
57,207,372738,101,0,0:0:0:0:
57,207,372831,1,0,0:0:0:0:
57,207,372925,2,0,L|-24:221,1,50,4|0,0:0|0:0,0:0:0:0:
59,296,373113,2,0,L|108:287,1,50,2|0,0:0|0:0,0:0:0:0:
15,125,373300,1,14,1:2:0:0:
330,51,373488,6,0,P|254:75|225:155,1,150.000005722046,4|0,1:0|0:0,0:0:0:0:
277,206,373956,21,2,3:0:0:0:
201,153,374050,2,0,L|139:144,1,62.5,4|0,0:3|0:0,0:0:0:0:
277,206,374238,70,0,L|397:183,1,100,4|0,0:0|0:0,0:0:0:0:
426,266,374519,2,0,L|304:292,1,125,8|0,2:0|0:0,0:0:0:0:
388,364,374800,5,2,0:0:0:0:
388,364,374894,2,0,L|457:349,1,37.5000014305115,4|0,0:3|0:0,0:0:0:0:
281,317,375081,2,0,L|244:324,1,37.5000014305115,4|0,3:0|0:0,0:0:0:0:
375,187,375269,21,4,3:0:0:0:
277,206,375363,2,2,B|346:173|346:173|365:18,1,200,4|0,1:0|0:0,0:0:0:0:
266,114,375831,70,0,L|207:107,1,37.5000014305115,4|0,3:0|0:0,0:0:0:0:
96,53,376019,1,0,0:0:0:0:
96,53,376113,2,0,L|199:38,1,75.0000028610231,2|0,0:1|0:0,0:0:0:0:
277,206,376488,2,0,L|158:189,2,100,2|0|4,0:0|0:0|0:0,0:0:0:0:
82,357,377050,5,8,1:2:0:0:
319,297,377238,1,8,1:2:0:0:
282,306,377331,1,0,0:0:0:0:
246,315,377425,1,2,0:0:0:0:
210,324,377519,1,0,0:0:0:0:
179,340,377613,54,0,L|242:350,1,50,4|0,0:0|0:0,0:0:0:0:
228,347,377988,38,2,P|276:249|382:228,1,225.000008583069,6|0,1:0|0:0,0:0:0:0:
496,259,378363,2,0,L|374:239,1,100,8|0,1:2|0:0,0:0:0:0:
397,242,378644,1,0,0:0:0:0:
397,242,378738,1,2,0:0:0:0:
397,242,378925,6,0,L|474:228,1,50,8|0,1:2|0:0,0:0:0:0:
453,140,379113,1,0,0:0:0:0:
453,140,379206,2,0,L|404:149,2,50,2|0|0,3:0|0:0|0:0,0:0:0:0:
413,58,379488,1,8,1:2:0:0:
413,58,379675,101,0,0:0:0:0:
413,58,379769,1,0,0:0:0:0:
413,58,379863,2,2,B|344:71|344:71|326:64|326:64|250:78,1,150,14|0,1:2|0:0,0:0:0:0:
178,92,380238,2,0,L|119:105,2,50,8|0|0,1:2|0:0|0:0,0:0:0:0:
260,48,380519,37,0,0:0:0:0:
190,121,380613,1,6,3:0:0:0:
410,274,380800,86,0,P|419:226|441:200,1,75.0000028610231,2|0,0:0|0:0,0:0:0:0:
434,205,381175,2,2,B|447:237|447:237|251:206,1,225.000008583069,4|0,0:0|0:0,0:0:0:0:
217,288,381550,1,8,1:2:0:0:
217,288,381738,101,0,0:0:0:0:
217,288,381831,1,0,0:0:0:0:
217,288,381925,2,0,L|288:301,1,50,2|0,0:0|0:0,0:0:0:0:
81,305,382113,2,0,L|131:315,1,50,2|0,0:0|0:0,0:0:0:0:
188,384,382300,1,8,1:2:0:0:
77,111,382488,6,2,P|103:189|176:213,1,150.000005722046,6|0,1:0|0:0,0:0:0:0:
239,153,382956,21,0,1:0:0:0:
185,229,383050,5,2,0:0:0:0:
215,137,383144,2,0,L|294:124,1,75.0000028610231,6|0,3:0|0:0,0:0:0:0:
410,122,383425,101,2,0:0:0:0:
312,106,383519,2,0,L|431:126,1,100,8|0,1:2|0:0,0:0:0:0:
299,222,383800,69,2,0:0:0:0:
299,222,383894,2,0,L|357:210,1,37.5000014305115,8|0,0:0|0:0,0:0:0:0:
383,313,384081,2,0,L|325:301,1,37.5000014305115,4|0,3:0|0:0,0:0:0:0:
170,358,384269,37,4,3:0:0:0:
259,332,384363,2,2,B|178:311|178:311|151:182,1,200,6|0,1:0|0:0,0:0:0:0:
62,116,384831,2,0,L|126:128,1,37.5000014305115,4|0,3:0|0:0,0:0:0:0:
213,2,385019,5,0,0:0:0:0:
187,86,385113,2,2,B|205:38|205:38|326:12,1,150,6|8,0:1|0:3,0:0:0:0:
305,21,385769,70,0,L|396:36,1,75.0000028610231,8|0,0:3|0:0,0:0:0:0:
379,33,386050,1,8,1:2:0:0:
230,233,386238,54,0,L|273:221,7,25.0000009536744,4|0|0|0|0|0|0|0,3:2|3:0|3:0|3:0|3:0|3:0|3:0|3:0,3:0:0:0:
269,201,386613,1,4,1:0:0:0:
269,201,386988,38,2,P|250:277|94:317,1,225.000008583069,6|0,1:0|0:0,0:3:0:0:
5,305,387363,1,8,1:2:0:0:
5,305,387550,2,0,L|63:296,1,37.5000014305115,2|0,0:0|0:0,0:0:0:0:
24,212,387738,1,4,0:3:0:0:
24,212,387925,6,0,L|138:196,1,100,8|0,0:0|0:0,0:0:0:0:
182,264,388206,2,0,L|281:277,1,100,8|0,0:0|0:0,0:0:0:0:
348,217,388488,2,0,L|447:204,1,100,8|0,1:2|0:0,0:0:0:0:
137,77,388863,2,0,B|205:86|205:86|219:99|219:99|327:115,1,150,10|0,1:2|0:0,0:0:0:0:
360,71,389238,2,0,L|430:61,2,50,8|0|0,0:0|0:0|0:0,0:0:0:0:
261,20,389519,21,0,0:0:0:0:
344,43,389613,1,4,3:0:0:0:
74,137,389800,70,0,P|97:186|122:206,1,75.0000028610231,2|0,0:0|0:0,0:0:0:0:
111,199,390175,2,2,B|177:106|177:106|213:144|213:144|271:151,1,225.000008583069,14|0,1:2|0:0,0:0:0:0:
348,102,390550,6,0,L|460:85,1,100,8|0,1:2|0:0,0:0:0:0:
446,86,390831,1,0,0:0:0:0:
446,86,390925,2,0,L|524:100,1,50,2|0,0:0|0:0,0:0:0:0:
405,176,391113,2,0,L|356:185,1,50,2|0,0:0|0:0,0:0:0:0:
500,8,391300,1,8,1:2:0:0:
504,250,391488,102,0,B|450:245|450:245|405:175|405:175|319:234|341:350,1,300.000011444092,4|0,1:0|0:0,0:0:0:0:
343,327,391956,1,2,0:3:0:0:
348,340,392050,1,2,0:3:0:0:
425,345,392144,6,0,P|326:385|246:376,1,150,4|0,3:0|0:0,0:0:0:0:
251,303,392519,2,0,P|198:303|129:274,1,100,8|0,1:2|0:0,0:0:0:0:
143,203,392800,2,0,P|110:184|97:168,1,50,8|4,1:2|3:0,0:0:0:0:
51,344,393081,101,4,3:0:0:0:
18,112,393269,37,4,3:0:0:0:
0,207,393363,2,2,B|17:112|17:112|57:93|57:93|25:12,1,225.000008583069,14|2,1:2|0:0,0:0:0:0:
132,25,393738,5,2,0:0:0:0:
41,17,393831,2,0,B|71:94|71:94|140:109,1,150.000005722046,6|0,3:0|0:0,0:0:0:0:
213,59,394113,70,0,L|314:40,1,100,4|0,3:0|0:0,0:0:0:0:
299,133,394394,2,0,L|400:152,2,100,8|0|8,3:0|0:0|0:3,0:0:0:0:
229,180,394863,101,4,0:0:0:0:
249,302,395050,1,8,1:2:0:0:
366,353,395238,2,0,L|389:349,9,16.6666666666667,0|0|0|0|0|0|0|0|0|0,3:0|3:0|3:0|3:0|3:0|3:0|3:0|3:0|3:0|3:0,3:0:0:0:
251,318,395613,70,0,L|192:301,1,50,6|0,0:3|0:0,0:0:0:0:
202,304,395988,54,0,B|172:372|172:372|98:320|98:320|39:342,1,225.000008583069,14|0,1:2|0:0,0:0:0:0:
9,243,396363,2,0,L|87:268,1,75.0000028610231,0|0,1:0|0:0,0:0:0:0:
161,220,396550,21,2,0:0:0:0:
76,250,396644,2,0,B|29:235|29:235|6:171,1,100,2|0,3:0|0:0,0:0:0:0:
91,151,396925,2,0,B|68:107|68:107|97:45,1,100,8|0,1:2|0:0,0:0:0:0:
171,91,397206,2,0,B|186:44|186:44|250:21,1,100,0|0,1:0|0:0,0:0:0:0:
269,105,397488,2,0,B|312:82|312:82|374:111,1,100,8|0,1:2|0:0,0:0:0:0:
442,69,397769,69,2,0:0:0:0:
358,115,397863,1,8,0:0:0:0:
504,310,398144,1,2,0:0:0:0:
471,298,398238,1,8,1:2:0:0:
467,169,398425,1,0,0:0:0:0:
424,203,398519,1,2,0:0:0:0:
379,235,398613,2,0,P|364:297|376:333,1,75.0000028610231,4|0,1:2|0:0,0:0:0:0:
239,380,398988,5,2,0:0:0:0:
239,380,399175,2,2,B|217:322|217:322|243:256|243:256|218:182,1,187.5,14|0,1:2|0:0,0:0:0:0:
217,182,399550,1,8,1:2:0:0:
306,4,399738,1,0,3:0:0:0:
282,39,399831,1,0,3:0:0:0:
250,65,399925,1,0,3:0:0:0:
210,81,400019,1,0,3:0:0:0:
168,84,400113,1,0,3:0:0:0:
39,30,400300,2,0,L|32:0,3,20.8333333333333,0|0|0|0,3:0|3:0|3:0|3:0,3:0:0:0:
83,109,400488,102,2,P|56:88|88:148,1,250,14|0,1:2|0:0,0:0:0:0:
94,137,400956,1,0,1:0:0:0:
113,121,401050,1,0,0:0:0:0:
137,117,401144,6,0,L|230:131,1,75.0000028610231,6|0,3:0|0:0,0:0:0:0:
238,179,401425,1,2,0:0:0:0:
262,124,401519,2,0,L|355:138,1,75.0000028610231,0|0,1:0|0:0,0:0:0:0:
358,186,401800,1,0,1:0:0:0:
391,134,401894,1,6,1:3:0:0:
508,244,402081,1,4,3:0:0:0:
478,70,402269,1,4,3:0:0:0:
496,120,402363,102,0,B|478:71|478:71|432:221,1,187.5,14|0,1:2|0:0,0:0:0:0:
432,375,402831,2,0,B|472:387|472:387|446:299,1,125,4|0,0:0|0:0,0:0:0:0:
360,264,403113,6,0,B|320:252|320:252|346:340,1,125,6|0,3:0|0:0,0:0:0:0:
269,357,403394,2,0,B|253:304|253:304|217:349,1,112.500004291535,2|0,0:0|0:0,0:0:0:0:
167,287,403769,2,0,B|173:277|173:277|148:276,1,25,6|0,0:3|0:0,0:0:0:0:
49,360,404050,101,0,1:0:0:0:
49,360,404238,1,8,1:2:0:0:
49,360,404331,1,0,0:0:0:0:
49,360,404425,1,2,0:0:0:0:
12,189,404613,70,0,L|79:202,1,50,4|0,3:0|0:0,0:0:0:0:
61,198,404988,38,0,B|69:94|139:125|155:9,1,200,6|8,1:2|1:2,0:0:0:0:
163,188,405550,1,2,0:3:0:0:
163,188,405925,70,0,L|238:217,1,59.9999981689454,0|0,1:0|0:0,0:0:0:0:
289,166,406206,2,0,L|364:137,1,59.9999981689454,4|0,3:0|0:0,0:0:0:0:
386,216,406488,2,0,L|480:252,1,89.9999972534181,0|0,1:0|0:0,0:0:0:0:
489,254,406863,1,8,1:2:0:0:
256,364,407238,37,0,1:0:0:0:
256,364,407425,1,0,0:0:0:0:
256,364,407519,1,0,0:0:0:0:
256,364,407613,1,4,3:0:0:0:
149,369,407800,2,0,L|80:377,1,59.9999981689454,2|0,0:0|0:0,0:0:0:0:
187,279,408175,70,0,B|201:255|201:255|25:225,1,200,4|0,0:0|1:0,0:0:0:0:
95,146,408738,1,2,0:0:0:0:
95,146,408831,1,0,0:0:0:0:
95,146,408925,1,0,0:0:0:0:
25,68,409113,1,0,0:0:0:0:
25,68,409300,1,2,0:3:0:0:
188,19,409488,6,0,B|137:112|232:136|180:238,1,225.000008583069,4|0,0:0|0:0,0:0:0:0:
170,254,410144,1,2,0:0:0:0:
331,356,410425,1,0,0:0:0:0:
331,356,410519,1,8,0:0:0:0:
479,227,410800,1,0,0:0:0:0:
479,227,410894,101,4,0:3:0:0:
373,255,411081,1,4,0:3:0:0:
299,177,411269,1,4,0:3:0:0:
299,177,411363,2,0,P|290:127|401:158,1,225.000008583069,4|0,0:0|0:0,0:0:0:0:
299,177,412113,6,0,P|314:6|402:152,1,449.99998626709,4|0,0:1|1:0,0:0:0:0:
374,247,413238,1,2,3:0:0:0:
374,247,413425,1,0,0:0:0:0:
475,342,413613,1,2,0:0:0:0:
475,342,413988,102,0,B|438:283|356:267|320:363|244:355|237:254|142:275,1,359.999989013672,4|0,0:0|0:0,0:0:0:0:
56,316,414925,2,0,P|34:353|39:401,2,75,0|0|0,1:0|0:0|1:3,0:0:0:0:
204,151,415675,5,0,0:0:0:0:
204,151,415863,2,0,P|137:153|48:54,1,200,2|4,0:0|0:3,0:0:0:0:
128,2,416800,1,0,0:0:0:0:
217,48,416988,1,0,0:0:0:0:
416,6,417175,102,0,P|290:77|270:221,1,300,4|0,0:0|0:0,0:0:0:0:
403,231,418488,6,0,P|364:202|484:191,1,314.999990386963,2|0,0:0|0:0,0:0:0:0:
478,272,419988,102,0,B|350:271|364:191|256:191,1,240,2|0,0:0|0:0,0:0:0:0:
142,219,421488,6,0,B|126:185|134:-17|284:-83|630:137|441:346|315:326|216:385|160:325|211:264|130:202|49:250|41:315,1,839.999974365235,2|0,0:0|1:0,0:0:0:0:
