osu file format v14

[General]
AudioFilename: audio.mp3
AudioLeadIn: 0
PreviewTime: 123454
Countdown: 0
SampleSet: Soft
StackLeniency: 0.7
Mode: 0
LetterboxInBreaks: 0
WidescreenStoryboard: 1

[Editor]
Bookmarks: 27454,54883,67740,83168,96026,109740
DistanceSpacing: 0.6
BeatDivisor: 4
GridSize: 4
TimelineZoom: 1.6

[Metadata]
Title:In The End
TitleUnicode:In The End
Artist:Culprate
ArtistUnicode:Culprate
Creator:kirinokirino
Version:End.
Source:
Tags:
BeatmapID:915489
BeatmapSetID:423661

[Difficulty]
HPDrainRate:0
CircleSize:4.2
OverallDifficulty:6
ApproachRate:9
SliderMultiplier:1.5
SliderTickRate:1

[Events]
//Background and Video events
0,0,"vecher_nebo_luna_mrak_1920x1200.jpg",0,0
//Break Periods
2,199083,211997
//Storyboard Layer 0 (Background)
//Storyboard Layer 1 (Fail)
//Storyboard Layer 2 (Pass)
//Storyboard Layer 3 (Foreground)
//Storyboard Sound Samples

[TimingPoints]
24026,428.571428571429,4,2,1,30,1,0
24026,-133.333333333333,4,2,1,30,0,0
24454,-133.333333333333,4,2,1,5,0,0
24883,-133.333333333333,4,2,1,30,0,0
25311,-133.333333333333,4,2,1,5,0,0
25740,-133.333333333333,4,2,1,30,0,0
26168,-133.333333333333,4,2,1,5,0,0
26597,-133.333333333333,4,2,1,30,0,0
27026,-133.333333333333,4,2,1,5,0,0
27454,-133.333333333333,4,2,1,30,0,0
29454,-133.333333333333,4,2,1,5,0,0
29597,-133.333333333333,4,2,1,30,0,0
30740,-133.333333333333,4,2,1,5,0,0
30883,-133.333333333333,4,2,1,30,0,0
32454,-133.333333333333,4,2,1,5,0,0
32597,-133.333333333333,4,2,1,30,0,0
37097,-133.333333333333,4,2,1,15,0,0
37168,-133.333333333333,4,2,1,20,0,0
37311,-133.333333333333,4,2,1,30,0,0
37597,-133.333333333333,4,2,1,5,0,0
37740,-133.333333333333,4,2,1,30,0,0
44883,-133.333333333333,4,2,1,5,0,0
45026,-133.333333333333,4,2,1,30,0,0
48311,-133.333333333333,4,2,1,5,0,0
48454,-133.333333333333,4,2,1,30,0,0
50883,-133.333333333333,4,2,1,5,0,0
51026,-133.333333333333,4,2,1,30,0,0
54883,-100,4,2,1,45,0,0
55168,-100,4,2,1,5,0,0
55311,-100,4,2,1,45,0,0
55597,-100,4,2,1,5,0,0
55740,-100,4,2,1,45,0,0
56883,-100,4,2,1,5,0,0
57026,-100,4,2,1,45,0,0
57311,-100,4,2,1,5,0,0
57454,-100,4,2,1,45,0,0
57740,-100,4,2,1,5,0,0
57883,-100,4,2,1,45,0,0
58168,-100,4,2,1,5,0,0
58311,-100,4,2,1,45,0,0
60026,-100,4,2,1,45,0,0
60168,-100,4,2,1,5,0,0
60311,-100,4,2,1,35,0,0
60454,-100,4,2,1,5,0,0
60597,-100,4,2,1,25,0,0
60883,-100,4,2,1,45,0,0
62026,-100,4,2,1,5,0,0
62168,-100,4,2,1,45,0,0
62454,-100,4,2,1,5,0,0
62597,-100,4,2,1,45,0,0
63740,-100,4,2,1,5,0,0
63883,-100,4,2,1,45,0,0
65026,-100,4,2,1,5,0,0
65168,-100,4,2,1,45,0,0
66240,-100,4,2,1,20,0,0
66311,-100,4,2,1,30,0,0
66454,-100,4,2,1,45,0,0
66740,-100,4,2,1,5,0,0
67311,-100,4,2,1,30,0,0
67740,-100,4,2,1,45,0,0
69240,-100,4,2,1,5,0,0
69454,-100,4,2,1,45,0,0
70311,-100,4,2,1,5,0,0
70454,-100,4,2,1,45,0,0
70597,-100,4,2,1,5,0,0
70740,-100,4,2,1,45,0,0
71026,-100,4,2,1,5,0,0
71168,-100,4,2,1,45,0,0
72526,-100,4,2,1,5,0,0
72668,-100,4,2,1,45,0,0
72740,-100,4,2,1,5,0,0
72883,-100,4,2,1,45,0,0
75740,-100,4,2,1,5,0,0
75883,-100,4,2,1,45,0,0
76168,-100,4,2,1,5,0,0
76311,-100,4,2,1,45,0,0
76597,-100,4,2,1,5,0,0
76740,-100,4,2,1,45,0,0
77383,-100,4,2,1,5,0,0
77597,-100,4,2,1,45,0,0
77883,-100,4,2,1,5,0,0
78026,-100,4,2,1,45,0,0
80026,-100,4,2,1,5,0,0
80168,-100,4,2,1,45,0,0
80454,-100,4,2,1,5,0,0
80597,-100,4,2,1,25,0,0
80740,-100,4,2,1,5,0,0
80883,-100,4,2,1,35,0,0
81026,-100,4,2,1,5,0,0
81168,-100,4,2,1,45,0,0
81311,-100,4,2,1,5,0,0
81454,-100,4,2,1,45,0,0
82740,-100,4,2,1,5,0,0
83168,-133.333333333333,4,2,1,45,0,0
83597,-86.9565217391304,4,2,1,45,0,0
84454,-76.9230769230769,4,2,1,45,0,0
84883,-133.333333333333,4,2,1,45,0,0
85740,-86.9565217391304,4,2,1,45,0,0
87883,-76.9230769230769,4,2,1,45,0,0
88311,-133.333333333333,4,2,1,45,0,0
89168,-86.9565217391304,4,2,1,45,0,0
94097,-76.9230769230769,4,2,1,45,0,0
94740,-68.9655172413793,4,2,1,45,0,0
95168,-133.333333333333,4,2,1,45,0,0
96026,-83.3333333333333,4,2,1,45,0,0
98168,-71.4285714285714,4,2,1,45,0,0
98597,-133.333333333333,4,2,1,45,0,0
99454,-83.3333333333333,4,2,1,45,0,0
101597,-71.4285714285714,4,2,1,45,0,0
102026,-133.333333333333,4,2,1,45,0,0
102883,-83.3333333333333,4,2,1,45,0,0
108883,-200,4,2,1,45,0,0
109740,-66.6666666666667,4,2,1,45,0,0
117026,-83.3333333333333,4,2,1,45,0,0
118740,-74.0740740740741,4,2,1,45,0,0
119168,-66.6666666666667,4,2,1,45,0,0
122597,-133.333333333333,4,2,1,45,0,0
123454,-66.6666666666667,4,2,1,45,0,0
124954,-83.3333333333333,4,2,1,45,0,0
126883,-66.6666666666667,4,2,1,45,0,0
136311,-133.333333333333,4,2,1,45,0,0
137168,-83.3333333333333,4,2,1,45,0,0
138026,-66.6666666666667,4,2,1,45,0,0
145026,-66.6666666666667,4,2,1,5,0,0
145097,-66.6666666666667,4,2,1,45,0,0
145240,-66.6666666666667,4,2,1,5,0,0
145311,-66.6666666666667,4,2,1,45,0,0
145883,-66.6666666666667,4,2,1,5,0,0
145954,-66.6666666666667,4,2,1,45,0,0
146097,-66.6666666666667,4,2,1,5,0,0
146168,-66.6666666666667,4,2,1,45,0,0
146311,-66.6666666666667,4,2,1,5,0,0
146383,-66.6666666666667,4,2,1,45,0,0
146526,-66.6666666666667,4,2,1,5,0,0
146597,-50,4,2,1,45,0,0
147454,-66.6666666666667,4,2,1,45,0,0
150026,-133.333333333333,4,2,1,45,0,0
150883,-83.3333333333333,4,2,1,45,0,0
152383,-58.8235294117647,4,2,1,45,0,0
153454,-111.111111111111,4,2,1,45,0,0
154311,-83.3333333333333,4,2,1,45,0,0
164168,-200,4,2,1,45,0,0
164597,-133.333333333333,4,2,1,5,0,0
212597,-83.3333333333333,4,2,1,45,0,0
226311,-133.333333333333,4,2,1,45,0,0
226954,-83.3333333333333,4,2,1,45,0,0
253740,-66.6666666666667,4,2,1,60,0,1
308168,-66.6666666666667,4,2,1,60,0,0

[Colours]
Combo1 : 113,77,179
Combo2 : 46,92,124

[HitObjects]
116,44,24026,6,0,P|132:80|148:164,1,112.500004291535,0|0,1:0|0:0,0:0:0:0:
115,258,24883,2,0,P|125:202|146:150,1,112.500004291535,0|0,1:0|0:0,0:0:0:0:
248,72,25740,6,0,L|364:88,1,112.500004291535,0|0,1:0|0:0,0:0:0:0:
496,92,26597,2,0,L|384:76,1,112.500004291535,0|0,1:0|0:0,0:0:0:0:
400,220,27454,6,0,B|384:276|321:292|321:292|283:247|216:260,1,225.000008583069,4|0,0:0|0:0,0:0:0:0:
248,352,29168,6,0,P|224:360|164:364,1,75.000002861023
88,320,29597,2,0,P|100:288|88:208,1,112.500004291535
124,68,30454,2,0,L|200:48,1,75.000002861023,2|0,0:0|0:0,0:0:0:0:
284,72,30883,6,0,B|336:48|376:68|376:68|395:64|395:64|428:88|376:116|400:176,1,225.000008583069
464,284,32168,2,0,P|456:308|416:352,1,75.000002861023,2|0,0:0|0:0,0:0:0:0:
464,284,32597,6,0,B|300:324|300:324|232:308,1,225.000008583069
132,184,33883,1,2,0:0:0:0:
264,68,34311,6,0,B|312:96|312:96|380:88,1,112.500004291535
244,56,35168,1,0,0:0:0:0:
400,160,35597,2,0,P|412:196|416:264,2,84.3750032186509,2|0|0,0:0|0:0|0:0,0:0:0:0:
360,296,36454,6,0,L|248:308,1,112.500004291535
160,256,37097,1,0,0:0:0:0:
160,256,37204,1,2,0:0:0:0:
160,256,37311,2,0,P|172:212|168:184,1,75.000002861023
104,108,37740,6,0,B|155:73|211:95|211:95|276:120|320:80,1,225.000008583069
324,68,39026,2,0,L|368:60,2,37.5000014305115,2|0|0,0:0|0:0|0:0,0:0:0:0:
368,136,39454,6,0,L|412:128,2,37.5000014305115
421,219,39883,1,0,0:0:0:0:
414,208,40097,1,2,0:0:0:0:
376,304,40311,2,0,L|264:316,1,112.500004291535
116,244,41168,6,0,B|100:308|100:308|63:335,1,112.500004291535,0|2,0:0|0:0,0:0:0:0:
72,184,42026,1,0,0:0:0:0:
176,96,42454,6,0,B|216:144|276:120|276:120|344:92|376:144,2,225.000008583069,2|0|2,0:0|0:0|0:0,0:0:0:0:
248,204,44597,6,0,P|248:248|232:284,1,75.000002861023
168,316,45026,2,0,P|108:308|48:320,1,112.500004291535
236,356,45883,6,0,P|296:364|356:352,2,112.500004291535,2|0|0,0:0|0:0|0:0,0:0:0:0:
128,244,47168,2,0,B|151:192|151:192|136:128,1,112.500004291535,2|0,0:0|0:0,0:0:0:0:
264,48,48026,6,0,P|292:68|344:68,1,75.000002861023
320,0,48454,2,0,L|208:16,1,112.500004291535,2|0,0:0|0:0,0:0:0:0:
344,132,49311,6,0,B|372:188|341:238|341:238|276:244|245:295,1,225.000008583069,2|0,0:0|0:0,0:0:0:0:
340,348,50597,2,0,P|384:340|424:336,1,75.000002861023
488,292,51026,2,0,P|460:264|380:256,1,112.500004291535,2|0,0:0|0:0,0:0:0:0:
256,192,52311,12,0,54026,0:0:0:0:
176,112,54883,6,0,L|280:120,1,100,4|0,0:0|0:0,0:0:0:0:
120,168,55311,2,0,P|108:200|104:272,1,100
196,328,55740,2,0,B|230:312|270:326|270:326|292:288|340:284,1,150,2|0,3:0|0:0,0:0:0:0:
128,288,56740,6,0,P|100:292|72:292,1,50,2|0,0:0|0:0,0:0:0:0:
96,216,57026,2,0,P|88:184|88:112,1,100
176,224,57454,2,0,L|280:232,1,100,2|0,3:0|0:0,0:0:0:0:
164,148,57883,2,0,B|234:153|234:153|268:128,1,112.5
152,72,58311,6,0,P|108:44|20:76,2,150,0|2|2,3:0|0:0|3:0,0:0:0:0:
240,48,59383,1,0,0:0:0:0:
240,48,59490,1,0,0:0:0:0:
240,48,59597,2,0,P|312:72|340:64,1,100
424,4,60026,6,0,L|408:56,1,50,2|0,0:0|0:0,0:0:0:0:
480,120,60311,2,0,P|488:144|496:176,1,50,2|0,0:0|0:0,0:0:0:0:
396,208,60597,2,0,B|372:240|372:240|300:264,1,112.5,2|2,0:0|3:0,0:0:0:0:
404,196,61311,1,2,0:0:0:0:
292,296,61740,6,0,L|256:196,1,100
200,300,62168,2,0,P|176:320|108:328,1,100,2|0,0:0|0:0,0:0:0:0:
252,188,62597,2,0,L|398:143,1,150,2|2,3:0|0:0,0:0:0:0:
184,148,63454,6,0,P|164:120|156:56,1,100
312,124,63883,2,0,L|269:267,1,150,2|2,0:0|3:0,0:0:0:0:
312,124,64740,2,0,P|368:108|404:80,1,100
316,24,65168,6,0,B|268:52|258:108|292:151|292:151|332:202|308:264|264:284,1,300,0|2,0:0|3:0,0:0:0:0:
164,312,66240,2,0,L|120:308,1,37.5,2|0,0:0|0:0,0:0:0:0:
152,236,66454,2,0,L|136:136,1,100,2|0,0:0|0:0,0:0:0:0:
188,68,67311,5,0,0:0:0:0:
188,68,67526,1,0,0:0:0:0:
316,32,67740,2,0,B|316:80|316:80|343:128|343:128|344:184,1,150,4|2,0:0|3:0,0:0:0:0:
192,272,68597,6,0,B|223:249|228:212|210:185|210:185|215:159|215:159|198:133|196:84|252:60,1,225,2|0,0:0|0:0,0:0:0:0:
292,176,69454,2,0,B|316:244|280:320|220:345|220:345|176:360|140:340|123:312,1,300,2|0,3:0|0:0,0:0:0:0:
56,264,70454,6,0,P|56:240|48:212,1,50,2|0,0:0|0:0,0:0:0:0:
116,176,70740,2,0,P|120:140|164:88,1,100
166,16,71168,2,0,B|204:24|226:56|226:56|264:40|304:52,1,150,2|0,3:0|0:0,0:0:0:0:
440,152,72026,5,0,0:0:0:0:
384,216,72240,2,0,P|372:256|384:320,1,100,2|0,0:0|0:0,0:0:0:0:
460,344,72668,2,0,L|516:336,1,37.5
460,240,72883,2,0,P|461:195|412:140,2,112.5,2|0|2,3:0|0:0|0:0,0:0:0:0:
346,172,73740,6,0,B|330:109|372:68|421:68|421:68|269:29,1,300,0|2,0:0|3:0,0:0:0:0:
420,144,75026,1,2,0:0:0:0:
432,152,75454,6,0,P|459:200|453:242,1,100
356,140,75883,2,0,P|344:84|312:32,1,100,2|0,0:0|0:0,0:0:0:0:
293,184,76311,2,0,P|333:212|383:211,1,100,2|0,3:0|0:0,0:0:0:0:
248,84,76740,2,0,P|275:132|161:211,1,225,2|0,0:0|0:0,0:0:0:0:
128,104,77597,6,0,P|100:100|24:120,1,100
196,144,78026,1,2,3:0:0:0:
0,184,78454,2,0,L|12:260,1,75,2|0,0:0|0:0,0:0:0:0:
30,115,78883,6,0,P|44:84|48:48,3,62.5
224,12,79740,2,0,P|212:48|208:112,1,100,2|0,3:0|0:0,0:0:0:0:
268,168,80168,2,0,P|280:204|284:268,1,100
224,324,80597,6,0,L|168:320,1,50,0|0,3:0|0:0,0:0:0:0:
376,244,80883,2,0,L|425:240,1,50,2|0,0:0|0:0,0:0:0:0:
168,220,81168,2,0,L|118:223,1,50,2|0,0:0|0:0,0:0:0:0:
240,140,81454,1,2,3:0:0:0:
256,192,81508,12,0,82740,0:0:0:0:
336,96,83168,6,0,P|300:125|264:131,1,75.000002861023,4|0,0:0|0:0,0:0:0:0:
196,116,83597,2,0,B|196:76|196:76|168:28,1,86.2500016450882,2|0,0:0|0:0,0:0:0:0:
56,120,84026,2,0,B|56:160|56:160|84:208,1,86.2500016450882,2|0,0:0|0:0,0:0:0:0:
168,292,84454,2,0,P|208:304|292:264,1,129.999994049073
292,196,84883,2,0,L|352:356,1,168.750006437302,8|0,0:0|0:0,0:0:0:0:
440,296,85740,6,0,P|452:252|484:220,2,86.2500016450882,2|0|0,0:0|0:0|0:0,0:0:0:0:
416,164,86383,1,0,0:0:0:0:
412,148,86490,1,2,0:0:0:0:
408,132,86597,2,0,P|416:92|304:28,1,172.500003290176,0|2,0:0|0:0,0:0:0:0:
228,88,87240,1,0,0:0:0:0:
136,40,87454,6,0,P|104:48|40:52,1,86.2500016450882,2|0,0:0|0:0,0:0:0:0:
141,144,87883,2,0,P|124:192|136:276,1,129.999994049073
196,316,88311,2,0,B|272:304|272:304|368:336,1,168.750006437302,8|2,0:0|0:0,0:0:0:0:
436,252,89168,6,0,P|420:208|424:164,1,86.2500016450882
312,148,89597,2,0,P|338:109|346:66,1,86.2500016450882
332,52,89918,1,2,0:0:0:0:
320,36,90026,1,0,0:0:0:0:
320,36,90454,2,0,P|364:44|440:32,1,86.2500016450882,2|0,0:0|0:0,0:0:0:0:
232,44,90883,6,0,P|189:59|130:107,1,86.2500016450882,2|0,0:0|0:0,0:0:0:0:
131,259,91311,2,0,P|144:204|115:155,1,115.000002193451
68,216,91740,2,0,L|92:316,1,86.2500016450882,8|0,0:0|0:0,0:0:0:0:
224,328,92168,2,0,P|256:320|336:312,1,86.2500016450882,0|0,0:0|3:0,0:0:0:0:
320,304,92454,1,2,3:0:0:0:
364,312,92597,6,0,L|388:224,1,86.2500016450882,0|2,0:0|0:0,0:0:0:0:
328,128,93026,2,0,P|372:104|400:56,1,86.2500016450882,0|2,0:0|1:0,0:0:0:0:
416,72,93347,1,0,0:0:0:0:
440,68,93454,2,0,L|484:64,1,43.1250008225441,8|0,3:0|0:0,0:0:0:0:
472,144,93668,1,0,0:0:0:0:
472,144,93776,2,0,L|476:188,1,43.1250008225441,8|0,3:0|0:0,0:0:0:0:
416,272,94097,2,0,P|384:288|324:288,1,97.4999955368044,0|2,0:0|0:0,0:0:0:0:
216,216,94526,5,0,0:0:0:0:
260,84,94740,2,0,P|176:84|104:124,1,145.000004425049
80,176,95168,2,0,B|60:216|60:216|80:248|80:248|68:276|68:276|84:304|84:304|72:328,1,168.750006437302,8|2,0:0|0:0,0:0:0:0:
192,348,96026,6,0,P|252:332|300:328,1,89.9999972534181,4|0,0:0|0:0,0:0:0:0:
360,244,96454,2,0,P|413:274|459:291,1,89.9999972534181
456,264,96776,1,2,0:0:0:0:
468,248,96883,1,8,0:0:0:0:
416,164,97097,1,0,0:0:0:0:
472,60,97311,2,0,P|432:36|364:24,1,89.9999972534181,2|0,0:0|0:0,0:0:0:0:
276,52,97740,6,0,P|236:76|168:88,1,89.9999972534181,2|0,0:0|0:0,0:0:0:0:
60,60,98168,2,0,P|92:108|96:196,1,139.999995727539
36,248,98597,2,0,B|64:320|64:320|144:368,1,168.750006437302,8|0,0:0|0:0,0:0:0:0:
236,316,99454,6,0,P|280:328|324:328,1,89.9999972534181,0|2,0:0|0:0,0:0:0:0:
380,224,99883,2,0,P|424:212|462:190,1,89.9999972534181
472,172,100204,1,2,0:0:0:0:
480,156,100311,2,0,L|468:60,1,89.9999972534181,8|0,0:0|0:0,0:0:0:0:
352,48,100740,2,0,L|340:144,1,89.9999972534181,2|0,0:0|0:0,0:0:0:0:
232,176,101168,5,2,0:0:0:0:
176,40,101383,1,0,0:0:0:0:
80,104,101597,2,0,B|72:156|72:156|112:200|104:256,1,157.499995193482
60,320,102026,2,0,P|144:320|184:248,1,168.750006437302,8|0,0:0|0:0,0:0:0:0:
252,160,102883,6,0,L|296:144,1,44.999998626709
220,152,103097,1,2,0:0:0:0:
364,272,103311,1,0,0:0:0:0:
440,172,103526,1,0,0:0:0:0:
440,172,103633,1,2,0:0:0:0:
440,172,103740,2,0,B|446:128|408:90|408:90|370:55|376:8,1,179.999994506836,8|0,0:0|0:0,0:0:0:0:
288,92,104383,2,0,L|240:80,1,44.999998626709
184,32,104597,6,0,L|212:152,1,89.9999972534181,2|0,0:0|0:0,0:0:0:0:
140,216,105026,2,0,P|172:248|192:300,1,89.9999972534181,2|0,0:0|0:0,0:0:0:0:
56,192,105454,2,0,P|44:148|52:93,1,89.9999972534181,8|0,0:0|0:0,0:0:0:0:
132,24,105883,1,2,0:0:0:0:
233,77,106097,1,0,3:0:0:0:
240,88,106168,1,2,3:0:0:0:
272,88,106311,6,0,P|308:88|368:56,1,89.9999972534181,2|0,0:0|0:0,0:0:0:0:
368,184,106740,2,0,P|399:166|435:108,1,89.9999972534181,2|0,0:0|0:0,0:0:0:0:
499,219,107168,1,2,3:0:0:0:
420,332,107383,1,0,0:0:0:0:
500,304,107597,1,2,0:0:0:0:
420,332,108026,6,0,P|376:320|336:284,1,89.9999972534181,2|0,0:0|0:0,0:0:0:0:
256,368,108454,2,0,P|233:328|230:274,1,89.9999972534181,2|0,0:0|0:0,0:0:0:0:
114,277,108883,2,0,L|72:288,1,37.5,8|0,0:0|0:0,0:0:0:0:
77,286,109740,6,0,P|100:256|112:208,1,75.000002861023,4|0,0:0|0:0,0:0:0:0:
84,152,110026,2,0,P|61:122|49:74,1,75.000002861023,2|0,0:0|0:0,0:0:0:0:
59,9,110311,2,0,P|107:36|128:88,1,112.500004291535,0|0,1:0|1:0,0:0:0:0:
144,80,110597,2,0,L|200:76,2,56.2500021457673,8|0|2,0:0|0:0|0:0,0:0:0:0:
188,160,110918,2,0,L|244:164,2,56.2500021457673,8|0|2,0:0|0:0|0:0,0:0:0:0:
186,251,111240,2,0,P|172:280|168:304,1,56.2500021457673,0|2,0:0|0:0,0:0:0:0:
256,300,111454,5,4,0:0:0:0:
264,292,111776,1,2,0:0:0:0:
344,324,111883,2,0,L|400:320,1,56.2500021457673,0|8,0:0|0:0,0:0:0:0:
440,240,112097,2,0,P|464:188|452:96,1,112.500004291535,0|4,0:0|0:0,0:0:0:0:
256,192,112338,12,0,113168,0:0:0:0:
220,56,113918,5,0,0:0:0:0:
220,56,114026,2,0,L|248:192,1,112.500004291535,8|0,0:0|0:0,0:0:0:0:
192,232,114347,1,0,1:0:0:0:
141,297,114454,2,0,B|192:330|245:294|245:294|302:255|352:298,1,225.000008583069,0|2,0:0|0:0,0:0:0:0:
424,212,115097,6,0,L|464:204,2,37.5000014305115,0|0|0,3:0|3:0|3:0,3:0:0:0:
480,184,115311,2,0,P|492:128|480:68,1,112.500004291535,0|2,3:0|0:0,0:0:0:0:
412,44,115633,1,4,0:0:0:0:
341,13,115740,2,0,B|288:32|288:32|224:24,1,112.500004291535,8|2,0:0|0:0,0:0:0:0:
168,64,116061,1,0,0:0:0:0:
103,102,116168,2,0,L|88:160,1,56.2500021457673
136,236,116383,2,2,L|144:276,2,28.1250010728836
152,216,116597,5,4,0:0:0:0:
152,216,117026,2,0,P|204:248|248:252,1,89.9999972534181,2|0,0:0|0:0,0:0:0:0:
332,224,117454,2,0,B|324:180|324:180|364:96|364:96|352:40,1,179.999994506836,8|2,0:0|0:0,0:0:0:0:
240,136,118097,1,0,0:0:0:0:
416,236,118311,6,0,P|432:268|444:328,1,89.9999972534181,2|0,0:0|0:0,0:0:0:0:
296,344,118740,2,0,L|196:332,1,101.250000386238,0|2,0:0|0:0,0:0:0:0:
104,216,119168,2,0,L|96:188,6,28.1250010728836,0|0|0|0|0|0|2,2:0|2:0|2:0|2:0|2:0|2:0|2:0,2:0:0:0:
176,160,119597,1,0,0:0:0:0:
180,84,119740,2,0,P|191:125|191:165,1,75.000002861023,2|0,0:0|0:0,0:0:0:0:
264,40,120026,6,0,B|336:8|404:72|384:140|342:168|342:168|399:204|398:273,1,337.500012874604,4|2,0:0|0:0,0:0:0:0:
288,264,120883,1,8,0:0:0:0:
200,156,121097,1,0,0:0:0:0:
200,156,121204,2,0,L|128:152,1,56.2500021457673,8|0,0:0|0:0,0:0:0:0:
80,72,121418,1,0,0:0:0:0:
80,72,121525,2,0,L|152:76,1,56.2500021457673
256,28,121740,6,0,P|284:80|352:100,1,112.500004291535,2|0,0:0|0:0,0:0:0:0:
420,168,122168,2,0,L|408:212,4,37.5000014305115
332,224,122597,2,0,B|352:248|352:280|344:308|300:348|224:336,1,187.500007152558,4|0,0:0|0:0,0:0:0:0:
168,308,123454,6,0,P|148:276|104:244,1,75.000002861023
148,180,123740,2,0,P|143:142|117:94,1,75.000002861023,2|0,0:0|0:0,0:0:0:0:
64,60,124026,2,0,P|112:80|200:72,1,112.500004291535,0|0,1:0|1:0,1:0:0:0:
196,68,124311,2,0,B|232:56|232:56|304:76,1,112.500004291535,8|0,0:0|0:0,0:0:0:0:
456,136,124633,2,0,B|384:156|384:156|348:144,1,112.500004291535,8|0,0:0|0:0,0:0:0:0:
224,184,124954,6,0,B|248:228|228:272|228:272|271:266|316:284|336:316,1,209.999993591309,0|0,0:0|0:0,0:0:0:0:
248,376,125597,1,0,0:0:0:0:
145,232,125811,1,0,0:0:0:0:
240,100,126026,2,0,B|296:132|296:132|428:104,1,179.999994506836,8|2,0:0|0:0,0:0:0:0:
176,48,126883,6,0,P|156:104|188:164,1,112.500004291535
337,232,127311,2,0,P|356:284|336:335,1,112.500004291535
196,268,127740,2,0,P|150:305|82:296,1,112.500004291535,8|0,0:0|0:0,0:0:0:0:
316,116,128168,2,0,P|361:78|429:87,1,112.500004291535,2|0,0:0|0:0,0:0:0:0:
368,248,128597,5,2,0:0:0:0:
256,192,128811,1,0,0:0:0:0:
144,136,129026,2,0,L|124:24,2,112.500004291535,0|2|8,0:0|0:0|0:0,0:0:0:0:
256,192,129481,12,0,130311,0:0:0:0:
296,40,130740,6,0,B|324:88|324:88|402:112,1,112.500004291535,2|0,0:0|0:0,0:0:0:0:
444,212,131168,2,0,P|444:272|416:328,1,112.500004291535,8|0,0:0|0:0,0:0:0:0:
328,300,131490,2,0,P|289:345|231:370,1,112.500004291535,8|0,0:0|0:0,0:0:0:0:
182,292,131811,1,0,0:0:0:0:
182,292,131918,2,0,L|196:236,1,56.2500021457673,2|0,0:0|0:0,0:0:0:0:
116,144,132133,6,0,L|52:156,1,56.2500021457673
188,64,132347,1,4,0:0:0:0:
188,64,132454,2,0,B|217:77|246:71|246:71|273:67|299:79|299:79|331:96|366:86|366:86|392:80|412:96,1,225.000008583069,0|8,0:0|0:0,0:0:0:0:
332,228,133097,1,0,0:0:0:0:
332,228,133204,1,4,0:0:0:0:
332,228,133311,2,0,L|364:292,1,56.2500021457673
272,296,133526,2,0,L|280:352,1,56.2500021457673,2|0,0:0|0:0,0:0:0:0:
184,328,133740,6,0,B|88:344|64:216|180:152,1,225.000008583069,4|0,0:0|0:0,0:0:0:0:
148,60,134383,1,0,0:0:0:0:
256,144,134597,2,0,P|312:156|368:156,1,112.500004291535,8|0,0:0|0:0,0:0:0:0:
464,92,134918,2,0,P|408:80|352:80,1,112.500004291535,8|0,0:0|0:0,0:0:0:0:
288,228,135240,1,0,0:0:0:0:
368,312,135454,6,0,L|424:320,1,56.2500021457673,2|0,0:0|0:0,0:0:0:0:
472,252,135668,2,0,L|416:244,1,56.2500021457673
288,324,135883,2,2,L|248:328,4,37.5000014305115,2|0|2|0|2,0:0|0:0|0:0|0:0|0:0,0:0:0:0:
176,276,136311,2,0,B|160:172|160:172|192:140,1,150.000005722046,4|0,0:0|0:0,0:0:0:0:
191,140,137026,1,2,0:0:0:0:
191,140,137168,6,0,B|232:112|224:60,1,89.9999972534181
356,148,137597,2,0,B|359:197|408:216,1,89.9999972534181
200,320,138026,2,0,P|244:320|312:336,1,112.500004291535,8|0,0:0|0:0,0:0:0:0:
224,240,138347,2,0,P|202:201|181:135,1,112.500004291535,8|0,0:0|0:0,0:0:0:0:
212,36,138668,1,0,0:0:0:0:
292,24,138776,1,2,0:0:0:0:
372,12,138883,5,4,0:0:0:0:
372,12,139204,2,0,L|364:68,1,56.2500021457673
424,144,139418,1,8,0:0:0:0:
424,144,139526,2,0,P|380:188|364:240,1,112.500004291535,0|4,0:0|0:0,0:0:0:0:
256,192,139767,12,0,140597,0:0:0:0:
252,268,141311,5,0,0:0:0:0:
252,268,141454,2,0,L|156:292,1,75.000002861023,8|0,0:0|0:0,0:0:0:0:
116,216,141740,1,0,1:0:0:0:
116,216,141883,2,0,L|132:144,1,56.2500021457673,2|0,0:0|0:0,0:0:0:0:
200,196,142097,2,0,L|216:124,1,56.2500021457673
284,176,142311,5,2,0:0:0:0:
376,240,142526,2,0,L|388:280,2,28.1250010728836,0|0|0,3:0|3:0|3:0,3:0:0:0:
456,260,142740,2,0,P|464:316|448:376,1,112.500004291535
312,328,143061,1,2,0:0:0:0:
312,328,143168,2,0,L|192:344,1,112.500004291535,8|0,0:0|0:0,0:0:0:0:
120,264,143490,1,0,0:0:0:0:
156,220,143597,1,2,0:0:0:0:
164,164,143704,1,0,0:0:0:0:
152,108,143811,2,0,L|136:72,2,37.5000014305115
256,144,144026,5,4,0:0:0:0:
336,40,144240,2,0,P|387:26|474:40,2,112.500004291535,0|2|0,0:0|0:0|0:0,0:0:0:0:
388,184,144883,2,0,L|376:276,1,75.000002861023,8|0,0:0|0:0,0:0:0:0:
304,224,145097,2,0,L|292:316,1,75.000002861023
364,336,145311,1,2,0:0:0:0:
216,236,145526,1,0,0:0:0:0:
64,260,145740,6,0,L|138:250,1,75.000002861023,2|0,0:0|0:0,0:0:0:0:
104,176,145954,2,0,L|178:166,1,75.000002861023
40,124,146168,2,0,P|24:88|20:48,1,75.000002861023,0|0,3:0|0:0,0:0:0:0:
112,72,146383,2,0,P|116:32|132:-3,1,75.000002861023,0|0,3:0|0:0,0:0:0:0:
200,62,146597,6,0,B|240:16|300:16|337:32|337:32|360:80|360:80|416:92|416:92|384:116|384:116|432:160|402:224|402:224|372:280|392:328,1,525,8|0,0:0|0:0,0:0:0:0:
256,280,147454,6,0,L|124:308,1,112.500004291535,4|0,0:0|0:0,0:0:0:0:
48,188,147883,1,0,0:0:0:0:
194,159,148097,1,0,0:0:0:0:
194,159,148204,1,2,0:0:0:0:
194,159,148311,2,0,P|224:100|276:72,1,112.500004291535,8|0,0:0|0:0,0:0:0:0:
124,112,148633,2,0,P|57:115|7:84,1,112.500004291535,8|0,0:0|0:0,0:0:0:0:
168,44,148954,1,2,0:0:0:0:
364,108,149168,6,0,B|377:160|377:160|436:196,1,112.500004291535,0|2,0:0|0:0,0:0:0:0:
368,292,149597,2,2,L|328:296,4,37.5000014305115
248,304,150026,6,0,L|272:132,1,168.750006437302,4|0,0:0|0:0,0:0:0:0:
184,44,150883,6,0,P|144:12|28:140,1,269.999991760254,0|2,0:0|0:0,0:0:0:0:
96,240,151740,2,0,B|92:276|92:276|120:344,1,89.9999972534181,8|0,0:0|0:0,0:0:0:0:
172,228,152061,2,0,B|168:264|168:264|196:332,1,89.9999972534181,8|0,0:0|0:0,0:0:0:0:
248,216,152383,6,0,B|237:166|193:146|154:155|154:155|160:140|160:140|144:128|157:117|157:117|120:84|116:32,1,255.000004863739
248,24,153026,1,0,0:0:0:0:
394,88,153240,1,0,0:0:0:0:
256,48,153454,2,0,L|292:184,1,134.999995880127,8|2,0:0|0:0,0:0:0:0:
290,178,154311,6,0,P|344:200|384:240,1,89.9999972534181
272,308,154740,2,0,P|214:316|160:301,1,89.9999972534181,0|2,0:0|0:0,0:0:0:0:
116,204,155168,2,0,P|132:160|132:72,1,134.999995880127,8|0,0:0|0:0,0:0:0:0:
120,48,155597,1,2,0:0:0:0:
264,16,155811,2,0,L|220:8,1,44.999998626709,0|2,0:0|0:0,0:0:0:0:
284,88,156026,6,0,P|336:64|400:60,1,89.9999972534181,2|0,0:0|0:0,0:0:0:0:
496,124,156454,1,0,0:0:0:0:
380,212,156668,2,0,L|437:200,1,44.999998626709,2|2,0:0|0:0,0:0:0:0:
360,284,156883,2,0,B|312:300|306:349|306:349|272:312|224:320|224:320|164:332|140:292,1,269.999991760254,8|0,0:0|0:0,0:0:0:0:
192,112,157740,6,0,P|156:108|128:96,1,59.9999981689454
260,76,157954,1,2,0:0:0:0:
384,40,158168,2,0,P|427:42|472:25,1,89.9999972534181,0|2,0:0|0:0,0:0:0:0:
380,152,158597,2,0,P|344:128|296:120,1,89.9999972534181,8|0,0:0|0:0,0:0:0:0:
280,220,158918,2,0,P|251:254|211:274,1,89.9999972534181,8|0,0:0|0:0,0:0:0:0:
108,220,159240,1,0,0:0:0:0:
128,180,159347,1,2,0:0:0:0:
140,136,159454,5,0,0:0:0:0:
136,92,159561,2,0,L|124:44,1,44.999998626709
236,116,159776,1,4,0:0:0:0:
236,116,159883,2,0,L|328:100,1,89.9999972534181
428,224,160311,2,0,P|404:268|420:360,2,134.999995880127,8|4|2,0:0|0:0|0:0,0:0:0:0:
244,324,161168,6,0,B|200:344|200:344|156:340,1,89.9999972534181,2|0,0:0|0:0,0:0:0:0:
144,220,161597,2,0,B|98:203|98:203|70:169,1,89.9999972534181,2|0,0:0|0:0,0:0:0:0:
336,68,162026,1,0,0:0:0:0:
316,60,162311,1,2,0:0:0:0:
292,52,162597,1,0,0:0:0:0:
251,243,162883,5,0,3:0:0:0:
280,236,163311,1,0,3:0:0:0:
444,104,163740,1,4,0:0:0:0:
280,236,164168,6,0,L|192:256,1,75,2|0,0:0|0:0,0:0:0:0:
206,252,165454,2,0,B|244:196|213:146|213:146|276:124|236:44|324:40,1,253.125009655953,0|2,0:0|0:0,0:0:0:0:
392,88,166740,2,0,P|396:136|464:180,1,112.500004291535
408,272,167597,1,0,0:0:0:0:
408,272,168026,5,0,0:0:0:0:
312,320,168561,2,0,P|264:312|216:284,1,84.3750032186509,0|2,0:0|0:0,0:0:0:0:
188,216,169311,2,0,B|208:164|208:164|188:100,1,112.500004291535
184,92,171026,5,0,0:0:0:0:
264,32,171454,2,0,P|320:24|388:32,1,112.500004291535,0|2,0:0|0:0,0:0:0:0:
340,124,172311,1,0,0:0:0:0:
384,40,172740,1,2,0:0:0:0:
392,48,173597,6,0,P|432:136|336:220,1,225.000008583069,0|2,0:0|0:0,0:0:0:0:
214,310,174883,6,0,B|242:266|223:193|150:182|150:182|87:172|54:102|93:48,1,337.500012874604,0|2,0:0|0:0,0:0:0:0:
88,55,177026,2,0,P|126:62|210:58,2,112.500004291535,0|2|0,0:0|0:0|0:0,0:0:0:0:
162,98,178311,6,0,P|230:42|366:30,1,225.000008583069,0|2,0:0|0:0,0:0:0:0:
424,116,180240,2,0,L|484:128,1,56.2500021457673,2|0,0:0|0:0,0:0:0:0:
364,168,180883,2,0,L|404:292,1,112.500004291535
268,240,181740,6,0,P|200:224|136:228,1,112.500004291535,0|2,0:0|0:0,0:0:0:0:
276,316,182597,1,0,0:0:0:0:
336,200,183026,2,0,L|320:84,1,112.500004291535,2|0,0:0|0:0,0:0:0:0:
336,200,184740,6,0,P|384:156|444:144,1,112.500004291535,2|0,0:0|0:0,0:0:0:0:
369,65,185597,1,0,0:0:0:0:
279,107,186026,2,0,P|296:160|336:200,1,112.500004291535,0|2,0:0|0:0,0:0:0:0:
335,199,187311,6,0,B|276:192|236:236|236:236|188:284|132:272,1,225.000008583069,2|2,0:0|0:0,0:0:0:0:
76,188,188597,1,0,0:0:0:0:
76,188,189883,5,2,0:0:0:0:
256,192,190311,12,0,198883,0:0:0:0:
88,100,212597,6,0,L|196:120,1,89.9999972534181
200,108,212918,1,0,0:0:0:0:
224,100,213026,1,2,0:0:0:0:
312,180,213240,2,0,L|420:200,1,89.9999972534181,0|0,0:0|1:0,0:0:0:0:
268,276,213668,1,0,0:0:0:0:
240,284,213776,1,0,0:0:0:0:
212,292,213883,2,0,L|104:272,1,89.9999972534181,2|0,0:0|3:0,0:0:0:0:
76,132,214311,5,0,0:0:0:0:
140,68,214526,1,0,0:0:0:0:
156,52,214633,1,0,0:0:0:0:
172,36,214740,2,0,L|216:28,3,44.999998626709,2|0|0|0,0:0|0:0|0:0|0:0,0:0:0:0:
256,48,215168,2,0,P|300:56|348:44,1,89.9999972534181,0|0,1:0|0:0,0:0:0:0:
368,20,215490,2,0,P|352:64|408:168,1,134.999995880127,2|0,0:0|3:0,0:0:0:0:
300,288,216026,6,0,L|388:304,1,89.9999972534181
276,304,216347,1,2,0:0:0:0:
252,320,216454,2,0,L|196:328,1,44.999998626709
176,256,216668,2,0,L|120:264,1,44.999998626709
208,180,216883,1,0,1:0:0:0:
212,152,216990,1,0,0:0:0:0:
216,124,217097,1,0,0:0:0:0:
220,96,217204,2,0,P|260:56|344:48,1,134.999995880127,2|0,0:0|3:0,0:0:0:0:
392,164,217740,6,0,L|440:168,1,44.999998626709
368,240,217954,1,0,0:0:0:0:
368,240,218061,2,0,L|416:244,1,44.999998626709,2|0,0:0|0:0,0:0:0:0:
240,320,218383,1,0,0:0:0:0:
228,296,218490,1,0,0:0:0:0:
216,272,218597,2,0,L|168:268,1,44.999998626709,0|0,1:0|0:0,0:0:0:0:
116,192,218811,1,0,0:0:0:0:
116,192,218918,2,0,L|164:188,1,44.999998626709,2|0,0:0|0:0,0:0:0:0:
215,111,219133,1,0,0:0:0:0:
215,111,219240,1,0,3:0:0:0:
281,161,219454,6,0,P|296:119|288:76,1,89.9999972534181
368,60,219776,1,2,0:0:0:0:
388,40,219883,2,0,P|412:32|432:28,1,44.999998626709
440,104,220097,2,0,P|465:102|485:103,1,44.999998626709
473,179,220311,1,0,1:0:0:0:
456,200,220418,1,0,0:0:0:0:
448,224,220526,1,0,0:0:0:0:
448,252,220633,2,0,P|400:272|360:304,1,89.9999972534181,2|0,0:0|0:0,0:0:0:0:
296,276,220954,2,0,L|248:296,1,44.999998626709,0|0,3:0|0:0,0:0:0:0:
188,244,221168,6,0,P|136:256|88:256,1,89.9999972534181,0|0,3:0|0:0,0:0:0:0:
32,216,221490,2,0,L|16:168,1,44.999998626709,2|0,0:0|0:0,0:0:0:0:
96,140,221704,1,0,3:0:0:0:
96,140,221811,2,0,L|112:44,1,89.9999972534181,2|0,3:0|1:0,0:0:0:0:
272,92,222240,1,0,0:0:0:0:
272,92,222347,2,0,L|416:68,1,134.999995880127,2|0,0:0|3:0,0:0:0:0:
336,236,222883,5,0,0:0:0:0:
332,264,222990,1,0,0:0:0:0:
328,292,223097,1,0,0:0:0:0:
324,320,223204,2,0,L|316:372,1,44.999998626709,2|0,0:0|0:0,0:0:0:0:
216,260,223418,1,0,0:0:0:0:
216,260,223525,2,0,L|208:312,1,44.999998626709,2|0,0:0|0:0,0:0:0:0:
312,140,223740,1,0,3:0:0:0:
300,136,223847,1,2,3:0:0:0:
288,132,223954,1,0,0:0:0:0:
276,128,224061,2,0,P|324:112|356:80,1,89.9999972534181,0|0,1:0|0:0,0:0:0:0:
280,20,224383,1,0,3:0:0:0:
280,20,224490,6,0,L|184:28,1,89.9999972534181,2|0,0:0|0:0,0:0:0:0:
106,36,224811,1,0,0:0:0:0:
106,36,224918,1,2,3:0:0:0:
92,224,225133,2,0,P|140:232|204:272,1,89.9999972534181,2|0,0:0|0:0,0:0:0:0:
232,340,225454,1,0,1:0:0:0:
232,340,225561,1,0,0:0:0:0:
384,224,225776,1,0,0:0:0:0:
384,224,225883,1,4,0:0:0:0:
388,212,226311,6,0,B|340:168|352:112|352:112|328:88|300:88,1,168.750006437302
276,92,227061,1,0,0:0:0:0:
252,96,227168,2,0,L|244:160,1,44.999998626709
160,208,227383,1,0,0:0:0:0:
160,208,227490,2,0,P|204:256|204:328,1,134.999995880127,0|0,1:0|0:0,0:0:0:0:
76,268,228026,5,0,0:0:0:0:
76,268,228133,2,0,L|60:164,1,89.9999972534181
172,80,228561,1,0,0:0:0:0:
172,80,228668,2,0,L|184:-4,1,44.999998626709
264,60,228883,1,0,0:0:0:0:
292,52,228990,1,0,0:0:0:0:
320,44,229097,1,0,0:0:0:0:
348,36,229204,2,0,P|392:40|436:92,1,89.9999972534181,0|0,1:0|0:0,0:0:0:0:
432,96,229526,1,0,3:0:0:0:
372,236,229740,6,0,L|380:288,2,44.999998626709
268,200,230061,2,0,P|228:176|176:176,1,89.9999972534181,0|0,3:0|0:0,0:0:0:0:
164,188,230383,1,0,0:0:0:0:
144,204,230490,1,0,0:0:0:0:
124,220,230597,1,0,0:0:0:0:
104,236,230704,2,0,L|92:328,1,89.9999972534181,0|0,3:0|1:0,0:0:0:0:
16,204,231133,1,0,0:0:0:0:
8,176,231240,1,0,0:0:0:0:
0,148,231347,2,0,L|8:100,1,44.999998626709,0|0,3:0|0:0,0:0:0:0:
140,28,231668,5,0,0:0:0:0:
140,28,231776,2,0,L|156:128,1,89.9999972534181,0|0,3:0|0:0,0:0:0:0:
176,136,232097,2,0,L|184:180,1,44.999998626709,0|0,3:0|0:0,0:0:0:0:
240,80,232311,1,0,0:0:0:0:
240,80,232418,2,0,P|288:60|328:68,1,89.9999972534181,0|0,1:0|0:0,0:0:0:0:
384,152,232740,2,0,L|364:248,1,89.9999972534181,4|2,0:0|3:0,0:0:0:0:
172,292,233168,5,0,0:0:0:0:
196,300,233276,1,0,0:0:0:0:
220,308,233383,1,0,0:0:0:0:
244,316,233490,1,0,3:0:0:0:
196,220,233704,1,0,0:0:0:0:
188,196,233811,1,0,3:0:0:0:
180,172,233918,1,0,0:0:0:0:
188,148,234026,1,0,0:0:0:0:
196,124,234133,1,0,3:0:0:0:
144,68,234347,2,0,P|192:48|264:88,1,134.999995880127,0|0,1:0|3:0,0:0:0:0:
284,96,234776,1,0,0:0:0:0:
308,108,234883,6,0,L|360:132,2,44.999998626709
380,52,235204,2,0,P|424:40|472:40,1,89.9999972534181,0|0,3:0|0:0,0:0:0:0:
464,68,235526,1,0,3:0:0:0:
460,96,235633,1,0,0:0:0:0:
456,124,235740,1,0,0:0:0:0:
452,152,235847,2,0,P|480:192|488:248,1,89.9999972534181,0|0,3:0|1:0,0:0:0:0:
400,324,236276,2,0,L|412:368,2,44.999998626709,0|0|0,0:0|3:0|0:0,0:0:0:0:
332,280,236597,5,0,3:0:0:0:
308,288,236704,1,0,0:0:0:0:
280,292,236811,1,0,0:0:0:0:
252,292,236918,1,2,3:0:0:0:
224,188,237133,1,0,0:0:0:0:
248,193,237240,1,0,0:0:0:0:
275,203,237347,1,0,0:0:0:0:
300,216,237454,1,0,3:0:0:0:
312,212,237561,1,2,3:0:0:0:
372,128,237776,1,0,1:0:0:0:
344,120,237883,1,0,0:0:0:0:
320,112,237990,2,0,L|312:56,1,44.999998626709
244,180,238204,6,0,P|220:220|212:312,1,134.999995880127,2|0,3:0|0:0,0:0:0:0:
288,316,238633,2,0,B|320:336|320:336|384:328,1,89.9999972534181,0|2,3:0|3:0,0:0:0:0:
388,308,238954,1,0,0:0:0:0:
404,284,239061,1,0,0:0:0:0:
420,260,239168,1,0,0:0:0:0:
404,240,239276,1,0,3:0:0:0:
392,216,239383,1,0,0:0:0:0:
388,188,239490,1,0,1:0:0:0:
392,160,239597,2,0,P|396:108|376:60,1,89.9999972534181,4|0,0:0|0:0,0:0:0:0:
264,48,240026,5,0,0:0:0:0:
244,64,240133,1,0,0:0:0:0:
224,80,240240,1,0,0:0:0:0:
204,96,240347,2,0,P|152:112|112:108,1,89.9999972534181,0|0,3:0|0:0,0:0:0:0:
92,96,240668,2,0,L|64:52,1,44.999998626709
60,172,240883,1,0,0:0:0:0:
56,180,240990,1,0,0:0:0:0:
52,188,241097,1,0,0:0:0:0:
48,196,241204,2,0,P|72:244|72:328,1,134.999995880127,0|0,1:0|0:0,0:0:0:0:
100,320,241633,1,0,0:0:0:0:
128,316,241740,6,0,P|172:336|224:336,1,89.9999972534181
200,212,242061,2,0,P|240:192|284:188,1,89.9999972534181,0|0,3:0|0:0,0:0:0:0:
368,240,242383,2,0,L|380:288,1,44.999998626709
440,156,242597,1,0,0:0:0:0:
440,156,242704,2,0,L|452:108,1,44.999998626709
336,44,242918,2,0,B|276:56|276:56|228:44,1,89.9999972534181,0|0,1:0|0:0,0:0:0:0:
224,40,243240,1,0,3:0:0:0:
200,32,243347,1,0,0:0:0:0:
176,20,243454,6,0,P|188:72|184:116,1,89.9999972534181,2|0,0:0|0:0,0:0:0:0:
80,168,243776,2,0,P|56:205|44:249,1,89.9999972534181,2|0,3:0|0:0,0:0:0:0:
128,336,244097,1,0,3:0:0:0:
156,340,244204,1,0,0:0:0:0:
184,344,244311,1,0,0:0:0:0:
212,348,244418,2,0,L|312:364,1,89.9999972534181,0|0,3:0|1:0,0:0:0:0:
320,344,244740,1,0,0:0:0:0:
344,328,244847,1,0,0:0:0:0:
372,320,244954,1,0,0:0:0:0:
400,320,245061,1,0,3:0:0:0:
428,324,245168,6,0,P|480:352|512:360,1,89.9999972534181
480,228,245490,2,0,P|478:168|469:137,1,89.9999972534181,2|0,3:0|0:0,0:0:0:0:
448,124,245811,1,0,0:0:0:0:
424,112,245918,1,0,0:0:0:0:
400,100,246026,1,0,0:0:0:0:
380,92,246133,2,0,L|300:96,1,44.999998626709
244,36,246347,1,0,1:0:0:0:
244,36,246454,2,0,L|268:132,1,89.9999972534181,4|0,0:0|3:0,0:0:0:0:
140,72,246883,5,0,0:0:0:0:
116,64,246990,1,0,0:0:0:0:
88,64,247097,1,0,0:0:0:0:
64,72,247204,1,0,3:0:0:0:
112,176,247418,1,0,0:0:0:0:
112,176,247526,2,0,L|164:184,1,44.999998626709,0|0,0:0|3:0,0:0:0:0:
128,272,247740,1,0,0:0:0:0:
100,276,247847,1,0,0:0:0:0:
72,280,247954,1,0,3:0:0:0:
44,284,248061,2,0,P|100:312|144:372,1,134.999995880127,0|0,1:0|0:0,0:0:0:0:
272,308,248597,5,0,0:0:0:0:
300,312,248704,1,0,0:0:0:0:
328,316,248811,1,0,0:0:0:0:
356,320,248918,2,0,P|412:312|464:248,1,134.999995880127,0|0,3:0|1:0,0:0:0:0:
384,120,249454,2,0,L|392:76,2,44.999998626709
308,164,249776,2,0,L|208:172,1,89.9999972534181,0|0,1:0|0:0,0:0:0:0:
124,112,250097,2,0,L|209:104,1,44.999998626709,2|0,3:0|0:0,0:0:0:0:
120,204,250311,5,0,0:0:0:0:
116,232,250418,1,0,0:0:0:0:
116,260,250526,1,0,0:0:0:0:
120,288,250633,2,0,L|136:340,1,44.999998626709,2|0,3:0|0:0,0:0:0:0:
232,240,250847,1,0,0:0:0:0:
232,240,250954,2,0,P|230:272|227:291,1,44.999998626709,0|0,1:0|0:0,0:0:0:0:
316,360,251168,1,0,0:0:0:0:
316,360,251276,2,0,L|384:344,1,44.999998626709,0|0,3:0|0:0,0:0:0:0:
424,232,251490,1,2,3:0:0:0:
424,232,251598,2,0,L|356:248,1,44.999998626709,0|0,3:0|0:0,0:0:0:0:
264,176,251811,1,0,1:0:0:0:
271,165,251918,1,2,3:0:0:0:
276,156,252026,6,0,L|344:140,1,44.999998626709,8|0,3:0|0:0,0:0:0:0:
268,48,252240,1,0,0:0:0:0:
268,48,252347,2,0,P|311:59|367:60,1,89.9999972534181,2|0,3:0|1:0,0:0:0:0:
484,56,252668,1,0,3:0:0:0:
460,68,252776,1,0,3:0:0:0:
436,80,252883,1,4,0:0:0:0:
436,80,253740,6,0,B|432:136|432:136|384:168|384:168|376:296,1,225.000008583069,4|0,0:0|0:0,0:0:0:0:
268,184,254383,2,0,P|248:128|264:56,1,112.500004291535,8|0,0:0|0:0,0:0:0:0:
288,80,254704,1,2,0:0:0:0:
320,84,254811,1,0,0:0:0:0:
352,88,254918,1,8,0:0:0:0:
352,88,255454,5,0,0:0:0:0:
352,88,255561,2,0,L|376:152,1,56.2500021457673
288,180,255776,2,0,P|284:244|252:292,1,112.500004291535
152,224,256097,2,0,P|123:166|127:109,1,112.500004291535,8|0,0:0|0:0,0:0:0:0:
156,108,256418,1,2,0:0:0:0:
188,96,256526,1,0,0:0:0:0:
220,84,256633,1,8,0:0:0:0:
220,84,257168,5,0,0:0:0:0:
188,96,257275,1,0,0:0:0:0:
156,108,257383,1,0,0:0:0:0:
124,119,257490,2,0,P|125:175|148:220,1,56.2500021457673,4|0,0:0|0:0,0:0:0:0:
184,252,257704,1,0,0:0:0:0:
215,263,257811,2,0,P|213:318|191:363,1,56.2500021457673,8|0,0:0|0:0,0:0:0:0:
248,188,258026,1,0,0:0:0:0:
280,184,258133,1,2,0:0:0:0:
312,180,258240,1,0,0:0:0:0:
336,156,258347,1,8,0:0:0:0:
262,110,258883,6,0,P|250:166|290:230,1,112.500004291535
410,202,259204,2,0,P|422:146|382:82,1,112.500004291535
296,40,259526,2,0,L|356:28,1,56.2500021457673,8|0,0:0|0:0,0:0:0:0:
244,116,259740,1,0,0:0:0:0:
220,92,259847,1,0,0:0:0:0:
192,72,259954,1,0,0:0:0:0:
164,56,260061,1,2,0:0:0:0:
132,44,260168,2,0,P|104:56|68:64,1,56.2500021457673,8|0,3:0|0:0,0:0:0:0:
88,160,260383,2,0,P|58:153|21:151,1,56.2500021457673,4|0,3:0|0:0,0:0:0:0:
152,276,260597,6,0,L|140:332,2,56.2500021457673
260,180,260918,2,0,P|284:248|392:248,1,168.750006437302,4|8,0:0|0:0,0:0:0:0:
188,80,261454,1,0,0:0:0:0:
220,84,261561,1,2,0:0:0:0:
252,88,261668,1,0,0:0:0:0:
284,92,261776,1,8,0:0:0:0:
302,100,262311,5,0,0:0:0:0:
270,96,262419,1,0,0:0:0:0:
238,92,262526,1,0,0:0:0:0:
206,88,262633,2,0,P|250:132|258:192,1,112.500004291535
308,300,262954,2,0,P|316:272|328:248,1,56.2500021457673,8|0,0:0|0:0,0:0:0:0:
208,340,263168,2,0,P|179:347|152:348,2,56.2500021457673,2|0|0,0:0|0:0|0:0,0:0:0:0:
120,244,263490,2,0,P|92:235|68:223,2,56.2500021457673,2|0|0,0:0|0:0|0:0,0:0:0:0:
91,116,263811,1,2,0:0:0:0:
96,108,264026,5,0,0:0:0:0:
129,116,264133,1,0,0:0:0:0:
161,124,264240,1,0,0:0:0:0:
193,132,264347,2,0,L|209:188,1,56.2500021457673
284,76,264561,1,0,0:0:0:0:
284,76,264668,2,0,P|332:48|400:48,1,112.500004291535,8|0,0:0|0:0,0:0:0:0:
408,60,264990,1,2,0:0:0:0:
428,76,265097,1,0,0:0:0:0:
444,92,265204,1,0,0:0:0:0:
436,124,265311,1,0,0:0:0:0:
436,156,265418,1,0,0:0:0:0:
444,188,265526,2,0,L|464:244,1,56.2500021457673
364,328,265740,6,0,L|305:317,1,56.2500021457673,0|0,1:0|0:0,0:0:0:0:
204,232,265954,1,0,0:0:0:0:
200,224,266061,2,0,L|258:213,1,56.2500021457673,0|0,3:0|0:0,0:0:0:0:
360,128,266276,1,0,0:0:0:0:
364,120,266383,2,0,L|305:109,1,56.2500021457673,0|0,1:0|0:0,0:0:0:0:
204,24,266598,1,0,0:0:0:0:
200,16,266704,2,0,L|258:5,1,56.2500021457673,0|0,3:0|0:0,0:0:0:0:
120,128,266918,1,0,0:0:0:0:
124,120,267026,1,8,0:0:0:0:
140,148,267133,1,2,0:0:0:0:
148,180,267240,1,0,0:0:0:0:
148,212,267347,1,0,0:0:0:0:
140,244,267454,6,0,P|132:304|148:360,1,112.500004291535,4|0,0:0|0:0,0:0:0:0:
308,284,267776,2,0,L|328:152,1,112.500004291535,4|0,0:0|0:0,0:0:0:0:
340,96,268097,1,8,0:0:0:0:
156,48,268311,1,0,0:0:0:0:
188,56,268418,1,2,0:0:0:0:
220,64,268526,1,0,0:0:0:0:
252,72,268633,2,0,P|192:92|152:136,1,112.500004291535
92,240,268954,2,0,L|84:180,1,56.2500021457673,8|0,0:0|0:0,0:0:0:0:
212,284,269168,5,0,0:0:0:0:
244,296,269276,1,2,0:0:0:0:
276,300,269383,1,0,0:0:0:0:
308,296,269490,2,0,B|360:276|360:276|432:288,1,112.500004291535
448,184,269811,2,0,L|504:180,1,56.2500021457673,8|0,0:0|0:0,0:0:0:0:
376,80,270026,1,0,0:0:0:0:
348,64,270133,1,2,0:0:0:0:
316,56,270240,1,0,0:0:0:0:
284,56,270347,2,0,P|224:76|184:120,1,112.500004291535
128,60,270668,1,8,0:0:0:0:
88,216,270883,5,0,0:0:0:0:
108,244,270990,1,2,0:0:0:0:
128,272,271097,1,0,0:0:0:0:
148,296,271204,2,0,L|264:312,1,112.500004291535,4|0,0:0|0:0,0:0:0:0:
336,324,271526,1,8,0:0:0:0:
416,152,271740,2,0,L|472:144,2,56.2500021457673,0|2|0,0:0|0:0|0:0,0:0:0:0:
352,84,272061,2,0,L|296:76,2,56.2500021457673
432,36,272383,1,2,0:0:0:0:
336,200,272597,6,0,P|280:216|220:216,1,112.500004291535,0|2,0:0|0:0,0:0:0:0:
84,120,273026,1,2,0:0:0:0:
40,324,273240,1,8,0:0:0:0:
96,136,273454,2,0,P|152:120|212:120,1,112.500004291535
304,96,273776,1,0,0:0:0:0:
304,96,273883,2,0,P|360:112|420:112,1,112.500004291535,4|0,0:0|0:0,0:0:0:0:
444,100,274204,1,2,0:0:0:0:
476,88,274311,6,0,L|492:32,1,56.2500021457673
404,188,274526,1,0,0:0:0:0:
404,188,274633,2,0,P|412:248|384:312,1,112.500004291535,4|0,0:0|0:0,0:0:0:0:
272,344,274954,2,0,P|303:349|351:360,1,56.2500021457673,8|0,0:0|0:0,0:0:0:0:
192,272,275168,1,0,0:0:0:0:
208,240,275276,1,2,0:0:0:0:
212,208,275383,1,0,0:0:0:0:
208,176,275490,1,0,0:0:0:0:
178,164,275597,1,0,0:0:0:0:
152,144,275704,1,0,0:0:0:0:
133,115,275812,1,2,0:0:0:0:
228,72,276026,5,0,0:0:0:0:
253,52,276133,1,0,0:0:0:0:
283,39,276240,1,0,0:0:0:0:
318,37,276347,2,0,L|384:48,1,56.2500021457673
308,136,276561,1,2,0:0:0:0:
308,136,276668,2,0,L|298:191,1,56.2500021457673,8|0,0:0|0:0,0:0:0:0:
412,148,276883,2,0,P|424:208|412:276,1,112.500004291535
388,276,277204,1,0,0:0:0:0:
360,296,277311,2,0,L|240:300,1,112.500004291535,0|0,1:0|0:0,0:0:0:0:
120,184,277740,6,0,L|136:120,1,56.2500021457673
36,232,277954,1,0,0:0:0:0:
36,232,278061,2,0,L|22:286,1,56.2500021457673,0|0,3:0|0:0,0:0:0:0:
128,288,278276,1,2,0:0:0:0:
128,288,278383,2,0,L|143:342,1,56.2500021457673,0|0,1:0|0:0,0:0:0:0:
235,290,278597,1,0,0:0:0:0:
235,290,278704,2,0,P|292:324|356:328,1,112.500004291535,8|0,3:0|1:0,0:0:0:0:
372,324,279026,1,0,0:0:0:0:
403,311,279133,1,2,0:0:0:0:
429,290,279240,2,0,L|496:288,1,56.2500021457673,0|0,0:0|1:0,0:0:0:0:
368,212,279454,6,0,P|356:152|360:80,1,112.500004291535,0|0,1:0|0:0,0:0:0:0:
254,54,279776,2,0,P|311:73|372:113,1,112.500004291535,0|0,1:0|0:0,0:0:0:0:
447,35,280097,2,0,P|401:75|336:107,1,112.500004291535,0|0,1:0|0:0,0:0:0:0:
355,99,281168,6,0,B|324:268|324:268|252:304,1,225.000008583069,4|0,0:0|0:0,0:0:0:0:
172,192,281811,2,0,P|176:140|151:81,1,112.500004291535,8|0,0:0|0:0,0:0:0:0:
120,72,282133,1,2,0:0:0:0:
88,60,282240,1,0,0:0:0:0:
56,48,282347,1,8,0:0:0:0:
56,48,282883,5,0,0:0:0:0:
62,82,282990,1,0,0:0:0:0:
67,115,283097,1,0,0:0:0:0:
72,148,283204,1,0,0:0:0:0:
184,220,283418,1,0,0:0:0:0:
184,220,283526,2,0,P|180:288|256:336,1,112.500004291535,8|0,0:0|0:0,0:0:0:0:
240,324,283847,1,2,0:0:0:0:
272,328,283954,1,0,0:0:0:0:
304,332,284061,1,8,0:0:0:0:
304,332,284597,5,0,0:0:0:0:
304,332,284704,2,0,L|240:324,1,56.2500021457673
416,252,284918,2,0,B|456:224|440:180|440:180|404:88,1,168.750006437302,4|8,0:0|0:0,0:0:0:0:
392,68,285347,1,0,0:0:0:0:
376,40,285454,1,0,0:0:0:0:
344,32,285561,1,2,0:0:0:0:
312,24,285668,1,0,0:0:0:0:
280,16,285776,1,8,0:0:0:0:
280,16,286311,5,0,0:0:0:0:
312,24,286419,1,0,0:0:0:0:
344,32,286526,1,0,0:0:0:0:
376,40,286633,2,0,L|436:56,1,56.2500021457673
368,152,286847,1,0,0:0:0:0:
368,152,286954,2,0,L|308:168,1,56.2500021457673,8|0,0:0|0:0,0:0:0:0:
376,264,287168,1,0,0:0:0:0:
388,296,287276,1,2,0:0:0:0:
396,328,287383,1,0,0:0:0:0:
400,360,287490,2,0,L|460:344,1,56.2500021457673,0|8,1:0|3:0,0:0:0:0:
454,345,288026,5,0,0:0:0:0:
454,345,288133,2,0,L|400:360,1,56.2500021457673
280,288,288347,2,0,B|252:240|252:240|124:224,1,168.750006437302,4|8,0:0|0:0,0:0:0:0:
128,196,288776,1,0,0:0:0:0:
116,164,288883,1,0,0:0:0:0:
96,136,288990,1,2,0:0:0:0:
56,124,289097,1,0,0:0:0:0:
20,132,289204,1,8,0:0:0:0:
20,132,289740,6,0,P|84:112|128:72,1,112.500004291535
236,196,290061,2,0,P|170:181|112:193,1,112.500004291535
259,94,290383,1,8,0:0:0:0:
259,94,290490,1,0,0:0:0:0:
259,94,290597,2,0,P|297:135|349:158,1,112.500004291535
456,224,290918,2,0,P|471:170|465:114,1,112.500004291535,2|0,0:0|0:0,0:0:0:0:
371,36,291240,1,0,0:0:0:0:
296,220,291454,6,0,P|252:256|176:256,1,112.500004291535
104,228,291776,2,0,L|49:242,1,56.2500021457673
136,136,291990,1,0,1:0:0:0:
156,108,292097,1,8,0:0:0:0:
184,88,292204,1,0,0:0:0:0:
216,76,292311,2,0,L|276:80,1,56.2500021457673,0|0,1:0|0:0,0:0:0:0:
400,32,292526,1,0,0:0:0:0:
400,32,292633,2,0,L|340:28,1,56.2500021457673
444,112,292847,1,2,0:0:0:0:
460,140,292954,1,0,0:0:0:0:
476,172,293061,1,0,0:0:0:0:
492,200,293168,6,0,P|496:272|464:312,1,112.500004291535,4|0,3:0|0:0,0:0:0:0:
356,280,293490,2,0,B|307:249|307:249|244:261,1,112.500004291535,0|0,1:0|0:0,0:0:0:0:
168,184,293811,1,8,0:0:0:0:
168,184,293918,2,0,P|152:120|164:44,1,112.500004291535,2|8,0:0|3:0,0:0:0:0:
340,104,294347,1,0,0:0:0:0:
340,104,294454,2,0,P|367:96|398:91,1,56.2500021457673,0|0,1:0|0:0,0:0:0:0:
448,180,294668,2,0,P|475:187|504:198,1,56.2500021457673,0|0,1:0|0:0,0:0:0:0:
396,264,294883,6,0,P|423:312|420:378,1,112.500004291535,4|0,0:0|0:0,0:0:0:0:
280,288,295204,2,0,P|280:232|316:176,1,112.500004291535,4|0,0:0|0:0,0:0:0:0:
288,156,295526,1,8,0:0:0:0:
268,128,295633,1,0,0:0:0:0:
248,100,295740,2,0,B|220:64|220:64|136:56,1,112.500004291535
140,172,296061,2,0,B|112:136|112:136|28:128,1,112.500004291535,2|0,0:0|0:0,0:0:0:0:
32,244,296383,1,8,0:0:0:0:
32,244,296490,1,0,0:0:0:0:
32,244,296597,6,0,B|60:280|60:280|144:288,1,112.500004291535
280,312,296918,2,0,B|252:348|252:348|168:356,1,112.500004291535,2|0,0:0|0:0,0:0:0:0:
212,204,297240,1,8,0:0:0:0:
244,188,297347,1,0,0:0:0:0:
276,184,297454,1,0,0:0:0:0:
308,188,297561,1,0,0:0:0:0:
340,200,297669,1,0,0:0:0:0:
368,220,297776,2,0,L|424:212,1,56.2500021457673,2|0,0:0|0:0,0:0:0:0:
280,296,297990,1,0,0:0:0:0:
280,296,298097,2,0,L|224:288,1,56.2500021457673,8|0,0:0|0:0,0:0:0:0:
388,336,298311,5,0,0:0:0:0:
260,180,298526,1,0,0:0:0:0:
260,180,298633,2,0,P|240:108|288:36,1,112.500004291535,4|2,0:0|0:0,0:0:0:0:
220,64,298954,1,8,0:0:0:0:
188,52,299061,1,0,0:0:0:0:
156,40,299168,1,0,0:0:0:0:
160,72,299276,1,0,0:0:0:0:
156,104,299383,1,0,0:0:0:0:
148,136,299490,1,0,0:0:0:0:
136,168,299597,1,0,0:0:0:0:
116,196,299704,1,2,0:0:0:0:
92,220,299811,2,0,L|112:280,1,56.2500021457673,2|0,3:0|0:0,0:0:0:0:
216,220,300026,6,0,P|260:184|328:184,1,112.500004291535
320,148,300347,1,0,0:0:0:0:
328,116,300454,1,0,0:0:0:0:
336,84,300561,1,0,0:0:0:0:
344,52,300668,2,0,L|448:24,1,56.2500021457673
472,124,300883,1,0,0:0:0:0:
465,155,300990,1,2,3:0:0:0:
457,187,301097,1,0,0:0:0:0:
449,219,301204,1,0,3:0:0:0:
440,212,301311,2,0,L|336:240,1,56.2500021457673,0|0,1:0|0:0,0:0:0:0:
348,336,301526,2,0,L|402:321,1,56.2500021457673,4|0,3:0|0:0,0:0:0:0:
280,248,301740,5,0,0:0:0:0:
252,228,301847,1,0,0:0:0:0:
220,220,301954,1,0,0:0:0:0:
188,220,302061,2,0,B|156:220|132:236|132:236|148:160|92:108,1,168.750006437302,4|8,0:0|0:0,0:0:0:0:
88,108,302490,1,0,0:0:0:0:
56,92,302597,2,0,L|0:96,2,56.2500021457673
156,24,302918,2,0,L|212:28,2,56.2500021457673,0|0|2,0:0|0:0|0:0,0:0:0:0:
196,128,303240,1,8,0:0:0:0:
224,148,303347,1,0,0:0:0:0:
252,168,303454,6,0,B|300:200|300:200|364:168,1,112.500004291535
216,240,303776,2,0,B|164:265|164:265|160:336,1,112.500004291535,2|0,0:0|0:0,0:0:0:0:
172,173,304097,1,8,0:0:0:0:
176,140,304204,1,0,0:0:0:0:
180,108,304311,2,0,B|183:50|183:50|124:11,1,112.500004291535
52,84,304633,1,2,0:0:0:0:
52,84,304740,2,0,L|55:140,1,56.2500021457673,0|0,1:0|0:0,0:0:0:0:
128,240,304954,2,0,P|132:208|144:176,1,56.2500021457673,8|0,0:0|0:0,0:0:0:0:
260,192,305168,5,0,0:0:0:0:
288,172,305276,1,0,0:0:0:0:
320,164,305383,1,0,0:0:0:0:
352,168,305490,1,0,0:0:0:0:
384,184,305597,1,0,0:0:0:0:
400,212,305704,1,0,1:0:0:0:
404,244,305811,1,2,0:0:0:0:
396,276,305918,1,0,0:0:0:0:
376,304,306026,1,0,0:0:0:0:
344,316,306133,1,0,1:0:0:0:
312,316,306240,1,0,0:0:0:0:
280,304,306347,1,0,0:0:0:0:
256,284,306454,1,0,0:0:0:0:
236,256,306561,1,0,1:0:0:0:
220,228,306668,1,0,3:0:0:0:
204,200,306776,1,8,3:0:0:0:
188,172,306883,5,0,3:0:0:0:
172,144,306990,1,2,0:0:0:0:
144,128,307097,1,0,1:0:0:0:
112,136,307204,1,0,3:0:0:0:
96,164,307311,1,0,1:0:0:0:
100,196,307418,1,0,3:0:0:0:
104,228,307526,1,8,3:0:0:0:
88,256,307633,1,0,0:0:0:0:
56,264,307740,1,4,3:0:0:0:
