osu file format v14

[General]
AudioFilename: audio.mp3
AudioLeadIn: 0
PreviewTime: 180745
Countdown: 0
SampleSet: Soft
StackLeniency: 0.7
Mode: 0
LetterboxInBreaks: 0
WidescreenStoryboard: 0

[Editor]
Bookmarks: 12745,48745,84745,108745,132745,180745,216745,221245
DistanceSpacing: 0.4
BeatDivisor: 8
GridSize: 32
TimelineZoom: 4.899997

[Metadata]
Title:Florn
TitleUnicode:Florn
Artist:Culprate
ArtistUnicode:Culprate
Creator:StarrStyx
Version:Collab Insane
Source:
Tags:deliverance pishifat yf_bmp Realazy Sing NeilPerry featured artist mappers' guild
BeatmapID:1780050
BeatmapSetID:851543

[Difficulty]
HPDrainRate:6
CircleSize:4
OverallDifficulty:8.4
ApproachRate:9
SliderMultiplier:1.8
SliderTickRate:1

[Events]
//Background and Video events
0,0,"forest_bg.jpg",0,0
//Break Periods
2,156945,169645
2,174945,178645
//Storyboard Layer 0 (Background)
//Storyboard Layer 1 (Fail)
//Storyboard Layer 2 (Pass)
//Storyboard Layer 3 (Foreground)
//Storyboard Sound Samples

[TimingPoints]
745,375,4,2,0,35,1,0
12745,-133.333333333333,4,2,0,35,0,0
24745,-100,4,2,0,25,0,0
24838,-100,4,2,0,45,0,0
35995,-100,4,2,0,55,0,0
36182,-100,4,2,0,65,0,0
36370,-100,4,2,0,75,0,0
36557,-100,4,2,0,85,0,0
36745,-83.3333333333333,4,2,0,50,0,0
37213,-66.6666666666667,4,2,0,50,0,0
37495,-100,4,2,0,50,0,0
37870,-50,4,2,0,50,0,0
38245,-133.333333333333,4,2,0,50,0,0
39745,-100,4,2,0,50,0,0
41057,-66.6666666666667,4,2,0,50,0,0
41995,-100,4,2,0,50,0,0
43213,-133.333333333333,4,2,0,45,0,0
43401,-133.333333333333,4,2,0,50,0,0
48370,-133.333333333333,4,2,0,44,0,0
48745,-100,4,2,0,44,0,0
50245,-133.333333333333,4,2,0,44,0,0
51182,-100,4,2,0,44,0,0
54745,-100,4,2,0,36,0,0
60745,-133.333333333333,4,2,0,28,0,0
66745,-133.333333333333,4,2,0,20,0,0
68713,-133.333333333333,4,2,0,20,0,0
68807,-133.333333333333,4,2,0,5,0,0
69745,-133.333333333333,4,2,0,20,0,0
71807,-200,4,2,0,15,0,0
72745,-100,4,2,0,55,0,0
72838,-100,4,2,0,40,0,0
73495,-133.333333333333,4,2,0,40,0,0
76307,-133.333333333333,4,2,0,20,0,0
76495,-133.333333333333,4,2,0,40,0,0
77057,-133.333333333333,4,2,0,20,0,0
77245,-133.333333333333,4,2,0,40,0,0
78745,-100,4,2,0,55,0,0
78838,-100,4,2,0,40,0,0
79495,-133.333333333333,4,2,0,40,0,0
82307,-133.333333333333,4,2,0,25,0,0
82401,-133.333333333333,4,2,0,40,0,0
84276,-500,4,2,0,40,0,0
84745,-66.6666666666667,4,2,0,80,0,0
85120,-66.6666666666667,4,2,0,50,0,0
85495,-200,4,2,0,50,0,0
86620,-100,4,2,0,50,0,0
86995,-200,4,2,0,50,0,0
88495,-100,4,2,0,50,0,0
88870,-66.6666666666667,4,2,0,50,0,0
89245,-200,4,2,0,50,0,0
89620,-66.6666666666667,4,2,0,50,0,0
90745,-66.6666666666667,4,2,0,80,0,0
91495,-133.333333333333,4,2,0,50,0,0
93745,-200,4,2,0,50,0,0
94495,-133.333333333333,4,2,0,50,0,0
96745,-66.6666666666667,4,2,0,80,0,0
97495,-200,4,2,0,50,0,0
98245,-133.333333333333,4,2,0,50,0,0
98995,-100,4,2,0,50,0,0
99745,-66.6666666666667,4,2,0,50,0,0
100495,-133.333333333333,4,2,0,50,0,0
101245,-66.6666666666667,4,2,0,80,0,0
101620,-66.6666666666667,4,2,0,65,0,0
101760,-66.6666666666667,4,2,0,50,0,0
102182,-66.6666666666667,4,2,0,33,0,0
102323,-66.6666666666667,4,2,0,38,0,0
102463,-66.6666666666667,4,2,0,44,0,0
102604,-66.6666666666667,4,2,0,50,0,0
102745,-66.6666666666667,4,2,0,80,0,0
103495,-57.1428571428571,4,2,0,75,0,0
105745,-133.333333333333,4,2,0,75,0,0
106495,-50,4,2,0,75,0,0
108557,-100,4,2,0,75,0,0
108745,-500,4,2,0,80,0,0
109120,-66.6666666666667,4,2,0,80,0,0
109495,-133.333333333333,4,2,0,50,0,0
109995,-100,4,2,0,50,0,0
110245,-133.333333333333,4,2,0,50,0,0
110620,-66.6666666666667,4,2,0,50,0,0
110995,-133.333333333333,4,2,0,50,0,0
111370,-100,4,2,0,50,0,0
111745,-133.333333333333,4,2,0,50,0,0
112120,-100,4,2,0,50,0,0
112495,-133.333333333333,4,2,0,50,0,0
112870,-100,4,2,0,50,0,0
113620,-66.6666666666667,4,2,0,50,0,0
113995,-100,4,2,0,50,0,0
114745,-100,4,2,0,80,0,0
115495,-133.333333333333,4,2,0,51,0,0
115776,-100,4,2,0,51,0,0
116245,-133.333333333333,4,2,0,51,0,0
116526,-100,4,2,0,51,0,0
117745,-200,4,2,0,51,0,0
118213,-133.333333333333,4,2,0,51,0,0
119057,-100,4,2,0,51,0,0
119338,-80,4,2,0,51,0,0
119526,-55.5555555555556,4,2,0,51,0,0
119995,-100,4,2,0,51,0,0
120745,-66.6666666666667,4,2,0,80,0,0
121495,-200,4,2,0,51,0,0
122620,-100,4,2,0,51,0,0
123463,-200,4,2,0,51,0,0
123745,-100,4,2,0,51,0,0
124213,-200,4,2,0,51,0,0
124495,-100,4,2,0,51,0,0
125432,-66.6666666666667,4,2,0,51,0,0
126182,-200,4,2,0,33,0,0
126323,-200,4,2,0,39,0,0
126463,-200,4,2,0,43,0,0
126604,-200,4,2,0,50,0,0
126745,-66.6666666666667,4,2,0,80,0,0
127495,-66.6666666666667,4,2,0,75,0,0
129745,-133.333333333333,4,2,0,75,0,0
129885,-133.333333333333,4,2,0,55,0,0
130495,-66.6666666666667,4,2,0,75,0,0
131995,-55.5555555555556,4,2,0,75,0,0
132745,-66.6666666666667,4,2,0,46,0,0
133495,-100,4,2,0,46,0,0
139495,-133.333333333333,4,2,0,46,0,0
174745,-133.333333333333,4,2,0,40,0,0
179245,-133.333333333333,4,2,0,60,0,0
179432,-100,4,2,0,60,0,0
180745,-133.333333333333,4,2,0,30,0,0
180838,-133.333333333333,4,2,0,45,0,0
191245,-200,4,2,0,45,0,0
191995,-100,4,2,0,45,0,0
192745,-80,4,2,0,45,0,0
193213,-66.6666666666667,4,2,0,45,0,0
193495,-100,4,2,0,45,0,0
193870,-50,4,2,0,45,0,0
194245,-133.333333333333,4,2,0,45,0,0
195745,-100,4,2,0,45,0,0
197057,-66.6666666666667,4,2,0,45,0,0
197995,-100,4,2,0,45,0,0
201745,-80,4,2,0,45,0,0
202307,-100,4,2,0,45,0,0
204745,-133.333333333333,4,2,0,45,0,0
205870,-100,4,2,0,45,0,0
206245,-133.333333333333,4,2,0,45,0,0
207370,-100,4,2,0,45,0,0
207745,-133.333333333333,4,2,0,45,0,0
208870,-66.6666666666667,4,2,0,45,0,0
209245,-133.333333333333,4,2,0,45,0,0
209807,-66.6666666666667,4,2,0,45,0,0
209995,-133.333333333333,4,2,0,45,0,0
210370,-66.6666666666667,4,2,0,45,0,0
210745,-133.333333333333,4,2,0,40,0,0
213745,-133.333333333333,4,2,0,35,0,0
215245,-133.333333333333,4,2,0,30,0,0
216838,-133.333333333333,4,2,0,15,0,0

[Colours]
Combo1 : 255,34,34
Combo2 : 0,128,0
Combo3 : 143,32,255
Combo4 : 255,158,62

[HitObjects]
248,23,12745,6,0,L|256:129,1,101.250003862381,4|0,0:3|3:0,0:0:0:0:
255,123,13120,2,0,L|210:136,1,33.7500012874604,2|0,0:0|0:0,0:0:0:0:
171,65,13307,2,0,L|125:77,1,33.7500012874604,2|0,0:0|0:0,0:0:0:0:
166,188,13495,2,0,L|120:200,1,33.7500012874604,2|0,0:0|0:0,0:0:0:0:
61,52,13682,2,0,L|15:64,1,33.7500012874604,2|0,0:0|0:0,0:0:0:0:
77,255,13870,1,2,1:3:0:0:
268,138,14057,5,2,0:0:0:0:
268,138,14151,1,0,0:0:0:0:
268,138,14245,2,0,L|260:244,1,101.250003862381,4|0,0:3|0:0,0:0:0:0:
261,238,14620,1,2,3:2:0:0:
345,180,14807,1,2,1:3:0:0:
350,303,14995,1,2,0:0:0:0:
455,167,15182,1,2,3:2:0:0:
439,370,15370,1,2,1:3:0:0:
512,331,15557,1,2,3:2:0:0:
442,288,15745,5,4,0:3:0:0:
315,359,15932,2,0,P|343:320|353:291,1,67.5000025749208,2|2,0:0|0:0,0:0:0:0:
466,198,16307,2,0,P|462:245|451:274,1,67.5000025749208,2|2,3:2|3:2,0:0:0:0:
198,308,16682,2,0,P|244:296|270:280,1,67.5000025749208,2|2,0:0|1:3,0:0:0:0:
343,161,17057,2,0,P|371:200|381:229,1,67.5000025749208,2|4,0:0|0:3,0:0:0:0:
133,196,17432,6,0,P|176:216|206:221,1,67.5000025749208,2|2,0:0|0:0,0:0:0:0:
51,156,17807,2,0,P|12:183|-7:206,1,67.5000025749208,2|0,1:3|0:0,0:0:0:0:
126,104,18182,2,0,P|121:56|111:28,1,67.5000025749208,2|2,3:2|1:3,0:0:0:0:
115,37,18463,1,0,0:0:0:0:
115,37,18557,2,0,L|152:29,1,33.7500012874604,2|0,0:0|0:0,0:0:0:0:
205,135,18745,6,0,B|295:128|241:159|340:150,1,135.000005149842,4|2,0:3|0:0,0:0:0:0:
336,150,19213,1,0,0:0:0:0:
336,150,19307,1,2,0:2:0:0:
382,82,19495,1,2,3:2:0:0:
230,216,19682,6,0,L|149:237,1,67.5000025749208,2|2,0:0|1:3,0:0:0:0:
110,149,20057,1,2,0:0:0:0:
110,297,20245,2,0,L|-4:276,2,101.250003862381,6|2|2,0:3|0:0|1:3,0:0:0:0:
185,370,20995,2,0,L|193:311,1,33.7500012874604,2|0,0:0|0:0,0:0:0:0:
260,302,21182,1,0,0:0:0:0:
260,302,21276,1,2,0:0:0:0:
260,302,21370,1,0,0:0:0:0:
104,381,21557,1,2,0:0:0:0:
180,244,21745,6,0,B|315:247|217:292|378:287,1,202.500007724762,4|0,0:3|3:0,0:0:0:0:
457,316,22495,2,0,L|444:212,2,101.250003862381,0|2|2,3:3|0:0|0:0,0:0:0:0:
342,151,23245,6,0,B|398:189|398:189|369:297,1,168.750006437302,4|0,0:3|0:0,0:0:0:0:
366,290,23807,2,0,P|320:310|298:336,1,67.5000025749208,2|2,0:0|0:0,0:0:0:0:
242,181,24182,2,0,P|284:208|301:237,1,67.5000025749208,0|2,0:0|0:0,0:0:0:0:
348,117,24557,2,0,L|341:151,1,33.7500012874604,0|0,0:0|0:0,0:0:0:0:
341,150,24745,6,0,P|404:134|448:86,2,112.5,4|2|2,1:0|0:0|0:0,0:0:0:0:
341,150,25307,1,0,0:0:0:0:
182,48,25495,2,0,P|240:78|285:252,1,225,2|0,3:2|0:0,0:0:0:0:
293,220,26057,1,2,0:0:0:0:
85,98,26245,5,4,0:3:0:0:
50,173,26432,2,0,P|104:131|198:145,1,135,2|0,0:0|0:0,0:0:0:0:
168,130,26807,1,2,1:3:0:0:
228,321,26995,6,0,P|138:322|161:197,1,225,2|0,0:0|0:0,0:0:0:0:
136,210,27557,1,2,0:0:0:0:
316,359,27745,5,4,0:3:0:0:
378,311,27932,2,0,P|371:260|306:288,1,135,0|0,0:0|0:0,0:0:0:0:
307,278,28307,1,2,0:0:0:0:
446,371,28495,5,0,3:0:0:0:
484,270,28682,1,2,0:0:0:0:
414,186,28870,1,2,1:3:0:0:
219,47,29245,5,4,0:3:0:0:
290,84,29432,2,0,P|333:76|385:39,1,90,2|0,0:0|0:0,0:0:0:0:
473,111,29807,5,2,1:3:0:0:
402,148,29995,2,0,P|359:140|288:81,2,135,2|2|2,0:0|0:0|0:0,0:0:0:0:
189,219,30745,6,0,P|162:168|247:154,1,135,4|0,0:3|0:0,0:0:0:0:
216,131,31120,1,2,0:0:0:0:
112,267,31307,2,0,P|78:257|80:203,1,90,2|2,0:0|3:2,0:0:0:0:
72,348,31682,2,0,P|42:356|24:342,1,45,0|0,0:0|0:0,0:0:0:0:
31,350,31870,1,2,1:3:0:0:
150,381,32057,1,0,0:0:0:0:
187,308,32245,5,4,0:3:0:0:
152,237,32432,1,2,0:0:0:0:
243,247,32620,5,2,0:0:0:0:
246,224,32807,1,2,1:3:0:0:
329,247,32995,5,2,0:0:0:0:
329,247,33088,1,0,0:0:0:0:
329,247,33182,1,2,0:0:0:0:
409,290,33370,5,2,1:3:0:0:
305,160,33557,1,2,0:0:0:0:
298,384,33745,6,0,P|323:322|325:217,1,150,2|2,0:0|0:0,0:0:0:0:
328,239,34120,1,0,0:0:0:0:
232,299,34307,2,0,P|222:243|201:194,1,90,2|0,0:0|0:0,0:0:0:0:
140,275,34682,2,0,P|120:249|98:229,1,45,0|0,0:0|0:0,0:0:0:0:
90,246,34870,1,2,1:3:0:0:
90,246,35057,1,2,0:0:0:0:
94,120,35245,5,4,0:3:0:0:
20,151,35432,1,2,0:0:0:0:
96,111,35620,5,2,0:0:0:0:
22,142,35807,1,2,1:3:0:0:
180,134,35995,6,0,P|211:81|252:49,1,90,2|2,0:0|0:0,0:0:0:0:
231,61,36276,2,0,P|278:99|328:114,1,90,0|0,0:0|0:0,0:0:0:0:
305,109,36557,2,0,P|273:126|252:147,1,45,2|0,0:0|0:0,0:0:0:0:
81,244,36745,6,0,B|114:237|135:218|135:218|191:275|191:275|227:251|275:268,1,215.999993408203,4|2,0:3|0:3,0:0:0:0:
272,266,37213,6,0,P|273:208|347:253,1,135.000005149842,0|0,0:0|0:0,0:0:0:0:
376,283,37495,6,0,P|376:215|395:151,1,135,2|0,3:3|0:0,0:0:0:0:
395,150,37870,6,0,L|438:136,6,45,10|0|0|0|0|0|0,1:3|0:0|0:0|0:0|0:0|0:0|0:0,0:0:0:0:
338,208,38245,6,0,B|378:164|338:75|338:75|314:145|274:164|274:164|283:110|265:78|265:78|249:100|215:103|215:103|220:78|205:57|205:57|188:69|168:69,1,472.500018024445,4|0,0:3|0:0,0:0:0:0:
13,81,39745,6,0,P|57:78|123:69,1,90,4|0,0:3|3:0,0:0:0:0:
102,72,40026,1,0,3:0:0:0:
102,72,40120,1,0,3:0:0:0:
212,226,40307,2,0,L|250:191,1,45,10|0,1:3|3:0,0:0:0:0:
141,194,40495,2,0,L|148:143,1,45,4|0,3:3|3:0,0:0:0:0:
246,309,40682,2,0,L|351:302,1,90,4|10,3:3|3:0,0:0:0:0:
335,303,40963,1,0,3:0:0:0:
335,303,41057,6,2,B|309:326|296:356|296:356|213:334|121:321,1,202.500007724762,2|2,0:1|0:1,0:1:0:0:
54,299,41432,2,2,B|88:303|116:321|116:321|173:258|243:197,1,202.500007724762,2|2,0:1|0:1,0:1:0:0:
292,215,41807,2,2,P|283:177|279:134,1,67.5000025749208,2|2,0:1|0:1,0:1:0:0:
326,27,41995,6,0,P|354:91|366:177,1,135,4|0,0:3|0:0,0:0:0:0:
365,154,42370,2,0,L|429:159,1,45,10|0,1:3|3:0,0:0:0:0:
430,81,42557,2,0,L|455:76,2,22.5,0|0|0,3:0|0:0|3:0,0:0:0:0:
498,148,42745,5,4,3:3:0:0:
279,148,43120,1,0,0:0:0:0:
279,148,43213,2,0,P|298:222|304:272,1,101.250003862381,2|0,0:0|0:0,0:0:0:0:
205,100,43776,1,0,0:0:0:0:
205,100,43870,2,0,P|191:51|188:8,1,67.5000025749208,2|0,1:3|0:0,0:0:0:0:
172,179,44245,6,0,P|95:201|58:204,1,101.250003862381,4|0,0:3|3:0,0:0:0:0:
74,203,44620,2,0,L|67:263,1,33.7500012874604,0|0,3:0|3:0,0:0:0:0:
62,315,44807,2,0,L|54:374,1,33.7500012874604,10|0,1:3|3:0,0:0:0:0:
138,284,44995,5,0,3:0:0:0:
138,284,45088,2,0,L|171:287,2,33.7500012874604,0|0|0,3:0|3:0|3:0,0:0:0:0:
249,299,45370,1,10,1:3:0:0:
239,139,45557,1,0,3:0:0:0:
310,239,45745,6,0,P|387:217|424:214,1,101.250003862381,4|0,0:3|0:0,0:0:0:0:
407,214,46120,2,0,P|424:166|446:134,1,67.5000025749208,2|2,0:0|0:0,0:0:0:0:
384,305,46495,1,2,0:0:0:0:
345,138,46682,1,2,0:0:0:0:
236,208,46870,2,0,P|219:159|197:127,1,67.5000025749208,2|2,1:3|0:0,0:0:0:0:
270,82,47245,5,4,0:3:0:0:
152,199,47432,1,10,1:3:0:0:
259,69,47620,5,2,3:2:0:0:
142,111,47807,1,10,1:3:0:0:
248,57,47995,6,0,P|237:17|234:-9,1,67.5000025749208,2|2,3:0|3:0,0:0:0:0:
42,21,48370,2,0,P|53:61|56:87,1,67.5000025749208,10|2,1:3|0:0,0:0:0:0:
185,176,48745,6,0,P|172:90|151:15,1,135,4|0,0:3|0:0,0:0:0:0:
154,34,49120,1,2,0:0:0:0:
251,54,49307,1,2,0:0:0:0:
305,135,49495,2,0,P|295:201|279:336,1,180,2|2,3:3|1:3,0:0:0:0:
375,240,50057,1,0,0:0:0:0:
460,211,50245,6,0,P|426:156|381:157,2,101.250003862381,6|0|2,0:3|0:0|1:3,0:0:0:0:
407,313,50995,1,2,0:0:0:0:
375,236,51182,6,0,L|328:260,1,45,2|0,0:0|0:0,0:0:0:0:
310,173,51370,2,0,L|263:197,1,45,2|0,0:3|0:0,0:0:0:0:
244,111,51557,2,0,L|197:135,1,45,0|0,0:0|0:0,0:0:0:0:
171,218,51745,6,0,P|161:127|72:75,1,180,4|2,0:3|0:0,0:0:0:0:
95,249,52307,2,0,P|127:293|179:292,2,90,2|2|0,0:0|3:0|0:0,0:0:0:0:
35,364,52870,1,2,1:3:0:0:
35,364,53057,1,0,0:0:0:0:
19,272,53245,6,0,P|4:180|-11:79,1,180,4|0,0:3|0:0,0:0:0:0:
57,27,53807,1,2,1:3:0:0:
94,107,53995,1,2,0:0:0:0:
94,107,54182,1,2,0:0:0:0:
146,31,54370,2,0,P|180:61|169:129,1,90,2|0,1:3|0:0,0:0:0:0:
273,134,54745,6,0,P|196:158|146:186,1,135,4|0,0:3|0:0,0:0:0:0:
143,195,55120,1,2,0:0:0:0:
99,265,55307,1,0,0:0:0:0:
64,340,55495,6,0,P|53:267|34:187,1,135,2|0,3:2|0:0,0:0:0:0:
36,197,55870,1,2,1:3:0:0:
51,110,56057,1,0,0:0:0:0:
98,40,56245,6,0,P|155:28|102:98,1,180,4|2,0:3|0:0,0:0:0:0:
117,192,56807,2,0,P|185:211|227:237,1,90,2|0,1:3|0:0,0:0:0:0:
275,266,57182,1,0,0:0:0:0:
346,214,57370,1,2,1:3:0:0:
346,214,57557,1,0,0:0:0:0:
369,131,57745,6,0,P|353:74|341:33,2,90,4|0|2,0:3|0:0|0:0,0:0:0:0:
427,197,58307,1,0,0:0:0:0:
498,235,58495,2,0,P|462:274|410:269,1,90,0|0,3:2|0:0,0:0:0:0:
354,346,58870,2,0,P|390:307|442:312,1,90,2|0,1:3|0:0,0:0:0:0:
399,281,59245,6,0,P|340:282|264:190,1,180,4|2,0:3|0:0,0:0:0:0:
340,51,59807,1,2,1:3:0:0:
357,154,59995,1,0,0:0:0:0:
75,368,60370,2,0,L|64:261,1,90,2|0,1:3|0:0,0:0:0:0:
37,203,60745,6,0,B|84:184|136:208|98:221|143:260|219:244,1,168.750006437302,4|0,0:3|0:0,0:0:0:0:
202,246,61307,1,2,0:0:0:0:
243,323,61495,2,0,P|255:256|271:178,1,135.000005149842,0|0,3:0|1:0,0:0:0:0:
225,26,62245,6,0,P|213:93|197:171,1,135.000005149842,4|2,0:3|0:0,0:0:0:0:
137,40,62807,5,0,1:0:0:0:
126,120,62995,1,2,0:0:0:0:
55,63,63182,5,0,0:0:0:0:
53,76,63370,1,0,1:0:0:0:
199,158,63557,5,2,0:0:0:0:
93,196,63745,2,0,P|103:259|119:360,1,135.000005149842,4|0,0:3|0:0,0:0:0:0:
185,241,64307,1,2,3:0:0:0:
209,319,64495,2,0,P|280:330|357:348,1,135.000005149842,2|8,0:3|0:0,0:0:0:0:
52,265,65245,6,0,P|123:254|200:236,1,135.000005149842,2|0,3:0|0:0,0:0:0:0:
226,149,65807,1,0,3:0:0:0:
264,228,65995,2,0,P|275:140|321:87,1,135.000005149842,0|0,3:0|0:0,0:0:0:0:
199,68,66557,1,2,0:0:0:0:
114,92,66745,6,0,L|126:149,2,33.7500012874604,0|0|0,3:0|0:0|0:0,0:0:0:0:
111,79,67213,6,0,P|71:118|20:127,1,101.250003862381,2|8,3:0|0:0,0:0:0:0:
113,344,67870,1,0,3:0:0:0:
113,344,68245,6,0,P|96:263|81:189,1,135.000005149842,2|0,3:0|0:0,0:0:0:0:
96,210,68713,6,0,B|150:212|150:212|168:228|168:228|198:231|198:231|219:223|219:223|251:198|251:198|258:188|258:188|264:196|264:196|312:211|312:211|306:220|306:220|328:258|328:258|335:263|335:263|380:271,1,337.500012874604
377,269,69745,6,0,P|414:181|441:124,1,135.000005149842,2|0,3:0|0:0,0:0:0:0:
342,121,70307,1,0,3:0:0:0:
455,73,70495,2,0,P|458:20|391:44,1,135.000005149842,8|0,0:0|0:0,0:0:0:0:
344,308,71245,6,0,P|400:293|488:275,1,135.000005149842,2|0,3:0|0:0,0:0:0:0:
499,200,71807,2,0,L|514:151,2,45,0|0|0,0:0|0:0|0:0,0:0:0:0:
475,277,72370,1,0,0:0:0:0:
164,313,72745,6,0,B|181:252|122:259|132:239|180:245|147:193,2,112.5,4|0|0,0:3|0:0|0:0,0:0:0:0:
75,384,73495,6,0,P|138:367|291:372,1,202.500007724762,0|0,3:0|0:0,0:0:0:0:
272,270,74245,2,0,P|335:287|488:282,1,202.500007724762,2|0,0:0|0:0,0:0:0:0:
495,208,74995,2,0,L|506:168,1,22.5000008583069
274,368,75557,5,2,0:0:0:0:
273,269,75745,2,0,B|291:176|277:106|237:147|221:72|240:-3,2,270.000010299683,2|2|2,0:0|0:0|0:0,0:0:0:0:
273,269,78557,5,2,0:0:0:0:
350,239,78745,2,0,B|389:280|330:288|346:304|389:282|378:357,2,112.5,4|0|0,0:3|0:0|0:0,0:0:0:0:
299,123,79495,6,0,P|258:52|149:-1,1,202.500007724762,0|0,3:0|0:0,0:0:0:0:
153,123,80245,2,0,P|112:194|3:247,1,202.500007724762,2|0,0:0|0:0,0:0:0:0:
20,152,80995,2,0,L|10:118,1,22.5000008583069
301,253,81745,6,0,P|394:267|518:299,1,202.500007724762,2|0,0:0|0:0,0:0:0:0:
494,150,82495,6,0,B|475:230|527:255|549:187|511:129|369:149|381:241|381:241|389:351|288:348|232:368|183:243|293:225|315:266,1,573.750021886826,2|0,0:0|0:0,0:0:0:0:
280,34,84276,6,0,L|297:27,2,18
264,43,84745,6,0,B|286:70|286:70|267:112,1,67.5000025749208,4|0,0:3|0:0,0:0:0:0:
365,134,84979,2,0,L|246:112,1,101.250003862381,0|2,0:0|0:3,0:0:0:0:
187,81,85213,2,0,L|142:91,4,33.7500012874604
50,99,85495,6,0,L|63:21,2,67.5,2|0|4,3:3|3:0|3:3,0:0:0:0:
118,234,86245,2,0,L|105:156,1,67.5,4|8,3:3|3:3,0:0:0:0:
106,167,86620,2,0,L|53:185,2,45,0|8|4,3:3|3:3|3:3,0:0:0:0:
199,307,86995,6,0,L|212:229,2,67.5,2|0|0,3:3|3:0|0:0,0:0:0:0:
199,307,87651,1,0,3:0:0:0:
199,307,87745,1,4,3:3:0:0:
326,346,87932,1,0,0:0:0:0:
326,346,88026,2,0,L|264:363,1,45,2|0,3:2|0:0,0:0:0:0:
282,357,88307,2,0,L|272:318,1,22.5,2|0,3:2|0:0,0:0:0:0:
172,164,88495,6,0,P|233:157|287:228,1,135,2|0,3:0|3:0,0:0:0:0:
282,205,88870,2,0,P|347:200|384:146,1,135.000005149842,0|4,0:0|3:0,0:0:0:0:
426,23,89245,6,0,L|442:97,1,67.5,4|2,3:0|3:2,0:0:0:0:
440,88,89620,6,0,P|391:111|378:143,2,67.5000025749208,0|0|4,0:0|0:0|3:0,0:0:0:0:
371,253,89995,2,0,B|242:247|315:173|169:172,1,202.500007724762,2|2,3:0|3:0,0:0:0:0:
193,172,90370,2,0,P|159:229|226:249,1,135.000005149842,0|0,0:0|3:0,0:0:0:0:
279,164,90651,1,0,0:0:0:0:
279,164,90745,6,0,L|270:115,2,33.7500012874604,4|0|0,3:3|0:0|0:0,0:0:0:0:
366,48,90979,2,0,L|356:158,1,101.250003862381,0|2,0:0|3:0,0:0:0:0:
358,149,91213,2,0,B|385:131|385:131|443:161|443:161|446:218,1,135.000005149842,0|0,3:0|0:0,0:0:0:0:
512,316,91495,6,0,L|394:327,2,101.250003862381,6|4|0,3:0|3:0|3:0,0:0:0:0:
270,243,92245,2,0,L|371:253,2,101.250003862381,4|4|0,3:0|3:0|3:0,0:0:0:0:
316,85,92995,5,6,3:0:0:0:
316,85,93088,2,0,L|305:138,1,33.7500012874604,0|0,0:0|0:0,0:0:0:0:
243,163,93276,2,0,L|129:129,1,101.250003862381,4|0,3:0|3:0,0:0:0:0:
23,241,93745,6,0,B|-10:219|35:158|87:189,1,112.5,4|4,3:0|3:0,0:0:0:0:
144,358,94495,6,0,P|107:318|107:251,1,101.250003862381,6|4,3:0|3:0,0:0:0:0:
100,273,94870,2,0,P|140:266|162:245,1,67.5000025749208,0|4,0:0|3:0,0:0:0:0:
239,98,95245,6,0,P|249:129|242:162,1,67.5000025749208,4|0,3:0|0:0,0:0:0:0:
242,162,95526,2,0,P|291:153|336:173,1,101.250003862381,8|4,3:0|3:0,0:0:0:0:
512,85,95995,6,0,P|469:96|433:90,1,67.5000025749208,6|0,3:0|0:0,0:0:0:0:
446,93,96276,2,0,P|412:91|380:101,1,67.5000025749208,4|0,3:0|0:0,0:0:0:0:
336,173,96557,2,0,L|346:224,1,33.7500012874604,0|0,3:0|0:0,0:0:0:0:
217,106,96745,6,0,B|240:94|240:94|240:51,1,67.5000025749208,4|0,3:0|0:0,0:0:0:0:
337,23,96979,2,0,L|235:54,1,101.250003862381,0|2,0:0|3:0,0:0:0:0:
196,212,97213,2,0,L|146:201,4,33.7500012874604
105,149,97495,6,0,P|82:186|75:221,2,67.5,2|0|4,3:0|3:0|3:3,0:0:0:0:
31,277,98245,6,0,L|-14:261,1,33.7500012874604,10|2,3:3|3:2,0:0:0:0:
128,318,98432,1,2,3:2:0:0:
128,318,98526,1,4,3:3:0:0:
128,318,98620,2,0,L|81:326,1,33.7500012874604,0|2,3:2|3:2,0:0:0:0:
232,305,98807,2,0,L|195:335,1,33.7500012874604,0|0,3:3|0:0,0:0:0:0:
298,206,98995,6,0,L|285:277,1,45,2|2,1:3|3:2,0:0:0:0:
272,124,99182,1,2,3:2:0:0:
272,124,99276,2,0,L|217:77,1,45,2|2,3:2|3:2,0:0:0:0:
356,142,99463,1,2,3:2:0:0:
356,142,99557,2,0,L|423:117,1,45,2|8,3:2|3:3,0:0:0:0:
454,292,99745,6,0,P|421:219|351:242,1,135.000005149842,4|0,3:0|0:0,0:0:0:0:
367,227,100026,2,0,P|316:288|254:248,1,135.000005149842,0|4,0:0|3:0,0:0:0:0:
214,231,100307,2,0,P|178:237|144:266,1,67.5000025749208,0|0,0:0|0:0,0:0:0:0:
81,209,100495,6,0,P|19:206|-8:189,2,84.3750032186509,2|0|0,3:0|0:0|0:0,0:0:0:0:
139,150,101104,1,0,0:0:0:0:
149,158,101245,6,0,L|134:66,1,67.5000025749208,4|0,3:0|0:0,0:0:0:0:
211,52,101432,2,0,L|221:118,1,67.5000025749208
299,148,101620,2,0,L|289:189,2,33.7500012874604,2|0|0,3:0|0:0|0:0,0:0:0:0:
367,198,101807,2,0,L|374:165,2,33.7500012874604,4|0|2,3:3|0:0|0:0,0:0:0:0:
452,126,101995,6,0,P|456:165|504:251,1,135.000005149842,2|0,0:0|0:0,0:0:0:0:
400,60,102323,2,0,P|368:94|361:154,2,101.250003862381,0|0|0,3:0|3:0|3:0,0:0:0:0:
419,277,102745,6,0,L|315:294,1,67.5000025749208,4|0,0:3|0:0,0:0:0:0:
249,319,102979,2,0,L|362:300,1,101.250003862381,0|2,0:0|0:3,0:0:0:0:
348,314,103213,1,0,3:0:0:0:
310,211,103495,6,0,B|276:199|258:185|258:185|245:200|245:200|195:205|151:222,1,157.500001502037,0|0,1:3|0:0,0:0:0:0:
12,301,103776,2,0,B|46:313|64:327|64:327|77:312|77:312|127:307|171:290,1,157.500001502037,2|0,1:3|0:0,0:0:0:0:
167,143,104057,2,0,B|153:163|153:163|161:182|171:235,1,78.7500007510185,2|0,0:0|0:0,0:0:0:0:
348,51,104245,6,0,B|308:32|255:53|255:53|252:83|240:129,1,157.500001502037,2|0,1:3|0:0,0:0:0:0:
62,205,104526,2,0,B|102:224|155:203|155:203|158:173|170:127,1,157.500001502037,2|0,1:3|0:0,0:0:0:0:
105,47,104807,2,0,B|134:69|134:69|158:61|206:62,1,78.7500007510185,2|0,1:3|0:0,0:0:0:0:
241,191,104995,6,0,B|285:193|321:182|321:182|341:218|363:252,1,157.500001502037,2|0,1:3|0:0,0:0:0:0:
512,371,105276,2,0,B|468:369|432:380|432:380|412:344|390:310,1,157.500001502037,2|0,1:3|0:0,0:0:0:0:
480,219,105557,2,0,B|471:251|471:251|480:280|470:311,1,78.7500007510185,2|0,1:3|0:0,0:0:0:0:
318,314,105745,6,0,B|263:290|195:310|251:330|186:356|108:322,1,202.500007724762,10|0,1:3|0:0,0:0:0:0:
276,175,106495,6,0,B|205:152|162:202|162:202|154:239|205:312,1,180,2|0,1:3|0:0,0:0:0:0:
353,140,106776,2,0,B|424:163|467:113|467:113|475:76|424:3,1,180,2|0,1:3|0:0,0:0:0:0:
343,220,107057,1,2,1:3:0:0:
348,235,107151,1,0,0:0:0:0:
276,175,107245,6,0,B|268:124|285:94|285:94|274:97|274:97|298:52|298:-2,1,180,2|0,1:2|0:0,0:0:0:0:
150,95,107526,2,0,B|142:146|159:176|159:176|148:173|148:173|172:218|172:272,1,180,2|0,1:3|0:0,0:0:0:0:
219,16,107807,2,0,P|180:17|125:17,1,90,2|0,1:3|0:0,0:0:0:0:
0,243,107995,6,0,P|39:242|94:242,1,90,2|0,1:3|0:0,0:0:0:0:
150,95,108182,1,0,0:0:0:0:
150,95,108276,2,0,P|111:96|56:96,1,90,2|0,1:3|0:0,0:0:0:0:
171,254,108463,1,0,0:0:0:0:
171,254,108557,2,0,L|177:203,1,45,8|0,0:3|0:0,0:0:0:0:
242,28,108745,6,0,L|237:64,1,36,4|2,0:3|0:3,0:0:0:0:
184,126,109213,6,0,B|236:98|236:98|320:140,1,135.000005149842,0|0,0:0|0:0,0:0:0:0:
377,161,109495,6,0,L|436:33,1,135.000005149842,2|0,3:0|3:0,0:0:0:0:
504,107,109995,2,0,L|466:188,1,90
377,161,110245,6,0,L|483:210,1,112.500004291535,0|0,3:0|0:0,0:0:0:0:
485,215,110620,2,0,P|493:241|480:307,2,90.0000034332277,0|2|8,3:0|3:0|3:3,0:0:0:0:
307,122,110995,6,0,P|278:68|286:31,1,90.0000034332277,4|0,3:0|0:0,0:0:0:0:
75,316,111370,2,0,L|34:326,2,30,2|0|0,3:2|0:0|0:0,0:0:0:0:
128,229,111620,5,0,0:0:0:0:
139,227,111745,2,0,P|168:173|155:116,1,112.500004291535,0|0,3:0|0:0,0:0:0:0:
165,121,112120,2,0,L|234:110,2,60,0|0|0,3:0|3:0|3:0,0:0:0:0:
55,145,112495,6,0,P|46:92|34:17,1,112.500004291535,4|0,3:0|0:0,0:0:0:0:
49,32,112870,2,0,L|139:16,1,90,0|0,3:0|0:0,0:0:0:0:
217,44,113120,1,0,0:0:0:0:
307,75,113245,2,0,L|218:59,1,90,2|0,3:0|0:0,0:0:0:0:
178,140,113526,5,0,0:0:0:0:
178,140,113620,2,0,P|199:183|200:132,1,135.000005149842,0|0,3:0|0:0,0:0:0:0:
101,101,113901,5,0,0:0:0:0:
101,101,113995,2,0,B|56:185|110:277|133:225|210:278|179:384,1,315,4|0,3:0|0:0,0:0:0:0:
180,377,114745,5,4,0:3:0:0:
26,266,114979,1,0,0:0:0:0:
26,266,115073,2,0,B|10:300|10:300|43:279,1,67.5
419,18,115495,6,0,P|424:52|431:93,1,67.5000025749208,4|0,0:3|0:0,0:0:0:0:
412,159,115776,2,0,P|457:134|503:124,1,90,4|0,0:3|0:0,0:0:0:0:
511,48,116057,1,0,3:0:0:0:
212,53,116245,6,0,P|233:79|259:111,1,67.5000025749208,4|0,3:0|0:0,0:0:0:0:
276,178,116526,2,0,P|302:133|337:102,1,90,4|0,3:0|0:0,0:0:0:0:
306,33,116807,1,2,1:3:0:0:
25,179,116995,6,0,P|56:191|110:211,1,90,4|0,3:0|0:0,0:0:0:0:
167,262,117276,2,0,P|167:210|182:165,1,90,4|0,3:3|0:0,0:0:0:0:
121,121,117557,1,0,3:0:0:0:
242,307,117745,6,0,L|261:320,4,22.5,10|0|0|0|0,3:0|0:0|0:0|0:0|0:0,0:0:0:0:
223,336,118213,2,0,L|180:345,1,33.7500012874604,4|0,3:3|0:0,0:0:0:0:
350,373,118495,6,0,P|357:323|367:256,1,101.250003862381,4|4,3:0|3:0,0:0:0:0:
439,230,118870,6,0,P|429:207|412:192,1,33.7500012874604,0|0,3:0|0:0,0:0:0:0:
469,138,119057,2,0,P|447:119|423:115,1,45,0|0,0:0|0:0,0:0:0:0:
298,218,119245,5,4,3:0:0:0:
298,218,119338,2,0,P|323:188|355:183,1,56.25,0|0,0:0|0:0,0:0:0:0:
390,15,119526,2,0,P|459:50|423:118,1,161.999995056153,6|0,3:0|0:0,0:0:0:0:
338,93,119807,1,6,1:3:0:0:
127,144,119995,6,0,L|277:108,2,135,4|4|2,3:0|3:0|0:3,0:0:0:0:
64,132,120745,6,0,B|96:152|96:152|87:198,1,67.5000025749208,4|0,0:3|0:0,0:0:0:0:
0,283,120979,2,0,L|72:257,1,101.250003862381,0|2,0:0|0:3,0:0:0:0:
153,298,121213,2,0,L|198:308,4,33.7500012874604,0|0|0|0|0,0:0|0:0|0:0|0:0|0:0,0:0:0:0:
274,287,121495,6,0,L|262:356,2,67.5,2|0|2,3:0|3:0|1:3,0:0:0:0:
276,280,122151,1,0,0:0:0:0:
278,273,122245,1,8,0:3:0:0:
278,265,122338,2,0,L|276:242,2,22.5,2|2|4,3:2|3:2|3:3,0:0:0:0:
361,273,122620,2,0,L|358:224,2,45,2|2|4,3:2|3:2|3:3,0:0:0:0:
144,270,122995,5,2,1:3:0:0:
144,270,123088,1,2,3:2:0:0:
144,270,123182,2,0,L|189:262,2,45,2|2|2,3:2|3:2|3:2,0:0:0:0:
141,188,123463,2,0,L|167:184,2,22.5,2|2|8,3:2|3:2|3:3,0:0:0:0:
64,196,123745,6,0,P|39:99|16:12,1,180,4|0,0:3|0:0,0:0:0:0:
33,19,124213,2,0,L|66:6,1,33.75,4|0,0:3|0:0,0:0:0:0:
136,91,124495,2,0,L|270:121,1,120,2|0,3:0|0:0,0:0:0:0:
319,55,124870,2,0,P|315:14|285:-12,2,60,0|0|0,0:0|3:0|3:0,0:0:0:0:
223,199,125245,5,4,0:3:0:0:
376,309,125432,2,0,P|342:275|252:279,1,135.000005149842,0|0,0:0|3:0,0:0:0:0:
169,273,125713,1,0,3:0:0:0:
169,273,125807,2,0,P|181:309|198:352,1,67.5000025749208,0|0,3:0|3:0,0:0:0:0:
245,115,125995,1,2,3:0:0:0:
245,115,126182,6,0,L|253:76,2,33.75,2|2|2,0:0|0:0|0:0,0:0:0:0:
57,136,126651,1,0,0:0:0:0:
45,133,126745,6,0,B|-8:123|-8:123|41:240,1,168.750006437302,4|0,0:3|0:0,0:0:0:0:
72,304,127073,2,0,L|180:269,1,101.250003862381,0|0,0:0|0:0,0:0:0:0:
405,37,127495,6,0,P|370:85|380:169,1,135.000005149842,2|0,1:3|0:0,0:0:0:0:
449,174,127776,2,0,P|484:126|474:42,1,135.000005149842,2|0,1:3|0:0,0:0:0:0:
227,136,128151,5,0,0:0:0:0:
227,136,128245,2,0,P|220:195|271:262,1,135.000005149842,2|0,1:3|0:0,0:0:0:0:
333,232,128526,2,0,P|339:172|288:105,1,135.000005149842,2|0,1:3|0:0,0:0:0:0:
208,51,128807,2,0,P|157:78|153:107,1,67.5000025749208,2|0,1:3|0:0,0:0:0:0:
30,145,128995,6,0,P|96:154|147:198,1,135.000005149842,2|0,1:3|0:0,0:0:0:0:
116,271,129276,2,0,P|50:262|0:218,1,135.000005149842,2|0,1:3|0:0,0:0:0:0:
23,32,129557,2,0,P|74:59|78:88,1,67.5000025749208,2|0,1:3|0:0,0:0:0:0:
116,271,129745,6,0,L|111:308,3,33.7500012874604,2|0|0|0,1:3|0:0|3:3|3:3,0:0:0:0:
203,17,130213,5,0,3:0:0:0:
203,17,130307,2,0,L|208:54,1,33.7500012874604,0|0,3:0|0:0,0:0:0:0:
230,171,130495,6,0,L|310:157,1,67.5000025749208,2|0,1:3|0:0,0:0:0:0:
462,81,130682,1,0,0:0:0:0:
451,79,130776,2,0,L|371:65,1,67.5000025749208,2|0,1:3|0:0,0:0:0:0:
366,235,130963,1,0,0:0:0:0:
379,268,131057,1,2,1:3:0:0:
374,300,131151,1,0,0:0:0:0:
366,332,131245,6,0,P|306:344|234:376,1,135.000005149842,2|0,1:3|0:0,0:0:0:0:
135,277,131526,2,0,P|170:296|210:309,1,67.5000025749208,2|0,1:3|0:0,0:0:0:0:
120,189,131713,1,0,0:0:0:0:
120,189,131807,2,0,P|77:204|61:244,1,67.5000025749208,2|0,1:3|0:0,0:0:0:0:
96,379,131995,6,0,P|90:340|57:192,1,161.999995056153,2|0,1:3|0:0,0:0:0:0:
20,142,132276,1,4,3:3:0:0:
169,104,132463,1,2,0:3:0:0:
169,104,132557,2,0,L|184:12,1,80.9999975280763,8|0,0:3|0:0,0:0:0:0:
206,215,132745,6,0,B|201:177|238:150|238:150|324:177|263:216|341:264|403:241|403:241|365:309,1,337.500012874604,4|0,0:3|0:0,0:0:0:0:
367,168,133307,2,0,L|378:128,2,33.7500012874604,0|0|0,0:0|0:0|0:0,0:0:0:0:
448,321,133495,6,0,P|344:313|147:362,1,270,2|0,3:3|0:0,0:0:0:0:
101,183,134245,2,0,P|136:229|136:284,1,90,4|0,0:3|0:0,0:0:0:0:
140,259,134526,2,0,P|105:213|105:158,1,90,0|0,0:0|0:0,0:0:0:0:
140,114,134807,1,4,0:3:0:0:
0,370,134995,2,0,P|32:310|17:209,2,135,2|0|0,3:3|0:0|0:0,0:0:0:0:
139,267,135745,6,0,B|284:274|196:201|361:203,1,225,4|0,0:3|0:0,0:0:0:0:
347,195,136307,2,0,L|356:141,1,45,2|0,0:0|0:0,0:0:0:0:
457,21,136495,5,2,3:3:0:0:
457,21,136588,2,0,L|472:149,1,90,0|0,0:0|0:0,0:0:0:0:
467,110,136870,2,0,L|407:122,1,45,2|0,3:0|0:0,0:0:0:0:
355,289,137057,2,0,L|295:276,1,45,2|0,0:0|0:0,0:0:0:0:
220,115,137245,5,4,0:3:0:0:
220,115,137338,2,0,L|205:243,1,90,0|0,0:0|3:0,0:0:0:0:
210,204,137620,2,0,L|269:216,1,45,0|0,3:0|3:0,0:0:0:0:
322,383,137807,2,0,L|381:370,1,45,0|0,3:0|0:0,0:0:0:0:
416,238,137995,5,2,3:0:0:0:
256,192,138088,12,0,139213,0:0:0:0:
66,108,139495,6,0,B|115:63|181:89|181:89|222:69|230:8,1,202.500007724762,2|2,3:0|0:0,0:0:0:0:
130,160,140245,2,0,L|144:217,1,33.7500012874604,4|0,0:3|0:0,0:0:0:0:
236,244,140432,1,0,3:0:0:0:
236,244,140526,1,0,3:0:0:0:
236,244,140620,2,0,L|179:227,1,33.7500012874604,0|0,3:0|3:0,0:0:0:0:
110,293,140807,2,0,L|152:252,1,33.7500012874604,0|0,3:0|0:0,0:0:0:0:
218,154,140995,5,2,3:0:0:0:
305,297,141182,2,0,L|297:336,2,33.7500012874604,0|0|0,0:0|0:0|0:0,0:0:0:0:
395,245,141557,1,0,0:0:0:0:
395,245,141651,1,0,0:0:0:0:
395,245,141745,6,0,B|456:247|491:302|465:349|401:353,1,168.750006437302,4|4,0:3|0:3,0:0:0:0:
420,349,142307,1,0,0:3:0:0:
317,204,142495,2,0,P|339:165|372:148,1,67.5000025749208,2|0,3:0|0:0,0:0:0:0:
357,152,142776,1,0,0:0:0:0:
357,152,142870,1,2,1:3:0:0:
500,199,143057,1,0,0:0:0:0:
275,269,143245,6,0,P|236:246|219:214,1,67.5000025749208,4|0,0:3|3:0,0:0:0:0:
224,227,143526,1,0,3:0:0:0:
223,228,143620,2,0,L|180:241,1,33.7500012874604,0|0,3:0|3:0,0:0:0:0:
120,252,143807,2,0,L|76:264,1,33.7500012874604,0|0,3:0|0:0,0:0:0:0:
0,311,143995,6,0,L|20:230,1,67.5000025749208,2|0,3:0|0:0,0:0:0:0:
68,187,144276,2,0,L|85:115,1,67.5000025749208
143,66,144557,2,0,L|155:22,1,33.7500012874604
240,21,144745,6,0,P|292:46|331:55,1,67.5000025749208,4|0,0:3|0:0,0:0:0:0:
301,48,145026,2,0,L|315:89,1,33.7500012874604,0|0,0:0|0:0,0:0:0:0:
380,114,145213,2,0,P|432:89|471:80,1,67.5000025749208,4|0,0:3|0:0,0:0:0:0:
495,144,145495,6,0,P|457:175|389:188,2,101.250003862381,2|0|2,3:0|0:0|1:3,0:0:0:0:
495,144,146151,1,0,0:0:0:0:
495,144,146245,1,4,0:3:0:0:
355,247,146432,1,0,0:0:0:0:
355,247,146526,2,0,L|297:234,1,33.7500012874604,0|2,0:0|0:0,0:0:0:0:
247,225,146713,1,0,0:0:0:0:
247,225,146807,2,0,L|189:212,1,33.7500012874604,0|0,0:0|0:0,0:0:0:0:
158,157,146995,6,0,P|181:200|75:199,1,202.500007724762,2|0,3:0|0:0,0:0:0:0:
0,366,147745,6,0,P|55:338|172:331,1,168.750006437302,4|0,0:3|0:0,0:0:0:0:
160,328,148307,1,0,0:0:0:0:
261,362,148495,2,0,P|257:309|260:283,1,67.5000025749208,2|0,3:0|0:0,0:0:0:0:
258,294,148776,1,0,0:0:0:0:
258,294,148870,1,2,0:0:0:0:
182,252,149057,1,0,0:0:0:0:
344,337,149245,6,0,P|340:281|311:132,1,202.500007724762,4|2,0:3|1:3,0:0:0:0:
225,0,149995,2,0,P|230:52|246:106,2,101.250003862381,2|0|0,3:0|0:0|0:0,0:0:0:0:
244,179,150745,5,4,0:3:0:0:
325,66,150932,2,0,P|388:86|411:132,1,101.250003862381,0|0,0:0|0:0,0:0:0:0:
406,113,151307,2,0,L|417:169,1,33.7500012874604,2|0,0:0|0:0,0:0:0:0:
512,235,151495,6,0,B|387:197|452:279|304:225,1,202.500007724762,2|0,3:0|0:0,0:0:0:0:
232,331,152245,6,0,L|247:234,1,67.5000025749208,4|0,0:3|0:0,0:0:0:0:
242,264,152526,1,0,0:0:0:0:
242,264,152620,2,0,L|196:273,1,33.7500012874604,0|0,0:0|0:0,0:0:0:0:
166,149,152807,2,0,L|119:140,1,33.7500012874604,4|0,0:3|0:0,0:0:0:0:
140,308,152995,2,0,L|36:326,2,101.250003862381,2|0|0,3:3|0:0|0:0,0:0:0:0:
0,254,153745,6,0,P|51:220|88:160,1,101.250003862381,4|0,0:3|0:0,0:0:0:0:
74,188,154120,2,0,P|69:153|64:116,1,67.5000025749208,2|2,0:0|0:0,0:0:0:0:
149,227,154495,2,0,P|154:261|159:299,1,67.5000025749208,2|2,3:0|0:0,0:0:0:0:
186,134,154870,2,0,P|180:99|175:61,1,67.5000025749208,2|2,0:0|0:0,0:0:0:0:
264,229,155245,2,0,P|269:263|274:301,1,67.5000025749208,4|2,0:3|0:0,0:0:0:0:
284,82,155620,2,0,P|278:47|273:9,1,67.5000025749208,2|4,0:0|0:3,0:0:0:0:
360,241,155995,5,2,3:0:0:0:
391,160,156182,1,0,0:0:0:0:
473,163,156370,2,0,P|504:188|508:286,1,135.000005149842,0|4,0:0|0:3,0:0:0:0:
256,192,170245,12,4,171745,0:3:0:0:
243,348,172682,5,2,0:0:0:0:
243,348,172776,2,0,L|252:235,1,101.250003862381,0|2,0:0|0:0,0:0:0:0:
394,278,173245,6,0,P|350:263|322:242,1,67.5000025749208,4|0,0:3|3:0,0:0:0:0:
333,175,173526,2,0,P|304:157|271:148,1,67.5000025749208,0|0,0:0|0:0,0:0:0:0:
202,188,173807,2,0,P|136:176|62:124,1,135.000005149842,2|0,3:0|0:0,0:0:0:0:
78,141,174276,1,0,0:0:0:0:
78,141,174370,1,0,0:0:0:0:
256,64,174745,5,4,3:3:0:0:
256,320,179245,5,0,1:0:0:0:
97,359,179432,2,0,P|159:353|196:351,1,90,0|0,0:0|0:0,0:0:0:0:
195,226,179807,2,0,L|189:285,2,45,2|0|2,0:1|0:0|0:1,0:0:0:0:
415,25,180370,2,0,P|353:31|316:33,1,90,2|0,0:1|0:0,0:0:0:0:
207,17,180745,6,0,P|215:81|230:183,1,135.000005149842,4|2,1:1|0:0,0:0:0:0:
232,151,181213,2,0,L|314:143,1,67.5000025749208,2|0,0:0|0:0,0:0:0:0:
304,168,181495,2,0,L|386:176,1,67.5000025749208,2|0,3:2|0:0,0:0:0:0:
512,238,181870,1,2,1:3:0:0:
489,135,182057,1,0,0:0:0:0:
446,289,182245,6,0,P|466:219|485:146,1,135.000005149842,4|2,0:3|0:0,0:0:0:0:
448,33,182807,1,2,1:3:0:0:
348,4,182995,2,0,P|357:53|367:89,1,67.5000025749208,2|2,0:0|0:0,0:0:0:0:
400,178,183370,1,2,1:3:0:0:
270,82,183557,1,0,0:0:0:0:
316,258,183745,6,0,P|303:205|286:134,1,101.250003862381,4|0,0:3|0:0,0:0:0:0:
292,159,184120,1,2,0:0:0:0:
248,306,184307,1,0,3:0:0:0:
165,223,184495,2,0,P|127:237|105:262,1,67.5000025749208,2|2,3:2|0:0,0:0:0:0:
70,354,184870,2,0,P|88:300|73:227,1,101.250003862381,2|0,1:3|0:0,0:0:0:0:
24,208,185245,6,0,P|17:153|10:91,1,101.250003862381,4|0,0:3|0:0,0:0:0:0:
11,107,185620,1,2,0:0:0:0:
140,36,185807,1,2,1:3:0:0:
108,163,185995,2,0,P|151:172|179:195,1,67.5000025749208,2|2,0:0|0:0,0:0:0:0:
296,249,186370,2,0,P|253:258|205:298,1,101.250003862381,2|0,1:3|0:0,0:0:0:0:
201,316,186745,6,0,P|183:245|167:173,1,135.000005149842,4|2,0:3|0:0,0:0:0:0:
180,181,187213,2,0,L|197:100,1,67.5000025749208,0|0,0:0|0:0,0:0:0:0:
205,39,187495,2,0,L|280:24,1,67.5000025749208,2|2,3:2|0:0,0:0:0:0:
96,126,187870,2,0,L|21:141,1,67.5000025749208,2|0,1:3|0:3,0:0:0:0:
60,329,188245,6,0,P|70:275|82:212,1,101.250003862381,4|0,0:3|0:0,0:0:0:0:
84,231,188620,2,0,B|167:233|121:269|226:268,2,135.000005149842,2|2|2,0:0|0:0|1:3,0:0:0:0:
60,329,189557,1,0,0:0:0:0:
199,191,189745,6,0,P|209:144|225:76,1,101.250003862381,4|0,0:3|0:0,0:0:0:0:
221,92,190120,5,2,0:0:0:0:
171,15,190307,1,2,0:2:0:0:
109,124,190495,5,2,3:2:0:0:
0,76,190682,1,0,0:0:0:0:
135,247,190870,5,2,1:3:0:0:
0,303,191057,1,0,0:0:0:0:
89,380,191245,6,0,L|84:309,2,60,4|0|0,0:3|0:0|0:0,0:0:0:0:
221,161,191995,6,0,L|198:321,2,135,2|0|0,3:2|0:0|0:0,0:0:0:0:
5,137,192745,6,0,B|90:150|90:150|96:140|96:140|239:165,1,225,4|2,0:3|0:3,0:0:0:0:
287,204,193213,6,0,P|298:132|239:92,1,135.000005149842,0|0,0:0|0:0,0:0:0:0:
178,73,193495,6,0,P|223:19|306:34,1,135,2|0,3:3|0:0,0:0:0:0:
353,55,193870,6,0,L|380:-21,6,45,10|0|0|0|0|0|0,1:3|0:0|0:0|0:0|0:0|0:0|0:0,0:0:0:0:
405,111,194245,6,0,B|372:75|291:30|319:147|445:104|441:175|449:229|302:77|272:109|254:183|467:156|442:256|259:102|249:241|276:310|360:360|394:247|336:169|275:209,1,405.000015449525,4|10,0:3|3:0,0:0:0:0:
202,244,195557,1,0,0:0:0:0:
327,350,195745,5,4,0:3:0:0:
429,295,195932,1,0,3:0:0:0:
429,295,196026,1,0,3:0:0:0:
429,295,196120,2,0,L|449:231,2,45,0|0|10,3:0|3:0|3:0,0:0:0:0:
472,171,196401,1,0,3:0:0:0:
472,171,196495,2,0,L|365:183,1,90,4|4,3:3|3:3,0:0:0:0:
327,350,196870,1,10,3:3:0:0:
327,350,196963,1,0,3:0:0:0:
327,350,197057,6,2,B|360:295|337:251|337:251|283:211|310:137,1,202.500007724762,2|2,3:1|0:1,0:1:0:0:
333,79,197432,2,2,B|317:141|270:156|270:156|203:146|170:217,1,202.500007724762,2|2,3:1|0:1,0:1:0:0:
157,273,197807,2,2,P|111:233|117:201,1,67.5000025749208,2|2,0:1|0:1,0:1:0:0:
52,29,197995,6,0,P|104:93|115:164,1,135,4|0,0:3|0:0,0:0:0:0:
115,142,198370,2,0,L|53:164,1,45,0|0,3:0|3:0,0:0:0:0:
0,215,198557,2,0,L|36:220,2,22.5,0|0|0,3:0|0:0|3:0,0:0:0:0:
59,291,198745,6,0,P|64:230|74:137,1,135,4|0,3:0|0:0,0:0:0:0:
11,102,199120,1,0,1:0:0:0:
193,49,199307,5,0,1:0:0:0:
193,49,199401,1,0,1:0:0:0:
193,49,199495,2,0,L|210:-6,2,45,0|0|0,3:0|1:0|1:0,0:0:0:0:
160,226,199870,5,0,1:0:0:0:
176,218,199963,2,0,L|125:112,1,90,0|0,1:0|1:0,0:0:0:0:
54,173,200245,5,4,1:3:0:0:
54,173,200338,2,0,L|0:195,2,45,0|0|0,3:0|3:0|3:0,0:0:0:0:
85,248,200620,2,0,L|31:270,1,45,0|0,1:0|3:0,0:0:0:0:
141,323,200807,1,0,1:0:0:0:
166,348,200901,1,0,1:0:0:0:
200,361,200995,1,0,3:0:0:0:
236,357,201088,1,0,1:0:0:0:
268,339,201182,6,0,L|286:282,1,45,0|0,1:0|3:0,0:0:0:0:
412,282,201370,2,0,L|347:292,1,45,0|0,1:0|1:0,0:0:0:0:
203,229,201557,2,0,L|268:219,1,45,0|0,3:0|1:0,0:0:0:0:
380,204,201745,6,0,P|389:131|402:20,1,168.75,4|0,0:3|0:0,0:0:0:0:
330,0,202120,1,0,1:0:0:0:
477,132,202307,1,0,1:0:0:0:
477,132,202401,1,0,1:0:0:0:
477,132,202495,2,0,L|531:142,2,45,0|0|0,3:0|1:0|1:0,0:0:0:0:
277,69,202870,1,0,1:0:0:0:
277,69,202963,2,0,L|188:87,1,90,0|0,1:0|1:0,0:0:0:0:
188,87,203245,5,4,1:3:0:0:
186,179,203432,1,0,3:0:0:0:
44,0,203620,1,0,1:0:0:0:
34,176,203807,1,0,1:0:0:0:
34,176,203901,2,0,P|43:148|70:122,1,45,0|0,1:0|3:0,0:0:0:0:
72,297,204088,1,0,1:0:0:0:
72,297,204182,2,0,P|93:277|130:268,1,45,0|0,1:0|3:0,0:0:0:0:
317,356,204370,1,0,1:0:0:0:
280,380,204463,1,0,1:0:0:0:
235,382,204557,1,0,3:0:0:0:
197,359,204651,1,0,1:0:0:0:
176,320,204745,6,0,P|187:267|198:206,1,101.250003862381,4|0,1:3|0:0,0:0:0:0:
182,217,205120,2,0,L|140:201,1,33.7500012874604,2|0,0:0|0:0,0:0:0:0:
188,132,205307,2,0,L|230:148,1,33.7500012874604,0|0,0:0|0:0,0:0:0:0:
319,52,205495,2,0,P|309:101|300:151,1,101.250003862381,2|0,3:2|0:0,0:0:0:0:
290,232,205870,6,0,B|375:233|327:193|450:195,1,135,2|0,1:3|0:0,0:0:0:0:
421,204,206245,6,0,P|429:253|440:303,1,101.250003862381,4|0,0:3|0:0,0:0:0:0:
440,303,206620,1,2,0:0:0:0:
509,234,206807,1,2,1:3:0:0:
491,74,206995,2,0,P|429:90|408:139,1,101.250003862381,2|0,0:0|0:0,0:0:0:0:
329,159,207370,6,0,P|391:143|414:62,1,135,2|0,1:3|0:0,0:0:0:0:
366,20,207745,6,0,P|349:1|362:24,1,67.5000025749208,4|0,0:3|0:0,0:0:0:0:
417,82,208120,1,2,0:0:0:0:
250,9,208307,1,0,3:3:0:0:
329,159,208495,2,0,P|320:213|307:290,1,101.250003862381,2|0,3:2|0:0,0:0:0:0:
295,274,208870,6,0,L|323:113,1,135.000005149842,2|0,1:3|0:0,0:0:0:0:
182,370,209245,6,0,P|253:372|266:337,1,101.250003862381,4|0,0:3|0:0,0:0:0:0:
210,294,209620,1,2,0:0:0:0:
39,300,209807,6,0,P|43:336|50:386,1,67.5000025749208,0|0,1:3|0:0,0:0:0:0:
131,221,209995,6,0,L|147:92,1,101.250003862381,2|0,0:0|0:0,0:0:0:0:
133,103,210370,6,0,L|112:274,1,135.000005149842,0|0,1:0|0:0,0:0:0:0:
4,70,210745,6,0,B|89:71|44:104|157:103,1,135.000005149842,4|2,0:3|0:0,0:0:0:0:
278,37,211307,1,0,0:0:0:0:
258,182,211495,2,0,L|221:102,1,67.5000025749208,0|0,3:0|0:0,0:0:0:0:
426,249,211870,2,0,P|392:215|330:217,1,101.250003862381,0|0,1:0|0:0,0:0:0:0:
333,213,212245,6,0,L|312:338,1,101.250003862381,4|0,0:3|0:0,0:0:0:0:
323,317,212620,1,2,0:0:0:0:
173,244,212807,1,0,0:0:0:0:
31,275,212995,2,0,L|112:258,1,67.5000025749208,0|0,3:0|0:0,0:0:0:0:
207,67,213370,2,0,L|185:182,1,101.250003862381,0|0,1:0|0:0,0:0:0:0:
187,166,213745,6,0,L|83:187,1,101.250003862381,4|0,0:3|0:0,0:0:0:0:
88,185,214120,1,2,0:0:0:0:
115,79,214307,1,0,0:0:0:0:
272,18,214495,2,0,P|318:33|331:56,1,67.5000025749208,0|0,3:0|0:0,0:0:0:0:
374,195,214870,2,0,L|411:71,1,101.250003862381,0|0,1:0|0:0,0:0:0:0:
402,97,215245,6,0,L|503:76,1,101.250003862381,4|0,0:3|0:0,0:0:0:0:
501,76,215620,1,2,0:0:0:0:
475,189,215807,1,0,0:0:0:0:
288,90,215995,2,0,L|310:173,1,67.5000025749208,0|0,3:0|0:0,0:0:0:0:
352,313,216370,2,0,L|386:201,1,101.250003862381,0|0,1:0|0:0,0:0:0:0:
381,216,216745,5,4,0:3:0:0:
256,192,216838,12,2,221245,0:0:0:0:
