osu file format v14

[General]
AudioFilename: Culprate - Finger VIP.mp3
AudioLeadIn: 0
PreviewTime: 98477
Countdown: 0
SampleSet: Soft
StackLeniency: 0.7
Mode: 3
LetterboxInBreaks: 0
SpecialStyle: 0
WidescreenStoryboard: 0

[Editor]
Bookmarks: 19305,43305,81705,100905,120105,139305,158505,177705,196905
DistanceSpacing: 2
BeatDivisor: 8
GridSize: 4
TimelineZoom: 4.000001

[Metadata]
Title:Finger VIP
TitleUnicode:Finger VIP
Artist:Culprate
ArtistUnicode:Culprate
Creator:Parachor
Version:Trigger Finger
Source:
Tags:inspected inspector dubplate koan sound uk garage dubstep glitch hop sv
BeatmapID:1081560
BeatmapSetID:508572

[Difficulty]
HPDrainRate:8.5
CircleSize:4
OverallDifficulty:7.5
ApproachRate:5
SliderMultiplier:1.4
SliderTickRate:1

[Events]
//Background and Video events
0,0,"triggerJPG.jpg",0,0
//Break Periods
//Storyboard Layer 0 (Background)
//Storyboard Layer 1 (Fail)
//Storyboard Layer 2 (Pass)
//Storyboard Layer 3 (Foreground)
//Storyboard Sound Samples

[TimingPoints]
115,600,4,2,1,15,1,0
8515,-117.647058823529,4,2,1,15,0,0
8715,-86.9565217391304,4,2,1,15,0,0
8815,-117.647058823529,4,2,1,15,0,0
9015,-86.9565217391304,4,2,1,15,0,0
9115,-117.647058823529,4,2,1,15,0,0
9315,-86.9565217391304,4,2,1,15,0,0
9415,-100,4,2,1,15,0,0
18715,-86.9565217391304,4,2,1,15,0,0
18790,-133.333333333333,4,2,1,15,0,0
18865,-100,4,2,1,15,0,0
18940,-117.647058823529,4,2,1,15,0,0
19015,-153.846153846154,4,2,1,15,0,0
19090,-80,4,2,1,15,0,0
19165,-86.9565217391304,4,2,1,15,0,0
19240,-117.647058823529,4,2,1,15,0,0
19315,-100,4,2,1,15,0,0
21115,-111.111111111111,4,2,1,15,0,0
21190,-125,4,2,1,15,0,0
21265,-153.846153846154,4,2,1,15,0,0
21340,-200,4,2,1,15,0,0
21415,-333.333333333333,4,2,1,15,0,0
21490,-181.818181818182,4,2,1,15,0,0
21565,-117.647058823529,4,2,1,15,0,0
21640,-90.9090909090909,4,2,1,15,0,0
21715,-100,4,2,1,15,0,0
23065,-90.9090909090909,4,2,1,15,0,0
23140,-83.3333333333333,4,2,1,15,0,0
23215,-100,4,2,1,15,0,0
23815,-80,4,2,1,15,0,0
23865,-133.333333333333,4,2,1,15,0,0
23915,-80,4,2,1,15,0,0
23965,-133.333333333333,4,2,1,15,0,0
24015,-80,4,2,1,15,0,0
24065,-133.333333333333,4,2,1,15,0,0
24115,-80,4,2,1,15,0,0
24165,-100,4,2,1,15,0,0
24865,-111.111111111111,4,2,1,15,0,0
24902,-133.333333333333,4,2,1,15,0,0
24940,-100,4,2,1,15,0,0
25015,-111.111111111111,4,2,1,15,0,0
25052,-133.333333333333,4,2,1,15,0,0
25090,-100,4,2,1,15,0,0
26215,-111.111111111111,4,2,1,15,0,0
26290,-125,4,2,1,15,0,0
26365,-90.9090909090909,4,2,1,15,0,0
26440,-100,4,2,1,15,0,0
26515,-111.111111111111,4,2,1,15,0,0
26590,-125,4,2,1,15,0,0
26665,-90.9090909090909,4,2,1,15,0,0
26740,-100,4,2,1,15,0,0
28315,-80,4,2,1,15,0,0
28352,-133.333333333333,4,2,1,15,0,0
28390,-400,4,2,1,15,0,0
28427,-50,4,2,1,15,0,0
28465,-80,4,2,1,15,0,0
28502,-133.333333333333,4,2,1,15,0,0
28540,-400,4,2,1,15,0,0
28577,-50,4,2,1,15,0,0
28615,-80,4,2,1,15,0,0
28652,-133.333333333333,4,2,1,15,0,0
28690,-400,4,2,1,15,0,0
28727,-50,4,2,1,15,0,0
28765,-80,4,2,1,15,0,0
28802,-133.333333333333,4,2,1,15,0,0
28840,-400,4,2,1,15,0,0
28877,-50,4,2,1,15,0,0
28915,-100,4,2,1,15,0,0
31315,-111.111111111111,4,2,1,15,0,0
31465,-100,4,2,1,15,0,0
31615,-111.111111111111,4,2,1,15,0,0
31765,-100,4,2,1,15,0,0
33715,-45.4545454545455,4,2,1,15,0,0
33752,-100,4,2,1,15,0,0
34915,-45.4545454545455,4,2,1,15,0,0
34952,-100,4,2,1,15,0,0
36115,-45.4545454545455,4,2,1,15,0,0
36152,-100,4,2,1,15,0,0
37715,-90.9090909090909,4,2,1,15,0,0
37915,-50,4,2,1,15,0,0
37965,-100,4,2,1,15,0,0
38415,-90.9090909090909,4,2,1,15,0,0
38515,-133.333333333333,4,2,1,15,0,0
39715,-100,4,2,1,15,0,0
40315,-95.2380952380952,4,2,1,15,0,0
40915,-86.9565217391304,4,2,1,15,0,0
41515,-83.3333333333333,4,2,1,15,0,0
42115,-117.647058823529,4,2,1,15,0,0
42215,-100,4,2,1,15,0,0
42415,-117.647058823529,4,2,1,15,0,0
42515,-100,4,2,1,15,0,0
42715,-83.3333333333333,4,2,1,15,0,0
42865,-90.9090909090909,4,2,1,15,0,0
43015,-100,4,2,1,15,0,0
43315,-71.4285714285714,4,2,1,15,0,0
43415,-76.9230769230769,4,2,1,15,0,0
43515,-105.263157894737,4,2,1,15,0,0
43615,-117.647058823529,4,2,1,15,0,0
43665,-76.9230769230769,4,2,1,15,0,0
43715,-100,4,2,1,15,0,0
43865,-76.9230769230769,4,2,1,15,0,0
43915,-100,4,2,1,15,0,0
44215,-200,4,2,1,15,0,0
44465,-66.6666666666667,4,2,1,15,0,0
44515,-100,4,2,1,15,0,0
44615,-200,4,2,1,15,0,0
44915,-66.6666666666667,4,2,1,15,0,0
44965,-100,4,2,1,15,0,0
45065,-66.6666666666667,4,2,1,15,0,0
45115,-100,4,2,1,15,0,0
45215,-125,4,2,1,15,0,0
45415,-86.9565217391304,4,2,1,15,0,0
45565,-100,4,2,1,15,0,0
45715,-66.6666666666667,4,2,1,15,0,0
45765,-100,4,2,1,15,0,0
45815,-117.647058823529,4,2,1,15,0,0
45865,-166.666666666667,4,2,1,15,0,0
45915,-90.9090909090909,4,2,1,15,0,0
45965,-100,4,2,1,15,0,0
46015,-90.9090909090909,4,2,1,15,0,0
46065,-100,4,2,1,15,0,0
46115,-90.9090909090909,4,2,1,15,0,0
46165,-100,4,2,1,15,0,0
46215,-90.9090909090909,4,2,1,15,0,0
46265,-100,4,2,1,15,0,0
46315,-90.9090909090909,4,2,1,15,0,0
46365,-100,4,2,1,15,0,0
46877,-66.6666666666667,4,2,1,15,0,0
46915,-100,4,2,1,15,0,0
46990,-133.333333333333,4,2,1,15,0,0
47065,-200,4,2,1,15,0,0
47102,-66.6666666666667,4,2,1,15,0,0
47140,-100,4,2,1,15,0,0
47215,-133.333333333333,4,2,1,15,0,0
47290,-200,4,2,1,15,0,0
47327,-66.6666666666667,4,2,1,15,0,0
47365,-100,4,2,1,15,0,0
47440,-200,4,2,1,15,0,0
47477,-66.6666666666667,4,2,1,15,0,0
47515,-100,4,2,1,15,0,0
47590,-133.333333333333,4,2,1,15,0,0
47665,-200,4,2,1,15,0,0
47715,-100,4,2,1,15,0,0
47765,-86.9565217391304,4,2,1,15,0,0
47815,-83.3333333333333,4,2,1,15,0,0
47865,-111.111111111111,4,2,1,15,0,0
47965,-100,4,2,1,15,0,0
48015,-117.647058823529,4,2,1,15,0,0
48115,-71.4285714285714,4,2,1,15,0,0
48215,-76.9230769230769,4,2,1,15,0,0
48315,-105.263157894737,4,2,1,15,0,0
48415,-117.647058823529,4,2,1,15,0,0
48465,-83.3333333333333,4,2,1,15,0,0
48515,-100,4,2,1,15,0,0
48665,-66.6666666666667,4,2,1,15,0,0
48715,-100,4,2,1,15,0,0
48965,-80,4,2,1,15,0,0
49015,-125,4,2,1,15,0,0
49115,-80,4,2,1,15,0,0
49165,-125,4,2,1,15,0,0
49265,-80,4,2,1,15,0,0
49315,-125,4,2,1,15,0,0
49365,-80,4,2,1,15,0,0
49415,-100,4,2,1,15,0,0
49515,-125,4,2,1,15,0,0
49565,-80,4,2,1,15,0,0
49615,-125,4,2,1,15,0,0
49715,-80,4,2,1,15,0,0
49765,-125,4,2,1,15,0,0
49865,-80,4,2,1,15,0,0
49915,-100,4,2,1,15,0,0
50215,-86.9565217391304,4,2,1,15,0,0
50365,-100,4,2,1,15,0,0
50515,-80,4,2,1,15,0,0
50615,-100,4,2,1,15,0,0
50715,-133.333333333333,4,2,1,15,0,0
50815,-117.647058823529,4,2,1,15,0,0
51115,-90.9090909090909,4,2,1,15,0,0
51165,-111.111111111111,4,2,1,15,0,0
51265,-90.9090909090909,4,2,1,15,0,0
51315,-111.111111111111,4,2,1,15,0,0
51377,-66.6666666666667,4,2,1,15,0,0
51415,-100,4,2,1,15,0,0
51490,-133.333333333333,4,2,1,15,0,0
51527,-66.6666666666667,4,2,1,15,0,0
51565,-100,4,2,1,15,0,0
51640,-117.647058823529,4,2,1,15,0,0
51715,-133.333333333333,4,2,1,15,0,0
51827,-57.1428571428571,4,2,1,15,0,0
51865,-100,4,2,1,15,0,0
51940,-133.333333333333,4,2,1,15,0,0
52015,-200,4,2,1,15,0,0
52052,-66.6666666666667,4,2,1,15,0,0
52090,-100,4,2,1,15,0,0
52315,-86.9565217391304,4,2,1,15,0,0
52390,-90.9090909090909,4,2,1,15,0,0
52465,-95.2380952380952,4,2,1,15,0,0
52540,-100,4,2,1,15,0,0
52615,-117.647058823529,4,2,1,15,0,0
52765,-83.3333333333333,4,2,1,15,0,0
52802,-100,4,2,1,15,0,0
52915,-71.4285714285714,4,2,1,15,0,0
53015,-76.9230769230769,4,2,1,15,0,0
53115,-105.263157894737,4,2,1,15,0,0
53215,-117.647058823529,4,2,1,15,0,0
53265,-76.9230769230769,4,2,1,15,0,0
53315,-100,4,2,1,15,0,0
53465,-76.9230769230769,4,2,1,15,0,0
53515,-100,4,2,1,15,0,0
53665,-117.647058823529,4,2,1,15,0,0
53715,-100,4,2,1,15,0,0
54065,-76.9230769230769,4,2,1,15,0,0
54115,-100,4,2,1,15,0,0
54515,-76.9230769230769,4,2,1,15,0,0
54565,-100,4,2,1,15,0,0
54665,-76.9230769230769,4,2,1,15,0,0
54715,-100,4,2,1,15,0,0
54915,-125,4,2,1,15,0,0
55015,-86.9565217391304,4,2,1,15,0,0
55165,-100,4,2,1,15,0,0
55315,-66.6666666666667,4,2,1,15,0,0
55365,-100,4,2,1,15,0,0
55415,-117.647058823529,4,2,1,15,0,0
55465,-166.666666666667,4,2,1,15,0,0
55515,-90.9090909090909,4,2,1,15,0,0
55565,-100,4,2,1,15,0,0
55615,-90.9090909090909,4,2,1,15,0,0
55665,-100,4,2,1,15,0,0
55715,-90.9090909090909,4,2,1,15,0,0
55765,-100,4,2,1,15,0,0
55815,-90.9090909090909,4,2,1,15,0,0
55865,-100,4,2,1,15,0,0
55915,-90.9090909090909,4,2,1,15,0,0
55965,-100,4,2,1,15,0,0
56515,-86.9565217391304,4,2,1,15,0,0
56552,-100,4,2,1,15,0,0
56740,-86.9565217391304,4,2,1,15,0,0
56777,-100,4,2,1,15,0,0
56965,-86.9565217391304,4,2,1,15,0,0
57002,-100,4,2,1,15,0,0
57115,-86.9565217391304,4,2,1,15,0,0
57565,-117.647058823529,4,2,1,15,0,0
57640,-133.333333333333,4,2,1,15,0,0
57677,-100,4,2,1,15,0,0
57715,-66.6666666666667,4,2,1,15,0,0
58090,-80,4,2,1,15,0,0
58165,-100,4,2,1,15,0,0
58240,-117.647058823529,4,2,1,15,0,0
58277,-83.3333333333333,4,2,1,15,0,0
58315,-100,4,2,1,15,0,0
58990,-117.647058823529,4,2,1,15,0,0
59065,-66.6666666666667,4,2,1,15,0,0
59140,-86.9565217391304,4,2,1,15,0,0
59215,-100,4,2,1,15,0,0
59815,-86.9565217391304,4,2,1,15,0,0
59890,-100,4,2,1,15,0,0
59965,-86.9565217391304,4,2,1,15,0,0
60040,-100,4,2,1,15,0,0
60115,-74.0740740740741,4,2,1,15,0,0
60152,-100,4,2,1,15,0,0
60340,-74.0740740740741,4,2,1,15,0,0
60377,-100,4,2,1,15,0,0
60565,-74.0740740740741,4,2,1,15,0,0
60602,-100,4,2,1,15,0,0
61315,-111.111111111111,4,2,1,15,0,0
61465,-105.263157894737,4,2,1,15,0,0
61615,-100,4,2,1,15,0,0
61765,-86.9565217391304,4,2,1,15,0,0
61840,-100,4,2,1,15,0,0
63115,-76.9230769230769,4,2,1,15,0,0
63165,-117.647058823529,4,2,1,15,0,0
63265,-83.3333333333333,4,2,1,15,0,0
63315,-117.647058823529,4,2,1,15,0,0
63515,-90.9090909090909,4,2,1,15,0,0
63565,-117.647058823529,4,2,1,15,0,0
63902,-83.3333333333333,4,2,1,15,0,0
63940,-100,4,2,1,15,0,0
64165,-86.9565217391304,4,2,1,15,0,0
64240,-100,4,2,1,15,0,0
64615,-86.9565217391304,4,2,1,15,0,0
64690,-125,4,2,1,15,0,0
64765,-100,4,2,1,15,0,0
64915,-86.9565217391304,4,2,1,15,0,0
64990,-125,4,2,1,15,0,0
65065,-100,4,2,1,15,0,0
65140,-80,4,2,1,15,0,0
65177,-133.333333333333,4,2,1,15,0,0
65215,-80,4,2,1,15,0,0
65252,-133.333333333333,4,2,1,15,0,0
65290,-80,4,2,1,15,0,0
65327,-133.333333333333,4,2,1,15,0,0
65365,-86.9565217391304,4,2,1,15,0,0
65440,-100,4,2,1,15,0,0
65590,-111.111111111111,4,2,1,15,0,0
65815,-100,4,2,1,15,0,0
66340,-80,4,2,1,15,0,0
66377,-133.333333333333,4,2,1,15,0,0
66415,-80,4,2,1,15,0,0
66452,-133.333333333333,4,2,1,15,0,0
66490,-80,4,2,1,15,0,0
66527,-133.333333333333,4,2,1,15,0,0
66565,-86.9565217391304,4,2,1,15,0,0
66640,-100,4,2,1,15,0,0
67165,-86.9565217391304,4,2,1,15,0,0
67240,-100,4,2,1,15,0,0
67315,-80,4,2,1,15,0,0
67415,-86.9565217391304,4,2,1,15,0,0
67515,-105.263157894737,4,2,1,15,0,0
67615,-117.647058823529,4,2,1,15,0,0
67665,-83.3333333333333,4,2,1,15,0,0
67715,-100,4,2,1,15,0,0
67865,-83.3333333333333,4,2,1,15,0,0
67915,-100,4,2,1,15,0,0
68740,-80,4,2,1,15,0,0
68777,-133.333333333333,4,2,1,15,0,0
68815,-80,4,2,1,15,0,0
68852,-133.333333333333,4,2,1,15,0,0
68890,-80,4,2,1,15,0,0
68927,-133.333333333333,4,2,1,15,0,0
68965,-86.9565217391304,4,2,1,15,0,0
69040,-100,4,2,1,15,0,0
69715,-117.647058823529,4,2,1,15,0,0
69940,-80,4,2,1,15,0,0
69977,-133.333333333333,4,2,1,15,0,0
70015,-80,4,2,1,15,0,0
70052,-133.333333333333,4,2,1,15,0,0
70090,-80,4,2,1,15,0,0
70127,-133.333333333333,4,2,1,15,0,0
70165,-86.9565217391304,4,2,1,15,0,0
70240,-100,4,2,1,15,0,0
70315,-80,4,2,1,15,0,0
70415,-90.9090909090909,4,2,1,15,0,0
70515,-100,4,2,1,15,0,0
71177,-133.333333333333,4,2,1,15,0,0
71215,-80,4,2,1,15,0,0
71252,-133.333333333333,4,2,1,15,0,0
71290,-80,4,2,1,15,0,0
71327,-133.333333333333,4,2,1,15,0,0
71365,-86.9565217391304,4,2,1,15,0,0
71440,-100,4,2,1,15,0,0
72115,-83.3333333333333,4,2,1,15,0,0
72215,-95.2380952380952,4,2,1,15,0,0
72315,-105.263157894737,4,2,1,15,0,0
72415,-125,4,2,1,15,0,0
72465,-76.9230769230769,4,2,1,15,0,0
72515,-100,4,2,1,15,0,0
73115,-92.5925925925926,4,2,1,15,0,0
73165,-100,4,2,1,15,0,0
76015,-90.9090909090909,4,2,1,15,0,0
76165,-111.111111111111,4,2,1,15,0,0
76315,-90.9090909090909,4,2,1,15,0,0
76615,-86.9565217391304,4,2,1,15,0,0
76652,-100,4,2,1,15,0,0
76765,-86.9565217391304,4,2,1,15,0,0
76802,-100,4,2,1,15,0,0
76915,-76.9230769230769,4,2,1,15,0,0
76952,-90.9090909090909,4,2,1,15,0,0
77215,-100,4,2,1,15,0,0
77365,-76.9230769230769,4,2,1,15,0,0
77402,-90.9090909090909,4,2,1,15,0,0
77515,-100,4,2,1,15,0,0
78115,-76.9230769230769,4,2,1,15,0,0
78152,-90.9090909090909,4,2,1,15,0,0
78415,-100,4,2,1,15,0,0
78565,-76.9230769230769,4,2,1,15,0,0
78602,-90.9090909090909,4,2,1,15,0,0
78715,-89.2857142857143,4,2,1,15,0,0
78752,-100,4,2,1,15,0,0
78940,-89.2857142857143,4,2,1,15,0,0
78977,-100,4,2,1,15,0,0
79165,-89.2857142857143,4,2,1,15,0,0
79202,-100,4,2,1,15,0,0
79390,-89.2857142857143,4,2,1,15,0,0
79427,-100,4,2,1,15,0,0
79615,-95.2380952380952,4,2,1,15,0,0
79915,-100,4,2,1,15,0,0
80065,-95.2380952380952,4,2,1,15,0,0
80515,-117.647058823529,4,2,1,15,0,0
80615,-100,4,2,1,15,0,0
80815,-117.647058823529,4,2,1,15,0,0
80915,-100,4,2,1,15,0,0
81115,-117.647058823529,4,2,1,15,0,0
81215,-100,4,2,1,15,0,0
81490,-92.5925925925926,4,2,1,15,0,0
81527,-100,4,2,1,15,0,0
81565,-92.5925925925926,4,2,1,15,0,0
81602,-100,4,2,1,15,0,0
82315,-76.9230769230769,4,2,1,15,0,0
82365,-117.647058823529,4,2,1,15,0,0
82465,-83.3333333333333,4,2,1,15,0,0
82515,-117.647058823529,4,2,1,15,0,0
82815,-90.9090909090909,4,2,1,15,0,0
82865,-117.647058823529,4,2,1,15,0,0
83102,-83.3333333333333,4,2,1,15,0,0
83140,-100,4,2,1,15,0,0
83365,-86.9565217391304,4,2,1,15,0,0
83440,-100,4,2,1,15,0,0
83815,-86.9565217391304,4,2,1,15,0,0
83890,-125,4,2,1,15,0,0
83965,-100,4,2,1,15,0,0
84115,-86.9565217391304,4,2,1,15,0,0
84190,-125,4,2,1,15,0,0
84265,-100,4,2,1,15,0,0
84340,-80,4,2,1,15,0,0
84377,-133.333333333333,4,2,1,15,0,0
84415,-80,4,2,1,15,0,0
84452,-133.333333333333,4,2,1,15,0,0
84490,-80,4,2,1,15,0,0
84527,-133.333333333333,4,2,1,15,0,0
84565,-86.9565217391304,4,2,1,15,0,0
84640,-100,4,2,1,15,0,0
84790,-111.111111111111,4,2,1,15,0,0
85015,-100,4,2,1,15,0,0
85540,-80,4,2,1,15,0,0
85577,-133.333333333333,4,2,1,15,0,0
85615,-80,4,2,1,15,0,0
85652,-133.333333333333,4,2,1,15,0,0
85690,-80,4,2,1,15,0,0
85727,-133.333333333333,4,2,1,15,0,0
85765,-86.9565217391304,4,2,1,15,0,0
85840,-100,4,2,1,15,0,0
86365,-86.9565217391304,4,2,1,15,0,0
86440,-100,4,2,1,15,0,0
86515,-80,4,2,1,15,0,0
86615,-86.9565217391304,4,2,1,15,0,0
86715,-105.263157894737,4,2,1,15,0,0
86815,-117.647058823529,4,2,1,15,0,0
86865,-83.3333333333333,4,2,1,15,0,0
86915,-100,4,2,1,15,0,0
87065,-83.3333333333333,4,2,1,15,0,0
87115,-100,4,2,1,15,0,0
87940,-80,4,2,1,15,0,0
87977,-133.333333333333,4,2,1,15,0,0
88015,-80,4,2,1,15,0,0
88052,-133.333333333333,4,2,1,15,0,0
88090,-80,4,2,1,15,0,0
88127,-133.333333333333,4,2,1,15,0,0
88165,-86.9565217391304,4,2,1,15,0,0
88240,-100,4,2,1,15,0,0
88915,-117.647058823529,4,2,1,15,0,0
89140,-80,4,2,1,15,0,0
89177,-133.333333333333,4,2,1,15,0,0
89215,-80,4,2,1,15,0,0
89252,-133.333333333333,4,2,1,15,0,0
89290,-80,4,2,1,15,0,0
89327,-133.333333333333,4,2,1,15,0,0
89365,-86.9565217391304,4,2,1,15,0,0
89440,-100,4,2,1,15,0,0
89515,-80,4,2,1,15,0,0
89615,-90.9090909090909,4,2,1,15,0,0
89715,-100,4,2,1,15,0,0
90377,-133.333333333333,4,2,1,15,0,0
90415,-80,4,2,1,15,0,0
90452,-133.333333333333,4,2,1,15,0,0
90490,-80,4,2,1,15,0,0
90527,-133.333333333333,4,2,1,15,0,0
90565,-86.9565217391304,4,2,1,15,0,0
90640,-100,4,2,1,15,0,0
90865,-90.9090909090909,4,2,1,15,0,0
90965,-117.647058823529,4,2,1,15,0,0
91115,-83.3333333333333,4,2,1,15,0,0
91215,-90.9090909090909,4,2,1,15,0,0
91315,-100,4,2,1,15,0,0
97315,-97.0873786407767,4,2,1,15,0,0
98515,-94.3396226415094,4,2,1,15,0,0
99715,-91.743119266055,4,2,1,15,0,0
100865,-86.9565217391304,4,2,1,15,0,0
100915,-90.9090909090909,4,2,1,15,0,1
101065,-100,4,2,1,15,0,1
120115,-90.9090909090909,4,2,1,15,0,0
120265,-153.846153846154,4,2,1,15,0,0
120365,-57.1428571428571,4,2,1,15,0,0
120415,-100,4,2,1,15,0,0
120465,-200,4,2,1,15,0,0
120515,-57.1428571428571,4,2,1,15,0,0
120565,-100,4,2,1,15,0,0
120615,-200,4,2,1,15,0,0
120665,-57.1428571428571,4,2,1,15,0,0
120715,-100,4,2,1,15,0,0
120815,-500,4,2,1,15,0,0
120865,-57.1428571428571,4,2,1,15,0,0
120915,-100,4,2,1,15,0,0
121015,-500,4,2,1,15,0,0
121065,-57.1428571428571,4,2,1,15,0,0
121115,-100,4,2,1,15,0,0
121215,-500,4,2,1,15,0,0
121265,-57.1428571428571,4,2,1,15,0,0
121315,-100,4,2,1,15,0,0
121415,-500,4,2,1,15,0,0
121465,-57.1428571428571,4,2,1,15,0,0
121515,-100,4,2,1,15,0,0
121615,-500,4,2,1,15,0,0
121665,-57.1428571428571,4,2,1,15,0,0
121715,-100,4,2,1,15,0,0
121815,-500,4,2,1,15,0,0
121865,-57.1428571428571,4,2,1,15,0,0
121915,-100,4,2,1,15,0,0
122015,-500,4,2,1,15,0,0
122065,-57.1428571428571,4,2,1,15,0,0
122115,-100,4,2,1,15,0,0
122215,-500,4,2,1,15,0,0
122265,-57.1428571428571,4,2,1,15,0,0
122315,-100,4,2,1,15,0,0
122415,-500,4,2,1,15,0,0
122465,-57.1428571428571,4,2,1,15,0,0
122515,-100,4,2,1,15,0,0
122615,-500,4,2,1,15,0,0
122665,-57.1428571428571,4,2,1,15,0,0
122715,-100,4,2,1,15,0,0
122815,-500,4,2,1,15,0,0
122865,-57.1428571428571,4,2,1,15,0,0
122915,-100,4,2,1,15,0,0
123015,-500,4,2,1,15,0,0
123065,-57.1428571428571,4,2,1,15,0,0
123115,-100,4,2,1,15,0,0
123215,-500,4,2,1,15,0,0
123265,-57.1428571428571,4,2,1,15,0,0
123315,-100,4,2,1,15,0,0
123415,-500,4,2,1,15,0,0
123465,-57.1428571428571,4,2,1,15,0,0
123515,-100,4,2,1,15,0,0
123615,-500,4,2,1,15,0,0
123665,-57.1428571428571,4,2,1,15,0,0
123715,-100,4,2,1,15,0,0
123815,-500,4,2,1,15,0,0
123865,-57.1428571428571,4,2,1,15,0,0
123915,-100,4,2,1,15,0,0
124015,-500,4,2,1,15,0,0
124065,-57.1428571428571,4,2,1,15,0,0
124115,-100,4,2,1,15,0,0
124215,-500,4,2,1,15,0,0
124265,-57.1428571428571,4,2,1,15,0,0
124315,-76.9230769230769,4,2,1,15,0,0
124465,-90.9090909090909,4,2,1,15,0,0
124715,-76.9230769230769,4,2,1,15,0,0
124765,-117.647058823529,4,2,1,15,0,0
124915,-71.4285714285714,4,2,1,15,0,0
125015,-76.9230769230769,4,2,1,15,0,0
125115,-105.263157894737,4,2,1,15,0,0
125215,-117.647058823529,4,2,1,15,0,0
125315,-100,4,2,1,15,0,0
125415,-500,4,2,1,15,0,0
125465,-57.1428571428571,4,2,1,15,0,0
125515,-100,4,2,1,15,0,0
125615,-500,4,2,1,15,0,0
125665,-57.1428571428571,4,2,1,15,0,0
125715,-100,4,2,1,15,0,0
125815,-500,4,2,1,15,0,0
125865,-57.1428571428571,4,2,1,15,0,0
125915,-100,4,2,1,15,0,0
126015,-500,4,2,1,15,0,0
126065,-57.1428571428571,4,2,1,15,0,0
126115,-100,4,2,1,15,0,0
126215,-500,4,2,1,15,0,0
126265,-57.1428571428571,4,2,1,15,0,0
126315,-100,4,2,1,15,0,0
126415,-500,4,2,1,15,0,0
126465,-57.1428571428571,4,2,1,15,0,0
126515,-100,4,2,1,15,0,0
126615,-500,4,2,1,15,0,0
126665,-57.1428571428571,4,2,1,15,0,0
126715,-100,4,2,1,15,0,0
126815,-500,4,2,1,15,0,0
126865,-57.1428571428571,4,2,1,15,0,0
126915,-100,4,2,1,15,0,0
127015,-500,4,2,1,15,0,0
127065,-57.1428571428571,4,2,1,15,0,0
127115,-100,4,2,1,15,0,0
127215,-500,4,2,1,15,0,0
127265,-57.1428571428571,4,2,1,15,0,0
127315,-100,4,2,1,15,0,0
127415,-500,4,2,1,15,0,0
127465,-57.1428571428571,4,2,1,15,0,0
127515,-100,4,2,1,15,0,0
127615,-500,4,2,1,15,0,0
127665,-57.1428571428571,4,2,1,15,0,0
127715,-100,4,2,1,15,0,0
127815,-500,4,2,1,15,0,0
127865,-57.1428571428571,4,2,1,15,0,0
127915,-100,4,2,1,15,0,0
128015,-500,4,2,1,15,0,0
128065,-57.1428571428571,4,2,1,15,0,0
128115,-100,4,2,1,15,0,0
128215,-500,4,2,1,15,0,0
128265,-57.1428571428571,4,2,1,15,0,0
128315,-100,4,2,1,15,0,0
128415,-500,4,2,1,15,0,0
128465,-57.1428571428571,4,2,1,15,0,0
128515,-100,4,2,1,15,0,0
128615,-500,4,2,1,15,0,0
128665,-57.1428571428571,4,2,1,15,0,0
128715,-100,4,2,1,15,0,0
128815,-500,4,2,1,15,0,0
128865,-57.1428571428571,4,2,1,15,0,0
128915,-100,4,2,1,15,0,0
129015,-500,4,2,1,15,0,0
129065,-57.1428571428571,4,2,1,15,0,0
129115,-100,4,2,1,15,0,0
129215,-117.647058823529,4,2,1,15,0,0
129415,-83.3333333333333,4,2,1,15,0,0
129465,-100,4,2,1,15,0,0
129715,-117.647058823529,4,2,1,15,0,0
129865,-100,4,2,1,15,0,0
129965,-86.9565217391304,4,2,1,15,0,0
130015,-117.647058823529,4,2,1,15,0,0
130165,-86.9565217391304,4,2,1,15,0,0
130215,-100,4,2,1,15,0,0
130315,-83.3333333333333,4,2,1,15,0,0
130365,-111.111111111111,4,2,1,15,0,0
130465,-83.3333333333333,4,2,1,15,0,0
130515,-111.111111111111,4,2,1,15,0,0
130615,-83.3333333333333,4,2,1,15,0,0
130665,-111.111111111111,4,2,1,15,0,0
130765,-83.3333333333333,4,2,1,15,0,0
130815,-111.111111111111,4,2,1,15,0,0
130915,-83.3333333333333,4,2,1,15,0,0
130965,-111.111111111111,4,2,1,15,0,0
131065,-83.3333333333333,4,2,1,15,0,0
131115,-111.111111111111,4,2,1,15,0,0
131215,-100,4,2,1,15,0,0
131315,-83.3333333333333,4,2,1,15,0,0
131365,-111.111111111111,4,2,1,15,0,0
131515,-74.0740740740741,4,2,1,15,0,0
131615,-80,4,2,1,15,0,0
131715,-105.263157894737,4,2,1,15,0,0
131815,-117.647058823529,4,2,1,15,0,0
131915,-86.9565217391304,4,2,1,15,0,0
131965,-117.647058823529,4,2,1,15,0,0
132065,-76.9230769230769,4,2,1,15,0,0
132115,-86.9565217391304,4,2,1,15,0,0
132215,-100,4,2,1,15,0,0
132415,-90.9090909090909,4,2,1,15,0,0
132715,-83.3333333333333,4,2,1,15,0,0
132765,-111.111111111111,4,2,1,15,0,0
132865,-83.3333333333333,4,2,1,15,0,0
132915,-111.111111111111,4,2,1,15,0,0
133015,-83.3333333333333,4,2,1,15,0,0
133065,-111.111111111111,4,2,1,15,0,0
133165,-83.3333333333333,4,2,1,15,0,0
133215,-111.111111111111,4,2,1,15,0,0
133315,-83.3333333333333,4,2,1,15,0,0
133365,-111.111111111111,4,2,1,15,0,0
133465,-83.3333333333333,4,2,1,15,0,0
133515,-111.111111111111,4,2,1,15,0,0
133615,-100,4,2,1,15,0,0
133715,-83.3333333333333,4,2,1,15,0,0
133765,-111.111111111111,4,2,1,15,0,0
133915,-100,4,2,1,15,0,0
134065,-76.9230769230769,4,2,1,15,0,0
134115,-117.647058823529,4,2,1,15,0,0
134315,-81.9672131147541,4,2,1,15,0,0
134365,-117.647058823529,4,2,1,15,0,0
134515,-10000,4,2,1,15,0,0
134665,-50,4,2,1,15,0,0
134965,-76.9230769230769,4,2,1,15,0,0
135015,-90.9090909090909,4,2,1,15,0,0
135065,-102.040816326531,4,2,1,15,0,0
135115,-111.111111111111,4,2,1,15,0,0
135415,-83.3333333333333,4,2,1,15,0,0
135465,-117.647058823529,4,2,1,15,0,0
135565,-83.3333333333333,4,2,1,15,0,0
135615,-117.647058823529,4,2,1,15,0,0
135715,-83.3333333333333,4,2,1,15,0,0
135765,-117.647058823529,4,2,1,15,0,0
135815,-100,4,2,1,15,0,0
135865,-83.3333333333333,4,2,1,15,0,0
135915,-117.647058823529,4,2,1,15,0,0
135965,-133.333333333333,4,2,1,15,0,0
136015,-100,4,2,1,15,0,0
136065,-83.3333333333333,4,2,1,15,0,0
136115,-117.647058823529,4,2,1,15,0,0
136165,-133.333333333333,4,2,1,15,0,0
136265,-83.3333333333333,4,2,1,15,0,0
136315,-125,4,2,1,15,0,0
136465,-117.647058823529,4,2,1,15,0,0
136615,-105.263157894737,4,2,1,15,0,0
136765,-100,4,2,1,15,0,0
136915,-500,4,2,1,15,0,0
137065,-285.714285714286,4,2,1,15,0,0
137215,-181.818181818182,4,2,1,15,0,0
137365,-111.111111111111,4,2,1,15,0,0
137515,-90.9090909090909,4,2,1,15,0,0
137665,-86.9565217391304,4,2,1,15,0,0
138115,-285.714285714286,4,2,1,15,0,0
138265,-125,4,2,1,15,0,0
138415,-100,4,2,1,15,0,0
138565,-86.9565217391304,4,2,1,15,0,0
138715,-100,4,2,1,15,0,0
139015,-90.9090909090909,4,2,1,15,0,0
139052,-111.111111111111,4,2,1,15,0,0
139090,-90.9090909090909,4,2,1,15,0,0
139127,-111.111111111111,4,2,1,15,0,0
139165,-90.9090909090909,4,2,1,15,0,0
139202,-111.111111111111,4,2,1,15,0,0
139240,-90.9090909090909,4,2,1,15,0,0
139277,-111.111111111111,4,2,1,15,0,0
139315,-100,4,2,1,15,0,0
139915,-76.9230769230769,4,2,1,15,0,0
139965,-117.647058823529,4,2,1,15,0,0
140065,-83.3333333333333,4,2,1,15,0,0
140115,-117.647058823529,4,2,1,15,0,0
140415,-90.9090909090909,4,2,1,15,0,0
140465,-117.647058823529,4,2,1,15,0,0
140702,-83.3333333333333,4,2,1,15,0,0
140740,-100,4,2,1,15,0,0
140965,-86.9565217391304,4,2,1,15,0,0
141040,-100,4,2,1,15,0,0
141415,-86.9565217391304,4,2,1,15,0,0
141490,-125,4,2,1,15,0,0
141565,-100,4,2,1,15,0,0
141715,-86.9565217391304,4,2,1,15,0,0
141790,-125,4,2,1,15,0,0
141865,-100,4,2,1,15,0,0
141940,-80,4,2,1,15,0,0
141977,-133.333333333333,4,2,1,15,0,0
142015,-80,4,2,1,15,0,0
142052,-133.333333333333,4,2,1,15,0,0
142090,-80,4,2,1,15,0,0
142127,-133.333333333333,4,2,1,15,0,0
142165,-86.9565217391304,4,2,1,15,0,0
142240,-100,4,2,1,15,0,0
142390,-111.111111111111,4,2,1,15,0,0
142615,-100,4,2,1,15,0,0
143140,-80,4,2,1,15,0,0
143177,-133.333333333333,4,2,1,15,0,0
143215,-80,4,2,1,15,0,0
143252,-133.333333333333,4,2,1,15,0,0
143290,-80,4,2,1,15,0,0
143327,-133.333333333333,4,2,1,15,0,0
143365,-86.9565217391304,4,2,1,15,0,0
143440,-100,4,2,1,15,0,0
143965,-86.9565217391304,4,2,1,15,0,0
144040,-100,4,2,1,15,0,0
144115,-80,4,2,1,15,0,0
144215,-86.9565217391304,4,2,1,15,0,0
144315,-105.263157894737,4,2,1,15,0,0
144415,-117.647058823529,4,2,1,15,0,0
144465,-83.3333333333333,4,2,1,15,0,0
144515,-100,4,2,1,15,0,0
144665,-83.3333333333333,4,2,1,15,0,0
144715,-100,4,2,1,15,0,0
145540,-80,4,2,1,15,0,0
145577,-133.333333333333,4,2,1,15,0,0
145615,-80,4,2,1,15,0,0
145652,-133.333333333333,4,2,1,15,0,0
145690,-80,4,2,1,15,0,0
145727,-133.333333333333,4,2,1,15,0,0
145765,-86.9565217391304,4,2,1,15,0,0
145840,-100,4,2,1,15,0,0
146515,-117.647058823529,4,2,1,15,0,0
146740,-80,4,2,1,15,0,0
146777,-133.333333333333,4,2,1,15,0,0
146815,-80,4,2,1,15,0,0
146852,-133.333333333333,4,2,1,15,0,0
146890,-80,4,2,1,15,0,0
146927,-133.333333333333,4,2,1,15,0,0
146965,-86.9565217391304,4,2,1,15,0,0
147040,-100,4,2,1,15,0,0
147115,-80,4,2,1,15,0,0
147215,-90.9090909090909,4,2,1,15,0,0
147315,-100,4,2,1,15,0,0
147977,-133.333333333333,4,2,1,15,0,0
148015,-80,4,2,1,15,0,0
148052,-133.333333333333,4,2,1,15,0,0
148090,-80,4,2,1,15,0,0
148127,-133.333333333333,4,2,1,15,0,0
148165,-86.9565217391304,4,2,1,15,0,0
148240,-100,4,2,1,15,0,0
148465,-90.9090909090909,4,2,1,15,0,0
148565,-117.647058823529,4,2,1,15,0,0
148715,-83.3333333333333,4,2,1,15,0,0
148815,-90.9090909090909,4,2,1,15,0,0
148915,-100,4,2,1,15,0,0
156115,-96.1538461538461,4,2,1,15,0,0
156715,-92.5925925925926,4,2,1,15,0,0
157315,-89.2857142857143,4,2,1,15,0,0
157915,-86.2068965517241,4,2,1,15,0,0
158515,-200,4,2,1,15,0,0
158615,-142.857142857143,4,2,1,15,0,0
158715,-100,4,2,1,15,0,0
158815,-80,4,2,1,15,0,0
158915,-71.4285714285714,4,2,1,15,0,0
159015,-86.9565217391304,4,2,1,15,0,0
159115,-100,4,2,1,5,0,0
160915,-99.009900990099,4,2,1,5,0,0
163315,-98.0392156862745,4,2,1,5,0,0
165715,-97.0873786407767,4,2,1,5,0,0
168115,-96.1538461538461,4,2,1,5,0,0
170515,-95.2380952380952,4,2,1,5,0,0
172915,-94.3396226415094,4,2,1,5,0,0
175315,-93.4579439252336,4,2,1,5,0,0
176115,-92.5925925925926,4,2,1,5,0,0
176515,-100,4,2,1,5,0,0
176590,-181.818181818182,4,2,1,15,0,0
176740,-133.333333333333,4,2,1,15,0,0
176890,-105.263157894737,4,2,1,15,0,0
177115,-86.9565217391304,4,2,1,15,0,0
177265,-100,4,2,1,15,0,0
177340,-111.111111111111,4,2,1,15,0,0
177565,-86.9565217391304,4,2,1,15,0,0
177602,-100,4,2,1,15,0,0
182215,-80,4,2,1,15,0,0
182265,-133.333333333333,4,2,1,15,0,0
182315,-80,4,2,1,15,0,0
182365,-133.333333333333,4,2,1,15,0,0
182415,-80,4,2,1,15,0,0
182465,-133.333333333333,4,2,1,15,0,0
182515,-80,4,2,1,15,0,0
182565,-100,4,2,1,15,0,0
183265,-111.111111111111,4,2,1,15,0,0
183302,-133.333333333333,4,2,1,15,0,0
183340,-100,4,2,1,15,0,0
183415,-111.111111111111,4,2,1,15,0,0
183452,-133.333333333333,4,2,1,15,0,0
183490,-100,4,2,1,15,0,0
184615,-111.111111111111,4,2,1,15,0,0
184690,-125,4,2,1,15,0,0
184765,-90.9090909090909,4,2,1,15,0,0
184840,-100,4,2,1,15,0,0
184915,-111.111111111111,4,2,1,15,0,0
184990,-125,4,2,1,15,0,0
185065,-90.9090909090909,4,2,1,15,0,0
185140,-100,4,2,1,15,0,0
186715,-80,4,2,1,15,0,0
186752,-133.333333333333,4,2,1,15,0,0
186790,-400,4,2,1,15,0,0
186827,-50,4,2,1,15,0,0
186865,-80,4,2,1,15,0,0
186902,-133.333333333333,4,2,1,15,0,0
186940,-400,4,2,1,15,0,0
186977,-50,4,2,1,15,0,0
187015,-80,4,2,1,15,0,0
187052,-133.333333333333,4,2,1,15,0,0
187090,-400,4,2,1,15,0,0
187127,-50,4,2,1,15,0,0
187165,-80,4,2,1,15,0,0
187202,-133.333333333333,4,2,1,15,0,0
187240,-400,4,2,1,15,0,0
187277,-50,4,2,1,15,0,0
187315,-100,4,2,1,15,0,0
195715,-117.647058823529,4,2,1,15,0,0
195815,-100,4,2,1,15,0,0
196015,-117.647058823529,4,2,1,15,0,0
196115,-100,4,2,1,15,0,0
196315,-117.647058823529,4,2,1,15,0,0
196415,-100,4,2,1,15,0,0
196515,-117.647058823529,4,2,1,15,0,0
196615,-100,4,2,1,15,0,0
196865,-90.9090909090909,4,2,1,15,0,0
196915,-71.4285714285714,4,2,1,15,0,0
197015,-76.9230769230769,4,2,1,15,0,0
197115,-105.263157894737,4,2,1,15,0,0
197215,-117.647058823529,4,2,1,15,0,0
197265,-76.9230769230769,4,2,1,15,0,0
197315,-100,4,2,1,15,0,0
197465,-76.9230769230769,4,2,1,15,0,0
197515,-100,4,2,1,15,0,0
197815,-200,4,2,1,15,0,0
198065,-66.6666666666667,4,2,1,15,0,0
198115,-100,4,2,1,15,0,0
198215,-200,4,2,1,15,0,0
198515,-66.6666666666667,4,2,1,15,0,0
198565,-100,4,2,1,15,0,0
198665,-66.6666666666667,4,2,1,15,0,0
198715,-100,4,2,1,15,0,0
198815,-125,4,2,1,15,0,0
199015,-86.9565217391304,4,2,1,15,0,0
199165,-100,4,2,1,15,0,0
199315,-66.6666666666667,4,2,1,15,0,0
199365,-100,4,2,1,15,0,0
199415,-117.647058823529,4,2,1,15,0,0
199465,-166.666666666667,4,2,1,15,0,0
199515,-90.9090909090909,4,2,1,15,0,0
199565,-100,4,2,1,15,0,0
199615,-90.9090909090909,4,2,1,15,0,0
199665,-100,4,2,1,15,0,0
199715,-90.9090909090909,4,2,1,15,0,0
199765,-100,4,2,1,15,0,0
199815,-90.9090909090909,4,2,1,15,0,0
199865,-100,4,2,1,15,0,0
199915,-90.9090909090909,4,2,1,15,0,0
199965,-100,4,2,1,15,0,0
200477,-66.6666666666667,4,2,1,15,0,0
200515,-100,4,2,1,15,0,0
200590,-133.333333333333,4,2,1,15,0,0
200665,-200,4,2,1,15,0,0
200702,-66.6666666666667,4,2,1,15,0,0
200740,-100,4,2,1,15,0,0
200815,-133.333333333333,4,2,1,15,0,0
200890,-200,4,2,1,15,0,0
200927,-66.6666666666667,4,2,1,15,0,0
200965,-100,4,2,1,15,0,0
201040,-200,4,2,1,15,0,0
201077,-66.6666666666667,4,2,1,15,0,0
201115,-100,4,2,1,15,0,0
201190,-133.333333333333,4,2,1,15,0,0
201265,-200,4,2,1,15,0,0
201315,-100,4,2,1,15,0,0
201365,-86.9565217391304,4,2,1,15,0,0
201415,-83.3333333333333,4,2,1,15,0,0
201465,-111.111111111111,4,2,1,15,0,0
201565,-100,4,2,1,15,0,0
201615,-117.647058823529,4,2,1,15,0,0
201715,-71.4285714285714,4,2,1,15,0,0
201815,-76.9230769230769,4,2,1,15,0,0
201915,-105.263157894737,4,2,1,15,0,0
202015,-117.647058823529,4,2,1,15,0,0
202065,-83.3333333333333,4,2,1,15,0,0
202115,-100,4,2,1,15,0,0
202265,-66.6666666666667,4,2,1,15,0,0
202315,-100,4,2,1,15,0,0
202565,-80,4,2,1,15,0,0
202615,-125,4,2,1,15,0,0
202715,-80,4,2,1,15,0,0
202765,-125,4,2,1,15,0,0
202865,-80,4,2,1,15,0,0
202915,-125,4,2,1,15,0,0
202965,-80,4,2,1,15,0,0
203015,-100,4,2,1,15,0,0
203115,-125,4,2,1,15,0,0
203165,-80,4,2,1,15,0,0
203215,-125,4,2,1,15,0,0
203315,-80,4,2,1,15,0,0
203365,-125,4,2,1,15,0,0
203465,-80,4,2,1,15,0,0
203515,-100,4,2,1,15,0,0
203815,-86.9565217391304,4,2,1,15,0,0
203965,-100,4,2,1,15,0,0
204115,-80,4,2,1,15,0,0
204215,-100,4,2,1,15,0,0
204315,-133.333333333333,4,2,1,15,0,0
204415,-117.647058823529,4,2,1,15,0,0
204715,-90.9090909090909,4,2,1,15,0,0
204765,-111.111111111111,4,2,1,15,0,0
204865,-90.9090909090909,4,2,1,15,0,0
204915,-111.111111111111,4,2,1,15,0,0
204977,-66.6666666666667,4,2,1,15,0,0
205015,-100,4,2,1,15,0,0
205090,-133.333333333333,4,2,1,15,0,0
205127,-66.6666666666667,4,2,1,15,0,0
205165,-100,4,2,1,15,0,0
205240,-117.647058823529,4,2,1,15,0,0
205315,-133.333333333333,4,2,1,15,0,0
205427,-57.1428571428571,4,2,1,15,0,0
205465,-100,4,2,1,15,0,0
205540,-133.333333333333,4,2,1,15,0,0
205615,-200,4,2,1,15,0,0
205652,-66.6666666666667,4,2,1,15,0,0
205690,-100,4,2,1,15,0,0
205915,-86.9565217391304,4,2,1,15,0,0
205990,-90.9090909090909,4,2,1,15,0,0
206065,-95.2380952380952,4,2,1,15,0,0
206140,-100,4,2,1,15,0,0
206215,-117.647058823529,4,2,1,15,0,0
206365,-83.3333333333333,4,2,1,15,0,0
206402,-100,4,2,1,15,0,0
206515,-71.4285714285714,4,2,1,15,0,0
206615,-76.9230769230769,4,2,1,15,0,0
206715,-105.263157894737,4,2,1,15,0,0
206815,-117.647058823529,4,2,1,15,0,0
206865,-76.9230769230769,4,2,1,15,0,0
206915,-100,4,2,1,15,0,0
207065,-76.9230769230769,4,2,1,15,0,0
207115,-100,4,2,1,15,0,0
207265,-117.647058823529,4,2,1,15,0,0
207315,-100,4,2,1,15,0,0
207665,-76.9230769230769,4,2,1,15,0,0
207715,-100,4,2,1,15,0,0
208115,-76.9230769230769,4,2,1,15,0,0
208165,-100,4,2,1,15,0,0
208265,-76.9230769230769,4,2,1,15,0,0
208315,-100,4,2,1,15,0,0
208515,-125,4,2,1,15,0,0
208615,-86.9565217391304,4,2,1,15,0,0
208765,-100,4,2,1,15,0,0
208915,-66.6666666666667,4,2,1,15,0,0
208965,-100,4,2,1,15,0,0
209015,-117.647058823529,4,2,1,15,0,0
209065,-166.666666666667,4,2,1,15,0,0
209115,-90.9090909090909,4,2,1,15,0,0
209165,-100,4,2,1,15,0,0
209215,-90.9090909090909,4,2,1,15,0,0
209265,-100,4,2,1,15,0,0
209315,-90.9090909090909,4,2,1,15,0,0
209365,-100,4,2,1,15,0,0
209415,-90.9090909090909,4,2,1,15,0,0
209465,-100,4,2,1,15,0,0
209515,-90.9090909090909,4,2,1,15,0,0
209565,-100,4,2,1,15,0,0
210115,-86.9565217391304,4,2,1,15,0,0
210152,-100,4,2,1,15,0,0
210340,-86.9565217391304,4,2,1,15,0,0
210377,-100,4,2,1,15,0,0
210565,-86.9565217391304,4,2,1,15,0,0
210602,-100,4,2,1,15,0,0
210715,-86.9565217391304,4,2,1,15,0,0
211165,-117.647058823529,4,2,1,15,0,0
211240,-133.333333333333,4,2,1,15,0,0
211277,-100,4,2,1,15,0,0
211315,-66.6666666666667,4,2,1,15,0,0
211690,-80,4,2,1,15,0,0
211765,-100,4,2,1,15,0,0
211840,-117.647058823529,4,2,1,15,0,0
211877,-83.3333333333333,4,2,1,15,0,0
211915,-100,4,2,1,15,0,0
212590,-117.647058823529,4,2,1,15,0,0
212665,-66.6666666666667,4,2,1,15,0,0
212740,-86.9565217391304,4,2,1,15,0,0
212815,-100,4,2,1,15,0,0
213415,-86.9565217391304,4,2,1,15,0,0
213490,-100,4,2,1,15,0,0
213565,-86.9565217391304,4,2,1,15,0,0
213640,-100,4,2,1,15,0,0
213715,-74.0740740740741,4,2,1,15,0,0
213752,-100,4,2,1,15,0,0
213940,-74.0740740740741,4,2,1,15,0,0
213977,-100,4,2,1,15,0,0
214165,-74.0740740740741,4,2,1,15,0,0
214202,-100,4,2,1,15,0,0
214915,-111.111111111111,4,2,1,15,0,0
215065,-105.263157894737,4,2,1,15,0,0
215215,-100,4,2,1,15,0,0
215365,-86.9565217391304,4,2,1,15,0,0
215440,-100,4,2,1,15,0,0
216715,-76.9230769230769,4,2,1,15,0,0
216765,-117.647058823529,4,2,1,15,0,0
216865,-83.3333333333333,4,2,1,15,0,0
216915,-117.647058823529,4,2,1,15,0,0
217115,-90.9090909090909,4,2,1,15,0,0
217165,-117.647058823529,4,2,1,15,0,0
217502,-83.3333333333333,4,2,1,15,0,0
217540,-100,4,2,1,15,0,0
217765,-86.9565217391304,4,2,1,15,0,0
217840,-100,4,2,1,15,0,0
218215,-86.9565217391304,4,2,1,15,0,0
218290,-125,4,2,1,15,0,0
218365,-100,4,2,1,15,0,0
218515,-86.9565217391304,4,2,1,15,0,0
218590,-125,4,2,1,15,0,0
218665,-100,4,2,1,15,0,0
218740,-80,4,2,1,15,0,0
218777,-133.333333333333,4,2,1,15,0,0
218815,-80,4,2,1,15,0,0
218852,-133.333333333333,4,2,1,15,0,0
218890,-80,4,2,1,15,0,0
218927,-133.333333333333,4,2,1,15,0,0
218965,-86.9565217391304,4,2,1,15,0,0
219040,-100,4,2,1,15,0,0
219190,-111.111111111111,4,2,1,15,0,0
219415,-100,4,2,1,15,0,0
219940,-80,4,2,1,15,0,0
219977,-133.333333333333,4,2,1,15,0,0
220015,-80,4,2,1,15,0,0
220052,-133.333333333333,4,2,1,15,0,0
220090,-80,4,2,1,15,0,0
220127,-133.333333333333,4,2,1,15,0,0
220165,-86.9565217391304,4,2,1,15,0,0
220240,-100,4,2,1,15,0,0
220765,-86.9565217391304,4,2,1,15,0,0
220840,-100,4,2,1,15,0,0
220915,-80,4,2,1,15,0,0
221015,-86.9565217391304,4,2,1,15,0,0
221115,-105.263157894737,4,2,1,15,0,0
221215,-117.647058823529,4,2,1,15,0,0
221265,-83.3333333333333,4,2,1,15,0,0
221315,-100,4,2,1,15,0,0
221465,-83.3333333333333,4,2,1,15,0,0
221515,-100,4,2,1,15,0,0
222340,-80,4,2,1,15,0,0
222377,-133.333333333333,4,2,1,15,0,0
222415,-80,4,2,1,15,0,0
222452,-133.333333333333,4,2,1,15,0,0
222490,-80,4,2,1,15,0,0
222527,-133.333333333333,4,2,1,15,0,0
222565,-86.9565217391304,4,2,1,15,0,0
222640,-100,4,2,1,15,0,0
223315,-117.647058823529,4,2,1,15,0,0
223540,-80,4,2,1,15,0,0
223577,-133.333333333333,4,2,1,15,0,0
223615,-80,4,2,1,15,0,0
223652,-133.333333333333,4,2,1,15,0,0
223690,-80,4,2,1,15,0,0
223727,-133.333333333333,4,2,1,15,0,0
223765,-86.9565217391304,4,2,1,15,0,0
223840,-100,4,2,1,15,0,0
223915,-80,4,2,1,15,0,0
224015,-90.9090909090909,4,2,1,15,0,0
224115,-100,4,2,1,15,0,0
224777,-133.333333333333,4,2,1,15,0,0
224815,-80,4,2,1,15,0,0
224852,-133.333333333333,4,2,1,15,0,0
224890,-80,4,2,1,15,0,0
224927,-133.333333333333,4,2,1,15,0,0
224965,-86.9565217391304,4,2,1,15,0,0
225040,-100,4,2,1,15,0,0
225715,-83.3333333333333,4,2,1,15,0,0
225815,-95.2380952380952,4,2,1,15,0,0
225915,-105.263157894737,4,2,1,15,0,0
226015,-125,4,2,1,15,0,0
226065,-76.9230769230769,4,2,1,15,0,0
226115,-100,4,2,1,15,0,0
226715,-92.5925925925926,4,2,1,15,0,0
226765,-100,4,2,1,15,0,0
229615,-90.9090909090909,4,2,1,15,0,0
229765,-111.111111111111,4,2,1,15,0,0
229915,-90.9090909090909,4,2,1,15,0,0
230215,-86.9565217391304,4,2,1,15,0,0
230252,-100,4,2,1,15,0,0
230365,-86.9565217391304,4,2,1,15,0,0
230402,-100,4,2,1,15,0,0
230515,-76.9230769230769,4,2,1,15,0,0
230552,-90.9090909090909,4,2,1,15,0,0
230815,-100,4,2,1,15,0,0
230965,-76.9230769230769,4,2,1,15,0,0
231002,-90.9090909090909,4,2,1,15,0,0
231115,-100,4,2,1,15,0,0
231715,-76.9230769230769,4,2,1,15,0,0
231752,-90.9090909090909,4,2,1,15,0,0
232015,-100,4,2,1,15,0,0
232165,-76.9230769230769,4,2,1,15,0,0
232202,-90.9090909090909,4,2,1,15,0,0
232315,-89.2857142857143,4,2,1,15,0,0
232352,-100,4,2,1,15,0,0
232540,-89.2857142857143,4,2,1,15,0,0
232577,-100,4,2,1,15,0,0
232765,-89.2857142857143,4,2,1,15,0,0
232802,-100,4,2,1,15,0,0
232990,-89.2857142857143,4,2,1,15,0,0
233027,-100,4,2,1,15,0,0
233215,-95.2380952380952,4,2,1,15,0,0
233515,-100,4,2,1,15,0,0
233665,-95.2380952380952,4,2,1,15,0,0
234115,-117.647058823529,4,2,1,15,0,0
234215,-100,4,2,1,15,0,0
234415,-117.647058823529,4,2,1,15,0,0
234515,-100,4,2,1,15,0,0
234715,-117.647058823529,4,2,1,15,0,0
234815,-100,4,2,1,15,0,0
235165,-90.9090909090909,4,2,1,15,0,0
235215,-100,4,2,1,15,0,0
235315,-86.9565217391304,4,2,1,15,0,0
236515,-90.9090909090909,4,2,1,15,0,0
237715,-95.2380952380952,4,2,1,15,0,0
238915,-100,4,2,1,15,0,0

[HitObjects]
448,192,415,128,0,715:0:0:0:8:OPEN-HI-HAT-B2.wav
64,192,715,1,0,0:0:0:8:SNARE1-C.wav
320,192,715,1,0,0:0:0:0:
192,192,865,1,0,0:0:0:8:KICK.wav
448,192,1015,1,0,0:0:0:10:HI-HAT.wav
192,192,1215,1,0,0:0:0:8:KICK.wav
320,192,1315,1,0,0:0:0:8:KICK.wav
64,192,1615,128,0,1915:0:0:0:10:OPEN-HI-HAT-B2.wav
320,192,1615,1,0,0:0:0:8:KICK.wav
192,192,1915,1,0,0:0:0:8:SNARE1-C.wav
448,192,1915,1,0,0:0:0:0:
192,192,2515,1,0,0:0:0:8:KICK.wav
320,192,2815,128,0,3115:0:0:0:10:OPEN-HI-HAT-B2.wav
192,192,2815,1,0,0:0:0:12:KICK.wav
448,192,3115,1,0,0:0:0:10:SNARE1-C.wav
64,192,3115,1,0,0:0:0:0:
192,192,3265,1,0,0:0:0:15:KICK.wav
320,192,3415,1,0,0:0:0:10:HI-HAT.wav
192,192,3615,1,0,0:0:0:18:KICK.wav
448,192,3715,1,0,0:0:0:20:KICK.wav
64,192,4015,128,0,4315:0:0:0:10:OPEN-HI-HAT-B2.wav
448,192,4015,1,0,0:0:0:25:KICK.wav
192,192,4315,1,0,0:0:0:25:KICK.wav
448,192,4315,1,0,0:0:0:0:
64,192,4615,128,0,4915:0:0:0:13:OPEN-HI-HAT-B2.wav
448,192,4615,1,0,0:0:0:25:KICK.wav
192,192,4915,1,0,0:0:0:25:KICK.wav
448,192,4915,1,0,0:0:0:0:
64,192,5215,128,0,5515:0:0:0:16:OPEN-HI-HAT-B2.wav
448,192,5215,1,0,0:0:0:25:KICK.wav
192,192,5515,1,0,0:0:0:17:SNARE1-C.wav
320,192,5515,1,0,0:0:0:0:
448,192,5665,1,0,0:0:0:25:KICK.wav
192,192,5815,1,0,0:0:0:10:HI-HAT.wav
448,192,6015,1,0,0:0:0:25:KICK.wav
64,192,6115,1,0,0:0:0:25:KICK.wav
64,192,6415,1,0,0:0:0:16:OPEN-HI-HAT-B2.wav
320,192,6415,128,0,6715:0:0:0:25:KICK.wav
192,192,6715,1,0,0:0:0:20:SNARE1-C.wav
448,192,6715,1,0,0:0:0:0:
192,192,7315,1,0,0:0:0:0:
320,192,7315,1,0,0:0:0:0:
320,192,7615,1,0,0:0:0:20:HI-HAT.wav
192,192,7915,1,0,0:0:0:0:
320,192,7915,1,0,0:0:0:0:
320,192,8215,1,0,0:0:0:20:HI-HAT.wav
320,192,8515,1,0,0:0:0:0:
192,192,8515,128,0,8715:0:0:0:0:
448,192,8715,1,0,0:0:0:0:
64,192,8815,128,0,9015:0:0:0:20:HI-HAT.wav
320,192,9015,1,0,0:0:0:0:
192,192,9115,128,0,9315:0:0:0:0:
448,192,9315,1,0,0:0:0:0:
64,192,9415,1,0,0:0:0:10:HI-HAT.wav
320,192,9515,1,0,0:0:0:10:HI-HAT.wav
448,192,9615,1,0,0:0:0:0:
192,192,9715,1,0,0:0:0:35:KICK.wav
64,192,9715,1,0,0:0:0:0:
448,192,10015,128,0,10315:0:0:0:16:OPEN-HI-HAT-B2.wav
192,192,10015,1,0,0:0:0:35:KICK.wav
64,192,10315,1,0,0:0:0:20:SNARE1-C.wav
320,192,10315,1,0,0:0:0:0:
192,192,10465,1,0,0:0:0:35:KICK.wav
448,192,10615,1,0,0:0:0:10:HI-HAT.wav
320,192,10915,1,0,0:0:0:0:
64,192,10915,1,0,0:0:0:35:KICK.wav
64,192,11215,1,0,0:0:0:16:OPEN-HI-HAT-B2.wav
192,192,11215,128,0,11515:0:0:0:35:KICK.wav
320,192,11515,1,0,0:0:0:20:SNARE1-C.wav
448,192,11515,1,0,0:0:0:0:
64,192,11665,1,0,0:0:0:35:KICK.wav
320,192,11815,1,0,0:0:0:10:HI-HAT.wav
64,192,12115,1,0,0:0:0:35:KICK.wav
448,192,12115,1,0,0:0:0:0:
64,192,12415,128,0,12715:0:0:0:16:OPEN-HI-HAT-B2.wav
320,192,12415,1,0,0:0:0:35:KICK.wav
192,192,12715,1,0,0:0:0:20:SNARE1-C.wav
448,192,12715,1,0,0:0:0:0:
320,192,12865,1,0,0:0:0:35:KICK.wav
64,192,13015,1,0,0:0:0:10:HI-HAT.wav
192,192,13315,1,0,0:0:0:35:KICK.wav
448,192,13315,1,0,0:0:0:0:
64,192,13615,128,0,13915:0:0:0:16:OPEN-HI-HAT-B2.wav
448,192,13615,1,0,0:0:0:35:KICK.wav
192,192,13915,128,0,14115:0:0:0:20:SNARE1-C.wav
320,192,13915,1,0,0:0:0:0:
192,192,14415,128,0,14615:0:0:0:0:
64,192,14515,1,0,0:0:0:35:KICK.wav
448,192,14515,1,0,0:0:0:0:
320,192,14615,1,0,0:0:0:0:
448,192,14715,1,0,0:0:0:0:
64,192,14815,1,0,0:0:0:16:OPEN-HI-HAT-B2.wav
192,192,14815,1,0,0:0:0:35:KICK.wav
320,192,14915,1,0,0:0:0:0:
64,192,15015,1,0,0:0:0:0:
448,192,15115,1,0,0:0:0:20:SNARE1-C.wav
320,192,15115,1,0,0:0:0:0:
192,192,15215,1,0,0:0:0:0:
64,192,15265,1,0,0:0:0:35:KICK.wav
448,192,15315,1,0,0:0:0:0:
192,192,15415,1,0,0:0:0:15:HI-HAT.wav
320,192,15515,1,0,0:0:0:0:
64,192,15615,1,0,0:0:0:0:
448,192,15715,1,0,0:0:0:35:KICK.wav
320,192,15715,1,0,0:0:0:0:
192,192,15815,1,0,0:0:0:0:
320,192,15915,1,0,0:0:0:0:
192,192,16015,1,0,0:0:0:16:OPEN-HI-HAT-B2.wav
64,192,16015,1,0,0:0:0:35:KICK.wav
448,192,16115,1,0,0:0:0:0:
64,192,16215,1,0,0:0:0:0:
448,192,16315,1,0,0:0:0:20:SNARE1-C.wav
320,192,16315,1,0,0:0:0:0:
192,192,16415,1,0,0:0:0:0:
64,192,16465,1,0,0:0:0:35:KICK.wav
320,192,16515,1,0,0:0:0:0:
192,192,16615,1,0,0:0:0:15:HI-HAT.wav
448,192,16715,1,0,0:0:0:0:
192,192,16815,1,0,0:0:0:0:
448,192,16915,1,0,0:0:0:35:KICK.wav
320,192,16915,1,0,0:0:0:0:
64,192,17015,1,0,0:0:0:0:
320,192,17115,1,0,0:0:0:0:
192,192,17215,1,0,0:0:0:16:OPEN-HI-HAT-B2.wav
64,192,17215,1,0,0:0:0:35:KICK.wav
448,192,17315,1,0,0:0:0:0:
192,192,17415,1,0,0:0:0:0:
448,192,17515,1,0,0:0:0:20:SNARE1-C.wav
320,192,17515,1,0,0:0:0:0:
64,192,17615,1,0,0:0:0:0:
192,192,17665,1,0,0:0:0:35:KICK.wav
320,192,17715,1,0,0:0:0:0:
192,192,17815,1,0,0:0:0:15:HI-HAT.wav
448,192,17915,1,0,0:0:0:0:
64,192,18015,1,0,0:0:0:0:
320,192,18115,1,0,0:0:0:35:KICK.wav
448,192,18115,1,0,0:0:0:0:
192,192,18215,1,0,0:0:0:0:
320,192,18315,1,0,0:0:0:0:
64,192,18415,1,0,0:0:0:16:OPEN-HI-HAT-B2.wav
192,192,18415,1,0,0:0:0:35:KICK.wav
448,192,18515,1,0,0:0:0:0:
192,192,18615,1,0,0:0:0:0:
64,192,18715,128,0,18865:0:0:0:0:
320,192,18715,128,0,19015:0:0:0:0:
448,192,18715,128,0,18865:0:0:0:0:
192,192,18865,128,0,19165:0:0:0:0:
448,192,19015,128,0,19165:0:0:0:0:
64,192,19165,128,0,19315:0:0:0:0:
320,192,19165,128,0,19315:0:0:0:0:
448,192,19315,1,0,0:0:0:40:KICK.wav
192,192,19315,1,0,0:0:0:0:
192,192,19465,1,0,0:0:0:8:HI-HAT.wav
64,192,19615,128,0,19915:0:0:0:20:OPEN-HI-HAT-B2.wav
320,192,19615,1,0,0:0:0:40:KICK.wav
192,192,19915,1,0,0:0:0:30:SNARE1-C.wav
448,192,19915,1,0,0:0:0:8:HI-HAT.wav
320,192,19990,1,0,0:0:0:8:HI-HAT.wav
64,192,20065,1,0,0:0:0:8:HI-HAT.wav
192,192,20140,1,0,0:0:0:8:HI-HAT.wav
448,192,20215,1,0,0:0:0:8:HI-HAT.wav
320,192,20290,1,0,0:0:0:8:HI-HAT.wav
192,192,20365,1,0,0:0:0:8:HI-HAT.wav
64,192,20365,1,0,0:0:0:40:KICK.wav
448,192,20515,1,0,0:0:0:8:HI-HAT.wav
320,192,20515,1,0,0:0:0:40:KICK.wav
192,192,20665,1,0,0:0:0:8:HI-HAT.wav
320,192,20815,128,0,21115:0:0:0:20:OPEN-HI-HAT-B2.wav
64,192,20815,1,0,0:0:0:40:KICK.wav
192,192,20965,1,0,0:0:0:8:HI-HAT.wav
64,192,21115,128,0,21715:0:0:0:30:SNARE1-C.wav
448,192,21115,128,0,21715:0:0:0:0:
320,192,21715,1,0,0:0:0:8:HI-HAT.wav
192,192,21715,1,0,0:0:0:40:KICK.wav
448,192,21865,1,0,0:0:0:8:HI-HAT.wav
320,192,22015,128,0,22315:0:0:0:20:OPEN-HI-HAT-B2.wav
64,192,22015,1,0,0:0:0:40:KICK.wav
192,192,22315,1,0,0:0:0:30:SNARE1-C.wav
448,192,22315,1,0,0:0:0:8:HI-HAT.wav
64,192,22390,1,0,0:0:0:8:HI-HAT.wav
320,192,22465,1,0,0:0:0:40:KICK.wav
448,192,22540,1,0,0:0:0:8:HI-HAT.wav
192,192,22615,1,0,0:0:0:8:HI-HAT.wav
64,192,22690,1,0,0:0:0:8:HI-HAT.wav
320,192,22765,1,0,0:0:0:8:HI-HAT.wav
448,192,22765,1,0,0:0:0:40:KICK.wav
192,192,22840,1,0,0:0:0:8:HI-HAT.wav
320,192,22915,1,0,0:0:0:40:KICK.wav
64,192,22915,128,0,23215:0:0:0:0:
192,192,23215,1,0,0:0:0:20:OPEN-HI-HAT-B2.wav
448,192,23215,128,0,23515:0:0:0:40:KICK.wav
320,192,23515,1,0,0:0:0:30:SNARE1-C.wav
64,192,23515,1,0,0:0:0:8:HI-HAT.wav
192,192,23665,1,0,0:0:0:8:HI-HAT.wav
320,192,23815,1,0,0:0:0:8:HI-HAT.wav
448,192,23815,1,0,0:0:0:40:KICK.wav
448,192,23915,1,0,0:0:0:40:KICK.wav
192,192,23915,1,0,0:0:0:0:
320,192,24015,1,0,0:0:0:40:KICK.wav
64,192,24015,1,0,0:0:0:0:
64,192,24115,1,0,0:0:0:8:HI-HAT.wav
192,192,24115,1,0,0:0:0:40:KICK.wav
320,192,24265,1,0,0:0:0:8:HI-HAT.wav
448,192,24415,128,0,24715:0:0:0:20:OPEN-HI-HAT-B2.wav
192,192,24415,1,0,0:0:0:40:KICK.wav
64,192,24715,1,0,0:0:0:30:SNARE1-C.wav
192,192,24715,1,0,0:0:0:8:HI-HAT.wav
320,192,24865,128,0,24940:0:0:0:8:HI-HAT.wav
320,192,25015,128,0,25090:0:0:0:8:HI-HAT.wav
192,192,25165,1,0,0:0:0:8:HI-HAT.wav
448,192,25165,1,0,0:0:0:40:KICK.wav
320,192,25315,1,0,0:0:0:8:HI-HAT.wav
64,192,25315,1,0,0:0:0:40:KICK.wav
192,192,25465,1,0,0:0:0:8:HI-HAT.wav
64,192,25615,1,0,0:0:0:20:OPEN-HI-HAT-B2.wav
448,192,25615,128,0,25915:0:0:0:40:KICK.wav
320,192,25765,1,0,0:0:0:8:HI-HAT.wav
192,192,25915,1,0,0:0:0:30:SNARE1-C.wav
64,192,25915,1,0,0:0:0:8:HI-HAT.wav
320,192,26065,1,0,0:0:0:8:HI-HAT.wav
192,192,26215,128,0,26365:0:0:0:40:KICK.wav
192,192,26440,1,0,0:0:0:0:
320,192,26515,128,0,26665:0:0:0:40:KICK.wav
64,192,26515,1,0,0:0:0:25:KICK.wav
320,192,26740,1,0,0:0:0:0:
448,192,26815,128,0,27115:0:0:0:20:OPEN-HI-HAT-B2.wav
192,192,26815,1,0,0:0:0:0:
320,192,27115,1,0,0:0:0:30:SNARE1-C.wav
64,192,27115,1,0,0:0:0:8:HI-HAT.wav
192,192,27265,1,0,0:0:0:8:HI-HAT.wav
448,192,27265,1,0,0:0:0:40:KICK.wav
320,192,27415,1,0,0:0:0:8:HI-HAT.wav
64,192,27565,1,0,0:0:0:8:HI-HAT.wav
192,192,27565,1,0,0:0:0:40:KICK.wav
64,192,27715,1,0,0:0:0:8:HI-HAT.wav
448,192,27715,1,0,0:0:0:40:KICK.wav
320,192,27865,1,0,0:0:0:8:HI-HAT.wav
192,192,28015,128,0,28315:0:0:0:20:OPEN-HI-HAT-B2.wav
448,192,28015,1,0,0:0:0:40:KICK.wav
320,192,28315,1,0,0:0:0:30:SNARE1-C.wav
64,192,28315,128,0,28390:0:0:0:8:HI-HAT.wav
64,192,28465,128,0,28540:0:0:0:30:SNARE1-C.wav
320,192,28465,1,0,0:0:0:8:HI-HAT.wav
64,192,28615,128,0,28690:0:0:0:30:SNARE1-C.wav
320,192,28615,1,0,0:0:0:8:HI-HAT.wav
64,192,28765,128,0,28840:0:0:0:30:SNARE1-C.wav
320,192,28765,1,0,0:0:0:8:HI-HAT.wav
192,192,28915,1,0,0:0:0:8:HI-HAT.wav
448,192,28915,1,0,0:0:0:40:KICK.wav
320,192,29065,1,0,0:0:0:8:HI-HAT.wav
64,192,29215,128,0,29515:0:0:0:20:OPEN-HI-HAT-B2.wav
448,192,29215,1,0,0:0:0:40:KICK.wav
192,192,29365,1,0,0:0:0:8:HI-HAT.wav
320,192,29515,1,0,0:0:0:30:SNARE1-C.wav
448,192,29515,1,0,0:0:0:0:
192,192,29665,1,0,0:0:0:8:HI-HAT.wav
64,192,29815,1,0,0:0:0:8:HI-HAT.wav
320,192,29965,1,0,0:0:0:8:HI-HAT.wav
448,192,29965,1,0,0:0:0:40:KICK.wav
192,192,30115,1,0,0:0:0:8:HI-HAT.wav
64,192,30115,1,0,0:0:0:40:KICK.wav
320,192,30265,1,0,0:0:0:8:HI-HAT.wav
64,192,30415,128,0,30715:0:0:0:20:OPEN-HI-HAT-B2.wav
448,192,30415,1,0,0:0:0:40:KICK.wav
192,192,30565,1,0,0:0:0:8:HI-HAT.wav
320,192,30715,1,0,0:0:0:30:SNARE1-C.wav
448,192,30715,1,0,0:0:0:8:HI-HAT.wav
192,192,30865,1,0,0:0:0:8:HI-HAT.wav
320,192,31015,1,0,0:0:0:8:HI-HAT.wav
64,192,31165,1,0,0:0:0:8:HI-HAT.wav
192,192,31315,1,0,0:0:0:20:OPEN-HI-HAT-B2.wav
448,192,31315,128,0,31465:0:0:0:40:KICK.wav
448,192,31615,128,0,31765:0:0:0:20:OPEN-HI-HAT-B2.wav
192,192,31615,1,0,0:0:0:40:KICK.wav
64,192,31915,1,0,0:0:0:30:SNARE1-C.wav
320,192,31915,1,0,0:0:0:8:HI-HAT.wav
192,192,32065,1,0,0:0:0:8:HI-HAT.wav
448,192,32065,1,0,0:0:0:40:KICK.wav
64,192,32215,1,0,0:0:0:8:HI-HAT.wav
320,192,32365,1,0,0:0:0:8:HI-HAT.wav
448,192,32365,1,0,0:0:0:40:KICK.wav
192,192,32515,1,0,0:0:0:8:HI-HAT.wav
64,192,32515,1,0,0:0:0:40:KICK.wav
320,192,32665,1,0,0:0:0:8:HI-HAT.wav
192,192,32815,128,0,33115:0:0:0:20:OPEN-HI-HAT-B2.wav
448,192,32815,1,0,0:0:0:40:KICK.wav
320,192,32965,1,0,0:0:0:8:HI-HAT.wav
448,192,33115,1,0,0:0:0:30:SNARE1-C.wav
64,192,33115,1,0,0:0:0:8:HI-HAT.wav
192,192,33265,1,0,0:0:0:8:HI-HAT.wav
320,192,33415,1,0,0:0:0:8:HI-HAT.wav
192,192,33565,1,0,0:0:0:8:HI-HAT.wav
64,192,33715,128,0,34315:0:0:0:40:KICK.wav
320,192,33715,1,0,0:0:0:0:
448,192,33715,1,0,0:0:0:0:
192,192,33915,1,0,0:0:0:0:
448,192,34015,1,0,0:0:0:20:HI-HAT.wav
448,192,34215,1,0,0:0:0:0:
192,192,34315,1,0,0:0:0:0:
320,192,34315,1,0,0:0:0:0:
448,192,34615,1,0,0:0:0:20:HI-HAT.wav
64,192,34615,1,0,0:0:0:0:
64,192,34915,128,0,35515:0:0:0:40:KICK.wav
320,192,34915,1,0,0:0:0:0:
448,192,34915,1,0,0:0:0:0:
192,192,35115,1,0,0:0:0:0:
448,192,35215,1,0,0:0:0:20:HI-HAT.wav
448,192,35415,1,0,0:0:0:0:
192,192,35515,1,0,0:0:0:0:
320,192,35515,1,0,0:0:0:0:
448,192,35815,1,0,0:0:0:20:HI-HAT.wav
64,192,35815,1,0,0:0:0:0:
64,192,36115,128,0,36715:0:0:0:40:KICK.wav
320,192,36115,1,0,0:0:0:0:
448,192,36115,1,0,0:0:0:0:
192,192,36315,1,0,0:0:0:0:
448,192,36415,1,0,0:0:0:20:HI-HAT.wav
448,192,36615,1,0,0:0:0:0:
320,192,36715,1,0,0:0:0:0:
192,192,36715,1,0,0:0:0:0:
448,192,37015,1,0,0:0:0:20:HI-HAT.wav
64,192,37015,1,0,0:0:0:0:
320,192,37515,1,0,0:0:0:0:
192,192,37615,128,0,37815:0:0:0:0:
64,192,37715,128,0,37815:0:0:0:0:
448,192,37715,128,0,37915:0:0:0:0:
192,192,37915,1,0,0:0:0:60:SNARE1-C.wav
64,192,37915,128,0,38515:0:0:0:0:
320,192,37915,128,0,38440:0:0:0:0:
192,192,38440,1,0,0:0:0:50:KICK.wav
320,192,38515,1,0,0:0:0:70:KICK.wav
448,192,38515,128,0,42015:0:0:0:0:
64,192,39715,128,0,42015:0:0:0:0:
64,192,42115,1,0,0:0:0:60:KICK.wav
320,192,42115,1,0,0:0:0:0:
448,192,42115,1,0,0:0:0:0:
192,192,42315,1,0,0:0:0:0:
320,192,42452,1,0,0:0:0:0:
320,192,42615,1,0,0:0:0:0:
64,192,42715,128,0,43215:0:0:0:30:HI-HAT.wav
448,192,42715,128,0,43215:0:0:0:0:
192,192,42715,128,0,42915:0:0:0:0:
320,192,42915,128,0,43215:0:0:0:0:
192,192,43315,128,0,43615:0:0:0:70:KICK.wav
320,192,43315,128,0,43615:0:0:0:0:
64,192,43315,1,0,0:0:0:0:
64,192,43715,128,0,43865:0:0:0:0:
64,192,43915,128,0,44115:0:0:0:90:SNARE2.wav
192,192,43915,1,0,0:0:0:0:
448,192,43915,1,0,0:0:0:0:
320,192,44215,1,0,0:0:0:20:HI-HAT.wav
192,192,44515,1,0,0:0:0:0:
448,192,44515,128,0,44615:0:0:0:0:
448,192,44965,128,0,45065:0:0:0:80:KICK.wav
64,192,44965,1,0,0:0:0:0:
192,192,44965,1,0,0:0:0:0:
448,192,45115,128,0,45215:0:0:0:90:SNARE2.wav
192,192,45115,1,0,0:0:0:0:
320,192,45115,1,0,0:0:0:0:
192,192,45415,128,0,45527:0:0:0:0:
320,192,45415,128,0,45527:0:0:0:0:
64,192,45527,1,0,0:0:0:80:KICK.wav
448,192,45640,1,0,0:0:0:0:
64,192,45715,128,0,46015:0:0:0:80:KICK.wav
320,192,45715,128,0,45940:0:0:0:0:
192,192,45715,1,0,0:0:0:0:
448,192,45940,1,0,0:0:0:20:HI-HAT.wav
192,192,46015,1,0,0:0:0:0:
320,192,46115,1,0,0:0:0:0:
64,192,46215,1,0,0:0:0:0:
192,192,46315,1,0,0:0:0:90:SNARE2.wav
320,192,46315,1,0,0:0:0:0:
448,192,46315,1,0,0:0:0:0:
192,192,46615,1,0,0:0:0:20:HI-HAT.wav
64,192,46765,1,0,0:0:0:80:KICK.wav
320,192,46765,1,0,0:0:0:0:
448,192,46915,1,0,0:0:0:0:
192,192,46915,128,0,47065:0:0:0:0:
64,192,47140,1,0,0:0:0:80:KICK.wav
448,192,47140,1,0,0:0:0:0:
320,192,47140,128,0,47290:0:0:0:0:
192,192,47365,128,0,47440:0:0:0:0:
64,192,47515,128,0,47665:0:0:0:90:SNARE2.wav
320,192,47515,1,0,0:0:0:0:
448,192,47515,128,0,47665:0:0:0:0:
192,192,47765,1,0,0:0:0:20:HI-HAT.wav
320,192,47815,128,0,47965:0:0:0:20:HI-HAT.wav
448,192,47965,1,0,0:0:0:20:HI-HAT.wav
192,192,47965,128,0,48115:0:0:0:0:
448,192,48115,128,0,48415:0:0:0:80:KICK.wav
64,192,48115,1,0,0:0:0:0:
320,192,48115,128,0,48415:0:0:0:0:
64,192,48515,128,0,48665:0:0:0:0:
64,192,48715,128,0,48915:0:0:0:90:SNARE2.wav
448,192,48715,1,0,0:0:0:0:
192,192,48715,1,0,0:0:0:0:
320,192,49015,1,0,0:0:0:0:
320,192,49165,1,0,0:0:0:20:HI-HAT.wav
192,192,49165,1,0,0:0:0:0:
448,192,49315,1,0,0:0:0:0:
320,192,49415,1,0,0:0:0:0:
192,192,49465,1,0,0:0:0:20:HI-HAT.wav
320,192,49515,1,0,0:0:0:0:
448,192,49615,1,0,0:0:0:0:
320,192,49765,1,0,0:0:0:20:HI-HAT.wav
64,192,49765,1,0,0:0:0:80:KICK.wav
320,192,49915,1,0,0:0:0:90:SNARE2.wav
192,192,49915,1,0,0:0:0:0:
448,192,49915,1,0,0:0:0:0:
448,192,50215,128,0,50365:0:0:0:0:
192,192,50365,1,0,0:0:0:20:HI-HAT.wav
64,192,50515,128,0,50765:0:0:0:80:KICK.wav
448,192,50515,1,0,0:0:0:0:
320,192,50515,1,0,0:0:0:0:
64,192,50815,128,0,51115:0:0:0:0:
192,192,50815,1,0,0:0:0:0:
448,192,51115,1,0,0:0:0:90:SNARE2.wav
320,192,51115,1,0,0:0:0:0:
448,192,51265,1,0,0:0:0:0:
192,192,51415,128,0,51490:0:0:0:0:
320,192,51415,1,0,0:0:0:0:
64,192,51565,128,0,51715:0:0:0:80:KICK.wav
192,192,51565,1,0,0:0:0:0:
448,192,51565,1,0,0:0:0:0:
320,192,51865,128,0,52015:0:0:0:0:
192,192,51865,1,0,0:0:0:0:
448,192,52090,128,0,52240:0:0:0:0:
320,192,52090,1,0,0:0:0:0:
64,192,52090,1,0,0:0:0:0:
192,192,52165,1,0,0:0:0:0:
448,192,52315,1,0,0:0:0:80:KICK.wav
320,192,52352,1,0,0:0:0:0:
64,192,52390,1,0,0:0:0:0:
192,192,52427,1,0,0:0:0:0:
448,192,52465,1,0,0:0:0:0:
320,192,52502,1,0,0:0:0:0:
64,192,52540,1,0,0:0:0:0:
192,192,52577,1,0,0:0:0:0:
320,192,52765,1,0,0:0:0:90:SNARE2.wav
448,192,52765,1,0,0:0:0:0:
320,192,52915,1,0,0:0:0:80:KICK.wav
64,192,52915,128,0,53215:0:0:0:0:
192,192,52915,128,0,53215:0:0:0:0:
448,192,53315,128,0,53465:0:0:0:0:
448,192,53515,128,0,53715:0:0:0:90:SNARE2.wav
320,192,53515,1,0,0:0:0:0:
64,192,53515,1,0,0:0:0:0:
320,192,53815,1,0,0:0:0:20:HI-HAT.wav
320,192,53965,1,0,0:0:0:20:HI-HAT.wav
64,192,54115,1,0,0:0:0:0:
192,192,54115,128,0,54215:0:0:0:0:
448,192,54265,1,0,0:0:0:30:HI-HAT.wav
448,192,54415,1,0,0:0:0:30:HI-HAT.wav
192,192,54565,128,0,54665:0:0:0:80:KICK.wav
64,192,54565,1,0,0:0:0:0:
320,192,54565,1,0,0:0:0:0:
192,192,54715,128,0,54815:0:0:0:90:SNARE2.wav
320,192,54715,1,0,0:0:0:0:
448,192,54715,128,0,54915:0:0:0:0:
320,192,55015,128,0,55315:0:0:0:80:KICK.wav
64,192,55015,1,0,0:0:0:0:
448,192,55165,1,0,0:0:0:20:HI-HAT.wav
192,192,55315,1,0,0:0:0:80:KICK.wav
64,192,55315,128,0,55540:0:0:0:0:
448,192,55540,1,0,0:0:0:20:HI-HAT.wav
192,192,55615,1,0,0:0:0:0:
320,192,55715,1,0,0:0:0:0:
64,192,55815,1,0,0:0:0:0:
320,192,55915,1,0,0:0:0:90:SNARE2.wav
448,192,55915,1,0,0:0:0:0:
192,192,55915,1,0,0:0:0:0:
448,192,56215,1,0,0:0:0:20:HI-HAT.wav
320,192,56365,1,0,0:0:0:80:KICK.wav
64,192,56365,1,0,0:0:0:0:
192,192,56515,128,0,56665:0:0:0:20:HI-HAT.wav
448,192,56515,1,0,0:0:0:0:
320,192,56665,1,0,0:0:0:20:HI-HAT.wav
64,192,56740,128,0,56890:0:0:0:80:KICK.wav
448,192,56740,1,0,0:0:0:0:
320,192,56815,1,0,0:0:0:20:HI-HAT.wav
448,192,56965,128,0,57065:0:0:0:0:
192,192,56965,1,0,0:0:0:0:
320,192,57115,128,0,57265:0:0:0:90:SNARE2.wav
448,192,57115,1,0,0:0:0:0:
64,192,57115,128,0,57640:0:0:0:0:
192,192,57415,1,0,0:0:0:20:HI-HAT.wav
448,192,57565,1,0,0:0:0:20:HI-HAT.wav
64,192,57715,1,0,0:0:0:80:KICK.wav
192,192,57715,128,0,58240:0:0:0:0:
320,192,57715,128,0,58240:0:0:0:0:
448,192,57715,128,0,58240:0:0:0:0:
448,192,58315,1,0,0:0:0:90:SNARE2.wav
64,192,58315,128,0,58465:0:0:0:0:
192,192,58315,128,0,58465:0:0:0:0:
320,192,58615,1,0,0:0:0:20:HI-HAT.wav
448,192,58765,1,0,0:0:0:25:SNARE1-C.wav
64,192,58765,1,0,0:0:0:0:
192,192,58765,128,0,58990:0:0:0:0:
320,192,58990,128,0,59065:0:0:0:0:
64,192,59065,128,0,59440:0:0:0:25:SNARE1-C.wav
192,192,59065,128,0,59290:0:0:0:0:
448,192,59065,128,0,59515:0:0:0:0:
320,192,59365,1,0,0:0:0:80:KICK.wav
192,192,59365,1,0,0:0:0:0:
64,192,59515,1,0,0:0:0:90:SNARE2.wav
192,192,59515,128,0,59590:0:0:0:0:
448,192,59665,128,0,59740:0:0:0:0:
320,192,59665,1,0,0:0:0:0:
192,192,59815,128,0,59890:0:0:0:0:
192,192,59965,128,0,60040:0:0:0:0:
320,192,60115,1,0,0:0:0:80:KICK.wav
448,192,60115,1,0,0:0:0:0:
64,192,60115,128,0,60265:0:0:0:0:
192,192,60265,1,0,0:0:0:20:HI-HAT.wav
320,192,60340,1,0,0:0:0:80:KICK.wav
448,192,60340,1,0,0:0:0:0:
64,192,60340,128,0,60490:0:0:0:0:
192,192,60490,1,0,0:0:0:20:HI-HAT.wav
320,192,60565,1,0,0:0:0:80:KICK.wav
448,192,60565,1,0,0:0:0:0:
64,192,60565,128,0,60715:0:0:0:0:
192,192,60715,1,0,0:0:0:80:KICK.wav
320,192,60715,128,0,60865:0:0:0:0:
64,192,60865,1,0,0:0:0:0:
448,192,60865,1,0,0:0:0:0:
192,192,61015,1,0,0:0:0:80:KICK.wav
320,192,61015,1,0,0:0:0:0:
64,192,61165,1,0,0:0:0:90:SNARE2.wav
192,192,61165,1,0,0:0:0:0:
448,192,61165,1,0,0:0:0:0:
192,192,61315,1,0,0:0:0:80:KICK.wav
320,192,61315,128,0,61465:0:0:0:0:
448,192,61465,128,0,61615:0:0:0:0:
64,192,61615,128,0,61915:0:0:0:0:
448,192,61765,128,0,61915:0:0:0:0:
320,192,61765,128,0,62215:0:0:0:0:
64,192,62065,1,0,0:0:0:0:
192,192,62140,1,0,0:0:0:0:
448,192,62215,1,0,0:0:0:0:
320,192,62365,1,0,0:0:0:0:
192,192,62465,1,0,0:0:0:0:
320,192,62515,1,0,0:0:0:80:KICK.wav
64,192,62515,128,0,62615:0:0:0:0:
448,192,62515,128,0,62615:0:0:0:0:
192,192,62615,128,0,62665:0:0:0:0:
320,192,62665,128,0,62715:0:0:0:0:
64,192,62715,128,0,62765:0:0:0:0:
448,192,62765,128,0,62815:0:0:0:0:
192,192,62815,128,0,62865:0:0:0:0:
320,192,62865,128,0,62915:0:0:0:0:
64,192,62915,128,0,62965:0:0:0:0:
448,192,62965,128,0,63015:0:0:0:0:
192,192,63015,128,0,63065:0:0:0:0:
320,192,63065,128,0,63115:0:0:0:0:
448,192,63115,1,0,0:0:0:90:SNARE2.wav
64,192,63115,128,0,63665:0:0:0:0:
192,192,63265,128,0,63665:0:0:0:0:
448,192,63515,128,0,63665:0:0:0:0:
320,192,63940,1,0,0:0:0:20:HI-HAT.wav
64,192,64015,1,0,0:0:0:80:KICK.wav
448,192,64015,1,0,0:0:0:0:
192,192,64015,1,0,0:0:0:0:
320,192,64165,128,0,64315:0:0:0:0:
192,192,64165,128,0,64315:0:0:0:0:
64,192,64315,1,0,0:0:0:90:SNARE2.wav
448,192,64315,1,0,0:0:0:0:
320,192,64465,1,0,0:0:0:20:HI-HAT.wav
64,192,64615,128,0,64765:0:0:0:80:KICK.wav
192,192,64615,128,0,64765:0:0:0:0:
448,192,64615,1,0,0:0:0:0:
320,192,64765,1,0,0:0:0:20:HI-HAT.wav
64,192,64915,128,0,65065:0:0:0:80:KICK.wav
192,192,64915,128,0,65065:0:0:0:0:
448,192,64915,1,0,0:0:0:0:
320,192,65065,1,0,0:0:0:20:HI-HAT.wav
64,192,65140,128,0,65365:0:0:0:0:
320,192,65365,128,0,65515:0:0:0:0:
192,192,65365,128,0,65515:0:0:0:0:
64,192,65515,1,0,0:0:0:90:SNARE2.wav
448,192,65515,1,0,0:0:0:0:
320,192,65590,128,0,65815:0:0:0:0:
448,192,65815,1,0,0:0:0:20:HI-HAT.wav
192,192,65965,1,0,0:0:0:80:KICK.wav
64,192,65965,1,0,0:0:0:0:
320,192,66115,128,0,66340:0:0:0:0:
448,192,66340,128,0,66565:0:0:0:80:KICK.wav
64,192,66340,128,0,66565:0:0:0:0:
320,192,66565,128,0,66715:0:0:0:0:
192,192,66565,128,0,66715:0:0:0:0:
448,192,66715,1,0,0:0:0:90:SNARE2.wav
64,192,66715,128,0,66865:0:0:0:0:
192,192,67015,1,0,0:0:0:20:HI-HAT.wav
320,192,67165,128,0,67315:0:0:0:0:
448,192,67165,128,0,67315:0:0:0:0:
192,192,67315,128,0,67615:0:0:0:80:KICK.wav
64,192,67315,128,0,67615:0:0:0:0:
448,192,67540,1,0,0:0:0:0:
320,192,67615,1,0,0:0:0:20:HI-HAT.wav
448,192,67715,128,0,67865:0:0:0:0:
192,192,67765,1,0,0:0:0:0:
64,192,67915,1,0,0:0:0:90:SNARE2.wav
448,192,67915,128,0,68115:0:0:0:0:
320,192,67915,1,0,0:0:0:0:
192,192,68215,128,0,68365:0:0:0:20:HI-HAT.wav
320,192,68215,1,0,0:0:0:0:
448,192,68365,1,0,0:0:0:0:
64,192,68440,128,0,68665:0:0:0:0:
192,192,68665,1,0,0:0:0:20:HI-HAT.wav
448,192,68740,128,0,68965:0:0:0:0:
320,192,68965,128,0,69115:0:0:0:80:KICK.wav
192,192,68965,128,0,69115:0:0:0:0:
448,192,69115,1,0,0:0:0:90:SNARE2.wav
64,192,69115,128,0,69715:0:0:0:0:
320,192,69265,1,0,0:0:0:20:HI-HAT.wav
192,192,69415,128,0,69715:0:0:0:20:HI-HAT.wav
448,192,69415,1,0,0:0:0:0:
320,192,69565,128,0,69715:0:0:0:0:
448,192,69940,128,0,70165:0:0:0:0:
64,192,69940,128,0,70165:0:0:0:0:
192,192,70165,128,0,70315:0:0:0:0:
320,192,70165,128,0,70315:0:0:0:0:
64,192,70315,128,0,70615:0:0:0:0:
448,192,70765,128,0,70915:0:0:0:0:
192,192,70765,128,0,70915:0:0:0:0:
64,192,70915,1,0,0:0:0:80:KICK.wav
320,192,70915,1,0,0:0:0:0:
192,192,71015,1,0,0:0:0:0:
448,192,71065,1,0,0:0:0:0:
320,192,71115,1,0,0:0:0:0:
64,192,71165,128,0,71365:0:0:0:0:
192,192,71365,128,0,71515:0:0:0:0:
320,192,71365,128,0,71515:0:0:0:0:
448,192,71665,128,0,71765:0:0:0:0:
64,192,71665,1,0,0:0:0:0:
192,192,71765,1,0,0:0:0:0:
320,192,71765,128,0,71965:0:0:0:0:
448,192,71965,128,0,72115:0:0:0:0:
192,192,71965,128,0,72115:0:0:0:0:
64,192,72115,128,0,72415:0:0:0:80:KICK.wav
320,192,72115,128,0,72415:0:0:0:0:
192,192,72515,128,0,72715:0:0:0:0:
320,192,72515,128,0,72715:0:0:0:0:
64,192,72715,1,0,0:0:0:80:KICK.wav
448,192,72715,1,0,0:0:0:0:
320,192,72815,1,0,0:0:0:0:
192,192,72815,128,0,73115:0:0:0:0:
448,192,72915,1,0,0:0:0:0:
64,192,73015,1,0,0:0:0:0:
448,192,73115,128,0,73265:0:0:0:0:
320,192,73115,1,0,0:0:0:0:
192,192,73215,1,0,0:0:0:0:
64,192,73315,1,0,0:0:0:80:KICK.wav
320,192,73315,1,0,0:0:0:0:
192,192,73415,1,0,0:0:0:0:
320,192,73515,1,0,0:0:0:0:
192,192,73615,128,0,73765:0:0:0:0:
448,192,73615,1,0,0:0:0:0:
64,192,73715,1,0,0:0:0:0:
448,192,73765,1,0,0:0:0:80:KICK.wav
320,192,73765,1,0,0:0:0:0:
192,192,73815,1,0,0:0:0:0:
64,192,73915,1,0,0:0:0:80:KICK.wav
320,192,73915,1,0,0:0:0:0:
448,192,74015,1,0,0:0:0:0:
192,192,74015,128,0,74315:0:0:0:0:
320,192,74115,1,0,0:0:0:0:
64,192,74215,1,0,0:0:0:0:
448,192,74315,1,0,0:0:0:0:
320,192,74415,1,0,0:0:0:0:
64,192,74515,1,0,0:0:0:80:KICK.wav
448,192,74515,1,0,0:0:0:0:
192,192,74615,1,0,0:0:0:0:
320,192,74715,1,0,0:0:0:0:
192,192,74815,128,0,75115:0:0:0:0:
64,192,74815,1,0,0:0:0:0:
320,192,74915,1,0,0:0:0:0:
448,192,75015,1,0,0:0:0:0:
64,192,75115,1,0,0:0:0:80:KICK.wav
320,192,75115,1,0,0:0:0:0:
192,192,75215,1,0,0:0:0:0:
448,192,75215,128,0,75565:0:0:0:0:
64,192,75315,1,0,0:0:0:0:
320,192,75340,1,0,0:0:0:0:
192,192,75415,1,0,0:0:0:0:
64,192,75515,1,0,0:0:0:0:
320,192,75565,1,0,0:0:0:0:
192,192,75615,1,0,0:0:0:0:
320,192,75715,1,0,0:0:0:80:KICK.wav
448,192,75715,1,0,0:0:0:0:
64,192,75915,1,0,0:0:0:30:HI-HAT.wav
192,192,75915,1,0,0:0:0:0:
448,192,76015,1,0,0:0:0:80:KICK.wav
320,192,76015,128,0,76165:0:0:0:0:
64,192,76165,1,0,0:0:0:30:HI-HAT.wav
192,192,76165,1,0,0:0:0:0:
320,192,76315,1,0,0:0:0:90:SNARE2.wav
448,192,76315,1,0,0:0:0:0:
64,192,76315,128,0,76615:0:0:0:0:
320,192,76615,128,0,76690:0:0:0:0:
448,192,76765,128,0,76840:0:0:0:0:
320,192,76915,1,0,0:0:0:80:KICK.wav
64,192,76915,128,0,77215:0:0:0:0:
192,192,76915,128,0,77215:0:0:0:0:
64,192,77365,128,0,77515:0:0:0:0:
192,192,77365,128,0,77515:0:0:0:0:
320,192,77515,1,0,0:0:0:90:SNARE2.wav
448,192,77515,128,0,77965:0:0:0:0:
192,192,77665,128,0,77965:0:0:0:0:
320,192,77815,128,0,77965:0:0:0:0:
64,192,77965,1,0,0:0:0:20:HI-HAT.wav
320,192,78115,128,0,78415:0:0:0:0:
448,192,78115,128,0,78415:0:0:0:0:
64,192,78265,1,0,0:0:0:20:HI-HAT.wav
320,192,78565,128,0,78715:0:0:0:80:KICK.wav
448,192,78565,128,0,78715:0:0:0:0:
192,192,78715,1,0,0:0:0:90:SNARE2.wav
64,192,78715,128,0,78790:0:0:0:0:
64,192,78940,128,0,79015:0:0:0:0:
448,192,79165,128,0,79315:0:0:0:0:
64,192,79165,128,0,79240:0:0:0:0:
192,192,79315,1,0,0:0:0:80:KICK.wav
320,192,79315,1,0,0:0:0:0:
64,192,79390,128,0,79465:0:0:0:0:
448,192,79615,1,0,0:0:0:0:
320,192,79665,1,0,0:0:0:0:
64,192,79715,1,0,0:0:0:0:
192,192,79765,1,0,0:0:0:0:
448,192,79815,1,0,0:0:0:0:
320,192,79865,1,0,0:0:0:0:
64,192,79915,1,0,0:0:0:90:SNARE2.wav
192,192,79915,1,0,0:0:0:0:
320,192,80065,1,0,0:0:0:0:
448,192,80115,1,0,0:0:0:0:
192,192,80165,1,0,0:0:0:0:
64,192,80215,1,0,0:0:0:0:
320,192,80265,1,0,0:0:0:0:
192,192,80315,1,0,0:0:0:0:
448,192,80365,1,0,0:0:0:20:HI-HAT.wav
320,192,80415,1,0,0:0:0:0:
192,192,80465,1,0,0:0:0:0:
64,192,80515,1,0,0:0:0:90:SNARE2.wav
448,192,80515,1,0,0:0:0:0:
320,192,80715,1,0,0:0:0:45:SNARE2.wav
448,192,80715,1,0,0:0:0:0:
192,192,80815,1,0,0:0:0:0:
192,192,81015,1,0,0:0:0:45:SNARE2.wav
64,192,81015,1,0,0:0:0:0:
320,192,81115,1,0,0:0:0:70:KICK.wav
64,192,81315,1,0,0:0:0:0:
448,192,81490,1,0,0:0:0:40:SNARE2.wav
192,192,81490,1,0,0:0:0:0:
64,192,81565,1,0,0:0:0:40:SNARE2.wav
448,192,81565,1,0,0:0:0:0:
192,192,81715,1,0,0:0:0:80:KICK.wav
320,192,81715,128,0,81815:0:0:0:0:
64,192,81815,128,0,81865:0:0:0:0:
192,192,81865,128,0,81915:0:0:0:0:
448,192,81915,128,0,81965:0:0:0:0:
320,192,81965,128,0,82015:0:0:0:0:
64,192,82015,128,0,82065:0:0:0:0:
192,192,82065,128,0,82115:0:0:0:0:
448,192,82115,128,0,82165:0:0:0:0:
320,192,82165,128,0,82215:0:0:0:0:
64,192,82215,128,0,82265:0:0:0:0:
192,192,82265,128,0,82315:0:0:0:0:
448,192,82315,1,0,0:0:0:90:SNARE2.wav
320,192,82315,128,0,82915:0:0:0:0:
64,192,82465,128,0,82915:0:0:0:0:
448,192,82815,128,0,82915:0:0:0:0:
64,192,83140,1,0,0:0:0:20:HI-HAT.wav
192,192,83215,1,0,0:0:0:80:KICK.wav
448,192,83215,1,0,0:0:0:0:
320,192,83215,1,0,0:0:0:0:
320,192,83365,128,0,83515:0:0:0:0:
64,192,83365,128,0,83515:0:0:0:0:
192,192,83515,1,0,0:0:0:90:SNARE2.wav
448,192,83515,1,0,0:0:0:0:
64,192,83665,1,0,0:0:0:20:HI-HAT.wav
320,192,83815,128,0,83965:0:0:0:80:KICK.wav
448,192,83815,128,0,83965:0:0:0:0:
192,192,83815,1,0,0:0:0:0:
64,192,83965,1,0,0:0:0:20:HI-HAT.wav
320,192,84115,128,0,84265:0:0:0:80:KICK.wav
448,192,84115,128,0,84265:0:0:0:0:
192,192,84115,1,0,0:0:0:0:
64,192,84265,1,0,0:0:0:20:HI-HAT.wav
448,192,84340,128,0,84565:0:0:0:0:
320,192,84565,128,0,84715:0:0:0:0:
64,192,84565,128,0,84715:0:0:0:0:
192,192,84715,1,0,0:0:0:90:SNARE2.wav
448,192,84715,1,0,0:0:0:0:
320,192,84790,128,0,85015:0:0:0:0:
192,192,85015,1,0,0:0:0:20:HI-HAT.wav
448,192,85165,1,0,0:0:0:80:KICK.wav
64,192,85165,1,0,0:0:0:0:
320,192,85315,128,0,85540:0:0:0:0:
448,192,85540,128,0,85765:0:0:0:80:KICK.wav
192,192,85540,128,0,85765:0:0:0:0:
320,192,85765,128,0,85915:0:0:0:0:
64,192,85765,128,0,85915:0:0:0:0:
448,192,85915,1,0,0:0:0:90:SNARE2.wav
192,192,85915,128,0,86065:0:0:0:0:
64,192,86215,1,0,0:0:0:20:HI-HAT.wav
320,192,86365,128,0,86515:0:0:0:0:
448,192,86365,128,0,86515:0:0:0:0:
192,192,86515,128,0,86815:0:0:0:80:KICK.wav
64,192,86515,128,0,86815:0:0:0:0:
448,192,86740,1,0,0:0:0:0:
320,192,86815,1,0,0:0:0:20:HI-HAT.wav
448,192,86915,128,0,87065:0:0:0:0:
192,192,86965,1,0,0:0:0:0:
64,192,87115,1,0,0:0:0:90:SNARE2.wav
448,192,87115,128,0,87315:0:0:0:0:
320,192,87115,1,0,0:0:0:0:
192,192,87415,128,0,87565:0:0:0:20:HI-HAT.wav
320,192,87415,1,0,0:0:0:0:
448,192,87565,1,0,0:0:0:0:
64,192,87640,128,0,87865:0:0:0:0:
320,192,87865,1,0,0:0:0:20:HI-HAT.wav
448,192,87940,128,0,88165:0:0:0:0:
320,192,88165,128,0,88315:0:0:0:80:KICK.wav
64,192,88165,128,0,88315:0:0:0:0:
448,192,88315,1,0,0:0:0:90:SNARE2.wav
192,192,88315,128,0,88915:0:0:0:0:
320,192,88465,1,0,0:0:0:20:HI-HAT.wav
64,192,88615,128,0,88915:0:0:0:20:HI-HAT.wav
448,192,88615,1,0,0:0:0:0:
320,192,88765,128,0,88915:0:0:0:0:
448,192,89140,128,0,89365:0:0:0:0:
192,192,89140,128,0,89365:0:0:0:0:
64,192,89365,128,0,89515:0:0:0:0:
320,192,89365,128,0,89515:0:0:0:0:
192,192,89515,128,0,89815:0:0:0:0:
448,192,89965,128,0,90115:0:0:0:0:
64,192,89965,128,0,90115:0:0:0:0:
192,192,90115,1,0,0:0:0:80:KICK.wav
320,192,90115,1,0,0:0:0:0:
64,192,90215,1,0,0:0:0:0:
448,192,90265,1,0,0:0:0:0:
320,192,90315,1,0,0:0:0:0:
192,192,90365,128,0,90565:0:0:0:0:
64,192,90565,128,0,90715:0:0:0:0:
320,192,90565,128,0,90715:0:0:0:0:
448,192,90865,128,0,90965:0:0:0:0:
64,192,90865,1,0,0:0:0:0:
192,192,90965,1,0,0:0:0:0:
320,192,90965,1,0,0:0:0:0:
448,192,91165,128,0,91315:0:0:0:0:
192,192,91165,128,0,91315:0:0:0:0:
64,192,91315,128,0,91915:0:0:0:80:KICK.wav
320,192,91315,1,0,0:0:0:0:
192,192,91415,1,0,0:0:0:0:
320,192,91515,1,0,0:0:0:0:
448,192,91615,1,0,0:0:0:0:
192,192,91715,1,0,0:0:0:0:
320,192,91815,1,0,0:0:0:0:
448,192,91915,1,0,0:0:0:80:KICK.wav
192,192,91915,1,0,0:0:0:0:
320,192,92015,128,0,92365:0:0:0:0:
64,192,92015,1,0,0:0:0:0:
192,192,92115,1,0,0:0:0:0:
448,192,92215,1,0,0:0:0:0:
64,192,92315,1,0,0:0:0:0:
192,192,92365,128,0,92515:0:0:0:0:
448,192,92415,1,0,0:0:0:0:
64,192,92515,1,0,0:0:0:80:KICK.wav
320,192,92515,1,0,0:0:0:0:
448,192,92615,1,0,0:0:0:0:
64,192,92715,1,0,0:0:0:0:
192,192,92815,1,0,0:0:0:0:
448,192,92915,1,0,0:0:0:0:
64,192,92965,1,0,0:0:0:80:KICK.wav
192,192,92965,1,0,0:0:0:0:
320,192,93015,1,0,0:0:0:0:
192,192,93115,1,0,0:0:0:80:KICK.wav
448,192,93115,1,0,0:0:0:0:
320,192,93215,128,0,93565:0:0:0:0:
64,192,93215,1,0,0:0:0:0:
192,192,93315,1,0,0:0:0:0:
64,192,93415,1,0,0:0:0:0:
448,192,93515,1,0,0:0:0:0:
192,192,93565,128,0,93715:0:0:0:0:
64,192,93615,1,0,0:0:0:0:
448,192,93715,1,0,0:0:0:80:KICK.wav
320,192,93715,1,0,0:0:0:0:
192,192,93815,1,0,0:0:0:0:
64,192,93915,1,0,0:0:0:0:
320,192,94015,1,0,0:0:0:0:
192,192,94115,1,0,0:0:0:0:
448,192,94215,1,0,0:0:0:0:
64,192,94315,1,0,0:0:0:80:KICK.wav
320,192,94315,1,0,0:0:0:0:
192,192,94415,128,0,94765:0:0:0:0:
448,192,94415,1,0,0:0:0:0:
320,192,94515,1,0,0:0:0:0:
64,192,94615,1,0,0:0:0:0:
320,192,94715,1,0,0:0:0:0:
448,192,94765,128,0,94915:0:0:0:0:
64,192,94815,1,0,0:0:0:0:
192,192,94915,1,0,0:0:0:80:KICK.wav
320,192,94915,1,0,0:0:0:0:
64,192,95015,1,0,0:0:0:0:
320,192,95115,1,0,0:0:0:0:
192,192,95215,1,0,0:0:0:0:
448,192,95315,1,0,0:0:0:0:
64,192,95365,1,0,0:0:0:80:KICK.wav
320,192,95365,1,0,0:0:0:0:
192,192,95415,1,0,0:0:0:0:
320,192,95515,1,0,0:0:0:80:KICK.wav
448,192,95515,1,0,0:0:0:0:
192,192,95615,128,0,95965:0:0:0:0:
64,192,95615,1,0,0:0:0:0:
448,192,95715,1,0,0:0:0:0:
320,192,95815,1,0,0:0:0:0:
64,192,95915,1,0,0:0:0:0:
320,192,95965,128,0,96115:0:0:0:0:
448,192,96015,1,0,0:0:0:0:
64,192,96115,128,0,96715:0:0:0:80:KICK.wav
192,192,96115,1,0,0:0:0:0:
448,192,96215,1,0,0:0:0:0:
192,192,96315,1,0,0:0:0:0:
320,192,96415,1,0,0:0:0:0:
448,192,96515,1,0,0:0:0:0:
192,192,96615,1,0,0:0:0:0:
320,192,96715,1,0,0:0:0:0:
448,192,96815,1,0,0:0:0:0:
192,192,96915,1,0,0:0:0:0:
320,192,97015,1,0,0:0:0:0:
448,192,97115,1,0,0:0:0:0:
320,192,97215,1,0,0:0:0:0:
64,192,97315,1,0,0:0:0:0:
192,192,97415,1,0,0:0:0:0:
320,192,97515,1,0,0:0:0:0:
448,192,97615,1,0,0:0:0:0:
192,192,97715,1,0,0:0:0:0:
320,192,97815,1,0,0:0:0:0:
64,192,97915,1,0,0:0:0:0:
192,192,98015,1,0,0:0:0:0:
320,192,98115,1,0,0:0:0:0:
64,192,98215,1,0,0:0:0:0:
448,192,98315,1,0,0:0:0:0:
320,192,98415,1,0,0:0:0:0:
64,192,98515,1,0,0:0:0:30:KICK.wav
448,192,98515,1,0,0:0:0:0:
192,192,98615,1,0,0:0:0:0:
320,192,98715,1,0,0:0:0:0:
64,192,98815,1,0,0:0:0:0:
320,192,98915,1,0,0:0:0:0:
448,192,99015,1,0,0:0:0:0:
192,192,99115,1,0,0:0:0:40:KICK.wav
64,192,99115,1,0,0:0:0:0:
320,192,99215,1,0,0:0:0:0:
448,192,99315,1,0,0:0:0:0:
64,192,99415,1,0,0:0:0:0:
320,192,99515,1,0,0:0:0:0:
192,192,99615,1,0,0:0:0:0:
64,192,99715,1,0,0:0:0:50:KICK.wav
448,192,99715,1,0,0:0:0:0:
192,192,99765,1,0,0:0:0:0:
320,192,99815,1,0,0:0:0:0:
448,192,99865,1,0,0:0:0:0:
64,192,100015,1,0,0:0:0:0:
192,192,100065,1,0,0:0:0:0:
320,192,100115,1,0,0:0:0:0:
448,192,100165,1,0,0:0:0:0:
192,192,100315,128,0,100815:0:0:0:60:KICK.wav
448,192,100315,1,0,0:0:0:0:
320,192,100415,1,0,0:0:0:0:
448,192,100515,1,0,0:0:0:0:
448,192,100615,1,0,0:0:0:0:
320,192,100715,1,0,0:0:0:0:
64,192,100815,1,0,0:0:0:0:
448,192,100915,1,0,0:0:0:80:KICK.wav
320,192,100915,1,0,0:0:0:0:
192,192,100915,128,0,101215:0:0:0:0:
64,192,101265,128,0,101415:0:0:0:0:
192,192,101415,128,0,101515:0:0:0:0:
64,192,101515,1,0,0:0:0:75:SNARE2.wav
320,192,101515,1,0,0:0:0:0:
448,192,101515,1,0,0:0:0:0:
192,192,101615,1,0,0:0:0:0:
448,192,101665,128,0,101815:0:0:0:0:
320,192,101715,1,0,0:0:0:0:
64,192,101815,1,0,0:0:0:20:HI-HAT.wav
192,192,101815,128,0,102065:0:0:0:0:
320,192,101915,1,0,0:0:0:0:
448,192,102015,1,0,0:0:0:0:
64,192,102115,128,0,102365:0:0:0:20:HI-HAT.wav
192,192,102215,1,0,0:0:0:0:
320,192,102315,1,0,0:0:0:0:
192,192,102415,1,0,0:0:0:80:KICK.wav
64,192,102415,1,0,0:0:0:0:
448,192,102515,1,0,0:0:0:0:
192,192,102565,1,0,0:0:0:80:KICK.wav
64,192,102565,1,0,0:0:0:0:
320,192,102615,1,0,0:0:0:0:
192,192,102715,1,0,0:0:0:75:SNARE2.wav
448,192,102715,128,0,102815:0:0:0:0:
64,192,102715,1,0,0:0:0:0:
320,192,102815,1,0,0:0:0:0:
448,192,102915,1,0,0:0:0:0:
320,192,103015,1,0,0:0:0:20:HI-HAT.wav
64,192,103115,1,0,0:0:0:80:KICK.wav
192,192,103115,1,0,0:0:0:0:
448,192,103165,128,0,103240:0:0:0:0:
64,192,103215,1,0,0:0:0:0:
320,192,103240,128,0,103315:0:0:0:0:
192,192,103315,1,0,0:0:0:80:KICK.wav
448,192,103315,1,0,0:0:0:0:
64,192,103415,1,0,0:0:0:0:
320,192,103515,1,0,0:0:0:20:HI-HAT.wav
448,192,103615,1,0,0:0:0:20:HI-HAT.wav
192,192,103715,1,0,0:0:0:0:
320,192,103815,128,0,103915:0:0:0:0:
448,192,103915,1,0,0:0:0:75:SNARE2.wav
192,192,103915,1,0,0:0:0:0:
64,192,103915,1,0,0:0:0:0:
320,192,104015,1,0,0:0:0:0:
448,192,104115,1,0,0:0:0:0:
192,192,104215,1,0,0:0:0:20:HI-HAT.wav
448,192,104315,1,0,0:0:0:0:
192,192,104365,1,0,0:0:0:80:KICK.wav
64,192,104365,1,0,0:0:0:0:
320,192,104415,1,0,0:0:0:0:
192,192,104515,128,0,104615:0:0:0:0:
320,192,104615,1,0,0:0:0:0:
64,192,104665,128,0,104815:0:0:0:0:
192,192,104715,1,0,0:0:0:80:KICK.wav
448,192,104715,1,0,0:0:0:0:
320,192,104815,1,0,0:0:0:20:HI-HAT.wav
448,192,104815,128,0,104865:0:0:0:0:
64,192,104915,128,0,104965:0:0:0:0:
192,192,105015,1,0,0:0:0:0:
320,192,105115,1,0,0:0:0:75:SNARE2.wav
64,192,105115,1,0,0:0:0:0:
448,192,105115,128,0,105165:0:0:0:0:
192,192,105215,1,0,0:0:0:0:
320,192,105315,1,0,0:0:0:0:
64,192,105415,128,0,105465:0:0:0:0:
320,192,105465,1,0,0:0:0:0:
448,192,105515,1,0,0:0:0:0:
64,192,105565,1,0,0:0:0:0:
320,192,105615,1,0,0:0:0:0:
448,192,105665,1,0,0:0:0:0:
64,192,105715,1,0,0:0:0:80:KICK.wav
192,192,105715,1,0,0:0:0:0:
320,192,105752,1,0,0:0:0:0:
448,192,105790,1,0,0:0:0:0:
64,192,105827,1,0,0:0:0:0:
192,192,105865,1,0,0:0:0:0:
320,192,105902,1,0,0:0:0:0:
448,192,105940,1,0,0:0:0:0:
64,192,105977,1,0,0:0:0:0:
192,192,106015,1,0,0:0:0:0:
320,192,106052,1,0,0:0:0:0:
448,192,106090,1,0,0:0:0:0:
64,192,106127,1,0,0:0:0:0:
192,192,106165,1,0,0:0:0:0:
320,192,106202,1,0,0:0:0:0:
448,192,106240,1,0,0:0:0:0:
64,192,106277,1,0,0:0:0:0:
192,192,106315,1,0,0:0:0:75:SNARE2.wav
320,192,106315,1,0,0:0:0:0:
448,192,106415,1,0,0:0:0:0:
320,192,106465,128,0,106515:0:0:0:0:
64,192,106515,1,0,0:0:0:0:
192,192,106615,1,0,0:0:0:0:
320,192,106715,1,0,0:0:0:20:HI-HAT.wav
448,192,106815,1,0,0:0:0:0:
64,192,106915,1,0,0:0:0:0:
192,192,107015,1,0,0:0:0:0:
320,192,107065,128,0,107115:0:0:0:20:HI-HAT.wav
448,192,107115,1,0,0:0:0:0:
192,192,107215,1,0,0:0:0:0:
320,192,107315,1,0,0:0:0:0:
64,192,107365,1,0,0:0:0:80:KICK.wav
192,192,107365,1,0,0:0:0:0:
448,192,107415,1,0,0:0:0:0:
192,192,107515,1,0,0:0:0:75:SNARE2.wav
64,192,107515,1,0,0:0:0:0:
320,192,107515,128,0,107615:0:0:0:0:
448,192,107615,1,0,0:0:0:0:
64,192,107665,128,0,107815:0:0:0:0:
320,192,107715,1,0,0:0:0:0:
192,192,107815,128,0,107915:0:0:0:0:
320,192,107915,1,0,0:0:0:0:
448,192,107965,128,0,108065:0:0:0:20:HI-HAT.wav
192,192,108015,1,0,0:0:0:0:
320,192,108115,1,0,0:0:0:80:KICK.wav
64,192,108115,128,0,108215:0:0:0:0:
192,192,108215,1,0,0:0:0:0:
320,192,108265,128,0,108415:0:0:0:0:
448,192,108315,1,0,0:0:0:0:
64,192,108415,128,0,108665:0:0:0:0:
192,192,108515,1,0,0:0:0:0:
320,192,108615,1,0,0:0:0:0:
64,192,108715,1,0,0:0:0:75:SNARE2.wav
192,192,108715,1,0,0:0:0:0:
448,192,108715,128,0,108815:0:0:0:0:
320,192,108815,1,0,0:0:0:0:
192,192,108865,128,0,108965:0:0:0:0:
448,192,108915,1,0,0:0:0:0:
64,192,109015,128,0,109115:0:0:0:0:
448,192,109115,1,0,0:0:0:0:
320,192,109165,1,0,0:0:0:0:
192,192,109215,1,0,0:0:0:0:
64,192,109265,1,0,0:0:0:0:
448,192,109315,1,0,0:0:0:0:
192,192,109365,1,0,0:0:0:0:
320,192,109415,1,0,0:0:0:0:
64,192,109465,1,0,0:0:0:0:
448,192,109515,1,0,0:0:0:20:HI-HAT.wav
192,192,109565,1,0,0:0:0:0:
320,192,109615,1,0,0:0:0:0:
64,192,109665,1,0,0:0:0:0:
448,192,109715,1,0,0:0:0:20:HI-HAT.wav
320,192,109765,1,0,0:0:0:80:KICK.wav
192,192,109765,1,0,0:0:0:0:
64,192,109815,1,0,0:0:0:0:
448,192,109865,1,0,0:0:0:0:
192,192,109915,1,0,0:0:0:75:SNARE2.wav
320,192,109915,1,0,0:0:0:0:
64,192,110140,1,0,0:0:0:0:
448,192,110140,1,0,0:0:0:0:
320,192,110215,1,0,0:0:0:0:
192,192,110215,1,0,0:0:0:0:
64,192,110290,1,0,0:0:0:0:
448,192,110290,1,0,0:0:0:0:
192,192,110365,1,0,0:0:0:0:
320,192,110365,1,0,0:0:0:0:
64,192,110440,1,0,0:0:0:0:
448,192,110515,1,0,0:0:0:0:
320,192,110590,128,0,110965:0:0:0:0:
192,192,110590,128,0,110965:0:0:0:0:
64,192,110665,128,0,110815:0:0:0:0:
448,192,110815,1,0,0:0:0:0:
448,192,110965,128,0,111115:0:0:0:0:
192,192,111115,1,0,0:0:0:75:SNARE2.wav
64,192,111115,128,0,111715:0:0:0:0:
320,192,111215,1,0,0:0:0:0:
448,192,111315,1,0,0:0:0:0:
192,192,111415,1,0,0:0:0:20:HI-HAT.wav
320,192,111515,1,0,0:0:0:0:
448,192,111615,1,0,0:0:0:0:
320,192,111715,128,0,111865:0:0:0:20:HI-HAT.wav
192,192,111815,1,0,0:0:0:0:
448,192,111915,1,0,0:0:0:0:
192,192,112015,128,0,112115:0:0:0:20:HI-HAT.wav
64,192,112115,1,0,0:0:0:0:
320,192,112165,1,0,0:0:0:80:KICK.wav
448,192,112165,1,0,0:0:0:0:
192,192,112215,1,0,0:0:0:0:
320,192,112315,1,0,0:0:0:75:SNARE2.wav
64,192,112315,1,0,0:0:0:0:
448,192,112315,1,0,0:0:0:0:
320,192,112390,1,0,0:0:0:0:
192,192,112465,1,0,0:0:0:0:
192,192,112540,1,0,0:0:0:0:
448,192,112615,1,0,0:0:0:0:
320,192,112652,1,0,0:0:0:0:
192,192,112715,1,0,0:0:0:0:
320,192,112765,1,0,0:0:0:0:
64,192,112815,1,0,0:0:0:0:
320,192,112915,128,0,113065:0:0:0:20:HI-HAT.wav
192,192,112915,128,0,113165:0:0:0:80:KICK.wav
448,192,112915,128,0,112965:0:0:0:0:
448,192,113015,128,0,113215:0:0:0:0:
320,192,113115,128,0,113215:0:0:0:0:
64,192,113215,128,0,113515:0:0:0:0:
320,192,113515,1,0,0:0:0:75:SNARE2.wav
192,192,113515,1,0,0:0:0:0:
448,192,113515,128,0,113615:0:0:0:0:
64,192,113615,1,0,0:0:0:0:
192,192,113715,1,0,0:0:0:0:
320,192,113815,128,0,113915:0:0:0:20:HI-HAT.wav
448,192,113915,1,0,0:0:0:0:
64,192,113965,1,0,0:0:0:80:KICK.wav
192,192,113965,1,0,0:0:0:0:
320,192,114015,1,0,0:0:0:0:
448,192,114115,128,0,114215:0:0:0:20:HI-HAT.wav
192,192,114215,1,0,0:0:0:0:
64,192,114315,1,0,0:0:0:0:
448,192,114340,1,0,0:0:0:80:KICK.wav
320,192,114340,1,0,0:0:0:0:
192,192,114415,128,0,114515:0:0:0:20:HI-HAT.wav
320,192,114515,1,0,0:0:0:0:
448,192,114615,1,0,0:0:0:0:
320,192,114715,1,0,0:0:0:75:SNARE2.wav
64,192,114715,128,0,114865:0:0:0:0:
192,192,114815,1,0,0:0:0:0:
320,192,114915,1,0,0:0:0:0:
64,192,114915,128,0,115065:0:0:0:0:
448,192,115115,1,0,0:0:0:0:
64,192,115115,128,0,115265:0:0:0:0:
192,192,115215,1,0,0:0:0:0:
448,192,115315,1,0,0:0:0:80:KICK.wav
320,192,115315,128,0,115815:0:0:0:0:
64,192,115415,1,0,0:0:0:0:
192,192,115515,1,0,0:0:0:0:
448,192,115615,1,0,0:0:0:0:
64,192,115715,1,0,0:0:0:0:
192,192,115815,1,0,0:0:0:0:
448,192,115915,128,0,116015:0:0:0:0:
192,192,116015,1,0,0:0:0:0:
320,192,116115,1,0,0:0:0:0:
64,192,116215,128,0,116315:0:0:0:0:
192,192,116315,1,0,0:0:0:0:
320,192,116415,1,0,0:0:0:0:
448,192,116515,128,0,116615:0:0:0:0:
192,192,116615,1,0,0:0:0:0:
320,192,116715,1,0,0:0:0:0:
64,192,116815,128,0,116915:0:0:0:0:
192,192,116915,1,0,0:0:0:0:
320,192,117015,1,0,0:0:0:0:
192,192,117115,1,0,0:0:0:0:
448,192,117115,128,0,117165:0:0:0:0:
448,192,117215,128,0,117265:0:0:0:0:
64,192,117215,1,0,0:0:0:0:
448,192,117315,128,0,117365:0:0:0:0:
192,192,117315,1,0,0:0:0:0:
64,192,117415,128,0,117465:0:0:0:0:
320,192,117415,1,0,0:0:0:0:
64,192,117515,128,0,117565:0:0:0:0:
448,192,117515,1,0,0:0:0:0:
64,192,117615,128,0,117665:0:0:0:0:
320,192,117615,1,0,0:0:0:0:
192,192,117815,1,0,0:0:0:0:
448,192,117815,128,0,118015:0:0:0:0:
64,192,117915,1,0,0:0:0:0:
192,192,118115,1,0,0:0:0:0:
448,192,118115,128,0,118315:0:0:0:0:
64,192,118215,1,0,0:0:0:0:
320,192,118315,1,0,0:0:0:0:
192,192,118365,1,0,0:0:0:0:
64,192,118415,1,0,0:0:0:0:
320,192,118465,1,0,0:0:0:0:
448,192,118515,1,0,0:0:0:0:
192,192,118565,1,0,0:0:0:0:
320,192,118615,1,0,0:0:0:0:
64,192,118665,1,0,0:0:0:0:
192,192,118715,1,0,0:0:0:0:
448,192,118765,1,0,0:0:0:0:
320,192,118815,1,0,0:0:0:0:
64,192,118865,1,0,0:0:0:0:
192,192,118915,1,0,0:0:0:0:
320,192,118915,1,0,0:0:0:0:
448,192,119015,128,0,119515:0:0:0:0:
64,192,119115,128,0,119215:0:0:0:0:
320,192,119252,128,0,119365:0:0:0:0:
192,192,119402,128,0,119515:0:0:0:0:
64,192,119515,128,0,119590:0:0:0:20:HI-HAT.wav
320,192,119515,128,0,119665:0:0:0:0:
192,192,119590,1,0,0:0:0:0:
320,192,119715,128,0,119815:0:0:0:20:HI-HAT.wav
192,192,119740,128,0,119815:0:0:0:0:
64,192,119815,1,0,0:0:0:0:
64,192,120115,128,0,120365:0:0:0:80:KICK.wav
320,192,120115,128,0,120365:0:0:0:0:
448,192,120115,128,0,120365:0:0:0:0:
192,192,120415,128,0,120515:0:0:0:0:
320,192,120415,128,0,120515:0:0:0:0:
64,192,120415,128,0,120515:0:0:0:0:
64,192,120565,128,0,120665:0:0:0:0:
320,192,120565,128,0,120665:0:0:0:0:
448,192,120565,128,0,120665:0:0:0:0:
192,192,120715,128,0,120815:0:0:0:90:SNARE2.wav
448,192,120715,128,0,120815:0:0:0:0:
64,192,120715,1,0,0:0:0:0:
320,192,120715,1,0,0:0:0:0:
192,192,120915,128,0,121015:0:0:0:0:
320,192,120915,128,0,121015:0:0:0:0:
64,192,121115,128,0,121215:0:0:0:80:KICK.wav
448,192,121115,128,0,121215:0:0:0:0:
192,192,121115,1,0,0:0:0:0:
320,192,121315,128,0,121415:0:0:0:0:
448,192,121315,128,0,121415:0:0:0:0:
64,192,121415,1,0,0:0:0:80:KICK.wav
192,192,121415,1,0,0:0:0:0:
320,192,121515,128,0,121615:0:0:0:0:
448,192,121515,128,0,121615:0:0:0:0:
64,192,121715,128,0,121815:0:0:0:80:KICK.wav
320,192,121715,128,0,121815:0:0:0:0:
192,192,121715,1,0,0:0:0:0:
64,192,121915,128,0,122015:0:0:0:90:SNARE2.wav
448,192,121915,128,0,122015:0:0:0:0:
192,192,121915,1,0,0:0:0:0:
320,192,121915,1,0,0:0:0:0:
192,192,122115,128,0,122215:0:0:0:0:
448,192,122115,128,0,122215:0:0:0:0:
64,192,122315,128,0,122415:0:0:0:0:
192,192,122315,128,0,122415:0:0:0:0:
320,192,122515,128,0,122615:0:0:0:80:KICK.wav
448,192,122515,128,0,122615:0:0:0:0:
64,192,122515,1,0,0:0:0:0:
192,192,122715,128,0,122815:0:0:0:0:
320,192,122715,128,0,122815:0:0:0:0:
192,192,122915,128,0,123015:0:0:0:0:
448,192,122915,128,0,123015:0:0:0:0:
64,192,123115,128,0,123215:0:0:0:90:SNARE2.wav
192,192,123115,128,0,123215:0:0:0:0:
448,192,123115,1,0,0:0:0:0:
320,192,123115,1,0,0:0:0:0:
64,192,123315,128,0,123415:0:0:0:0:
320,192,123315,128,0,123415:0:0:0:0:
448,192,123515,128,0,123615:0:0:0:0:
320,192,123515,128,0,123615:0:0:0:0:
64,192,123565,1,0,0:0:0:90:SNARE2.wav
192,192,123565,1,0,0:0:0:0:
192,192,123715,128,0,123815:0:0:0:80:KICK.wav
448,192,123715,128,0,123815:0:0:0:0:
320,192,123715,1,0,0:0:0:0:
64,192,123915,128,0,124015:0:0:0:90:SNARE2.wav
192,192,123915,128,0,124015:0:0:0:0:
320,192,123915,1,0,0:0:0:0:
448,192,123915,1,0,0:0:0:0:
320,192,124115,128,0,124215:0:0:0:0:
448,192,124115,128,0,124215:0:0:0:0:
64,192,124165,1,0,0:0:0:80:KICK.wav
192,192,124165,1,0,0:0:0:0:
64,192,124315,128,0,124665:0:0:0:0:
192,192,124315,128,0,124665:0:0:0:0:
320,192,124315,128,0,124665:0:0:0:0:
448,192,124315,128,0,124665:0:0:0:0:
448,192,124715,1,0,0:0:0:80:KICK.wav
320,192,124715,1,0,0:0:0:0:
64,192,124715,1,0,0:0:0:0:
64,192,124915,128,0,125215:0:0:0:80:KICK.wav
192,192,124915,128,0,125215:0:0:0:0:
320,192,125315,128,0,125415:0:0:0:80:KICK.wav
448,192,125315,128,0,125415:0:0:0:0:
192,192,125515,128,0,125615:0:0:0:90:SNARE2.wav
320,192,125515,128,0,125615:0:0:0:0:
64,192,125515,1,0,0:0:0:0:
448,192,125515,1,0,0:0:0:0:
64,192,125715,128,0,125815:0:0:0:0:
320,192,125715,128,0,125815:0:0:0:0:
448,192,125915,128,0,126015:0:0:0:0:
320,192,125915,128,0,126015:0:0:0:0:
192,192,126115,128,0,126215:0:0:0:0:
320,192,126115,128,0,126215:0:0:0:0:
448,192,126315,128,0,126415:0:0:0:0:
192,192,126315,128,0,126415:0:0:0:0:
64,192,126515,128,0,126615:0:0:0:0:
192,192,126515,128,0,126615:0:0:0:0:
320,192,126565,1,0,0:0:0:80:KICK.wav
448,192,126565,1,0,0:0:0:0:
64,192,126715,128,0,126815:0:0:0:90:SNARE2.wav
320,192,126715,128,0,126815:0:0:0:0:
192,192,126715,1,0,0:0:0:0:
448,192,126715,1,0,0:0:0:0:
192,192,126915,128,0,127015:0:0:0:0:
320,192,126915,128,0,127015:0:0:0:0:
64,192,127115,128,0,127215:0:0:0:0:
448,192,127115,128,0,127215:0:0:0:0:
448,192,127315,128,0,127415:0:0:0:80:KICK.wav
320,192,127315,128,0,127415:0:0:0:0:
192,192,127315,1,0,0:0:0:0:
64,192,127515,128,0,127615:0:0:0:0:
192,192,127515,128,0,127615:0:0:0:0:
320,192,127715,128,0,127815:0:0:0:0:
192,192,127715,128,0,127815:0:0:0:0:
192,192,127915,128,0,128015:0:0:0:90:SNARE2.wav
448,192,127915,128,0,128015:0:0:0:0:
320,192,127915,1,0,0:0:0:0:
64,192,127915,1,0,0:0:0:0:
64,192,128115,128,0,128215:0:0:0:0:
448,192,128115,128,0,128215:0:0:0:0:
192,192,128315,128,0,128415:0:0:0:0:
448,192,128315,128,0,128415:0:0:0:0:
192,192,128515,128,0,128615:0:0:0:0:
320,192,128515,128,0,128615:0:0:0:0:
64,192,128715,128,0,128815:0:0:0:0:
320,192,128715,128,0,128815:0:0:0:0:
64,192,128915,128,0,129015:0:0:0:0:
192,192,128915,128,0,129015:0:0:0:0:
320,192,128965,1,0,0:0:0:80:KICK.wav
448,192,128965,1,0,0:0:0:0:
192,192,129115,128,0,129215:0:0:0:90:SNARE2.wav
448,192,129115,128,0,129215:0:0:0:0:
64,192,129115,1,0,0:0:0:0:
320,192,129115,1,0,0:0:0:0:
320,192,129415,128,0,129615:0:0:0:0:
448,192,129415,128,0,129615:0:0:0:0:
320,192,129715,128,0,129865:0:0:0:0:
192,192,129715,128,0,129865:0:0:0:0:
448,192,129865,128,0,129965:0:0:0:0:
64,192,129865,128,0,129965:0:0:0:0:
192,192,130015,1,0,0:0:0:80:KICK.wav
320,192,130015,128,0,130165:0:0:0:0:
448,192,130065,1,0,0:0:0:0:
64,192,130315,128,0,130365:0:0:0:90:SNARE2.wav
192,192,130315,128,0,130365:0:0:0:0:
320,192,130315,1,0,0:0:0:0:
448,192,130315,1,0,0:0:0:0:
64,192,130465,128,0,130515:0:0:0:0:
192,192,130465,128,0,130515:0:0:0:0:
64,192,130615,128,0,130665:0:0:0:0:
192,192,130615,128,0,130665:0:0:0:0:
320,192,130715,1,0,0:0:0:80:KICK.wav
448,192,130715,1,0,0:0:0:0:
64,192,130765,128,0,130815:0:0:0:0:
192,192,130765,128,0,130815:0:0:0:0:
64,192,130915,128,0,130965:0:0:0:0:
192,192,130915,128,0,130965:0:0:0:0:
320,192,131015,1,0,0:0:0:80:KICK.wav
448,192,131015,1,0,0:0:0:0:
64,192,131065,128,0,131165:0:0:0:0:
192,192,131065,128,0,131165:0:0:0:0:
448,192,131215,128,0,131315:0:0:0:30:HI-HAT.wav
64,192,131315,128,0,131365:0:0:0:80:KICK.wav
192,192,131315,128,0,131365:0:0:0:0:
320,192,131315,1,0,0:0:0:0:
64,192,131515,128,0,131815:0:0:0:90:SNARE2.wav
448,192,131515,128,0,131815:0:0:0:0:
320,192,131515,1,0,0:0:0:0:
192,192,131515,1,0,0:0:0:0:
320,192,131915,128,0,132065:0:0:0:80:KICK.wav
64,192,131915,1,0,0:0:0:0:
320,192,132115,128,0,132365:0:0:0:80:KICK.wav
64,192,132115,1,0,0:0:0:0:
192,192,132115,1,0,0:0:0:0:
192,192,132315,1,0,0:0:0:0:
448,192,132415,1,0,0:0:0:30:HI-HAT.wav
448,192,132715,128,0,132765:0:0:0:90:SNARE2.wav
320,192,132715,128,0,132765:0:0:0:0:
192,192,132715,1,0,0:0:0:0:
64,192,132715,1,0,0:0:0:0:
448,192,132865,128,0,132915:0:0:0:0:
320,192,132865,128,0,132915:0:0:0:0:
448,192,133015,128,0,133065:0:0:0:0:
320,192,133015,128,0,133065:0:0:0:0:
192,192,133115,1,0,0:0:0:80:KICK.wav
64,192,133115,1,0,0:0:0:0:
448,192,133165,128,0,133215:0:0:0:0:
320,192,133165,128,0,133215:0:0:0:0:
448,192,133315,128,0,133365:0:0:0:0:
320,192,133315,128,0,133365:0:0:0:0:
192,192,133415,1,0,0:0:0:80:KICK.wav
64,192,133415,1,0,0:0:0:0:
448,192,133465,128,0,133565:0:0:0:0:
320,192,133465,128,0,133565:0:0:0:0:
64,192,133615,128,0,133715:0:0:0:30:HI-HAT.wav
448,192,133715,128,0,133765:0:0:0:80:KICK.wav
320,192,133715,128,0,133765:0:0:0:0:
192,192,133715,1,0,0:0:0:0:
448,192,133915,1,0,0:0:0:90:SNARE2.wav
192,192,133915,1,0,0:0:0:0:
64,192,133915,1,0,0:0:0:0:
64,192,134065,128,0,134265:0:0:0:0:
320,192,134065,128,0,134265:0:0:0:0:
64,192,134365,128,0,134515:0:0:0:0:
192,192,134365,128,0,134515:0:0:0:0:
448,192,134515,128,0,135115:0:0:0:80:KICK.wav
320,192,134515,128,0,135115:0:0:0:0:
192,192,135415,128,0,135465:0:0:0:0:
320,192,135415,128,0,135465:0:0:0:0:
192,192,135565,128,0,135615:0:0:0:0:
320,192,135565,128,0,135615:0:0:0:0:
192,192,135715,128,0,135765:0:0:0:0:
320,192,135715,128,0,135765:0:0:0:0:
320,192,135865,128,0,135965:0:0:0:0:
192,192,135865,128,0,135965:0:0:0:0:
320,192,136115,128,0,136215:0:0:0:0:
192,192,136115,128,0,136215:0:0:0:0:
64,192,136315,1,0,0:0:0:90:SNARE2.wav
192,192,136315,1,0,0:0:0:0:
448,192,136315,128,0,136915:0:0:0:0:
320,192,136915,1,0,0:0:0:80:KICK.wav
64,192,136915,128,0,137515:0:0:0:0:
192,192,137515,1,0,0:0:0:90:SNARE2.wav
320,192,137515,1,0,0:0:0:0:
448,192,137515,128,0,138115:0:0:0:0:
320,192,137965,1,0,0:0:0:35:SNARE2.wav
192,192,138115,1,0,0:0:0:80:KICK.wav
64,192,138115,128,0,138515:0:0:0:0:
192,192,138565,1,0,0:0:0:80:KICK.wav
64,192,138565,1,0,0:0:0:0:
320,192,138715,1,0,0:0:0:35:SNARE2.wav
448,192,138715,128,0,139015:0:0:0:0:
192,192,138865,128,0,139090:0:0:0:0:
320,192,139015,128,0,139165:0:0:0:0:
64,192,139090,128,0,139240:0:0:0:0:
448,192,139165,128,0,139315:0:0:0:0:
192,192,139240,128,0,139315:0:0:0:0:
320,192,139315,128,0,139415:0:0:0:80:KICK.wav
64,192,139315,1,0,0:0:0:0:
448,192,139415,128,0,139465:0:0:0:0:
320,192,139465,128,0,139515:0:0:0:0:
192,192,139515,128,0,139565:0:0:0:0:
64,192,139565,128,0,139615:0:0:0:0:
448,192,139615,128,0,139665:0:0:0:0:
320,192,139665,128,0,139715:0:0:0:0:
192,192,139715,128,0,139765:0:0:0:0:
64,192,139765,128,0,139815:0:0:0:0:
448,192,139815,128,0,139865:0:0:0:0:
320,192,139865,128,0,139915:0:0:0:0:
64,192,139915,1,0,0:0:0:90:SNARE2.wav
192,192,139915,128,0,140515:0:0:0:0:
448,192,140065,128,0,140515:0:0:0:0:
320,192,140415,128,0,140515:0:0:0:0:
192,192,140740,1,0,0:0:0:20:HI-HAT.wav
64,192,140815,1,0,0:0:0:80:KICK.wav
448,192,140815,1,0,0:0:0:0:
320,192,140815,1,0,0:0:0:0:
192,192,140965,128,0,141115:0:0:0:0:
448,192,140965,128,0,141115:0:0:0:0:
320,192,141115,1,0,0:0:0:90:SNARE2.wav
64,192,141115,1,0,0:0:0:0:
192,192,141265,1,0,0:0:0:20:HI-HAT.wav
64,192,141415,128,0,141565:0:0:0:80:KICK.wav
448,192,141415,128,0,141565:0:0:0:0:
320,192,141415,1,0,0:0:0:0:
192,192,141565,1,0,0:0:0:20:HI-HAT.wav
64,192,141715,128,0,141865:0:0:0:80:KICK.wav
448,192,141715,128,0,141865:0:0:0:0:
320,192,141715,1,0,0:0:0:0:
192,192,141865,1,0,0:0:0:20:HI-HAT.wav
320,192,141940,128,0,142165:0:0:0:0:
448,192,142165,128,0,142315:0:0:0:0:
192,192,142165,128,0,142315:0:0:0:0:
64,192,142315,1,0,0:0:0:90:SNARE2.wav
320,192,142315,1,0,0:0:0:0:
192,192,142390,128,0,142615:0:0:0:0:
64,192,142615,1,0,0:0:0:20:HI-HAT.wav
448,192,142765,1,0,0:0:0:80:KICK.wav
320,192,142765,1,0,0:0:0:0:
192,192,142915,128,0,143140:0:0:0:0:
320,192,143140,128,0,143365:0:0:0:80:KICK.wav
64,192,143140,128,0,143365:0:0:0:0:
192,192,143365,128,0,143515:0:0:0:0:
448,192,143365,128,0,143515:0:0:0:0:
64,192,143515,1,0,0:0:0:90:SNARE2.wav
320,192,143515,128,0,143665:0:0:0:0:
192,192,143815,1,0,0:0:0:20:HI-HAT.wav
320,192,143965,128,0,144115:0:0:0:0:
448,192,143965,128,0,144115:0:0:0:0:
192,192,144115,128,0,144415:0:0:0:80:KICK.wav
64,192,144115,128,0,144415:0:0:0:0:
320,192,144515,128,0,144665:0:0:0:0:
64,192,144715,1,0,0:0:0:90:SNARE2.wav
320,192,144715,128,0,144915:0:0:0:0:
448,192,144715,1,0,0:0:0:0:
192,192,145015,128,0,145165:0:0:0:20:HI-HAT.wav
64,192,145015,1,0,0:0:0:0:
448,192,145165,1,0,0:0:0:20:HI-HAT.wav
64,192,145240,128,0,145465:0:0:0:0:
448,192,145465,1,0,0:0:0:20:HI-HAT.wav
320,192,145540,128,0,145765:0:0:0:20:HI-HAT.wav
192,192,145765,128,0,145915:0:0:0:80:KICK.wav
448,192,145765,128,0,145915:0:0:0:0:
64,192,145915,1,0,0:0:0:90:SNARE2.wav
320,192,145915,128,0,146515:0:0:0:0:
448,192,146065,1,0,0:0:0:20:HI-HAT.wav
64,192,146215,128,0,146515:0:0:0:20:HI-HAT.wav
192,192,146215,1,0,0:0:0:0:
448,192,146365,128,0,146515:0:0:0:0:
64,192,146715,128,0,146965:0:0:0:0:
320,192,146715,128,0,146965:0:0:0:0:
192,192,146965,128,0,147115:0:0:0:0:
448,192,146965,128,0,147115:0:0:0:0:
320,192,147115,128,0,147415:0:0:0:0:
448,192,147565,128,0,147715:0:0:0:0:
192,192,147565,128,0,147715:0:0:0:0:
64,192,147715,1,0,0:0:0:80:KICK.wav
320,192,147715,1,0,0:0:0:0:
192,192,147815,1,0,0:0:0:0:
448,192,147865,1,0,0:0:0:0:
320,192,147915,1,0,0:0:0:0:
64,192,147965,128,0,148165:0:0:0:0:
192,192,148165,128,0,148315:0:0:0:0:
448,192,148165,128,0,148315:0:0:0:0:
448,192,148465,128,0,148565:0:0:0:0:
64,192,148465,1,0,0:0:0:0:
192,192,148565,1,0,0:0:0:0:
320,192,148565,1,0,0:0:0:0:
192,192,148715,128,0,148915:0:0:0:0:
448,192,148715,128,0,148915:0:0:0:0:
64,192,148915,128,0,149515:0:0:0:80:KICK.wav
320,192,148915,1,0,0:0:0:0:
192,192,149015,1,0,0:0:0:0:
320,192,149115,1,0,0:0:0:0:
448,192,149215,1,0,0:0:0:0:
192,192,149315,1,0,0:0:0:0:
320,192,149415,1,0,0:0:0:0:
448,192,149515,1,0,0:0:0:80:KICK.wav
192,192,149515,1,0,0:0:0:0:
320,192,149615,128,0,149965:0:0:0:0:
64,192,149615,1,0,0:0:0:0:
192,192,149715,1,0,0:0:0:0:
448,192,149815,1,0,0:0:0:0:
64,192,149915,1,0,0:0:0:0:
192,192,149965,128,0,150115:0:0:0:0:
448,192,150015,1,0,0:0:0:0:
64,192,150115,1,0,0:0:0:80:KICK.wav
320,192,150115,1,0,0:0:0:0:
448,192,150215,1,0,0:0:0:0:
64,192,150315,1,0,0:0:0:0:
448,192,150365,128,0,150565:0:0:0:0:
192,192,150415,1,0,0:0:0:0:
320,192,150515,1,0,0:0:0:0:
64,192,150565,1,0,0:0:0:80:KICK.wav
192,192,150565,1,0,0:0:0:0:
448,192,150615,1,0,0:0:0:0:
192,192,150715,1,0,0:0:0:80:KICK.wav
64,192,150715,1,0,0:0:0:0:
320,192,150815,128,0,151165:0:0:0:0:
448,192,150815,1,0,0:0:0:0:
192,192,150915,1,0,0:0:0:0:
64,192,151015,1,0,0:0:0:0:
448,192,151115,1,0,0:0:0:0:
192,192,151165,128,0,151315:0:0:0:0:
64,192,151215,1,0,0:0:0:0:
448,192,151315,1,0,0:0:0:80:KICK.wav
320,192,151315,1,0,0:0:0:0:
192,192,151415,1,0,0:0:0:0:
448,192,151515,1,0,0:0:0:0:
64,192,151615,1,0,0:0:0:0:
192,192,151715,1,0,0:0:0:0:
320,192,151815,1,0,0:0:0:0:
192,192,151915,1,0,0:0:0:80:KICK.wav
448,192,151915,1,0,0:0:0:0:
64,192,152015,128,0,152365:0:0:0:0:
320,192,152015,1,0,0:0:0:0:
448,192,152115,1,0,0:0:0:0:
192,192,152215,1,0,0:0:0:0:
320,192,152315,1,0,0:0:0:0:
448,192,152365,128,0,152515:0:0:0:0:
192,192,152415,1,0,0:0:0:0:
64,192,152515,1,0,0:0:0:80:KICK.wav
320,192,152515,1,0,0:0:0:0:
192,192,152615,1,0,0:0:0:0:
320,192,152715,1,0,0:0:0:0:
64,192,152765,128,0,152965:0:0:0:0:
448,192,152815,1,0,0:0:0:0:
192,192,152915,1,0,0:0:0:0:
320,192,152965,1,0,0:0:0:80:KICK.wav
448,192,152965,1,0,0:0:0:0:
64,192,153015,1,0,0:0:0:0:
320,192,153115,1,0,0:0:0:80:KICK.wav
448,192,153115,1,0,0:0:0:0:
192,192,153215,128,0,153565:0:0:0:0:
64,192,153215,1,0,0:0:0:0:
448,192,153315,1,0,0:0:0:0:
320,192,153415,1,0,0:0:0:0:
64,192,153515,1,0,0:0:0:0:
320,192,153565,128,0,153715:0:0:0:0:
448,192,153615,1,0,0:0:0:0:
64,192,153715,128,0,154315:0:0:0:80:KICK.wav
192,192,153715,1,0,0:0:0:0:
448,192,153815,1,0,0:0:0:0:
192,192,153915,1,0,0:0:0:0:
320,192,154015,1,0,0:0:0:0:
448,192,154115,1,0,0:0:0:0:
320,192,154215,1,0,0:0:0:0:
192,192,154315,1,0,0:0:0:80:KICK.wav
448,192,154315,1,0,0:0:0:0:
320,192,154415,128,0,154815:0:0:0:0:
64,192,154415,1,0,0:0:0:0:
192,192,154515,1,0,0:0:0:0:
64,192,154615,1,0,0:0:0:0:
448,192,154715,1,0,0:0:0:0:
192,192,154815,1,0,0:0:0:0:
64,192,154915,1,0,0:0:0:80:KICK.wav
448,192,154915,1,0,0:0:0:0:
192,192,155015,1,0,0:0:0:0:
320,192,155115,1,0,0:0:0:0:
448,192,155165,128,0,155365:0:0:0:0:
64,192,155215,1,0,0:0:0:0:
320,192,155315,1,0,0:0:0:0:
64,192,155365,1,0,0:0:0:80:KICK.wav
192,192,155365,1,0,0:0:0:0:
448,192,155415,1,0,0:0:0:0:
64,192,155515,1,0,0:0:0:80:KICK.wav
192,192,155515,1,0,0:0:0:0:
320,192,155615,1,0,0:0:0:0:
448,192,155715,1,0,0:0:0:0:
64,192,155815,1,0,0:0:0:0:
448,192,155915,1,0,0:0:0:0:
320,192,156015,1,0,0:0:0:0:
64,192,156115,1,0,0:0:0:80:KICK.wav
448,192,156115,1,0,0:0:0:0:
192,192,156215,1,0,0:0:0:0:
320,192,156315,1,0,0:0:0:0:
64,192,156415,1,0,0:0:0:0:
192,192,156515,1,0,0:0:0:0:
448,192,156615,1,0,0:0:0:0:
64,192,156715,1,0,0:0:0:0:
320,192,156815,1,0,0:0:0:0:
448,192,156915,1,0,0:0:0:0:
64,192,157015,1,0,0:0:0:0:
320,192,157115,1,0,0:0:0:0:
192,192,157215,1,0,0:0:0:0:
64,192,157315,1,0,0:0:0:0:
192,192,157415,1,0,0:0:0:0:
320,192,157515,1,0,0:0:0:0:
64,192,157615,1,0,0:0:0:0:
320,192,157715,1,0,0:0:0:0:
448,192,157815,1,0,0:0:0:0:
192,192,157915,1,0,0:0:0:0:
320,192,158015,1,0,0:0:0:0:
448,192,158115,1,0,0:0:0:0:
64,192,158215,1,0,0:0:0:0:
448,192,158315,1,0,0:0:0:0:
320,192,158415,1,0,0:0:0:0:
64,192,158515,128,0,159115:0:0:0:80:KICK.wav
448,192,158515,128,0,159115:0:0:0:0:
192,192,158515,1,0,0:0:0:0:
192,192,159215,1,0,0:0:0:0:
320,192,159315,1,0,0:0:0:0:
448,192,159415,1,0,0:0:0:0:
192,192,159515,1,0,0:0:0:0:
320,192,159615,1,0,0:0:0:0:
64,192,159715,1,0,0:0:0:0:
192,192,159815,1,0,0:0:0:0:
320,192,159915,1,0,0:0:0:0:
192,192,160015,1,0,0:0:0:0:
448,192,160115,1,0,0:0:0:0:
320,192,160215,1,0,0:0:0:0:
64,192,160315,1,0,0:0:0:0:
192,192,160415,1,0,0:0:0:0:
320,192,160515,1,0,0:0:0:0:
448,192,160615,1,0,0:0:0:0:
192,192,160715,1,0,0:0:0:0:
320,192,160815,1,0,0:0:0:0:
64,192,160915,1,0,0:0:0:0:
448,192,161015,1,0,0:0:0:0:
320,192,161115,1,0,0:0:0:0:
192,192,161215,1,0,0:0:0:0:
448,192,161315,1,0,0:0:0:0:
320,192,161415,1,0,0:0:0:0:
64,192,161515,1,0,0:0:0:0:
192,192,161615,1,0,0:0:0:0:
320,192,161715,1,0,0:0:0:0:
192,192,161815,1,0,0:0:0:0:
448,192,161915,1,0,0:0:0:0:
320,192,162015,1,0,0:0:0:0:
192,192,162115,1,0,0:0:0:0:
64,192,162215,1,0,0:0:0:0:
448,192,162315,1,0,0:0:0:0:
320,192,162415,1,0,0:0:0:0:
192,192,162515,1,0,0:0:0:0:
320,192,162615,1,0,0:0:0:0:
64,192,162715,1,0,0:0:0:0:
192,192,162815,1,0,0:0:0:0:
448,192,162915,1,0,0:0:0:0:
320,192,163015,1,0,0:0:0:0:
192,192,163115,1,0,0:0:0:0:
448,192,163215,1,0,0:0:0:0:
64,192,163315,1,0,0:0:0:0:
192,192,163415,1,0,0:0:0:0:
320,192,163515,1,0,0:0:0:0:
192,192,163615,1,0,0:0:0:0:
448,192,163715,1,0,0:0:0:0:
320,192,163815,1,0,0:0:0:0:
64,192,163915,1,0,0:0:0:0:
192,192,164015,1,0,0:0:0:0:
320,192,164115,1,0,0:0:0:0:
448,192,164215,1,0,0:0:0:0:
64,192,164315,1,0,0:0:0:0:
192,192,164415,1,0,0:0:0:0:
320,192,164515,1,0,0:0:0:0:
64,192,164615,1,0,0:0:0:0:
448,192,164715,1,0,0:0:0:0:
320,192,164815,1,0,0:0:0:0:
192,192,164915,1,0,0:0:0:0:
448,192,165015,1,0,0:0:0:0:
64,192,165115,1,0,0:0:0:0:
192,192,165215,1,0,0:0:0:0:
320,192,165315,1,0,0:0:0:0:
192,192,165415,1,0,0:0:0:0:
448,192,165515,1,0,0:0:0:0:
320,192,165615,1,0,0:0:0:0:
192,192,165715,1,0,0:0:0:0:
64,192,165815,1,0,0:0:0:0:
448,192,165915,1,0,0:0:0:0:
320,192,166015,1,0,0:0:0:0:
192,192,166115,1,0,0:0:0:0:
448,192,166215,1,0,0:0:0:0:
64,192,166315,1,0,0:0:0:0:
192,192,166415,1,0,0:0:0:0:
448,192,166515,1,0,0:0:0:0:
320,192,166615,1,0,0:0:0:0:
192,192,166715,1,0,0:0:0:0:
320,192,166815,1,0,0:0:0:0:
64,192,166915,1,0,0:0:0:0:
192,192,167015,1,0,0:0:0:0:
448,192,167115,1,0,0:0:0:0:
320,192,167215,1,0,0:0:0:0:
192,192,167315,1,0,0:0:0:0:
64,192,167415,1,0,0:0:0:0:
448,192,167515,1,0,0:0:0:0:
320,192,167615,1,0,0:0:0:0:
192,192,167715,1,0,0:0:0:0:
320,192,167815,1,0,0:0:0:0:
64,192,167915,1,0,0:0:0:0:
192,192,168015,1,0,0:0:0:0:
448,192,168115,1,0,0:0:0:0:
320,192,168215,1,0,0:0:0:0:
192,192,168315,1,0,0:0:0:0:
64,192,168365,1,0,0:0:0:0:
448,192,168415,1,0,0:0:0:0:
320,192,168515,1,0,0:0:0:0:
64,192,168615,1,0,0:0:0:0:
192,192,168715,1,0,0:0:0:0:
320,192,168815,1,0,0:0:0:0:
448,192,168815,1,0,0:0:0:0:
64,192,168915,1,0,0:0:0:0:
320,192,169015,1,0,0:0:0:0:
192,192,169115,1,0,0:0:0:0:
64,192,169215,1,0,0:0:0:0:
448,192,169265,1,0,0:0:0:0:
320,192,169315,1,0,0:0:0:0:
192,192,169415,1,0,0:0:0:0:
320,192,169515,1,0,0:0:0:0:
64,192,169615,1,0,0:0:0:0:
448,192,169715,1,0,0:0:0:0:
320,192,169715,1,0,0:0:0:0:
192,192,169815,1,0,0:0:0:0:
64,192,169915,1,0,0:0:0:0:
320,192,170015,1,0,0:0:0:0:
448,192,170115,1,0,0:0:0:0:
64,192,170165,1,0,0:0:0:0:
192,192,170215,1,0,0:0:0:0:
320,192,170315,1,0,0:0:0:0:
192,192,170415,1,0,0:0:0:0:
448,192,170515,1,0,0:0:0:0:
64,192,170615,1,0,0:0:0:0:
320,192,170615,1,0,0:0:0:0:
192,192,170715,1,0,0:0:0:0:
320,192,170815,1,0,0:0:0:0:
64,192,170915,1,0,0:0:0:0:
320,192,171015,1,0,0:0:0:0:
448,192,171065,1,0,0:0:0:0:
192,192,171115,1,0,0:0:0:0:
64,192,171215,1,0,0:0:0:0:
320,192,171315,1,0,0:0:0:0:
192,192,171415,1,0,0:0:0:0:
64,192,171515,1,0,0:0:0:0:
320,192,171515,1,0,0:0:0:0:
448,192,171615,1,0,0:0:0:0:
192,192,171715,1,0,0:0:0:0:
320,192,171815,1,0,0:0:0:0:
192,192,171915,1,0,0:0:0:0:
64,192,171965,1,0,0:0:0:0:
448,192,172015,1,0,0:0:0:0:
192,192,172115,1,0,0:0:0:0:
320,192,172215,1,0,0:0:0:0:
192,192,172315,1,0,0:0:0:0:
64,192,172415,1,0,0:0:0:0:
448,192,172415,1,0,0:0:0:0:
320,192,172515,1,0,0:0:0:0:
192,192,172615,1,0,0:0:0:0:
320,192,172715,1,0,0:0:0:0:
64,192,172815,1,0,0:0:0:0:
448,192,172865,1,0,0:0:0:0:
320,192,172915,1,0,0:0:0:0:
192,192,173015,1,0,0:0:0:0:
64,192,173115,1,0,0:0:0:0:
320,192,173215,1,0,0:0:0:0:
448,192,173315,1,0,0:0:0:0:
64,192,173315,1,0,0:0:0:0:
192,192,173415,1,0,0:0:0:0:
320,192,173515,1,0,0:0:0:0:
448,192,173615,1,0,0:0:0:0:
64,192,173715,1,0,0:0:0:0:
192,192,173765,1,0,0:0:0:0:
448,192,173815,1,0,0:0:0:0:
320,192,173915,1,0,0:0:0:0:
192,192,174015,1,0,0:0:0:0:
448,192,174115,1,0,0:0:0:0:
64,192,174215,1,0,0:0:0:0:
320,192,174215,1,0,0:0:0:0:
192,192,174315,1,0,0:0:0:0:
320,192,174415,1,0,0:0:0:0:
64,192,174515,1,0,0:0:0:0:
320,192,174615,1,0,0:0:0:0:
448,192,174665,1,0,0:0:0:0:
192,192,174715,1,0,0:0:0:0:
320,192,174815,1,0,0:0:0:0:
448,192,174915,1,0,0:0:0:0:
64,192,175015,1,0,0:0:0:0:
320,192,175115,1,0,0:0:0:0:
192,192,175115,1,0,0:0:0:0:
448,192,175215,1,0,0:0:0:0:
192,192,175315,1,0,0:0:0:0:
64,192,175315,128,0,176415:0:0:0:0:
320,192,175415,1,0,0:0:0:0:
448,192,175515,1,0,0:0:0:0:
320,192,175615,1,0,0:0:0:0:
192,192,175715,1,0,0:0:0:0:
448,192,175815,1,0,0:0:0:0:
320,192,175915,1,0,0:0:0:0:
192,192,176015,1,0,0:0:0:0:
448,192,176115,128,0,176415:0:0:0:0:
320,192,176115,1,0,0:0:0:0:
192,192,176215,1,0,0:0:0:0:
320,192,176315,1,0,0:0:0:0:
192,192,176415,1,0,0:0:0:0:
64,192,176515,1,0,0:0:0:60:KICK.wav
448,192,176515,1,0,0:0:0:0:
320,192,176515,128,0,176890:0:0:0:0:
192,192,176590,128,0,177115:0:0:0:0:
448,192,176890,128,0,177115:0:0:0:0:
64,192,177115,128,0,177340:0:0:0:0:
320,192,177115,128,0,177565:0:0:0:0:
192,192,177415,128,0,177565:0:0:0:0:
448,192,177452,128,0,177565:0:0:0:0:
64,192,177565,1,0,0:0:0:0:
320,192,177715,1,0,0:0:0:8:HI-HAT.wav
448,192,177715,1,0,0:0:0:35:KICK.wav
64,192,177715,128,0,178015:0:0:0:0:
192,192,177865,1,0,0:0:0:8:HI-HAT.wav
320,192,178015,1,0,0:0:0:20:OPEN-HI-HAT-B2.wav
448,192,178015,128,0,178315:0:0:0:35:KICK.wav
192,192,178165,1,0,0:0:0:8:HI-HAT.wav
64,192,178315,1,0,0:0:0:30:SNARE1-C.wav
320,192,178315,1,0,0:0:0:8:HI-HAT.wav
192,192,178465,1,0,0:0:0:8:HI-HAT.wav
320,192,178540,128,0,178765:0:0:0:0:
64,192,178615,1,0,0:0:0:8:HI-HAT.wav
448,192,178765,1,0,0:0:0:8:HI-HAT.wav
192,192,178765,1,0,0:0:0:35:KICK.wav
64,192,178915,1,0,0:0:0:8:HI-HAT.wav
448,192,178915,1,0,0:0:0:35:KICK.wav
192,192,179065,1,0,0:0:0:8:HI-HAT.wav
320,192,179065,128,0,179215:0:0:0:0:
64,192,179215,1,0,0:0:0:20:OPEN-HI-HAT-B2.wav
448,192,179215,128,0,179515:0:0:0:35:KICK.wav
64,192,179365,1,0,0:0:0:8:HI-HAT.wav
320,192,179515,1,0,0:0:0:30:SNARE1-C.wav
192,192,179515,1,0,0:0:0:0:
448,192,179665,1,0,0:0:0:8:HI-HAT.wav
64,192,179740,128,0,180115:0:0:0:0:
192,192,179815,1,0,0:0:0:8:HI-HAT.wav
320,192,179965,1,0,0:0:0:8:HI-HAT.wav
320,192,180115,1,0,0:0:0:8:HI-HAT.wav
448,192,180115,1,0,0:0:0:35:KICK.wav
64,192,180265,1,0,0:0:0:8:HI-HAT.wav
192,192,180265,128,0,180415:0:0:0:0:
320,192,180415,1,0,0:0:0:20:OPEN-HI-HAT-B2.wav
448,192,180415,128,0,180715:0:0:0:35:KICK.wav
192,192,180565,1,0,0:0:0:8:HI-HAT.wav
64,192,180715,1,0,0:0:0:30:SNARE1-C.wav
320,192,180715,1,0,0:0:0:8:HI-HAT.wav
320,192,180865,1,0,0:0:0:8:HI-HAT.wav
448,192,180865,1,0,0:0:0:35:KICK.wav
64,192,180965,128,0,181165:0:0:0:0:
192,192,181015,1,0,0:0:0:8:HI-HAT.wav
320,192,181165,1,0,0:0:0:8:HI-HAT.wav
448,192,181165,1,0,0:0:0:35:KICK.wav
320,192,181315,1,0,0:0:0:8:HI-HAT.wav
448,192,181315,1,0,0:0:0:35:KICK.wav
64,192,181465,1,0,0:0:0:8:HI-HAT.wav
192,192,181465,128,0,181615:0:0:0:0:
320,192,181615,1,0,0:0:0:20:OPEN-HI-HAT-B2.wav
448,192,181615,128,0,181915:0:0:0:35:KICK.wav
192,192,181765,1,0,0:0:0:8:HI-HAT.wav
64,192,181915,1,0,0:0:0:30:SNARE1-C.wav
320,192,181915,1,0,0:0:0:8:HI-HAT.wav
192,192,182065,1,0,0:0:0:8:HI-HAT.wav
320,192,182115,128,0,182215:0:0:0:0:
64,192,182215,1,0,0:0:0:8:HI-HAT.wav
192,192,182215,1,0,0:0:0:35:KICK.wav
64,192,182315,1,0,0:0:0:35:KICK.wav
448,192,182315,1,0,0:0:0:0:
192,192,182415,1,0,0:0:0:35:KICK.wav
320,192,182415,1,0,0:0:0:0:
320,192,182515,1,0,0:0:0:8:HI-HAT.wav
448,192,182515,1,0,0:0:0:35:KICK.wav
64,192,182515,128,0,182815:0:0:0:0:
192,192,182665,1,0,0:0:0:8:HI-HAT.wav
320,192,182815,1,0,0:0:0:20:OPEN-HI-HAT-B2.wav
448,192,182815,128,0,183115:0:0:0:35:KICK.wav
192,192,182965,1,0,0:0:0:8:HI-HAT.wav
64,192,183115,1,0,0:0:0:30:SNARE1-C.wav
320,192,183115,1,0,0:0:0:8:HI-HAT.wav
192,192,183265,1,0,0:0:0:8:HI-HAT.wav
448,192,183377,128,0,183565:0:0:0:0:
192,192,183415,1,0,0:0:0:8:HI-HAT.wav
320,192,183565,1,0,0:0:0:8:HI-HAT.wav
64,192,183565,1,0,0:0:0:35:KICK.wav
320,192,183715,1,0,0:0:0:8:HI-HAT.wav
64,192,183715,1,0,0:0:0:35:KICK.wav
192,192,183865,1,0,0:0:0:8:HI-HAT.wav
448,192,183865,128,0,184015:0:0:0:0:
64,192,184015,1,0,0:0:0:20:OPEN-HI-HAT-B2.wav
320,192,184015,128,0,184315:0:0:0:35:KICK.wav
192,192,184165,1,0,0:0:0:8:HI-HAT.wav
64,192,184315,1,0,0:0:0:30:SNARE1-C.wav
448,192,184315,1,0,0:0:0:8:HI-HAT.wav
320,192,184465,1,0,0:0:0:8:HI-HAT.wav
64,192,184515,128,0,184765:0:0:0:0:
192,192,184615,128,0,184765:0:0:0:8:HI-HAT.wav
448,192,184615,1,0,0:0:0:25:KICK.wav
192,192,184840,1,0,0:0:0:0:
320,192,184915,128,0,185065:0:0:0:25:KICK.wav
64,192,184915,128,0,185215:0:0:0:0:
320,192,185140,1,0,0:0:0:0:
448,192,185215,128,0,185515:0:0:0:20:OPEN-HI-HAT-B2.wav
192,192,185215,1,0,0:0:0:25:KICK.wav
192,192,185365,1,0,0:0:0:8:HI-HAT.wav
320,192,185515,1,0,0:0:0:30:SNARE1-C.wav
64,192,185515,1,0,0:0:0:8:HI-HAT.wav
320,192,185665,1,0,0:0:0:8:HI-HAT.wav
448,192,185665,1,0,0:0:0:35:KICK.wav
64,192,185777,128,0,185965:0:0:0:0:
192,192,185815,1,0,0:0:0:8:HI-HAT.wav
320,192,185965,1,0,0:0:0:8:HI-HAT.wav
448,192,185965,1,0,0:0:0:35:KICK.wav
320,192,186115,1,0,0:0:0:8:HI-HAT.wav
448,192,186115,1,0,0:0:0:35:KICK.wav
320,192,186265,1,0,0:0:0:8:HI-HAT.wav
192,192,186265,128,0,186415:0:0:0:0:
64,192,186415,1,0,0:0:0:20:OPEN-HI-HAT-B2.wav
448,192,186415,128,0,186715:0:0:0:35:KICK.wav
192,192,186565,1,0,0:0:0:8:HI-HAT.wav
320,192,186715,1,0,0:0:0:30:SNARE1-C.wav
64,192,186715,128,0,186790:0:0:0:8:HI-HAT.wav
64,192,186865,128,0,186940:0:0:0:30:SNARE1-C.wav
320,192,186865,1,0,0:0:0:8:HI-HAT.wav
64,192,187015,128,0,187090:0:0:0:30:SNARE1-C.wav
320,192,187015,1,0,0:0:0:8:HI-HAT.wav
64,192,187165,128,0,187240:0:0:0:30:SNARE1-C.wav
320,192,187165,1,0,0:0:0:8:HI-HAT.wav
192,192,187315,1,0,0:0:0:20:SNARE1-C.wav
448,192,187315,1,0,0:0:0:25:KICK.wav
64,192,187415,128,0,187615:0:0:0:0:
192,192,187615,1,0,0:0:0:18:OPEN-HI-HAT-B2.wav
320,192,187615,128,0,187915:0:0:0:25:KICK.wav
64,192,187915,1,0,0:0:0:20:SNARE1-C.wav
448,192,187915,1,0,0:0:0:0:
320,192,188177,128,0,188365:0:0:0:0:
448,192,188215,1,0,0:0:0:20:HI-HAT.wav
64,192,188415,1,0,0:0:0:25:KICK.wav
192,192,188415,1,0,0:0:0:0:
192,192,188515,1,0,0:0:0:20:SNARE1-C.wav
448,192,188515,1,0,0:0:0:25:KICK.wav
64,192,188665,128,0,188815:0:0:0:0:
320,192,188815,128,0,189115:0:0:0:18:OPEN-HI-HAT-B2.wav
448,192,188815,1,0,0:0:0:25:KICK.wav
448,192,189115,1,0,0:0:0:20:SNARE1-C.wav
192,192,189115,1,0,0:0:0:0:
320,192,189265,1,0,0:0:0:0:
64,192,189340,128,0,189715:0:0:0:0:
192,192,189415,1,0,0:0:0:20:HI-HAT.wav
320,192,189715,1,0,0:0:0:18:OPEN-HI-HAT-B2.wav
448,192,189715,128,0,189965:0:0:0:30:KICK.wav
192,192,189865,128,0,190015:0:0:0:0:
320,192,190015,1,0,0:0:0:18:OPEN-HI-HAT-B2.wav
448,192,190015,128,0,190265:0:0:0:30:KICK.wav
192,192,190315,1,0,0:0:0:0:
448,192,190315,1,0,0:0:0:20:SNARE1-C.wav
64,192,190465,1,0,0:0:0:25:KICK.wav
320,192,190465,1,0,0:0:0:0:
192,192,190577,128,0,190765:0:0:0:0:
320,192,190615,1,0,0:0:0:20:HI-HAT.wav
64,192,190815,1,0,0:0:0:25:KICK.wav
448,192,190815,1,0,0:0:0:0:
192,192,190915,1,0,0:0:0:25:KICK.wav
320,192,190915,1,0,0:0:0:0:
64,192,191027,128,0,191215:0:0:0:0:
320,192,191215,1,0,0:0:0:18:OPEN-HI-HAT-B2.wav
448,192,191215,128,0,191515:0:0:0:25:KICK.wav
64,192,191515,1,0,0:0:0:30:SNARE1-C.wav
192,192,191515,1,0,0:0:0:0:
320,192,191740,128,0,191965:0:0:0:0:
64,192,192115,128,0,195715:0:0:0:100:KICK.wav
448,192,192115,1,0,0:0:0:0:
320,192,192265,128,0,192415:0:0:0:0:
192,192,192315,1,0,0:0:0:0:
448,192,192415,1,0,0:0:0:0:
192,192,192615,1,0,0:0:0:0:
448,192,192715,1,0,0:0:0:0:
192,192,192977,128,0,193165:0:0:0:0:
320,192,193015,1,0,0:0:0:0:
448,192,193315,1,0,0:0:0:50:KICK.wav
320,192,193465,128,0,193615:0:0:0:0:
192,192,193515,1,0,0:0:0:0:
448,192,193615,1,0,0:0:0:0:
192,192,193815,1,0,0:0:0:0:
448,192,193915,1,0,0:0:0:0:
192,192,194140,128,0,194515:0:0:0:0:
320,192,194215,1,0,0:0:0:0:
448,192,194515,1,0,0:0:0:50:KICK.wav
320,192,194665,128,0,194815:0:0:0:0:
192,192,194715,1,0,0:0:0:0:
448,192,194815,1,0,0:0:0:0:
192,192,195015,1,0,0:0:0:0:
448,192,195115,1,0,0:0:0:0:
320,192,195415,1,0,0:0:0:0:
192,192,195415,128,0,195565:0:0:0:0:
192,192,195715,1,0,0:0:0:80:KICK.wav
448,192,195715,1,0,0:0:0:0:
320,192,195915,1,0,0:0:0:0:
192,192,196052,1,0,0:0:0:0:
192,192,196215,1,0,0:0:0:0:
320,192,196352,1,0,0:0:0:0:
320,192,196515,1,0,0:0:0:0:
64,192,196915,128,0,197215:0:0:0:80:KICK.wav
448,192,196915,128,0,197215:0:0:0:0:
192,192,196915,1,0,0:0:0:0:
320,192,197315,128,0,197465:0:0:0:0:
320,192,197515,128,0,197715:0:0:0:90:SNARE2.wav
192,192,197515,1,0,0:0:0:0:
64,192,197515,1,0,0:0:0:0:
448,192,197815,1,0,0:0:0:20:HI-HAT.wav
320,192,198115,1,0,0:0:0:0:
64,192,198115,128,0,198215:0:0:0:0:
64,192,198565,128,0,198665:0:0:0:80:KICK.wav
448,192,198565,1,0,0:0:0:0:
192,192,198565,1,0,0:0:0:0:
64,192,198715,128,0,198815:0:0:0:90:SNARE2.wav
320,192,198715,1,0,0:0:0:0:
192,192,198715,1,0,0:0:0:0:
192,192,199015,128,0,199127:0:0:0:20:HI-HAT.wav
448,192,199015,128,0,199127:0:0:0:0:
64,192,199127,1,0,0:0:0:80:KICK.wav
320,192,199240,1,0,0:0:0:0:
64,192,199315,128,0,199615:0:0:0:80:KICK.wav
448,192,199315,128,0,199540:0:0:0:0:
192,192,199315,1,0,0:0:0:0:
320,192,199540,1,0,0:0:0:20:HI-HAT.wav
192,192,199615,1,0,0:0:0:0:
448,192,199715,1,0,0:0:0:0:
64,192,199815,1,0,0:0:0:0:
192,192,199915,1,0,0:0:0:90:SNARE2.wav
320,192,199915,1,0,0:0:0:0:
448,192,199915,1,0,0:0:0:0:
192,192,200215,1,0,0:0:0:20:HI-HAT.wav
64,192,200365,1,0,0:0:0:80:KICK.wav
320,192,200365,1,0,0:0:0:0:
448,192,200515,1,0,0:0:0:0:
192,192,200515,128,0,200665:0:0:0:0:
64,192,200740,1,0,0:0:0:80:KICK.wav
448,192,200740,1,0,0:0:0:0:
320,192,200740,128,0,200890:0:0:0:0:
192,192,200965,128,0,201040:0:0:0:0:
64,192,201115,128,0,201265:0:0:0:90:SNARE2.wav
320,192,201115,1,0,0:0:0:0:
448,192,201115,128,0,201265:0:0:0:0:
192,192,201365,1,0,0:0:0:20:HI-HAT.wav
320,192,201415,128,0,201565:0:0:0:20:HI-HAT.wav
448,192,201565,1,0,0:0:0:20:HI-HAT.wav
64,192,201565,128,0,201715:0:0:0:0:
320,192,201715,128,0,202015:0:0:0:80:KICK.wav
448,192,201715,1,0,0:0:0:0:
192,192,201715,128,0,202015:0:0:0:0:
448,192,202115,128,0,202265:0:0:0:0:
448,192,202315,128,0,202515:0:0:0:90:SNARE2.wav
64,192,202315,1,0,0:0:0:0:
320,192,202315,1,0,0:0:0:0:
64,192,202615,1,0,0:0:0:0:
448,192,202765,1,0,0:0:0:20:HI-HAT.wav
64,192,202765,1,0,0:0:0:0:
192,192,202915,1,0,0:0:0:0:
64,192,203015,1,0,0:0:0:0:
320,192,203065,1,0,0:0:0:20:HI-HAT.wav
64,192,203115,1,0,0:0:0:0:
192,192,203215,1,0,0:0:0:0:
64,192,203365,1,0,0:0:0:20:HI-HAT.wav
448,192,203365,1,0,0:0:0:80:KICK.wav
192,192,203515,1,0,0:0:0:90:SNARE2.wav
448,192,203515,1,0,0:0:0:0:
320,192,203515,1,0,0:0:0:0:
320,192,203815,128,0,203965:0:0:0:0:
192,192,203965,1,0,0:0:0:20:HI-HAT.wav
64,192,204115,128,0,204365:0:0:0:80:KICK.wav
448,192,204115,1,0,0:0:0:0:
320,192,204115,1,0,0:0:0:0:
64,192,204415,128,0,204715:0:0:0:0:
192,192,204415,1,0,0:0:0:0:
448,192,204715,1,0,0:0:0:90:SNARE2.wav
320,192,204715,1,0,0:0:0:0:
448,192,204865,1,0,0:0:0:0:
320,192,205015,128,0,205090:0:0:0:0:
192,192,205015,1,0,0:0:0:0:
192,192,205165,128,0,205315:0:0:0:80:KICK.wav
64,192,205165,1,0,0:0:0:0:
448,192,205165,1,0,0:0:0:0:
448,192,205465,128,0,205615:0:0:0:20:HI-HAT.wav
192,192,205465,1,0,0:0:0:0:
64,192,205690,128,0,205840:0:0:0:20:HI-HAT.wav
320,192,205690,1,0,0:0:0:0:
448,192,205690,1,0,0:0:0:0:
192,192,205765,1,0,0:0:0:0:
448,192,205915,1,0,0:0:0:80:KICK.wav
320,192,205952,1,0,0:0:0:0:
64,192,205990,1,0,0:0:0:0:
192,192,206027,1,0,0:0:0:0:
448,192,206065,1,0,0:0:0:0:
320,192,206102,1,0,0:0:0:0:
64,192,206140,1,0,0:0:0:0:
192,192,206177,1,0,0:0:0:0:
192,192,206365,1,0,0:0:0:90:SNARE2.wav
320,192,206365,1,0,0:0:0:0:
320,192,206515,1,0,0:0:0:80:KICK.wav
64,192,206515,128,0,206815:0:0:0:0:
448,192,206515,128,0,206815:0:0:0:0:
192,192,206915,128,0,207065:0:0:0:0:
192,192,207115,128,0,207315:0:0:0:90:SNARE2.wav
320,192,207115,1,0,0:0:0:0:
448,192,207115,1,0,0:0:0:0:
320,192,207415,1,0,0:0:0:20:HI-HAT.wav
320,192,207565,1,0,0:0:0:20:HI-HAT.wav
448,192,207715,1,0,0:0:0:0:
192,192,207715,128,0,207815:0:0:0:0:
64,192,207865,1,0,0:0:0:20:HI-HAT.wav
64,192,208015,1,0,0:0:0:20:HI-HAT.wav
192,192,208165,128,0,208265:0:0:0:80:KICK.wav
320,192,208165,1,0,0:0:0:0:
448,192,208165,1,0,0:0:0:0:
192,192,208315,128,0,208415:0:0:0:90:SNARE2.wav
448,192,208315,1,0,0:0:0:0:
64,192,208315,128,0,208515:0:0:0:0:
320,192,208615,128,0,208915:0:0:0:80:KICK.wav
192,192,208615,1,0,0:0:0:0:
448,192,208765,1,0,0:0:0:20:HI-HAT.wav
192,192,208915,1,0,0:0:0:80:KICK.wav
64,192,208915,128,0,209140:0:0:0:0:
320,192,209140,1,0,0:0:0:20:HI-HAT.wav
192,192,209215,1,0,0:0:0:0:
448,192,209315,1,0,0:0:0:0:
64,192,209415,1,0,0:0:0:0:
320,192,209515,1,0,0:0:0:90:SNARE2.wav
448,192,209515,1,0,0:0:0:0:
192,192,209515,1,0,0:0:0:0:
320,192,209815,1,0,0:0:0:20:HI-HAT.wav
192,192,209965,1,0,0:0:0:80:KICK.wav
448,192,209965,1,0,0:0:0:0:
64,192,209965,1,0,0:0:0:0:
64,192,210115,128,0,210265:0:0:0:20:HI-HAT.wav
320,192,210115,1,0,0:0:0:0:
448,192,210265,1,0,0:0:0:20:HI-HAT.wav
192,192,210340,128,0,210490:0:0:0:80:KICK.wav
320,192,210340,1,0,0:0:0:0:
448,192,210415,1,0,0:0:0:20:HI-HAT.wav
448,192,210565,128,0,210665:0:0:0:0:
64,192,210565,1,0,0:0:0:0:
320,192,210715,128,0,210865:0:0:0:90:SNARE2.wav
64,192,210715,1,0,0:0:0:0:
192,192,210715,128,0,211240:0:0:0:0:
320,192,211015,1,0,0:0:0:20:HI-HAT.wav
448,192,211165,1,0,0:0:0:20:HI-HAT.wav
192,192,211315,1,0,0:0:0:80:KICK.wav
64,192,211315,128,0,211840:0:0:0:0:
320,192,211315,128,0,211840:0:0:0:0:
448,192,211315,128,0,211840:0:0:0:0:
192,192,211915,1,0,0:0:0:90:SNARE2.wav
64,192,211915,128,0,212065:0:0:0:0:
448,192,211915,128,0,212065:0:0:0:0:
192,192,212215,1,0,0:0:0:20:HI-HAT.wav
64,192,212365,1,0,0:0:0:25:SNARE1-C.wav
448,192,212365,1,0,0:0:0:0:
320,192,212365,128,0,212590:0:0:0:0:
192,192,212590,128,0,212665:0:0:0:0:
448,192,212665,128,0,213040:0:0:0:25:SNARE1-C.wav
320,192,212665,128,0,212890:0:0:0:0:
64,192,212665,128,0,213115:0:0:0:0:
192,192,212965,1,0,0:0:0:80:KICK.wav
320,192,212965,1,0,0:0:0:0:
448,192,213115,1,0,0:0:0:90:SNARE2.wav
320,192,213115,128,0,213190:0:0:0:0:
64,192,213265,128,0,213340:0:0:0:0:
192,192,213265,1,0,0:0:0:0:
448,192,213415,128,0,213490:0:0:0:20:HI-HAT.wav
448,192,213565,128,0,213640:0:0:0:20:HI-HAT.wav
192,192,213715,1,0,0:0:0:80:KICK.wav
320,192,213715,1,0,0:0:0:0:
64,192,213715,128,0,213865:0:0:0:0:
448,192,213865,1,0,0:0:0:20:HI-HAT.wav
192,192,213940,1,0,0:0:0:80:KICK.wav
320,192,213940,1,0,0:0:0:0:
64,192,213940,128,0,214090:0:0:0:0:
448,192,214090,1,0,0:0:0:20:HI-HAT.wav
320,192,214165,1,0,0:0:0:80:KICK.wav
192,192,214165,1,0,0:0:0:0:
64,192,214165,128,0,214315:0:0:0:0:
448,192,214315,1,0,0:0:0:20:HI-HAT.wav
320,192,214315,128,0,214465:0:0:0:80:KICK.wav
64,192,214465,1,0,0:0:0:20:HI-HAT.wav
192,192,214465,1,0,0:0:0:0:
192,192,214615,1,0,0:0:0:80:KICK.wav
320,192,214615,1,0,0:0:0:0:
64,192,214765,1,0,0:0:0:90:SNARE2.wav
320,192,214765,1,0,0:0:0:0:
448,192,214765,1,0,0:0:0:0:
192,192,214915,1,0,0:0:0:80:KICK.wav
64,192,214915,128,0,215065:0:0:0:0:
448,192,215065,128,0,215215:0:0:0:0:
192,192,215215,128,0,215515:0:0:0:0:
320,192,215365,128,0,215515:0:0:0:0:
448,192,215365,128,0,215815:0:0:0:0:
64,192,215665,1,0,0:0:0:0:
192,192,215740,1,0,0:0:0:0:
320,192,215815,1,0,0:0:0:0:
320,192,215965,1,0,0:0:0:0:
192,192,216065,1,0,0:0:0:0:
320,192,216115,1,0,0:0:0:80:KICK.wav
64,192,216115,128,0,216215:0:0:0:0:
448,192,216115,128,0,216215:0:0:0:0:
192,192,216215,128,0,216265:0:0:0:0:
320,192,216265,128,0,216315:0:0:0:0:
448,192,216315,128,0,216365:0:0:0:0:
64,192,216365,128,0,216415:0:0:0:0:
192,192,216415,128,0,216465:0:0:0:0:
320,192,216465,128,0,216515:0:0:0:0:
448,192,216515,128,0,216565:0:0:0:0:
64,192,216565,128,0,216615:0:0:0:0:
192,192,216615,128,0,216665:0:0:0:0:
320,192,216665,128,0,216715:0:0:0:0:
448,192,216715,1,0,0:0:0:90:SNARE2.wav
64,192,216715,128,0,217265:0:0:0:0:
320,192,216865,128,0,217265:0:0:0:0:
448,192,217115,128,0,217265:0:0:0:0:
192,192,217540,1,0,0:0:0:20:HI-HAT.wav
64,192,217615,1,0,0:0:0:80:KICK.wav
448,192,217615,1,0,0:0:0:0:
320,192,217615,1,0,0:0:0:0:
320,192,217765,128,0,217915:0:0:0:0:
192,192,217765,128,0,217915:0:0:0:0:
64,192,217915,1,0,0:0:0:90:SNARE2.wav
448,192,217915,1,0,0:0:0:0:
192,192,218065,1,0,0:0:0:20:HI-HAT.wav
448,192,218215,128,0,218365:0:0:0:80:KICK.wav
320,192,218215,128,0,218365:0:0:0:0:
64,192,218215,1,0,0:0:0:0:
192,192,218365,1,0,0:0:0:20:HI-HAT.wav
448,192,218515,128,0,218665:0:0:0:80:KICK.wav
320,192,218515,128,0,218665:0:0:0:0:
64,192,218515,1,0,0:0:0:0:
192,192,218665,1,0,0:0:0:20:HI-HAT.wav
64,192,218740,128,0,218965:0:0:0:0:
320,192,218965,128,0,219115:0:0:0:0:
192,192,218965,128,0,219115:0:0:0:0:
64,192,219115,1,0,0:0:0:90:SNARE2.wav
448,192,219115,1,0,0:0:0:0:
320,192,219190,128,0,219415:0:0:0:0:
448,192,219415,1,0,0:0:0:20:HI-HAT.wav
192,192,219565,1,0,0:0:0:80:KICK.wav
64,192,219565,1,0,0:0:0:0:
320,192,219715,128,0,219940:0:0:0:0:
448,192,219940,128,0,220165:0:0:0:80:KICK.wav
64,192,219940,128,0,220165:0:0:0:0:
320,192,220165,128,0,220315:0:0:0:0:
192,192,220165,128,0,220315:0:0:0:0:
448,192,220315,1,0,0:0:0:90:SNARE2.wav
64,192,220315,128,0,220465:0:0:0:0:
320,192,220615,1,0,0:0:0:20:HI-HAT.wav
192,192,220765,128,0,220915:0:0:0:0:
64,192,220765,128,0,220915:0:0:0:0:
320,192,220915,128,0,221215:0:0:0:80:KICK.wav
448,192,220915,128,0,221215:0:0:0:0:
64,192,221140,1,0,0:0:0:0:
192,192,221215,1,0,0:0:0:20:HI-HAT.wav
64,192,221315,128,0,221465:0:0:0:0:
320,192,221365,1,0,0:0:0:0:
192,192,221515,1,0,0:0:0:90:SNARE2.wav
64,192,221515,128,0,221715:0:0:0:0:
448,192,221515,1,0,0:0:0:0:
320,192,221815,128,0,221965:0:0:0:20:HI-HAT.wav
192,192,221815,1,0,0:0:0:0:
64,192,221965,1,0,0:0:0:0:
448,192,222040,128,0,222265:0:0:0:0:
192,192,222265,1,0,0:0:0:20:HI-HAT.wav
64,192,222340,128,0,222565:0:0:0:0:
320,192,222565,128,0,222715:0:0:0:80:KICK.wav
192,192,222565,128,0,222715:0:0:0:0:
64,192,222715,1,0,0:0:0:90:SNARE2.wav
448,192,222715,128,0,223315:0:0:0:0:
192,192,222865,1,0,0:0:0:20:HI-HAT.wav
320,192,223015,128,0,223315:0:0:0:20:HI-HAT.wav
64,192,223015,1,0,0:0:0:0:
192,192,223165,128,0,223315:0:0:0:0:
448,192,223540,128,0,223765:0:0:0:0:
64,192,223540,128,0,223765:0:0:0:0:
192,192,223765,128,0,223915:0:0:0:0:
320,192,223765,128,0,223915:0:0:0:0:
64,192,223915,128,0,224215:0:0:0:0:
448,192,224365,128,0,224515:0:0:0:0:
192,192,224365,128,0,224515:0:0:0:0:
64,192,224515,1,0,0:0:0:60:KICK.wav
320,192,224515,1,0,0:0:0:0:
192,192,224615,1,0,0:0:0:0:
448,192,224665,1,0,0:0:0:0:
320,192,224715,1,0,0:0:0:0:
64,192,224765,128,0,224965:0:0:0:0:
192,192,224965,128,0,225115:0:0:0:0:
320,192,224965,128,0,225115:0:0:0:0:
320,192,225265,128,0,225365:0:0:0:0:
64,192,225265,1,0,0:0:0:0:
192,192,225365,1,0,0:0:0:0:
448,192,225365,128,0,225565:0:0:0:0:
320,192,225565,128,0,225715:0:0:0:0:
192,192,225565,128,0,225715:0:0:0:0:
64,192,225715,128,0,226015:0:0:0:80:KICK.wav
448,192,225715,128,0,226015:0:0:0:0:
192,192,226115,128,0,226315:0:0:0:0:
320,192,226115,128,0,226315:0:0:0:0:
64,192,226315,1,0,0:0:0:80:KICK.wav
448,192,226315,1,0,0:0:0:0:
320,192,226415,1,0,0:0:0:0:
192,192,226415,128,0,226715:0:0:0:0:
448,192,226515,1,0,0:0:0:0:
64,192,226615,1,0,0:0:0:0:
448,192,226715,128,0,226865:0:0:0:0:
320,192,226715,1,0,0:0:0:0:
192,192,226815,1,0,0:0:0:0:
64,192,226915,1,0,0:0:0:80:KICK.wav
320,192,226915,1,0,0:0:0:0:
192,192,227015,1,0,0:0:0:0:
448,192,227115,1,0,0:0:0:0:
192,192,227215,128,0,227365:0:0:0:0:
320,192,227215,1,0,0:0:0:0:
64,192,227315,1,0,0:0:0:0:
448,192,227365,1,0,0:0:0:80:KICK.wav
320,192,227365,1,0,0:0:0:0:
192,192,227415,1,0,0:0:0:0:
64,192,227515,1,0,0:0:0:80:KICK.wav
448,192,227515,1,0,0:0:0:0:
320,192,227615,1,0,0:0:0:0:
192,192,227615,128,0,227915:0:0:0:0:
448,192,227715,1,0,0:0:0:0:
64,192,227815,1,0,0:0:0:0:
320,192,227915,1,0,0:0:0:0:
448,192,228015,1,0,0:0:0:0:
64,192,228115,1,0,0:0:0:80:KICK.wav
320,192,228115,1,0,0:0:0:0:
192,192,228215,1,0,0:0:0:0:
320,192,228315,1,0,0:0:0:0:
192,192,228415,128,0,228715:0:0:0:0:
64,192,228415,1,0,0:0:0:0:
320,192,228515,1,0,0:0:0:0:
448,192,228615,1,0,0:0:0:0:
64,192,228715,1,0,0:0:0:80:KICK.wav
320,192,228715,1,0,0:0:0:0:
192,192,228815,1,0,0:0:0:0:
448,192,228815,128,0,229165:0:0:0:0:
64,192,228915,1,0,0:0:0:0:
320,192,228940,1,0,0:0:0:0:
192,192,229015,1,0,0:0:0:0:
64,192,229115,1,0,0:0:0:0:
320,192,229165,1,0,0:0:0:0:
192,192,229215,1,0,0:0:0:0:
320,192,229315,1,0,0:0:0:80:KICK.wav
448,192,229315,1,0,0:0:0:0:
64,192,229515,1,0,0:0:0:30:HI-HAT.wav
192,192,229515,1,0,0:0:0:0:
448,192,229615,1,0,0:0:0:80:KICK.wav
320,192,229615,128,0,229765:0:0:0:0:
64,192,229765,1,0,0:0:0:30:HI-HAT.wav
192,192,229765,1,0,0:0:0:0:
320,192,229915,1,0,0:0:0:90:SNARE2.wav
448,192,229915,1,0,0:0:0:0:
64,192,229915,128,0,230215:0:0:0:0:
192,192,230215,128,0,230290:0:0:0:20:HI-HAT.wav
448,192,230365,128,0,230440:0:0:0:0:
192,192,230515,1,0,0:0:0:80:KICK.wav
64,192,230515,128,0,230815:0:0:0:0:
320,192,230515,128,0,230815:0:0:0:0:
64,192,230965,128,0,231115:0:0:0:0:
320,192,230965,128,0,231115:0:0:0:0:
192,192,231115,1,0,0:0:0:90:SNARE2.wav
448,192,231115,128,0,231565:0:0:0:0:
320,192,231265,128,0,231565:0:0:0:0:
192,192,231415,128,0,231565:0:0:0:0:
64,192,231565,1,0,0:0:0:20:HI-HAT.wav
320,192,231715,128,0,232015:0:0:0:0:
448,192,231715,128,0,232015:0:0:0:0:
64,192,231865,1,0,0:0:0:20:HI-HAT.wav
320,192,232165,128,0,232315:0:0:0:80:KICK.wav
448,192,232165,128,0,232315:0:0:0:0:
64,192,232315,1,0,0:0:0:90:SNARE2.wav
192,192,232315,128,0,232390:0:0:0:0:
192,192,232540,128,0,232615:0:0:0:0:
448,192,232765,128,0,232915:0:0:0:20:HI-HAT.wav
192,192,232765,128,0,232840:0:0:0:0:
64,192,232915,1,0,0:0:0:80:KICK.wav
320,192,232915,1,0,0:0:0:0:
192,192,232990,128,0,233065:0:0:0:0:
448,192,233215,1,0,0:0:0:0:
320,192,233265,1,0,0:0:0:0:
64,192,233315,1,0,0:0:0:0:
192,192,233365,1,0,0:0:0:0:
448,192,233415,1,0,0:0:0:0:
320,192,233465,1,0,0:0:0:0:
64,192,233515,1,0,0:0:0:90:SNARE2.wav
192,192,233515,1,0,0:0:0:0:
448,192,233665,1,0,0:0:0:0:
320,192,233715,1,0,0:0:0:0:
64,192,233765,1,0,0:0:0:0:
192,192,233815,1,0,0:0:0:0:
320,192,233865,1,0,0:0:0:0:
448,192,233915,1,0,0:0:0:0:
192,192,233965,1,0,0:0:0:20:HI-HAT.wav
64,192,234015,1,0,0:0:0:0:
320,192,234065,1,0,0:0:0:0:
192,192,234115,1,0,0:0:0:45:SNARE2.wav
448,192,234115,1,0,0:0:0:0:
64,192,234315,1,0,0:0:0:0:
448,192,234315,1,0,0:0:0:0:
192,192,234415,1,0,0:0:0:20:HI-HAT.wav
448,192,234615,1,0,0:0:0:0:
64,192,234615,1,0,0:0:0:0:
320,192,234715,1,0,0:0:0:60:KICK.wav
320,192,234915,1,0,0:0:0:0:
64,192,235165,1,0,0:0:0:90:SNARE2.wav
192,192,235165,1,0,0:0:0:0:
320,192,235315,1,0,0:0:0:80:KICK.wav
64,192,235315,128,0,239965:0:0:0:0:
448,192,235315,128,0,239965:0:0:0:0:
