osu file format v14

[General]
AudioFilename: Culprate - Finger VIP.mp3
AudioLeadIn: 0
PreviewTime: 98477
Countdown: 0
SampleSet: Soft
StackLeniency: 0.7
Mode: 3
LetterboxInBreaks: 0
SpecialStyle: 0
WidescreenStoryboard: 0

[Editor]
Bookmarks: 19305,43305,62505,81705,100905,120105,139305,158505,177705,196905
DistanceSpacing: 2
BeatDivisor: 8
GridSize: 4
TimelineZoom: 3.400001

[Metadata]
Title:Finger VIP
TitleUnicode:Finger VIP
Artist:Culprate
ArtistUnicode:Culprate
Creator:Parachor
Version:Normal
Source:
Tags:inspected inspector dubplate koan sound uk garage dubstep glitch hop sv
BeatmapID:1110504
BeatmapSetID:508572

[Difficulty]
HPDrainRate:7.5
CircleSize:4
OverallDifficulty:6.8
ApproachRate:5
SliderMultiplier:1.4
SliderTickRate:1

[Events]
//Background and Video events
0,0,"triggerJPG.jpg",0,0
//Break Periods
2,159315,164455
//Storyboard Layer 0 (Background)
//Storyboard Layer 1 (Fail)
//Storyboard Layer 2 (Pass)
//Storyboard Layer 3 (Foreground)
//Storyboard Sound Samples

[TimingPoints]
115,600,4,2,1,15,1,0
8515,-108.695652173913,4,2,1,15,0,0
8715,-92.5925925925926,4,2,1,15,0,0
8815,-108.695652173913,4,2,1,15,0,0
9015,-92.5925925925926,4,2,1,15,0,0
9115,-108.695652173913,4,2,1,15,0,0
9315,-92.5925925925926,4,2,1,15,0,0
9415,-100,4,2,1,15,0,0
18715,-92.5925925925926,4,2,1,15,0,0
18790,-113.636363636364,4,2,1,15,0,0
18865,-100,4,2,1,15,0,0
18940,-111.111111111111,4,2,1,15,0,0
19015,-116.279069767442,4,2,1,15,0,0
19090,-90.9090909090909,4,2,1,15,0,0
19165,-92.5925925925926,4,2,1,15,0,0
19240,-112.359550561798,4,2,1,15,0,0
19315,-100,4,2,1,15,0,0
21115,-105.263157894737,4,2,1,15,0,0
21190,-111.111111111111,4,2,1,15,0,0
21265,-117.647058823529,4,2,1,15,0,0
21340,-125,4,2,1,15,0,0
21415,-133.333333333333,4,2,1,15,0,0
21490,-117.647058823529,4,2,1,15,0,0
21565,-105.263157894737,4,2,1,15,0,0
21640,-95.2380952380952,4,2,1,15,0,0
21715,-100,4,2,1,15,0,0
23065,-94.3396226415094,4,2,1,15,0,0
23140,-89.2857142857143,4,2,1,15,0,0
23215,-100,4,2,1,15,0,0
23815,-86.9565217391304,4,2,1,15,0,0
23865,-117.647058823529,4,2,1,15,0,0
23915,-86.9565217391304,4,2,1,15,0,0
23965,-117.647058823529,4,2,1,15,0,0
24015,-86.9565217391304,4,2,1,15,0,0
24065,-117.647058823529,4,2,1,15,0,0
24115,-86.9565217391304,4,2,1,15,0,0
24165,-100,4,2,1,15,0,0
24865,-107.52688172043,4,2,1,15,0,0
24902,-117.647058823529,4,2,1,15,0,0
24940,-100,4,2,1,15,0,0
25015,-107.52688172043,4,2,1,15,0,0
25052,-117.647058823529,4,2,1,15,0,0
25090,-100,4,2,1,15,0,0
26215,-106.382978723404,4,2,1,15,0,0
26290,-114.942528735632,4,2,1,15,0,0
26365,-90.9090909090909,4,2,1,15,0,0
26440,-100,4,2,1,15,0,0
26515,-108.695652173913,4,2,1,15,0,0
26590,-116.279069767442,4,2,1,15,0,0
26665,-90.9090909090909,4,2,1,15,0,0
26740,-100,4,2,1,15,0,0
28315,-89.2857142857143,4,2,1,15,0,0
28352,-111.111111111111,4,2,1,15,0,0
28390,-125,4,2,1,15,0,0
28427,-74.0740740740741,4,2,1,15,0,0
28465,-89.2857142857143,4,2,1,15,0,0
28502,-111.111111111111,4,2,1,15,0,0
28540,-125,4,2,1,15,0,0
28577,-74.0740740740741,4,2,1,15,0,0
28615,-89.2857142857143,4,2,1,15,0,0
28652,-111.111111111111,4,2,1,15,0,0
28690,-125,4,2,1,15,0,0
28727,-74.0740740740741,4,2,1,15,0,0
28765,-89.2857142857143,4,2,1,15,0,0
28802,-111.111111111111,4,2,1,15,0,0
28840,-125,4,2,1,15,0,0
28877,-74.0740740740741,4,2,1,15,0,0
28915,-100,4,2,1,15,0,0
31315,-111.111111111111,4,2,1,15,0,0
31465,-100,4,2,1,15,0,0
31615,-111.111111111111,4,2,1,15,0,0
31765,-100,4,2,1,15,0,0
33715,-66.6666666666667,4,2,1,15,0,0
33752,-100,4,2,1,15,0,0
34915,-66.6666666666667,4,2,1,15,0,0
34952,-100,4,2,1,15,0,0
36115,-66.6666666666667,4,2,1,15,0,0
36152,-100,4,2,1,15,0,0
37715,-90.9090909090909,4,2,1,15,0,0
37915,-66.6666666666667,4,2,1,15,0,0
37965,-100,4,2,1,15,0,0
38415,-90.9090909090909,4,2,1,15,0,0
38515,-117.647058823529,4,2,1,15,0,0
39715,-100,4,2,1,15,0,0
40315,-97.0873786407767,4,2,1,15,0,0
40915,-94.3396226415094,4,2,1,15,0,0
41515,-91.743119266055,4,2,1,15,0,0
42115,-111.111111111111,4,2,1,15,0,0
42215,-100,4,2,1,15,0,0
42415,-111.111111111111,4,2,1,15,0,0
42515,-100,4,2,1,15,0,0
42715,-89.2857142857143,4,2,1,15,0,0
42865,-92.5925925925926,4,2,1,15,0,0
43015,-100,4,2,1,15,0,0
43315,-83.3333333333333,4,2,1,15,0,0
43415,-90.9090909090909,4,2,1,15,0,0
43515,-105.263157894737,4,2,1,15,0,0
43615,-111.111111111111,4,2,1,15,0,0
43665,-86.9565217391304,4,2,1,15,0,0
43715,-100,4,2,1,15,0,0
43865,-86.9565217391304,4,2,1,15,0,0
43915,-100,4,2,1,15,0,0
44215,-111.111111111111,4,2,1,15,0,0
44465,-86.9565217391304,4,2,1,15,0,0
44515,-100,4,2,1,15,0,0
44615,-111.111111111111,4,2,1,15,0,0
44915,-86.9565217391304,4,2,1,15,0,0
44965,-100,4,2,1,15,0,0
45065,-86.9565217391304,4,2,1,15,0,0
45115,-100,4,2,1,15,0,0
45215,-113.636363636364,4,2,1,15,0,0
45415,-90.9090909090909,4,2,1,15,0,0
45565,-100,4,2,1,15,0,0
45715,-80,4,2,1,15,0,0
45765,-100,4,2,1,15,0,0
45815,-111.111111111111,4,2,1,15,0,0
45865,-121.951219512195,4,2,1,15,0,0
45915,-90.9090909090909,4,2,1,15,0,0
45965,-100,4,2,1,15,0,0
46015,-90.9090909090909,4,2,1,15,0,0
46065,-100,4,2,1,15,0,0
46115,-90.9090909090909,4,2,1,15,0,0
46165,-100,4,2,1,15,0,0
46215,-90.9090909090909,4,2,1,15,0,0
46265,-100,4,2,1,15,0,0
46315,-90.9090909090909,4,2,1,15,0,0
46365,-100,4,2,1,15,0,0
46877,-86.9565217391304,4,2,1,15,0,0
46915,-100,4,2,1,15,0,0
46990,-111.111111111111,4,2,1,15,0,0
47065,-125,4,2,1,15,0,0
47102,-86.9565217391304,4,2,1,15,0,0
47140,-100,4,2,1,15,0,0
47215,-111.111111111111,4,2,1,15,0,0
47290,-125,4,2,1,15,0,0
47327,-86.9565217391304,4,2,1,15,0,0
47365,-100,4,2,1,15,0,0
47440,-117.647058823529,4,2,1,15,0,0
47477,-86.9565217391304,4,2,1,15,0,0
47515,-100,4,2,1,15,0,0
47590,-111.111111111111,4,2,1,15,0,0
47665,-125,4,2,1,15,0,0
47715,-100,4,2,1,15,0,0
47765,-90.9090909090909,4,2,1,15,0,0
47815,-86.9565217391304,4,2,1,15,0,0
47865,-111.111111111111,4,2,1,15,0,0
47965,-100,4,2,1,15,0,0
48015,-111.111111111111,4,2,1,15,0,0
48115,-76.9230769230769,4,2,1,15,0,0
48215,-83.3333333333333,4,2,1,15,0,0
48315,-105.263157894737,4,2,1,15,0,0
48415,-111.111111111111,4,2,1,15,0,0
48465,-86.9565217391304,4,2,1,15,0,0
48515,-100,4,2,1,15,0,0
48665,-80,4,2,1,15,0,0
48715,-100,4,2,1,15,0,0
48965,-86.9565217391304,4,2,1,15,0,0
49015,-111.111111111111,4,2,1,15,0,0
49115,-86.9565217391304,4,2,1,15,0,0
49165,-111.111111111111,4,2,1,15,0,0
49265,-86.9565217391304,4,2,1,15,0,0
49315,-111.111111111111,4,2,1,15,0,0
49365,-86.9565217391304,4,2,1,15,0,0
49415,-100,4,2,1,15,0,0
49515,-111.111111111111,4,2,1,15,0,0
49565,-86.9565217391304,4,2,1,15,0,0
49615,-111.111111111111,4,2,1,15,0,0
49715,-86.9565217391304,4,2,1,15,0,0
49765,-111.111111111111,4,2,1,15,0,0
49865,-86.9565217391304,4,2,1,15,0,0
49915,-100,4,2,1,15,0,0
50215,-86.9565217391304,4,2,1,15,0,0
50365,-100,4,2,1,15,0,0
50515,-86.9565217391304,4,2,1,15,0,0
50615,-100,4,2,1,15,0,0
50715,-121.951219512195,4,2,1,15,0,0
50815,-106.382978723404,4,2,1,15,0,0
51115,-90.9090909090909,4,2,1,15,0,0
51165,-111.111111111111,4,2,1,15,0,0
51265,-90.9090909090909,4,2,1,15,0,0
51315,-111.111111111111,4,2,1,15,0,0
51377,-86.9565217391304,4,2,1,15,0,0
51415,-100,4,2,1,15,0,0
51490,-113.636363636364,4,2,1,15,0,0
51527,-86.9565217391304,4,2,1,15,0,0
51565,-100,4,2,1,15,0,0
51640,-109.89010989011,4,2,1,15,0,0
51715,-120.481927710843,4,2,1,15,0,0
51827,-80,4,2,1,15,0,0
51865,-100,4,2,1,15,0,0
51940,-108.695652173913,4,2,1,15,0,0
52015,-119.047619047619,4,2,1,15,0,0
52052,-86.9565217391304,4,2,1,15,0,0
52090,-100,4,2,1,15,0,0
52315,-90.9090909090909,4,2,1,15,0,0
52390,-93.4579439252336,4,2,1,15,0,0
52465,-96.1538461538461,4,2,1,15,0,0
52540,-100,4,2,1,15,0,0
52615,-111.111111111111,4,2,1,15,0,0
52765,-86.9565217391304,4,2,1,15,0,0
52802,-100,4,2,1,15,0,0
52915,-83.3333333333333,4,2,1,15,0,0
53015,-90.9090909090909,4,2,1,15,0,0
53115,-105.263157894737,4,2,1,15,0,0
53215,-111.111111111111,4,2,1,15,0,0
53265,-76.9230769230769,4,2,1,15,0,0
53315,-100,4,2,1,15,0,0
53465,-84.7457627118644,4,2,1,15,0,0
53515,-100,4,2,1,15,0,0
53665,-117.647058823529,4,2,1,15,0,0
53715,-100,4,2,1,15,0,0
54065,-83.3333333333333,4,2,1,15,0,0
54115,-100,4,2,1,15,0,0
54515,-83.3333333333333,4,2,1,15,0,0
54565,-100,4,2,1,15,0,0
54665,-83.3333333333333,4,2,1,15,0,0
54715,-100,4,2,1,15,0,0
54915,-113.636363636364,4,2,1,15,0,0
55015,-90.9090909090909,4,2,1,15,0,0
55165,-100,4,2,1,15,0,0
55315,-81.3008130081301,4,2,1,15,0,0
55365,-100,4,2,1,15,0,0
55415,-111.111111111111,4,2,1,15,0,0
55465,-121.951219512195,4,2,1,15,0,0
55515,-90.9090909090909,4,2,1,15,0,0
55565,-100,4,2,1,15,0,0
55615,-90.9090909090909,4,2,1,15,0,0
55665,-100,4,2,1,15,0,0
55715,-90.9090909090909,4,2,1,15,0,0
55765,-100,4,2,1,15,0,0
55815,-90.9090909090909,4,2,1,15,0,0
55865,-100,4,2,1,15,0,0
55915,-90.9090909090909,4,2,1,15,0,0
55965,-100,4,2,1,15,0,0
56515,-86.9565217391304,4,2,1,15,0,0
56552,-100,4,2,1,15,0,0
56740,-86.9565217391304,4,2,1,15,0,0
56777,-100,4,2,1,15,0,0
56965,-86.9565217391304,4,2,1,15,0,0
57002,-100,4,2,1,15,0,0
57115,-86.9565217391304,4,2,1,15,0,0
57565,-111.111111111111,4,2,1,15,0,0
57640,-125,4,2,1,15,0,0
57677,-100,4,2,1,15,0,0
57715,-81.9672131147541,4,2,1,15,0,0
58090,-89.2857142857143,4,2,1,15,0,0
58165,-100,4,2,1,15,0,0
58240,-111.111111111111,4,2,1,15,0,0
58277,-86.9565217391304,4,2,1,15,0,0
58315,-100,4,2,1,15,0,0
58990,-111.111111111111,4,2,1,15,0,0
59065,-80,4,2,1,15,0,0
59140,-86.9565217391304,4,2,1,15,0,0
59215,-100,4,2,1,15,0,0
59815,-86.9565217391304,4,2,1,15,0,0
59890,-100,4,2,1,15,0,0
59965,-86.9565217391304,4,2,1,15,0,0
60040,-100,4,2,1,15,0,0
60115,-83.3333333333333,4,2,1,15,0,0
60152,-100,4,2,1,15,0,0
60340,-83.3333333333333,4,2,1,15,0,0
60377,-100,4,2,1,15,0,0
60565,-83.3333333333333,4,2,1,15,0,0
60602,-100,4,2,1,15,0,0
61315,-111.111111111111,4,2,1,15,0,0
61465,-105.263157894737,4,2,1,15,0,0
61615,-100,4,2,1,15,0,0
61765,-86.9565217391304,4,2,1,15,0,0
61840,-100,4,2,1,15,0,0
63115,-86.9565217391304,4,2,1,15,0,0
63165,-106.382978723404,4,2,1,15,0,0
63265,-90.0900900900901,4,2,1,15,0,0
63315,-106.382978723404,4,2,1,15,0,0
63515,-94.3396226415094,4,2,1,15,0,0
63565,-106.382978723404,4,2,1,15,0,0
63902,-86.9565217391304,4,2,1,15,0,0
63940,-100,4,2,1,15,0,0
64165,-86.9565217391304,4,2,1,15,0,0
64240,-100,4,2,1,15,0,0
64615,-86.9565217391304,4,2,1,15,0,0
64690,-111.111111111111,4,2,1,15,0,0
64765,-100,4,2,1,15,0,0
64915,-90.9090909090909,4,2,1,15,0,0
64990,-111.111111111111,4,2,1,15,0,0
65065,-100,4,2,1,15,0,0
65140,-86.9565217391304,4,2,1,15,0,0
65177,-116.279069767442,4,2,1,15,0,0
65215,-86.9565217391304,4,2,1,15,0,0
65252,-117.647058823529,4,2,1,15,0,0
65290,-86.9565217391304,4,2,1,15,0,0
65327,-117.647058823529,4,2,1,15,0,0
65365,-86.9565217391304,4,2,1,15,0,0
65440,-100,4,2,1,15,0,0
65590,-111.111111111111,4,2,1,15,0,0
65815,-100,4,2,1,15,0,0
66340,-80,4,2,1,15,0,0
66377,-133.333333333333,4,2,1,15,0,0
66415,-80,4,2,1,15,0,0
66452,-133.333333333333,4,2,1,15,0,0
66490,-80,4,2,1,15,0,0
66527,-133.333333333333,4,2,1,15,0,0
66565,-86.9565217391304,4,2,1,15,0,0
66640,-100,4,2,1,15,0,0
67165,-86.9565217391304,4,2,1,15,0,0
67240,-100,4,2,1,15,0,0
67315,-86.9565217391304,4,2,1,15,0,0
67415,-92.5925925925926,4,2,1,15,0,0
67515,-105.263157894737,4,2,1,15,0,0
67615,-113.636363636364,4,2,1,15,0,0
67665,-89.2857142857143,4,2,1,15,0,0
67715,-100,4,2,1,15,0,0
67865,-89.2857142857143,4,2,1,15,0,0
67915,-100,4,2,1,15,0,0
68740,-80,4,2,1,15,0,0
68777,-133.333333333333,4,2,1,15,0,0
68815,-80,4,2,1,15,0,0
68852,-133.333333333333,4,2,1,15,0,0
68890,-80,4,2,1,15,0,0
68927,-133.333333333333,4,2,1,15,0,0
68965,-86.9565217391304,4,2,1,15,0,0
69040,-100,4,2,1,15,0,0
69715,-111.111111111111,4,2,1,15,0,0
69940,-80,4,2,1,15,0,0
69977,-133.333333333333,4,2,1,15,0,0
70015,-80,4,2,1,15,0,0
70052,-133.333333333333,4,2,1,15,0,0
70090,-80,4,2,1,15,0,0
70127,-133.333333333333,4,2,1,15,0,0
70165,-86.9565217391304,4,2,1,15,0,0
70240,-100,4,2,1,15,0,0
70315,-86.9565217391304,4,2,1,15,0,0
70415,-92.5925925925926,4,2,1,15,0,0
70515,-100,4,2,1,15,0,0
71177,-133.333333333333,4,2,1,15,0,0
71215,-80,4,2,1,15,0,0
71252,-133.333333333333,4,2,1,15,0,0
71290,-80,4,2,1,15,0,0
71327,-133.333333333333,4,2,1,15,0,0
71365,-86.9565217391304,4,2,1,15,0,0
71440,-100,4,2,1,15,0,0
72115,-89.2857142857143,4,2,1,15,0,0
72215,-95.2380952380952,4,2,1,15,0,0
72315,-105.263157894737,4,2,1,15,0,0
72415,-113.636363636364,4,2,1,15,0,0
72465,-86.9565217391304,4,2,1,15,0,0
72515,-100,4,2,1,15,0,0
73115,-92.5925925925926,4,2,1,15,0,0
73165,-100,4,2,1,15,0,0
76015,-90.9090909090909,4,2,1,15,0,0
76165,-111.111111111111,4,2,1,15,0,0
76315,-90.9090909090909,4,2,1,15,0,0
76615,-89.2857142857143,4,2,1,15,0,0
76652,-100,4,2,1,15,0,0
76765,-89.2857142857143,4,2,1,15,0,0
76802,-100,4,2,1,15,0,0
76915,-86.9565217391304,4,2,1,15,0,0
76952,-94.3396226415094,4,2,1,15,0,0
77215,-100,4,2,1,15,0,0
77365,-86.9565217391304,4,2,1,15,0,0
77402,-94.3396226415094,4,2,1,15,0,0
77515,-100,4,2,1,15,0,0
78115,-86.9565217391304,4,2,1,15,0,0
78152,-94.3396226415094,4,2,1,15,0,0
78415,-100,4,2,1,15,0,0
78565,-86.9565217391304,4,2,1,15,0,0
78602,-94.3396226415094,4,2,1,15,0,0
78715,-91.743119266055,4,2,1,15,0,0
78752,-100,4,2,1,15,0,0
78940,-91.743119266055,4,2,1,15,0,0
78977,-100,4,2,1,15,0,0
79165,-91.743119266055,4,2,1,15,0,0
79202,-100,4,2,1,15,0,0
79390,-91.743119266055,4,2,1,15,0,0
79427,-100,4,2,1,15,0,0
79615,-95.2380952380952,4,2,1,15,0,0
79915,-100,4,2,1,15,0,0
80065,-95.2380952380952,4,2,1,15,0,0
80515,-107.52688172043,4,2,1,15,0,0
80615,-100,4,2,1,15,0,0
80815,-107.52688172043,4,2,1,15,0,0
80915,-100,4,2,1,15,0,0
81115,-107.52688172043,4,2,1,15,0,0
81215,-100,4,2,1,15,0,0
81490,-92.5925925925926,4,2,1,15,0,0
81527,-100,4,2,1,15,0,0
81565,-92.5925925925926,4,2,1,15,0,0
81602,-100,4,2,1,15,0,0
82315,-89.2857142857143,4,2,1,15,0,0
82365,-107.52688172043,4,2,1,15,0,0
82465,-91.743119266055,4,2,1,15,0,0
82515,-107.52688172043,4,2,1,15,0,0
82815,-94.3396226415094,4,2,1,15,0,0
82865,-107.52688172043,4,2,1,15,0,0
83102,-87.719298245614,4,2,1,15,0,0
83140,-100,4,2,1,15,0,0
83365,-86.9565217391304,4,2,1,15,0,0
83440,-100,4,2,1,15,0,0
83815,-86.9565217391304,4,2,1,15,0,0
83890,-113.636363636364,4,2,1,15,0,0
83965,-100,4,2,1,15,0,0
84115,-86.9565217391304,4,2,1,15,0,0
84190,-113.636363636364,4,2,1,15,0,0
84265,-100,4,2,1,15,0,0
84340,-80,4,2,1,15,0,0
84377,-133.333333333333,4,2,1,15,0,0
84415,-80,4,2,1,15,0,0
84452,-133.333333333333,4,2,1,15,0,0
84490,-80,4,2,1,15,0,0
84527,-133.333333333333,4,2,1,15,0,0
84565,-90.9090909090909,4,2,1,15,0,0
84640,-100,4,2,1,15,0,0
84790,-107.52688172043,4,2,1,15,0,0
85015,-100,4,2,1,15,0,0
85540,-80,4,2,1,15,0,0
85577,-133.333333333333,4,2,1,15,0,0
85615,-80,4,2,1,15,0,0
85652,-133.333333333333,4,2,1,15,0,0
85690,-80,4,2,1,15,0,0
85727,-133.333333333333,4,2,1,15,0,0
85765,-90.9090909090909,4,2,1,15,0,0
85840,-100,4,2,1,15,0,0
86365,-90.9090909090909,4,2,1,15,0,0
86440,-100,4,2,1,15,0,0
86515,-80,4,2,1,15,0,0
86615,-86.9565217391304,4,2,1,15,0,0
86715,-105.263157894737,4,2,1,15,0,0
86815,-111.111111111111,4,2,1,15,0,0
86865,-86.9565217391304,4,2,1,15,0,0
86915,-100,4,2,1,15,0,0
87065,-86.9565217391304,4,2,1,15,0,0
87115,-100,4,2,1,15,0,0
87940,-80,4,2,1,15,0,0
87977,-133.333333333333,4,2,1,15,0,0
88015,-80,4,2,1,15,0,0
88052,-133.333333333333,4,2,1,15,0,0
88090,-80,4,2,1,15,0,0
88127,-133.333333333333,4,2,1,15,0,0
88165,-90.9090909090909,4,2,1,15,0,0
88240,-100,4,2,1,15,0,0
88915,-111.111111111111,4,2,1,15,0,0
89140,-80,4,2,1,15,0,0
89177,-133.333333333333,4,2,1,15,0,0
89215,-80,4,2,1,15,0,0
89252,-133.333333333333,4,2,1,15,0,0
89290,-80,4,2,1,15,0,0
89327,-133.333333333333,4,2,1,15,0,0
89365,-90.9090909090909,4,2,1,15,0,0
89440,-100,4,2,1,15,0,0
89515,-83.3333333333333,4,2,1,15,0,0
89615,-90.9090909090909,4,2,1,15,0,0
89715,-100,4,2,1,15,0,0
90377,-133.333333333333,4,2,1,15,0,0
90415,-80,4,2,1,15,0,0
90452,-133.333333333333,4,2,1,15,0,0
90490,-80,4,2,1,15,0,0
90527,-133.333333333333,4,2,1,15,0,0
90565,-90.9090909090909,4,2,1,15,0,0
90640,-100,4,2,1,15,0,0
90865,-90.9090909090909,4,2,1,15,0,0
90965,-111.111111111111,4,2,1,15,0,0
91115,-86.9565217391304,4,2,1,15,0,0
91215,-92.5925925925926,4,2,1,15,0,0
91315,-100,4,2,1,15,0,0
97315,-98.0392156862745,4,2,1,15,0,0
98515,-96.1538461538461,4,2,1,15,0,0
99715,-94.3396226415094,4,2,1,15,0,0
100865,-92.5925925925926,4,2,1,15,0,0
100915,-95.2380952380952,4,2,1,15,0,1
101065,-100,4,2,1,15,0,1
120115,-90.9090909090909,4,2,1,15,0,0
120265,-111.111111111111,4,2,1,15,0,0
120365,-83.3333333333333,4,2,1,15,0,0
120415,-100,4,2,1,15,0,0
120465,-121.951219512195,4,2,1,15,0,0
120515,-83.3333333333333,4,2,1,15,0,0
120565,-100,4,2,1,15,0,0
120615,-121.951219512195,4,2,1,15,0,0
120665,-83.3333333333333,4,2,1,15,0,0
120715,-100,4,2,1,15,0,0
120815,-129.87012987013,4,2,1,15,0,0
120865,-78.7401574803149,4,2,1,15,0,0
120915,-100,4,2,1,15,0,0
121015,-129.87012987013,4,2,1,15,0,0
121065,-78.7401574803149,4,2,1,15,0,0
121115,-100,4,2,1,15,0,0
121215,-129.87012987013,4,2,1,15,0,0
121265,-78.7401574803149,4,2,1,15,0,0
121315,-100,4,2,1,15,0,0
121415,-129.87012987013,4,2,1,15,0,0
121465,-78.7401574803149,4,2,1,15,0,0
121515,-100,4,2,1,15,0,0
121615,-129.87012987013,4,2,1,15,0,0
121665,-78.7401574803149,4,2,1,15,0,0
121715,-100,4,2,1,15,0,0
121815,-129.87012987013,4,2,1,15,0,0
121865,-78.7401574803149,4,2,1,15,0,0
121915,-100,4,2,1,15,0,0
122015,-129.87012987013,4,2,1,15,0,0
122065,-78.7401574803149,4,2,1,15,0,0
122115,-100,4,2,1,15,0,0
122215,-129.87012987013,4,2,1,15,0,0
122265,-78.7401574803149,4,2,1,15,0,0
122315,-100,4,2,1,15,0,0
122415,-129.87012987013,4,2,1,15,0,0
122465,-78.7401574803149,4,2,1,15,0,0
122515,-100,4,2,1,15,0,0
122615,-129.87012987013,4,2,1,15,0,0
122665,-78.7401574803149,4,2,1,15,0,0
122715,-100,4,2,1,15,0,0
122815,-129.87012987013,4,2,1,15,0,0
122865,-78.7401574803149,4,2,1,15,0,0
122915,-100,4,2,1,15,0,0
123015,-129.87012987013,4,2,1,15,0,0
123065,-78.7401574803149,4,2,1,15,0,0
123115,-100,4,2,1,15,0,0
123215,-129.87012987013,4,2,1,15,0,0
123265,-78.7401574803149,4,2,1,15,0,0
123315,-100,4,2,1,15,0,0
123415,-129.87012987013,4,2,1,15,0,0
123465,-78.7401574803149,4,2,1,15,0,0
123515,-100,4,2,1,15,0,0
123615,-129.87012987013,4,2,1,15,0,0
123665,-78.7401574803149,4,2,1,15,0,0
123715,-100,4,2,1,15,0,0
123815,-129.87012987013,4,2,1,15,0,0
123865,-78.7401574803149,4,2,1,15,0,0
123915,-100,4,2,1,15,0,0
124015,-129.87012987013,4,2,1,15,0,0
124065,-78.7401574803149,4,2,1,15,0,0
124115,-100,4,2,1,15,0,0
124215,-129.87012987013,4,2,1,15,0,0
124265,-74.0740740740741,4,2,1,15,0,0
124315,-85.4700854700855,4,2,1,15,0,0
124465,-92.5925925925926,4,2,1,15,0,0
124715,-84.7457627118644,4,2,1,15,0,0
124765,-111.111111111111,4,2,1,15,0,0
124915,-83.3333333333333,4,2,1,15,0,0
125015,-90.9090909090909,4,2,1,15,0,0
125115,-105.263157894737,4,2,1,15,0,0
125215,-111.111111111111,4,2,1,15,0,0
125315,-100,4,2,1,15,0,0
125415,-129.87012987013,4,2,1,15,0,0
125465,-78.7401574803149,4,2,1,15,0,0
125515,-100,4,2,1,15,0,0
125615,-129.87012987013,4,2,1,15,0,0
125665,-78.7401574803149,4,2,1,15,0,0
125715,-100,4,2,1,15,0,0
125815,-129.87012987013,4,2,1,15,0,0
125865,-78.7401574803149,4,2,1,15,0,0
125915,-100,4,2,1,15,0,0
126015,-129.87012987013,4,2,1,15,0,0
126065,-78.7401574803149,4,2,1,15,0,0
126115,-100,4,2,1,15,0,0
126215,-129.87012987013,4,2,1,15,0,0
126265,-78.7401574803149,4,2,1,15,0,0
126315,-100,4,2,1,15,0,0
126415,-129.87012987013,4,2,1,15,0,0
126465,-78.7401574803149,4,2,1,15,0,0
126515,-100,4,2,1,15,0,0
126615,-129.87012987013,4,2,1,15,0,0
126665,-78.7401574803149,4,2,1,15,0,0
126715,-100,4,2,1,15,0,0
126815,-129.87012987013,4,2,1,15,0,0
126865,-78.7401574803149,4,2,1,15,0,0
126915,-100,4,2,1,15,0,0
127015,-129.87012987013,4,2,1,15,0,0
127065,-78.7401574803149,4,2,1,15,0,0
127115,-100,4,2,1,15,0,0
127215,-129.87012987013,4,2,1,15,0,0
127265,-78.7401574803149,4,2,1,15,0,0
127315,-100,4,2,1,15,0,0
127415,-129.87012987013,4,2,1,15,0,0
127465,-78.7401574803149,4,2,1,15,0,0
127515,-100,4,2,1,15,0,0
127615,-129.87012987013,4,2,1,15,0,0
127665,-78.7401574803149,4,2,1,15,0,0
127715,-100,4,2,1,15,0,0
127815,-129.87012987013,4,2,1,15,0,0
127865,-78.7401574803149,4,2,1,15,0,0
127915,-100,4,2,1,15,0,0
128015,-129.87012987013,4,2,1,15,0,0
128065,-78.7401574803149,4,2,1,15,0,0
128115,-100,4,2,1,15,0,0
128215,-129.87012987013,4,2,1,15,0,0
128265,-78.7401574803149,4,2,1,15,0,0
128315,-100,4,2,1,15,0,0
128415,-129.87012987013,4,2,1,15,0,0
128465,-78.7401574803149,4,2,1,15,0,0
128515,-100,4,2,1,15,0,0
128615,-129.87012987013,4,2,1,15,0,0
128665,-78.7401574803149,4,2,1,15,0,0
128715,-100,4,2,1,15,0,0
128815,-129.87012987013,4,2,1,15,0,0
128865,-78.7401574803149,4,2,1,15,0,0
128915,-100,4,2,1,15,0,0
129015,-129.87012987013,4,2,1,15,0,0
129065,-78.7401574803149,4,2,1,15,0,0
129115,-100,4,2,1,15,0,0
129215,-111.111111111111,4,2,1,15,0,0
129415,-87.719298245614,4,2,1,15,0,0
129465,-100,4,2,1,15,0,0
129715,-111.111111111111,4,2,1,15,0,0
129865,-100,4,2,1,15,0,0
129965,-90.9090909090909,4,2,1,15,0,0
130015,-111.111111111111,4,2,1,15,0,0
130165,-90.9090909090909,4,2,1,15,0,0
130215,-100,4,2,1,15,0,0
130315,-86.9565217391304,4,2,1,15,0,0
130365,-107.52688172043,4,2,1,15,0,0
130465,-86.9565217391304,4,2,1,15,0,0
130515,-107.52688172043,4,2,1,15,0,0
130615,-86.9565217391304,4,2,1,15,0,0
130665,-107.52688172043,4,2,1,15,0,0
130765,-86.9565217391304,4,2,1,15,0,0
130815,-107.52688172043,4,2,1,15,0,0
130915,-86.9565217391304,4,2,1,15,0,0
130965,-107.52688172043,4,2,1,15,0,0
131065,-86.9565217391304,4,2,1,15,0,0
131115,-107.52688172043,4,2,1,15,0,0
131215,-100,4,2,1,15,0,0
131315,-87.719298245614,4,2,1,15,0,0
131365,-111.111111111111,4,2,1,15,0,0
131515,-80,4,2,1,15,0,0
131615,-84.7457627118644,4,2,1,15,0,0
131715,-105.263157894737,4,2,1,15,0,0
131815,-111.111111111111,4,2,1,15,0,0
131915,-86.9565217391304,4,2,1,15,0,0
131965,-113.636363636364,4,2,1,15,0,0
132065,-84.7457627118644,4,2,1,15,0,0
132115,-90.9090909090909,4,2,1,15,0,0
132215,-100,4,2,1,15,0,0
132415,-90.9090909090909,4,2,1,15,0,0
132715,-86.9565217391304,4,2,1,15,0,0
132765,-107.52688172043,4,2,1,15,0,0
132865,-86.9565217391304,4,2,1,15,0,0
132915,-107.52688172043,4,2,1,15,0,0
133015,-86.9565217391304,4,2,1,15,0,0
133065,-107.52688172043,4,2,1,15,0,0
133165,-86.9565217391304,4,2,1,15,0,0
133215,-107.52688172043,4,2,1,15,0,0
133315,-86.9565217391304,4,2,1,15,0,0
133365,-107.52688172043,4,2,1,15,0,0
133465,-86.9565217391304,4,2,1,15,0,0
133515,-107.52688172043,4,2,1,15,0,0
133615,-100,4,2,1,15,0,0
133715,-87.719298245614,4,2,1,15,0,0
133765,-108.695652173913,4,2,1,15,0,0
133915,-100,4,2,1,15,0,0
134065,-81.9672131147541,4,2,1,15,0,0
134115,-111.111111111111,4,2,1,15,0,0
134315,-89.2857142857143,4,2,1,15,0,0
134365,-111.111111111111,4,2,1,15,0,0
134515,-10000,4,2,1,15,0,0
134665,-71.4285714285714,4,2,1,15,0,0
134965,-84.7457627118644,4,2,1,15,0,0
135015,-92.5925925925926,4,2,1,15,0,0
135065,-102.040816326531,4,2,1,15,0,0
135115,-108.695652173913,4,2,1,15,0,0
135415,-86.9565217391304,4,2,1,15,0,0
135465,-113.636363636364,4,2,1,15,0,0
135565,-86.9565217391304,4,2,1,15,0,0
135615,-113.636363636364,4,2,1,15,0,0
135715,-86.9565217391304,4,2,1,15,0,0
135765,-111.111111111111,4,2,1,15,0,0
135815,-100,4,2,1,15,0,0
135865,-86.9565217391304,4,2,1,15,0,0
135915,-111.111111111111,4,2,1,15,0,0
135965,-116.279069767442,4,2,1,15,0,0
136015,-100,4,2,1,15,0,0
136065,-86.9565217391304,4,2,1,15,0,0
136115,-111.111111111111,4,2,1,15,0,0
136165,-116.279069767442,4,2,1,15,0,0
136265,-90.9090909090909,4,2,1,15,0,0
136315,-117.647058823529,4,2,1,15,0,0
136465,-111.111111111111,4,2,1,15,0,0
136615,-105.263157894737,4,2,1,15,0,0
136765,-100,4,2,1,15,0,0
136915,-166.666666666667,4,2,1,15,0,0
137065,-128.205128205128,4,2,1,15,0,0
137215,-111.111111111111,4,2,1,15,0,0
137365,-105.263157894737,4,2,1,15,0,0
137515,-96.1538461538461,4,2,1,15,0,0
137665,-92.5925925925926,4,2,1,15,0,0
138115,-128.205128205128,4,2,1,15,0,0
138265,-111.111111111111,4,2,1,15,0,0
138415,-100,4,2,1,15,0,0
138565,-90.9090909090909,4,2,1,15,0,0
138715,-100,4,2,1,15,0,0
139015,-90.9090909090909,4,2,1,15,0,0
139052,-111.111111111111,4,2,1,15,0,0
139090,-90.9090909090909,4,2,1,15,0,0
139127,-111.111111111111,4,2,1,15,0,0
139165,-90.9090909090909,4,2,1,15,0,0
139202,-111.111111111111,4,2,1,15,0,0
139240,-90.9090909090909,4,2,1,15,0,0
139277,-111.111111111111,4,2,1,15,0,0
139315,-100,4,2,1,15,0,0
139915,-89.2857142857143,4,2,1,15,0,0
139965,-107.52688172043,4,2,1,15,0,0
140065,-91.743119266055,4,2,1,15,0,0
140115,-107.52688172043,4,2,1,15,0,0
140415,-94.3396226415094,4,2,1,15,0,0
140465,-107.52688172043,4,2,1,15,0,0
140702,-87.719298245614,4,2,1,15,0,0
140740,-100,4,2,1,15,0,0
140965,-90.9090909090909,4,2,1,15,0,0
141040,-100,4,2,1,15,0,0
141415,-90.9090909090909,4,2,1,15,0,0
141490,-114.942528735632,4,2,1,15,0,0
141565,-100,4,2,1,15,0,0
141715,-90.9090909090909,4,2,1,15,0,0
141790,-114.942528735632,4,2,1,15,0,0
141865,-100,4,2,1,15,0,0
141940,-80,4,2,1,15,0,0
141977,-133.333333333333,4,2,1,15,0,0
142015,-80,4,2,1,15,0,0
142052,-133.333333333333,4,2,1,15,0,0
142090,-80,4,2,1,15,0,0
142127,-133.333333333333,4,2,1,15,0,0
142165,-90.9090909090909,4,2,1,15,0,0
142240,-100,4,2,1,15,0,0
142390,-107.52688172043,4,2,1,15,0,0
142615,-100,4,2,1,15,0,0
143140,-80,4,2,1,15,0,0
143177,-133.333333333333,4,2,1,15,0,0
143215,-80,4,2,1,15,0,0
143252,-133.333333333333,4,2,1,15,0,0
143290,-80,4,2,1,15,0,0
143327,-133.333333333333,4,2,1,15,0,0
143365,-90.9090909090909,4,2,1,15,0,0
143440,-100,4,2,1,15,0,0
143965,-90.9090909090909,4,2,1,15,0,0
144040,-100,4,2,1,15,0,0
144115,-83.3333333333333,4,2,1,15,0,0
144215,-90.9090909090909,4,2,1,15,0,0
144315,-105.263157894737,4,2,1,15,0,0
144415,-111.111111111111,4,2,1,15,0,0
144465,-88.4955752212389,4,2,1,15,0,0
144515,-100,4,2,1,15,0,0
144665,-88.4955752212389,4,2,1,15,0,0
144715,-100,4,2,1,15,0,0
145540,-80,4,2,1,15,0,0
145577,-133.333333333333,4,2,1,15,0,0
145615,-80,4,2,1,15,0,0
145652,-133.333333333333,4,2,1,15,0,0
145690,-80,4,2,1,15,0,0
145727,-133.333333333333,4,2,1,15,0,0
145765,-90.9090909090909,4,2,1,15,0,0
145840,-100,4,2,1,15,0,0
146515,-111.111111111111,4,2,1,15,0,0
146740,-80,4,2,1,15,0,0
146777,-133.333333333333,4,2,1,15,0,0
146815,-80,4,2,1,15,0,0
146852,-133.333333333333,4,2,1,15,0,0
146890,-80,4,2,1,15,0,0
146927,-133.333333333333,4,2,1,15,0,0
146965,-90.9090909090909,4,2,1,15,0,0
147040,-100,4,2,1,15,0,0
147115,-86.2068965517241,4,2,1,15,0,0
147215,-92.5925925925926,4,2,1,15,0,0
147315,-100,4,2,1,15,0,0
147977,-133.333333333333,4,2,1,15,0,0
148015,-80,4,2,1,15,0,0
148052,-133.333333333333,4,2,1,15,0,0
148090,-80,4,2,1,15,0,0
148127,-133.333333333333,4,2,1,15,0,0
148165,-90.9090909090909,4,2,1,15,0,0
148240,-100,4,2,1,15,0,0
148465,-90.9090909090909,4,2,1,15,0,0
148565,-111.111111111111,4,2,1,15,0,0
148715,-90.9090909090909,4,2,1,15,0,0
148815,-96.1538461538461,4,2,1,15,0,0
148915,-100,4,2,1,15,0,0
156115,-99.009900990099,4,2,1,15,0,0
156715,-98.0392156862745,4,2,1,15,0,0
157315,-97.0873786407767,4,2,1,15,0,0
157915,-96.1538461538461,4,2,1,15,0,0
158515,-142.857142857143,4,2,1,15,0,0
158615,-117.647058823529,4,2,1,15,0,0
158715,-100,4,2,1,15,0,0
158815,-90.9090909090909,4,2,1,15,0,0
158915,-83.3333333333333,4,2,1,15,0,0
159015,-95.2380952380952,4,2,1,15,0,0
159115,-100,4,2,1,5,0,0
160915,-99.009900990099,4,2,1,5,0,0
163315,-98.0392156862745,4,2,1,5,0,0
165715,-97.0873786407767,4,2,1,5,0,0
168115,-96.1538461538461,4,2,1,5,0,0
170515,-95.2380952380952,4,2,1,5,0,0
172915,-94.3396226415094,4,2,1,5,0,0
175315,-93.4579439252336,4,2,1,5,0,0
176115,-92.5925925925926,4,2,1,5,0,0
176515,-100,4,2,1,5,0,0
176590,-125,4,2,1,15,0,0
176740,-113.636363636364,4,2,1,15,0,0
176890,-105.263157894737,4,2,1,15,0,0
177115,-94.3396226415094,4,2,1,15,0,0
177265,-100,4,2,1,15,0,0
177340,-105.263157894737,4,2,1,15,0,0
177565,-90.9090909090909,4,2,1,15,0,0
177602,-100,4,2,1,15,0,0
182215,-86.9565217391304,4,2,1,15,0,0
182265,-114.942528735632,4,2,1,15,0,0
182315,-86.9565217391304,4,2,1,15,0,0
182365,-114.942528735632,4,2,1,15,0,0
182415,-86.9565217391304,4,2,1,15,0,0
182465,-114.942528735632,4,2,1,15,0,0
182515,-86.9565217391304,4,2,1,15,0,0
182565,-100,4,2,1,15,0,0
183265,-108.695652173913,4,2,1,15,0,0
183302,-119.047619047619,4,2,1,15,0,0
183340,-100,4,2,1,15,0,0
183415,-108.695652173913,4,2,1,15,0,0
183452,-119.047619047619,4,2,1,15,0,0
183490,-100,4,2,1,15,0,0
184615,-106.382978723404,4,2,1,15,0,0
184690,-113.636363636364,4,2,1,15,0,0
184765,-93.4579439252336,4,2,1,15,0,0
184840,-100,4,2,1,15,0,0
184915,-106.382978723404,4,2,1,15,0,0
184990,-113.636363636364,4,2,1,15,0,0
185065,-93.4579439252336,4,2,1,15,0,0
185140,-100,4,2,1,15,0,0
186715,-86.9565217391304,4,2,1,15,0,0
186752,-111.111111111111,4,2,1,15,0,0
186790,-125,4,2,1,15,0,0
186827,-76.9230769230769,4,2,1,15,0,0
186865,-86.9565217391304,4,2,1,15,0,0
186902,-111.111111111111,4,2,1,15,0,0
186940,-125,4,2,1,15,0,0
186977,-76.9230769230769,4,2,1,15,0,0
187015,-86.9565217391304,4,2,1,15,0,0
187052,-111.111111111111,4,2,1,15,0,0
187090,-125,4,2,1,15,0,0
187127,-76.9230769230769,4,2,1,15,0,0
187165,-86.9565217391304,4,2,1,15,0,0
187202,-111.111111111111,4,2,1,15,0,0
187240,-125,4,2,1,15,0,0
187277,-76.9230769230769,4,2,1,15,0,0
187315,-100,4,2,1,15,0,0
195715,-113.636363636364,4,2,1,15,0,0
195815,-100,4,2,1,15,0,0
196015,-113.636363636364,4,2,1,15,0,0
196115,-100,4,2,1,15,0,0
196315,-113.636363636364,4,2,1,15,0,0
196415,-100,4,2,1,15,0,0
196515,-113.636363636364,4,2,1,15,0,0
196615,-100,4,2,1,15,0,0
196865,-90.9090909090909,4,2,1,15,0,0
196915,-83.3333333333333,4,2,1,15,0,0
197015,-90.9090909090909,4,2,1,15,0,0
197115,-105.263157894737,4,2,1,15,0,0
197215,-111.111111111111,4,2,1,15,0,0
197265,-86.9565217391304,4,2,1,15,0,0
197315,-100,4,2,1,15,0,0
197465,-86.9565217391304,4,2,1,15,0,0
197515,-100,4,2,1,15,0,0
197815,-111.111111111111,4,2,1,15,0,0
198065,-86.9565217391304,4,2,1,15,0,0
198115,-100,4,2,1,15,0,0
198215,-111.111111111111,4,2,1,15,0,0
198515,-86.9565217391304,4,2,1,15,0,0
198565,-100,4,2,1,15,0,0
198665,-86.9565217391304,4,2,1,15,0,0
198715,-100,4,2,1,15,0,0
198815,-111.111111111111,4,2,1,15,0,0
199015,-90.9090909090909,4,2,1,15,0,0
199165,-100,4,2,1,15,0,0
199315,-84.7457627118644,4,2,1,15,0,0
199365,-100,4,2,1,15,0,0
199415,-111.111111111111,4,2,1,15,0,0
199465,-125,4,2,1,15,0,0
199515,-90.9090909090909,4,2,1,15,0,0
199565,-100,4,2,1,15,0,0
199615,-90.9090909090909,4,2,1,15,0,0
199665,-100,4,2,1,15,0,0
199715,-90.9090909090909,4,2,1,15,0,0
199765,-100,4,2,1,15,0,0
199815,-90.9090909090909,4,2,1,15,0,0
199865,-100,4,2,1,15,0,0
199915,-90.9090909090909,4,2,1,15,0,0
199965,-100,4,2,1,15,0,0
200477,-86.9565217391304,4,2,1,15,0,0
200515,-100,4,2,1,15,0,0
200590,-111.111111111111,4,2,1,15,0,0
200665,-125,4,2,1,15,0,0
200702,-80,4,2,1,15,0,0
200740,-100,4,2,1,15,0,0
200815,-111.111111111111,4,2,1,15,0,0
200890,-125,4,2,1,15,0,0
200927,-80,4,2,1,15,0,0
200965,-100,4,2,1,15,0,0
201040,-128.205128205128,4,2,1,15,0,0
201077,-83.3333333333333,4,2,1,15,0,0
201115,-100,4,2,1,15,0,0
201190,-111.111111111111,4,2,1,15,0,0
201265,-125,4,2,1,15,0,0
201315,-100,4,2,1,15,0,0
201365,-100,4,2,1,15,0,0
201415,-92.5925925925926,4,2,1,15,0,0
201465,-106.382978723404,4,2,1,15,0,0
201565,-100,4,2,1,15,0,0
201615,-111.111111111111,4,2,1,15,0,0
201715,-83.3333333333333,4,2,1,15,0,0
201815,-90.9090909090909,4,2,1,15,0,0
201915,-105.263157894737,4,2,1,15,0,0
202015,-111.111111111111,4,2,1,15,0,0
202065,-89.2857142857143,4,2,1,15,0,0
202115,-100,4,2,1,15,0,0
202265,-86.9565217391304,4,2,1,15,0,0
202315,-100,4,2,1,15,0,0
202565,-89.2857142857143,4,2,1,15,0,0
202615,-111.111111111111,4,2,1,15,0,0
202715,-89.2857142857143,4,2,1,15,0,0
202765,-111.111111111111,4,2,1,15,0,0
202865,-89.2857142857143,4,2,1,15,0,0
202915,-111.111111111111,4,2,1,15,0,0
202965,-89.2857142857143,4,2,1,15,0,0
203015,-100,4,2,1,15,0,0
203115,-111.111111111111,4,2,1,15,0,0
203165,-89.2857142857143,4,2,1,15,0,0
203215,-111.111111111111,4,2,1,15,0,0
203315,-89.2857142857143,4,2,1,15,0,0
203365,-111.111111111111,4,2,1,15,0,0
203465,-89.2857142857143,4,2,1,15,0,0
203515,-100,4,2,1,15,0,0
203815,-90.9090909090909,4,2,1,15,0,0
203965,-100,4,2,1,15,0,0
204115,-85.4700854700855,4,2,1,15,0,0
204215,-100,4,2,1,15,0,0
204315,-111.111111111111,4,2,1,15,0,0
204415,-105.263157894737,4,2,1,15,0,0
204715,-90.9090909090909,4,2,1,15,0,0
204765,-107.52688172043,4,2,1,15,0,0
204865,-90.9090909090909,4,2,1,15,0,0
204915,-107.52688172043,4,2,1,15,0,0
204977,-83.3333333333333,4,2,1,15,0,0
205015,-100,4,2,1,15,0,0
205090,-111.111111111111,4,2,1,15,0,0
205127,-86.9565217391304,4,2,1,15,0,0
205165,-100,4,2,1,15,0,0
205240,-107.52688172043,4,2,1,15,0,0
205315,-116.279069767442,4,2,1,15,0,0
205427,-86.9565217391304,4,2,1,15,0,0
205465,-100,4,2,1,15,0,0
205540,-111.111111111111,4,2,1,15,0,0
205615,-125,4,2,1,15,0,0
205652,-86.9565217391304,4,2,1,15,0,0
205690,-100,4,2,1,15,0,0
205915,-89.2857142857143,4,2,1,15,0,0
205990,-91.743119266055,4,2,1,15,0,0
206065,-94.3396226415094,4,2,1,15,0,0
206140,-100,4,2,1,15,0,0
206215,-105.263157894737,4,2,1,15,0,0
206365,-86.9565217391304,4,2,1,15,0,0
206402,-100,4,2,1,15,0,0
206515,-83.3333333333333,4,2,1,15,0,0
206615,-90.9090909090909,4,2,1,15,0,0
206715,-105.263157894737,4,2,1,15,0,0
206815,-111.111111111111,4,2,1,15,0,0
206865,-90.9090909090909,4,2,1,15,0,0
206915,-100,4,2,1,15,0,0
207065,-90.9090909090909,4,2,1,15,0,0
207115,-100,4,2,1,15,0,0
207265,-111.111111111111,4,2,1,15,0,0
207315,-100,4,2,1,15,0,0
207665,-90.9090909090909,4,2,1,15,0,0
207715,-100,4,2,1,15,0,0
208115,-90.9090909090909,4,2,1,15,0,0
208165,-100,4,2,1,15,0,0
208265,-90.9090909090909,4,2,1,15,0,0
208315,-100,4,2,1,15,0,0
208515,-113.636363636364,4,2,1,15,0,0
208615,-92.5925925925926,4,2,1,15,0,0
208765,-100,4,2,1,15,0,0
208915,-81.9672131147541,4,2,1,15,0,0
208965,-100,4,2,1,15,0,0
209015,-107.52688172043,4,2,1,15,0,0
209065,-117.647058823529,4,2,1,15,0,0
209115,-92.5925925925926,4,2,1,15,0,0
209165,-100,4,2,1,15,0,0
209215,-92.5925925925926,4,2,1,15,0,0
209265,-100,4,2,1,15,0,0
209315,-92.5925925925926,4,2,1,15,0,0
209365,-100,4,2,1,15,0,0
209415,-92.5925925925926,4,2,1,15,0,0
209465,-100,4,2,1,15,0,0
209515,-92.5925925925926,4,2,1,15,0,0
209565,-100,4,2,1,15,0,0
210115,-90.9090909090909,4,2,1,15,0,0
210152,-100,4,2,1,15,0,0
210340,-90.9090909090909,4,2,1,15,0,0
210377,-100,4,2,1,15,0,0
210565,-90.9090909090909,4,2,1,15,0,0
210602,-100,4,2,1,15,0,0
210715,-93.4579439252336,4,2,1,15,0,0
211165,-105.263157894737,4,2,1,15,0,0
211240,-120.481927710843,4,2,1,15,0,0
211277,-100,4,2,1,15,0,0
211315,-80,4,2,1,15,0,0
211690,-90.9090909090909,4,2,1,15,0,0
211765,-100,4,2,1,15,0,0
211840,-111.111111111111,4,2,1,15,0,0
211877,-90.9090909090909,4,2,1,15,0,0
211915,-100,4,2,1,15,0,0
212590,-105.263157894737,4,2,1,15,0,0
212665,-83.3333333333333,4,2,1,15,0,0
212740,-90.9090909090909,4,2,1,15,0,0
212815,-100,4,2,1,15,0,0
213415,-90.9090909090909,4,2,1,15,0,0
213490,-100,4,2,1,15,0,0
213565,-90.9090909090909,4,2,1,15,0,0
213640,-100,4,2,1,15,0,0
213715,-86.9565217391304,4,2,1,15,0,0
213752,-100,4,2,1,15,0,0
213940,-86.9565217391304,4,2,1,15,0,0
213977,-100,4,2,1,15,0,0
214165,-86.9565217391304,4,2,1,15,0,0
214202,-100,4,2,1,15,0,0
214915,-111.111111111111,4,2,1,15,0,0
215065,-105.263157894737,4,2,1,15,0,0
215215,-100,4,2,1,15,0,0
215365,-90.9090909090909,4,2,1,15,0,0
215440,-100,4,2,1,15,0,0
216715,-89.2857142857143,4,2,1,15,0,0
216765,-107.52688172043,4,2,1,15,0,0
216865,-91.743119266055,4,2,1,15,0,0
216915,-107.52688172043,4,2,1,15,0,0
217115,-94.3396226415094,4,2,1,15,0,0
217165,-107.52688172043,4,2,1,15,0,0
217502,-100,4,2,1,15,0,0
217540,-100,4,2,1,15,0,0
217765,-90.9090909090909,4,2,1,15,0,0
217840,-100,4,2,1,15,0,0
218215,-90.9090909090909,4,2,1,15,0,0
218290,-114.942528735632,4,2,1,15,0,0
218365,-100,4,2,1,15,0,0
218515,-90.9090909090909,4,2,1,15,0,0
218590,-114.942528735632,4,2,1,15,0,0
218665,-100,4,2,1,15,0,0
218740,-80,4,2,1,15,0,0
218777,-133.333333333333,4,2,1,15,0,0
218815,-80,4,2,1,15,0,0
218852,-133.333333333333,4,2,1,15,0,0
218890,-80,4,2,1,15,0,0
218927,-133.333333333333,4,2,1,15,0,0
218965,-90.9090909090909,4,2,1,15,0,0
219040,-100,4,2,1,15,0,0
219190,-105.263157894737,4,2,1,15,0,0
219415,-100,4,2,1,15,0,0
219940,-80,4,2,1,15,0,0
219977,-133.333333333333,4,2,1,15,0,0
220015,-80,4,2,1,15,0,0
220052,-133.333333333333,4,2,1,15,0,0
220090,-80,4,2,1,15,0,0
220127,-133.333333333333,4,2,1,15,0,0
220165,-90.9090909090909,4,2,1,15,0,0
220240,-100,4,2,1,15,0,0
220765,-90.9090909090909,4,2,1,15,0,0
220840,-100,4,2,1,15,0,0
220915,-83.3333333333333,4,2,1,15,0,0
221015,-90.9090909090909,4,2,1,15,0,0
221115,-105.263157894737,4,2,1,15,0,0
221215,-111.111111111111,4,2,1,15,0,0
221265,-90.9090909090909,4,2,1,15,0,0
221315,-100,4,2,1,15,0,0
221465,-90.9090909090909,4,2,1,15,0,0
221515,-100,4,2,1,15,0,0
222340,-80,4,2,1,15,0,0
222377,-133.333333333333,4,2,1,15,0,0
222415,-80,4,2,1,15,0,0
222452,-133.333333333333,4,2,1,15,0,0
222490,-80,4,2,1,15,0,0
222527,-133.333333333333,4,2,1,15,0,0
222565,-90.9090909090909,4,2,1,15,0,0
222640,-100,4,2,1,15,0,0
223315,-106.382978723404,4,2,1,15,0,0
223540,-80,4,2,1,15,0,0
223577,-133.333333333333,4,2,1,15,0,0
223615,-80,4,2,1,15,0,0
223652,-133.333333333333,4,2,1,15,0,0
223690,-80,4,2,1,15,0,0
223727,-133.333333333333,4,2,1,15,0,0
223765,-90.9090909090909,4,2,1,15,0,0
223840,-100,4,2,1,15,0,0
223915,-84.7457627118644,4,2,1,15,0,0
224015,-91.743119266055,4,2,1,15,0,0
224115,-100,4,2,1,15,0,0
224777,-133.333333333333,4,2,1,15,0,0
224815,-80,4,2,1,15,0,0
224852,-133.333333333333,4,2,1,15,0,0
224890,-80,4,2,1,15,0,0
224927,-133.333333333333,4,2,1,15,0,0
224965,-90.9090909090909,4,2,1,15,0,0
225040,-100,4,2,1,15,0,0
225715,-90.9090909090909,4,2,1,15,0,0
225815,-95.2380952380952,4,2,1,15,0,0
225915,-105.263157894737,4,2,1,15,0,0
226015,-111.111111111111,4,2,1,15,0,0
226065,-90.9090909090909,4,2,1,15,0,0
226115,-100,4,2,1,15,0,0
226715,-97.0873786407767,4,2,1,15,0,0
226765,-100,4,2,1,15,0,0
229615,-90.9090909090909,4,2,1,15,0,0
229765,-106.382978723404,4,2,1,15,0,0
229915,-90.9090909090909,4,2,1,15,0,0
230215,-89.2857142857143,4,2,1,15,0,0
230252,-100,4,2,1,15,0,0
230365,-86.9565217391304,4,2,1,15,0,0
230402,-100,4,2,1,15,0,0
230515,-84.7457627118644,4,2,1,15,0,0
230552,-92.5925925925926,4,2,1,15,0,0
230815,-100,4,2,1,15,0,0
230965,-84.7457627118644,4,2,1,15,0,0
231002,-92.5925925925926,4,2,1,15,0,0
231115,-100,4,2,1,15,0,0
231715,-84.7457627118644,4,2,1,15,0,0
231752,-92.5925925925926,4,2,1,15,0,0
232015,-100,4,2,1,15,0,0
232165,-84.7457627118644,4,2,1,15,0,0
232202,-92.5925925925926,4,2,1,15,0,0
232315,-92.5925925925926,4,2,1,15,0,0
232352,-100,4,2,1,15,0,0
232540,-92.5925925925926,4,2,1,15,0,0
232577,-100,4,2,1,15,0,0
232765,-92.5925925925926,4,2,1,15,0,0
232802,-100,4,2,1,15,0,0
232990,-92.5925925925926,4,2,1,15,0,0
233027,-100,4,2,1,15,0,0
233215,-95.2380952380952,4,2,1,15,0,0
233515,-100,4,2,1,15,0,0
233665,-95.2380952380952,4,2,1,15,0,0
234115,-111.111111111111,4,2,1,15,0,0
234215,-100,4,2,1,15,0,0
234415,-111.111111111111,4,2,1,15,0,0
234515,-100,4,2,1,15,0,0
234715,-111.111111111111,4,2,1,15,0,0
234815,-100,4,2,1,15,0,0
235165,-92.5925925925926,4,2,1,15,0,0
235215,-100,4,2,1,15,0,0
235315,-86.9565217391304,4,2,1,15,0,0
236515,-90.9090909090909,4,2,1,15,0,0
237715,-95.2380952380952,4,2,1,15,0,0
238915,-100,4,2,1,15,0,0

[HitObjects]
64,192,415,128,0,715:0:0:0:8:OPEN-HI-HAT-B2.wav
448,192,715,1,0,0:0:0:8:SNARE1-C.wav
320,192,715,1,0,0:0:0:0:
192,192,865,1,0,0:0:0:8:KICK.wav
448,192,1015,1,0,0:0:0:10:HI-HAT.wav
64,192,1215,1,0,0:0:0:8:KICK.wav
320,192,1315,1,0,0:0:0:8:KICK.wav
448,192,1615,128,0,1915:0:0:0:10:OPEN-HI-HAT-B2.wav
192,192,1915,1,0,0:0:0:8:SNARE1-C.wav
64,192,1915,1,0,0:0:0:0:
320,192,2515,1,0,0:0:0:8:KICK.wav
192,192,2815,128,0,3115:0:0:0:10:OPEN-HI-HAT-B2.wav
448,192,3115,1,0,0:0:0:10:SNARE1-C.wav
320,192,3115,1,0,0:0:0:0:
64,192,3265,1,0,0:0:0:15:KICK.wav
320,192,3415,1,0,0:0:0:10:HI-HAT.wav
192,192,3615,1,0,0:0:0:18:KICK.wav
448,192,3715,1,0,0:0:0:20:KICK.wav
64,192,4015,128,0,4315:0:0:0:10:OPEN-HI-HAT-B2.wav
448,192,4315,1,0,0:0:0:25:KICK.wav
64,192,4615,128,0,4915:0:0:0:13:OPEN-HI-HAT-B2.wav
448,192,4915,1,0,0:0:0:25:KICK.wav
64,192,5215,128,0,5515:0:0:0:16:OPEN-HI-HAT-B2.wav
448,192,5515,1,0,0:0:0:17:SNARE1-C.wav
320,192,5515,1,0,0:0:0:0:
192,192,5665,1,0,0:0:0:25:KICK.wav
448,192,5815,1,0,0:0:0:10:HI-HAT.wav
320,192,6015,1,0,0:0:0:25:KICK.wav
64,192,6115,1,0,0:0:0:25:KICK.wav
320,192,6415,128,0,6715:0:0:0:16:OPEN-HI-HAT-B2.wav
192,192,6715,1,0,0:0:0:20:SNARE1-C.wav
64,192,6715,1,0,0:0:0:0:
448,192,7315,1,0,0:0:0:0:
64,192,7315,1,0,0:0:0:0:
64,192,7615,1,0,0:0:0:20:HI-HAT.wav
64,192,7915,1,0,0:0:0:0:
448,192,7915,1,0,0:0:0:0:
64,192,8215,1,0,0:0:0:20:HI-HAT.wav
448,192,8515,128,0,8715:0:0:0:0:
64,192,8515,1,0,0:0:0:0:
192,192,8715,1,0,0:0:0:0:
320,192,8815,128,0,9015:0:0:0:20:HI-HAT.wav
64,192,9015,1,0,0:0:0:0:
448,192,9115,128,0,9315:0:0:0:0:
192,192,9315,1,0,0:0:0:0:
320,192,9415,1,0,0:0:0:10:HI-HAT.wav
64,192,9515,1,0,0:0:0:10:HI-HAT.wav
192,192,9615,1,0,0:0:0:0:
448,192,9715,1,0,0:0:0:35:KICK.wav
448,192,10015,128,0,10315:0:0:0:16:OPEN-HI-HAT-B2.wav
320,192,10015,1,0,0:0:0:35:KICK.wav
64,192,10315,1,0,0:0:0:20:SNARE1-C.wav
320,192,10465,1,0,0:0:0:35:KICK.wav
448,192,10615,1,0,0:0:0:10:HI-HAT.wav
64,192,10915,1,0,0:0:0:35:KICK.wav
192,192,11215,1,0,0:0:0:16:OPEN-HI-HAT-B2.wav
64,192,11215,128,0,11515:0:0:0:35:KICK.wav
448,192,11515,1,0,0:0:0:20:SNARE1-C.wav
320,192,11665,1,0,0:0:0:35:KICK.wav
64,192,11815,1,0,0:0:0:10:HI-HAT.wav
192,192,12115,1,0,0:0:0:35:KICK.wav
192,192,12415,128,0,12715:0:0:0:16:OPEN-HI-HAT-B2.wav
320,192,12415,1,0,0:0:0:35:KICK.wav
448,192,12715,1,0,0:0:0:20:SNARE1-C.wav
64,192,12865,1,0,0:0:0:35:KICK.wav
192,192,13015,1,0,0:0:0:10:HI-HAT.wav
320,192,13315,1,0,0:0:0:35:KICK.wav
320,192,13615,128,0,13915:0:0:0:16:OPEN-HI-HAT-B2.wav
448,192,13615,1,0,0:0:0:35:KICK.wav
64,192,13915,1,0,0:0:0:20:SNARE1-C.wav
64,192,14515,1,0,0:0:0:35:KICK.wav
64,192,14815,1,0,0:0:0:16:OPEN-HI-HAT-B2.wav
192,192,14815,128,0,15115:0:0:0:35:KICK.wav
320,192,15115,1,0,0:0:0:20:SNARE1-C.wav
64,192,15265,1,0,0:0:0:35:KICK.wav
448,192,15715,1,0,0:0:0:35:KICK.wav
448,192,16015,1,0,0:0:0:16:OPEN-HI-HAT-B2.wav
320,192,16015,128,0,16315:0:0:0:35:KICK.wav
64,192,16315,1,0,0:0:0:20:SNARE1-C.wav
448,192,16465,1,0,0:0:0:35:KICK.wav
192,192,16915,1,0,0:0:0:35:KICK.wav
192,192,17215,1,0,0:0:0:16:OPEN-HI-HAT-B2.wav
64,192,17215,128,0,17515:0:0:0:35:KICK.wav
320,192,17515,1,0,0:0:0:20:SNARE1-C.wav
192,192,17665,1,0,0:0:0:35:KICK.wav
320,192,18115,1,0,0:0:0:35:KICK.wav
320,192,18415,1,0,0:0:0:16:OPEN-HI-HAT-B2.wav
192,192,18415,128,0,18715:0:0:0:35:KICK.wav
448,192,18715,128,0,18865:0:0:0:0:
64,192,18715,128,0,19315:0:0:0:0:
192,192,18865,128,0,19015:0:0:0:0:
320,192,19015,128,0,19165:0:0:0:0:
448,192,19165,128,0,19315:0:0:0:0:
192,192,19315,1,0,0:0:0:40:KICK.wav
192,192,19465,1,0,0:0:0:8:HI-HAT.wav
64,192,19615,128,0,19915:0:0:0:20:OPEN-HI-HAT-B2.wav
448,192,19615,1,0,0:0:0:40:KICK.wav
320,192,19915,1,0,0:0:0:30:SNARE1-C.wav
192,192,20365,1,0,0:0:0:40:KICK.wav
64,192,20515,1,0,0:0:0:40:KICK.wav
448,192,20665,1,0,0:0:0:8:HI-HAT.wav
320,192,20815,128,0,21115:0:0:0:20:OPEN-HI-HAT-B2.wav
192,192,20815,1,0,0:0:0:40:KICK.wav
64,192,21115,128,0,21715:0:0:0:30:SNARE1-C.wav
448,192,21115,128,0,21715:0:0:0:0:
192,192,21715,1,0,0:0:0:40:KICK.wav
448,192,21865,1,0,0:0:0:8:HI-HAT.wav
320,192,22015,128,0,22315:0:0:0:20:OPEN-HI-HAT-B2.wav
192,192,22015,1,0,0:0:0:40:KICK.wav
64,192,22315,1,0,0:0:0:30:SNARE1-C.wav
448,192,22465,1,0,0:0:0:40:KICK.wav
448,192,22765,1,0,0:0:0:40:KICK.wav
64,192,22915,128,0,23215:0:0:0:40:KICK.wav
448,192,23215,128,0,23515:0:0:0:20:OPEN-HI-HAT-B2.wav
320,192,23215,1,0,0:0:0:40:KICK.wav
64,192,23515,1,0,0:0:0:30:SNARE1-C.wav
448,192,23665,1,0,0:0:0:8:HI-HAT.wav
192,192,23815,1,0,0:0:0:40:KICK.wav
320,192,23915,1,0,0:0:0:40:KICK.wav
192,192,24015,1,0,0:0:0:40:KICK.wav
320,192,24115,1,0,0:0:0:40:KICK.wav
448,192,24415,128,0,24715:0:0:0:20:OPEN-HI-HAT-B2.wav
192,192,24415,1,0,0:0:0:40:KICK.wav
64,192,24715,1,0,0:0:0:30:SNARE1-C.wav
192,192,24865,1,0,0:0:0:8:HI-HAT.wav
192,192,25015,1,0,0:0:0:8:HI-HAT.wav
448,192,25165,1,0,0:0:0:40:KICK.wav
64,192,25315,1,0,0:0:0:40:KICK.wav
320,192,25465,1,0,0:0:0:8:HI-HAT.wav
64,192,25615,1,0,0:0:0:20:OPEN-HI-HAT-B2.wav
448,192,25615,128,0,25915:0:0:0:40:KICK.wav
320,192,25765,1,0,0:0:0:8:HI-HAT.wav
192,192,25915,1,0,0:0:0:30:SNARE1-C.wav
320,192,26065,1,0,0:0:0:8:HI-HAT.wav
64,192,26215,128,0,26515:0:0:0:40:KICK.wav
320,192,26515,128,0,26815:0:0:0:40:KICK.wav
192,192,26815,128,0,27115:0:0:0:20:OPEN-HI-HAT-B2.wav
64,192,26815,1,0,0:0:0:0:
448,192,27115,1,0,0:0:0:30:SNARE1-C.wav
64,192,27265,1,0,0:0:0:40:KICK.wav
320,192,27415,1,0,0:0:0:8:HI-HAT.wav
448,192,27565,1,0,0:0:0:40:KICK.wav
64,192,27715,1,0,0:0:0:40:KICK.wav
320,192,27865,1,0,0:0:0:8:HI-HAT.wav
192,192,28015,128,0,28315:0:0:0:20:OPEN-HI-HAT-B2.wav
448,192,28015,1,0,0:0:0:40:KICK.wav
64,192,28315,1,0,0:0:0:30:SNARE1-C.wav
64,192,28465,1,0,0:0:0:30:SNARE1-C.wav
448,192,28615,1,0,0:0:0:30:SNARE1-C.wav
448,192,28765,1,0,0:0:0:30:SNARE1-C.wav
192,192,28915,1,0,0:0:0:40:KICK.wav
64,192,29065,1,0,0:0:0:8:HI-HAT.wav
320,192,29215,128,0,29515:0:0:0:20:OPEN-HI-HAT-B2.wav
448,192,29215,1,0,0:0:0:40:KICK.wav
64,192,29365,1,0,0:0:0:8:HI-HAT.wav
192,192,29515,1,0,0:0:0:30:SNARE1-C.wav
448,192,29665,1,0,0:0:0:8:HI-HAT.wav
64,192,29815,1,0,0:0:0:8:HI-HAT.wav
448,192,29965,1,0,0:0:0:40:KICK.wav
192,192,30115,1,0,0:0:0:40:KICK.wav
320,192,30265,1,0,0:0:0:8:HI-HAT.wav
64,192,30415,128,0,30715:0:0:0:20:OPEN-HI-HAT-B2.wav
192,192,30415,1,0,0:0:0:40:KICK.wav
448,192,30565,1,0,0:0:0:8:HI-HAT.wav
320,192,30715,1,0,0:0:0:30:SNARE1-C.wav
192,192,30865,1,0,0:0:0:8:HI-HAT.wav
320,192,31015,1,0,0:0:0:8:HI-HAT.wav
448,192,31165,1,0,0:0:0:8:HI-HAT.wav
64,192,31315,128,0,31465:0:0:0:20:OPEN-HI-HAT-B2.wav
192,192,31315,1,0,0:0:0:40:KICK.wav
448,192,31615,128,0,31765:0:0:0:20:OPEN-HI-HAT-B2.wav
320,192,31615,1,0,0:0:0:40:KICK.wav
320,192,31915,1,0,0:0:0:30:SNARE1-C.wav
64,192,32065,1,0,0:0:0:40:KICK.wav
448,192,32215,1,0,0:0:0:8:HI-HAT.wav
320,192,32365,1,0,0:0:0:40:KICK.wav
64,192,32515,1,0,0:0:0:40:KICK.wav
448,192,32665,1,0,0:0:0:8:HI-HAT.wav
192,192,32815,128,0,33115:0:0:0:20:OPEN-HI-HAT-B2.wav
320,192,32815,1,0,0:0:0:40:KICK.wav
448,192,33115,1,0,0:0:0:30:SNARE1-C.wav
320,192,33265,1,0,0:0:0:8:HI-HAT.wav
192,192,33415,1,0,0:0:0:8:HI-HAT.wav
320,192,33565,1,0,0:0:0:8:HI-HAT.wav
64,192,33715,128,0,34315:0:0:0:40:KICK.wav
448,192,33715,1,0,0:0:0:0:
320,192,34015,1,0,0:0:0:20:HI-HAT.wav
192,192,34315,1,0,0:0:0:0:
448,192,34315,1,0,0:0:0:0:
320,192,34615,1,0,0:0:0:20:HI-HAT.wav
64,192,34915,128,0,35515:0:0:0:40:KICK.wav
448,192,34915,1,0,0:0:0:0:
320,192,35215,1,0,0:0:0:20:HI-HAT.wav
448,192,35515,1,0,0:0:0:0:
192,192,35515,1,0,0:0:0:0:
320,192,35815,1,0,0:0:0:20:HI-HAT.wav
64,192,36115,128,0,36715:0:0:0:40:KICK.wav
448,192,36115,1,0,0:0:0:0:
320,192,36415,1,0,0:0:0:20:HI-HAT.wav
192,192,36715,1,0,0:0:0:0:
448,192,36715,1,0,0:0:0:0:
320,192,37015,1,0,0:0:0:20:HI-HAT.wav
320,192,37515,1,0,0:0:0:0:
192,192,37615,1,0,0:0:0:0:
448,192,37715,128,0,37915:0:0:0:0:
64,192,37915,128,0,38515:0:0:0:60:SNARE1-C.wav
192,192,37915,128,0,38515:0:0:0:0:
320,192,38515,1,0,0:0:0:70:KICK.wav
448,192,38515,128,0,42115:0:0:0:0:
64,192,39715,128,0,42115:0:0:0:0:
192,192,42115,1,0,0:0:0:60:KICK.wav
320,192,42115,1,0,0:0:0:0:
448,192,42315,1,0,0:0:0:0:
64,192,42452,1,0,0:0:0:0:
64,192,42615,1,0,0:0:0:0:
448,192,42715,128,0,43315:0:0:0:30:HI-HAT.wav
192,192,42915,1,0,0:0:0:0:
320,192,43315,128,0,43615:0:0:0:70:KICK.wav
64,192,43315,1,0,0:0:0:0:
64,192,43715,128,0,43915:0:0:0:0:
192,192,43915,128,0,44215:0:0:0:90:SNARE2.wav
448,192,43915,1,0,0:0:0:0:
320,192,44215,1,0,0:0:0:20:HI-HAT.wav
192,192,44515,1,0,0:0:0:0:
448,192,44515,1,0,0:0:0:0:
448,192,44965,1,0,0:0:0:80:KICK.wav
192,192,45115,1,0,0:0:0:90:SNARE2.wav
448,192,45115,1,0,0:0:0:0:
64,192,45415,128,0,45527:0:0:0:0:
448,192,45527,1,0,0:0:0:0:
320,192,45715,128,0,45940:0:0:0:80:KICK.wav
448,192,45940,1,0,0:0:0:20:HI-HAT.wav
64,192,46015,1,0,0:0:0:0:
320,192,46115,1,0,0:0:0:0:
192,192,46215,1,0,0:0:0:0:
448,192,46315,1,0,0:0:0:90:SNARE2.wav
320,192,46315,1,0,0:0:0:0:
64,192,46615,1,0,0:0:0:20:HI-HAT.wav
448,192,46765,1,0,0:0:0:80:KICK.wav
192,192,46915,128,0,47140:0:0:0:0:
448,192,47140,128,0,47365:0:0:0:80:KICK.wav
320,192,47365,128,0,47515:0:0:0:0:
64,192,47515,128,0,47665:0:0:0:90:SNARE2.wav
192,192,47515,1,0,0:0:0:0:
320,192,47815,128,0,47965:0:0:0:20:HI-HAT.wav
448,192,47965,1,0,0:0:0:20:HI-HAT.wav
192,192,48115,128,0,48515:0:0:0:80:KICK.wav
64,192,48115,1,0,0:0:0:0:
448,192,48515,128,0,48715:0:0:0:0:
320,192,48715,128,0,49015:0:0:0:90:SNARE2.wav
64,192,48715,1,0,0:0:0:0:
192,192,49015,1,0,0:0:0:0:
320,192,49165,1,0,0:0:0:20:HI-HAT.wav
64,192,49315,1,0,0:0:0:0:
320,192,49415,1,0,0:0:0:0:
192,192,49515,1,0,0:0:0:0:
448,192,49615,1,0,0:0:0:0:
64,192,49765,1,0,0:0:0:20:HI-HAT.wav
448,192,49915,1,0,0:0:0:90:SNARE2.wav
320,192,49915,1,0,0:0:0:0:
192,192,50215,128,0,50365:0:0:0:0:
320,192,50365,1,0,0:0:0:20:HI-HAT.wav
64,192,50515,128,0,50815:0:0:0:80:KICK.wav
192,192,50815,128,0,51115:0:0:0:0:
448,192,51115,1,0,0:0:0:90:SNARE2.wav
64,192,51115,1,0,0:0:0:0:
448,192,51265,1,0,0:0:0:0:
192,192,51415,128,0,51565:0:0:0:0:
64,192,51565,128,0,51715:0:0:0:80:KICK.wav
448,192,51565,1,0,0:0:0:0:
320,192,51865,128,0,52015:0:0:0:0:
448,192,52090,128,0,52240:0:0:0:0:
64,192,52315,128,0,52615:0:0:0:80:KICK.wav
192,192,52315,128,0,52615:0:0:0:0:
448,192,52765,1,0,0:0:0:90:SNARE2.wav
320,192,52765,1,0,0:0:0:0:
64,192,52915,128,0,53215:0:0:0:80:KICK.wav
448,192,53315,128,0,53515:0:0:0:0:
320,192,53515,128,0,53815:0:0:0:90:SNARE2.wav
64,192,53515,1,0,0:0:0:0:
192,192,53815,1,0,0:0:0:20:HI-HAT.wav
320,192,53965,1,0,0:0:0:20:HI-HAT.wav
192,192,54115,1,0,0:0:0:0:
448,192,54265,1,0,0:0:0:30:HI-HAT.wav
448,192,54415,1,0,0:0:0:30:HI-HAT.wav
64,192,54565,1,0,0:0:0:80:KICK.wav
448,192,54715,1,0,0:0:0:90:SNARE2.wav
64,192,54715,1,0,0:0:0:0:
192,192,55015,128,0,55315:0:0:0:80:KICK.wav
448,192,55165,1,0,0:0:0:20:HI-HAT.wav
320,192,55315,128,0,55540:0:0:0:80:KICK.wav
448,192,55540,1,0,0:0:0:20:HI-HAT.wav
64,192,55615,1,0,0:0:0:0:
320,192,55715,1,0,0:0:0:0:
192,192,55815,1,0,0:0:0:0:
448,192,55915,1,0,0:0:0:90:SNARE2.wav
320,192,55915,1,0,0:0:0:0:
64,192,56215,1,0,0:0:0:20:HI-HAT.wav
320,192,56365,1,0,0:0:0:80:KICK.wav
64,192,56515,128,0,56740:0:0:0:20:HI-HAT.wav
192,192,56740,128,0,56965:0:0:0:80:KICK.wav
448,192,56965,128,0,57115:0:0:0:0:
64,192,57115,128,0,57715:0:0:0:90:SNARE2.wav
320,192,57115,1,0,0:0:0:0:
320,192,57715,128,0,58315:0:0:0:80:KICK.wav
448,192,57715,128,0,58315:0:0:0:0:
192,192,58315,1,0,0:0:0:90:SNARE2.wav
64,192,58315,128,0,58465:0:0:0:0:
320,192,58615,1,0,0:0:0:20:HI-HAT.wav
192,192,58765,1,0,0:0:0:25:SNARE1-C.wav
64,192,58765,1,0,0:0:0:0:
448,192,59065,128,0,59515:0:0:0:25:SNARE1-C.wav
64,192,59065,1,0,0:0:0:0:
64,192,59365,1,0,0:0:0:80:KICK.wav
192,192,59515,1,0,0:0:0:90:SNARE2.wav
448,192,59665,1,0,0:0:0:0:
320,192,59815,1,0,0:0:0:0:
320,192,59965,1,0,0:0:0:0:
64,192,60115,1,0,0:0:0:80:KICK.wav
448,192,60340,1,0,0:0:0:80:KICK.wav
64,192,60565,1,0,0:0:0:80:KICK.wav
320,192,60715,1,0,0:0:0:80:KICK.wav
192,192,60865,1,0,0:0:0:0:
448,192,61015,1,0,0:0:0:80:KICK.wav
64,192,61165,1,0,0:0:0:90:SNARE2.wav
192,192,61165,1,0,0:0:0:0:
320,192,61315,128,0,61465:0:0:0:80:KICK.wav
448,192,61465,128,0,61615:0:0:0:0:
64,192,61615,128,0,61765:0:0:0:0:
320,192,61765,1,0,0:0:0:0:
64,192,62065,1,0,0:0:0:0:
320,192,62215,1,0,0:0:0:0:
192,192,62365,128,0,62515:0:0:0:0:
448,192,62515,128,0,63115:0:0:0:80:KICK.wav
64,192,62515,128,0,63115:0:0:0:0:
192,192,63115,128,0,63665:0:0:0:90:SNARE2.wav
320,192,63265,128,0,63665:0:0:0:0:
448,192,63515,128,0,63665:0:0:0:0:
192,192,64015,1,0,0:0:0:80:KICK.wav
320,192,64165,128,0,64315:0:0:0:0:
64,192,64315,1,0,0:0:0:90:SNARE2.wav
192,192,64315,1,0,0:0:0:0:
448,192,64465,1,0,0:0:0:20:HI-HAT.wav
64,192,64615,128,0,64765:0:0:0:80:KICK.wav
320,192,64765,1,0,0:0:0:20:HI-HAT.wav
64,192,64915,128,0,65065:0:0:0:80:KICK.wav
320,192,65065,1,0,0:0:0:20:HI-HAT.wav
448,192,65140,128,0,65365:0:0:0:0:
64,192,65365,128,0,65515:0:0:0:0:
320,192,65515,1,0,0:0:0:90:SNARE2.wav
192,192,65515,1,0,0:0:0:0:
448,192,65665,1,0,0:0:0:0:
320,192,65815,1,0,0:0:0:20:HI-HAT.wav
64,192,65965,1,0,0:0:0:80:KICK.wav
320,192,66115,128,0,66340:0:0:0:0:
448,192,66340,128,0,66565:0:0:0:80:KICK.wav
64,192,66565,128,0,66715:0:0:0:0:
448,192,66715,1,0,0:0:0:90:SNARE2.wav
320,192,66715,1,0,0:0:0:0:
64,192,67015,1,0,0:0:0:20:HI-HAT.wav
448,192,67165,128,0,67315:0:0:0:0:
192,192,67315,128,0,67715:0:0:0:80:KICK.wav
448,192,67715,128,0,67915:0:0:0:0:
64,192,67915,1,0,0:0:0:90:SNARE2.wav
320,192,67915,128,0,68115:0:0:0:0:
64,192,68215,128,0,68440:0:0:0:20:HI-HAT.wav
192,192,68440,128,0,68665:0:0:0:0:
320,192,68665,1,0,0:0:0:20:HI-HAT.wav
448,192,68740,128,0,68965:0:0:0:0:
64,192,68965,128,0,69115:0:0:0:80:KICK.wav
320,192,69115,1,0,0:0:0:90:SNARE2.wav
448,192,69115,1,0,0:0:0:0:
192,192,69265,1,0,0:0:0:20:HI-HAT.wav
64,192,69415,1,0,0:0:0:20:HI-HAT.wav
192,192,69565,128,0,69715:0:0:0:0:
320,192,69940,128,0,70165:0:0:0:0:
64,192,70165,128,0,70315:0:0:0:0:
448,192,70315,128,0,70615:0:0:0:0:
192,192,70765,128,0,70915:0:0:0:0:
448,192,70915,1,0,0:0:0:80:KICK.wav
64,192,71065,1,0,0:0:0:0:
320,192,71165,128,0,71365:0:0:0:0:
192,192,71365,128,0,71515:0:0:0:0:
64,192,71665,1,0,0:0:0:0:
448,192,71765,1,0,0:0:0:0:
320,192,71965,1,0,0:0:0:0:
64,192,72115,128,0,72515:0:0:0:80:KICK.wav
192,192,72115,128,0,72515:0:0:0:0:
320,192,72515,128,0,72715:0:0:0:0:
192,192,72715,1,0,0:0:0:80:KICK.wav
64,192,72715,128,0,73165:0:0:0:0:
448,192,73165,128,0,73315:0:0:0:0:
192,192,73315,1,0,0:0:0:80:KICK.wav
64,192,73315,128,0,73765:0:0:0:0:
320,192,73765,1,0,0:0:0:80:KICK.wav
448,192,73765,1,0,0:0:0:0:
192,192,73915,1,0,0:0:0:80:KICK.wav
64,192,73915,128,0,74515:0:0:0:0:
320,192,74515,1,0,0:0:0:80:KICK.wav
448,192,74515,128,0,75115:0:0:0:0:
192,192,75115,1,0,0:0:0:80:KICK.wav
64,192,75115,128,0,75715:0:0:0:0:
320,192,75340,1,0,0:0:0:0:
320,192,75565,1,0,0:0:0:0:
192,192,75715,1,0,0:0:0:80:KICK.wav
448,192,75715,1,0,0:0:0:0:
64,192,75915,1,0,0:0:0:30:HI-HAT.wav
448,192,76015,128,0,76165:0:0:0:80:KICK.wav
64,192,76165,1,0,0:0:0:30:HI-HAT.wav
320,192,76315,1,0,0:0:0:90:SNARE2.wav
448,192,76315,128,0,76615:0:0:0:0:
192,192,76615,1,0,0:0:0:0:
320,192,76765,1,0,0:0:0:0:
64,192,76915,128,0,77215:0:0:0:80:KICK.wav
64,192,77365,128,0,77515:0:0:0:0:
320,192,77515,1,0,0:0:0:90:SNARE2.wav
448,192,77515,128,0,77665:0:0:0:0:
192,192,77665,128,0,77815:0:0:0:0:
320,192,77815,128,0,77965:0:0:0:0:
64,192,77965,1,0,0:0:0:20:HI-HAT.wav
448,192,78115,128,0,78415:0:0:0:0:
64,192,78265,1,0,0:0:0:20:HI-HAT.wav
448,192,78565,128,0,78715:0:0:0:80:KICK.wav
192,192,78715,1,0,0:0:0:90:SNARE2.wav
64,192,78715,1,0,0:0:0:0:
64,192,78940,1,0,0:0:0:0:
64,192,79165,1,0,0:0:0:0:
448,192,79315,1,0,0:0:0:80:KICK.wav
64,192,79390,1,0,0:0:0:0:
320,192,79615,128,0,79915:0:0:0:0:
448,192,79915,1,0,0:0:0:90:SNARE2.wav
64,192,79915,1,0,0:0:0:0:
192,192,80065,128,0,80515:0:0:0:0:
448,192,80515,1,0,0:0:0:90:SNARE2.wav
320,192,80515,1,0,0:0:0:0:
448,192,80715,1,0,0:0:0:45:SNARE2.wav
192,192,80815,1,0,0:0:0:0:
64,192,81015,1,0,0:0:0:45:SNARE2.wav
320,192,81115,1,0,0:0:0:70:KICK.wav
64,192,81315,1,0,0:0:0:0:
448,192,81490,1,0,0:0:0:40:SNARE2.wav
192,192,81565,1,0,0:0:0:40:SNARE2.wav
64,192,81715,128,0,82315:0:0:0:80:KICK.wav
448,192,81715,128,0,82315:0:0:0:0:
192,192,82315,128,0,82915:0:0:0:90:SNARE2.wav
320,192,82465,128,0,82915:0:0:0:0:
448,192,82815,128,0,82915:0:0:0:0:
64,192,83215,1,0,0:0:0:80:KICK.wav
448,192,83365,128,0,83515:0:0:0:0:
192,192,83515,1,0,0:0:0:90:SNARE2.wav
64,192,83515,1,0,0:0:0:0:
320,192,83665,1,0,0:0:0:20:HI-HAT.wav
64,192,83815,128,0,83965:0:0:0:80:KICK.wav
448,192,83965,1,0,0:0:0:20:HI-HAT.wav
64,192,84115,128,0,84265:0:0:0:80:KICK.wav
448,192,84265,1,0,0:0:0:20:HI-HAT.wav
320,192,84340,128,0,84565:0:0:0:0:
192,192,84565,128,0,84715:0:0:0:0:
320,192,84715,1,0,0:0:0:90:SNARE2.wav
448,192,84715,1,0,0:0:0:0:
64,192,84865,1,0,0:0:0:0:
320,192,85015,1,0,0:0:0:20:HI-HAT.wav
448,192,85165,1,0,0:0:0:80:KICK.wav
192,192,85315,128,0,85540:0:0:0:0:
448,192,85540,128,0,85765:0:0:0:80:KICK.wav
64,192,85765,128,0,85915:0:0:0:0:
320,192,85915,1,0,0:0:0:90:SNARE2.wav
448,192,85915,1,0,0:0:0:0:
192,192,86215,1,0,0:0:0:20:HI-HAT.wav
448,192,86365,128,0,86515:0:0:0:0:
64,192,86515,128,0,86915:0:0:0:80:KICK.wav
448,192,86915,128,0,87115:0:0:0:0:
320,192,87115,128,0,87315:0:0:0:90:SNARE2.wav
192,192,87115,1,0,0:0:0:0:
64,192,87415,128,0,87640:0:0:0:20:HI-HAT.wav
192,192,87640,128,0,87865:0:0:0:0:
320,192,87865,1,0,0:0:0:20:HI-HAT.wav
448,192,87940,128,0,88165:0:0:0:0:
64,192,88165,128,0,88315:0:0:0:80:KICK.wav
448,192,88315,1,0,0:0:0:90:SNARE2.wav
320,192,88315,1,0,0:0:0:0:
192,192,88465,1,0,0:0:0:20:HI-HAT.wav
320,192,88615,1,0,0:0:0:20:HI-HAT.wav
64,192,88765,128,0,88915:0:0:0:0:
192,192,89140,128,0,89365:0:0:0:0:
448,192,89365,128,0,89515:0:0:0:0:
320,192,89515,128,0,89815:0:0:0:0:
192,192,89965,128,0,90115:0:0:0:0:
448,192,90115,1,0,0:0:0:80:KICK.wav
64,192,90265,1,0,0:0:0:0:
320,192,90365,128,0,90565:0:0:0:0:
192,192,90565,128,0,90715:0:0:0:0:
64,192,90865,1,0,0:0:0:0:
448,192,90965,1,0,0:0:0:0:
320,192,91165,1,0,0:0:0:0:
64,192,91315,128,0,91915:0:0:0:80:KICK.wav
192,192,91315,1,0,0:0:0:0:
320,192,91915,1,0,0:0:0:80:KICK.wav
448,192,91915,128,0,92365:0:0:0:0:
64,192,92365,128,0,92515:0:0:0:0:
320,192,92515,1,0,0:0:0:80:KICK.wav
448,192,92515,128,0,92965:0:0:0:0:
64,192,92965,1,0,0:0:0:80:KICK.wav
192,192,92965,1,0,0:0:0:0:
320,192,93115,1,0,0:0:0:80:KICK.wav
448,192,93115,128,0,93565:0:0:0:0:
192,192,93565,128,0,93715:0:0:0:0:
320,192,93715,1,0,0:0:0:80:KICK.wav
448,192,93715,128,0,94315:0:0:0:0:
192,192,94315,1,0,0:0:0:80:KICK.wav
64,192,94315,128,0,94765:0:0:0:0:
448,192,94765,128,0,94915:0:0:0:0:
192,192,94915,1,0,0:0:0:80:KICK.wav
64,192,94915,128,0,95365:0:0:0:0:
320,192,95365,1,0,0:0:0:80:KICK.wav
448,192,95365,1,0,0:0:0:0:
192,192,95515,1,0,0:0:0:80:KICK.wav
64,192,95515,128,0,95965:0:0:0:0:
320,192,95965,128,0,96115:0:0:0:0:
64,192,96115,128,0,96715:0:0:0:80:KICK.wav
192,192,96115,128,0,98515:0:0:0:0:
320,192,98515,1,0,0:0:0:30:KICK.wav
448,192,98515,128,0,100915:0:0:0:0:
320,192,99115,1,0,0:0:0:40:KICK.wav
192,192,99115,1,0,0:0:0:0:
64,192,99715,128,0,99865:0:0:0:50:KICK.wav
64,192,100015,128,0,100165:0:0:0:0:
320,192,100315,128,0,100915:0:0:0:60:KICK.wav
192,192,100315,1,0,0:0:0:0:
64,192,100915,128,0,101265:0:0:0:80:KICK.wav
192,192,101265,128,0,101415:0:0:0:0:
320,192,101415,128,0,101515:0:0:0:0:
64,192,101515,1,0,0:0:0:75:SNARE2.wav
192,192,101515,1,0,0:0:0:0:
448,192,101665,128,0,101815:0:0:0:0:
192,192,101815,128,0,102115:0:0:0:20:HI-HAT.wav
64,192,102115,128,0,102415:0:0:0:20:HI-HAT.wav
192,192,102415,1,0,0:0:0:80:KICK.wav
192,192,102565,1,0,0:0:0:80:KICK.wav
448,192,102715,1,0,0:0:0:75:SNARE2.wav
320,192,102715,128,0,102815:0:0:0:0:
192,192,102815,128,0,103165:0:0:0:0:
448,192,103165,128,0,103315:0:0:0:0:
64,192,103315,128,0,103815:0:0:0:80:KICK.wav
192,192,103515,1,0,0:0:0:20:HI-HAT.wav
320,192,103815,128,0,103915:0:0:0:0:
448,192,103915,1,0,0:0:0:75:SNARE2.wav
64,192,103915,128,0,104215:0:0:0:0:
192,192,104215,1,0,0:0:0:20:HI-HAT.wav
448,192,104365,1,0,0:0:0:80:KICK.wav
192,192,104515,128,0,104665:0:0:0:0:
64,192,104665,128,0,104815:0:0:0:0:
448,192,104715,1,0,0:0:0:80:KICK.wav
320,192,104815,1,0,0:0:0:20:HI-HAT.wav
192,192,104915,128,0,105115:0:0:0:0:
320,192,105115,1,0,0:0:0:75:SNARE2.wav
448,192,105115,128,0,105265:0:0:0:0:
320,192,105415,128,0,105565:0:0:0:0:
64,192,105715,128,0,106315:0:0:0:80:KICK.wav
448,192,105715,128,0,106315:0:0:0:0:
192,192,106315,1,0,0:0:0:75:SNARE2.wav
320,192,106315,1,0,0:0:0:0:
448,192,106515,1,0,0:0:0:0:
320,192,106765,1,0,0:0:0:0:
192,192,107115,1,0,0:0:0:0:
320,192,107365,1,0,0:0:0:80:KICK.wav
64,192,107515,1,0,0:0:0:75:SNARE2.wav
192,192,107515,128,0,107665:0:0:0:0:
448,192,107665,128,0,107815:0:0:0:0:
64,192,107815,128,0,107965:0:0:0:0:
320,192,107965,128,0,108115:0:0:0:20:HI-HAT.wav
192,192,108115,128,0,108265:0:0:0:80:KICK.wav
448,192,108265,128,0,108415:0:0:0:0:
192,192,108415,128,0,108715:0:0:0:0:
448,192,108715,1,0,0:0:0:75:SNARE2.wav
64,192,108715,1,0,0:0:0:0:
320,192,108865,128,0,109015:0:0:0:0:
64,192,109015,128,0,109315:0:0:0:0:
448,192,109315,128,0,109765:0:0:0:0:
64,192,109765,1,0,0:0:0:80:KICK.wav
320,192,109915,1,0,0:0:0:75:SNARE2.wav
448,192,109915,1,0,0:0:0:0:
64,192,110140,1,0,0:0:0:0:
192,192,110215,1,0,0:0:0:0:
320,192,110290,1,0,0:0:0:0:
448,192,110365,1,0,0:0:0:0:
64,192,110515,1,0,0:0:0:0:
320,192,110590,128,0,110965:0:0:0:0:
448,192,110965,128,0,111115:0:0:0:0:
192,192,111115,1,0,0:0:0:75:SNARE2.wav
64,192,111115,128,0,111715:0:0:0:0:
320,192,111715,128,0,111865:0:0:0:20:HI-HAT.wav
64,192,112015,128,0,112165:0:0:0:20:HI-HAT.wav
448,192,112165,1,0,0:0:0:80:KICK.wav
320,192,112315,1,0,0:0:0:75:SNARE2.wav
192,192,112315,128,0,112540:0:0:0:0:
64,192,112540,128,0,112652:0:0:0:0:
320,192,112652,128,0,112765:0:0:0:0:
192,192,112765,128,0,112915:0:0:0:0:
448,192,112915,128,0,113015:0:0:0:20:HI-HAT.wav
320,192,113015,128,0,113115:0:0:0:0:
192,192,113115,128,0,113215:0:0:0:0:
64,192,113215,128,0,113515:0:0:0:0:
320,192,113515,1,0,0:0:0:75:SNARE2.wav
448,192,113515,128,0,113665:0:0:0:0:
320,192,113815,128,0,113965:0:0:0:20:HI-HAT.wav
64,192,113965,1,0,0:0:0:80:KICK.wav
448,192,114115,128,0,114265:0:0:0:20:HI-HAT.wav
192,192,114340,1,0,0:0:0:80:KICK.wav
320,192,114415,128,0,114565:0:0:0:20:HI-HAT.wav
64,192,114715,128,0,114915:0:0:0:75:SNARE2.wav
448,192,114715,1,0,0:0:0:0:
192,192,114915,128,0,115115:0:0:0:0:
64,192,115115,128,0,115315:0:0:0:0:
320,192,115315,128,0,115915:0:0:0:80:KICK.wav
448,192,115315,1,0,0:0:0:0:
448,192,115915,128,0,116115:0:0:0:0:
64,192,116215,128,0,116415:0:0:0:0:
448,192,116515,128,0,116715:0:0:0:0:
64,192,116815,128,0,117015:0:0:0:0:
448,192,117115,128,0,117415:0:0:0:0:
64,192,117415,128,0,117715:0:0:0:0:
448,192,117715,128,0,117815:0:0:0:0:
192,192,117815,128,0,118015:0:0:0:0:
448,192,118015,128,0,118115:0:0:0:0:
192,192,118115,128,0,118315:0:0:0:0:
320,192,118315,128,0,118615:0:0:0:0:
64,192,118615,128,0,118915:0:0:0:0:
448,192,118915,128,0,119515:0:0:0:0:
192,192,119515,1,0,0:0:0:20:HI-HAT.wav
64,192,119590,1,0,0:0:0:0:
320,192,119740,1,0,0:0:0:0:
448,192,119815,1,0,0:0:0:0:
64,192,120115,128,0,120415:0:0:0:80:KICK.wav
320,192,120415,1,0,0:0:0:0:
320,192,120565,1,0,0:0:0:0:
192,192,120715,128,0,120815:0:0:0:90:SNARE2.wav
448,192,120715,1,0,0:0:0:0:
320,192,120915,128,0,121015:0:0:0:0:
64,192,121115,128,0,121215:0:0:0:80:KICK.wav
192,192,121115,1,0,0:0:0:0:
448,192,121315,128,0,121415:0:0:0:0:
192,192,121415,1,0,0:0:0:80:KICK.wav
320,192,121515,128,0,121615:0:0:0:0:
64,192,121715,128,0,121815:0:0:0:80:KICK.wav
192,192,121715,1,0,0:0:0:0:
448,192,121915,128,0,122015:0:0:0:90:SNARE2.wav
320,192,121915,1,0,0:0:0:0:
192,192,122115,128,0,122215:0:0:0:0:
320,192,122315,128,0,122415:0:0:0:0:
64,192,122515,128,0,122615:0:0:0:80:KICK.wav
448,192,122515,1,0,0:0:0:0:
192,192,122715,128,0,122815:0:0:0:0:
448,192,122915,128,0,123015:0:0:0:0:
320,192,123115,128,0,123215:0:0:0:90:SNARE2.wav
64,192,123115,1,0,0:0:0:0:
192,192,123315,128,0,123415:0:0:0:0:
448,192,123515,128,0,123615:0:0:0:0:
64,192,123715,128,0,123815:0:0:0:80:KICK.wav
320,192,123715,1,0,0:0:0:0:
320,192,123915,128,0,124015:0:0:0:90:SNARE2.wav
448,192,123915,1,0,0:0:0:0:
192,192,124115,128,0,124215:0:0:0:0:
64,192,124315,128,0,124715:0:0:0:0:
448,192,124315,128,0,124715:0:0:0:0:
320,192,124715,1,0,0:0:0:80:KICK.wav
192,192,124715,1,0,0:0:0:0:
64,192,124915,128,0,125215:0:0:0:80:KICK.wav
192,192,124915,128,0,125215:0:0:0:0:
448,192,125315,128,0,125415:0:0:0:80:KICK.wav
320,192,125315,1,0,0:0:0:0:
64,192,125515,128,0,125615:0:0:0:90:SNARE2.wav
192,192,125515,1,0,0:0:0:0:
320,192,125715,128,0,125815:0:0:0:0:
192,192,125915,128,0,126015:0:0:0:0:
448,192,126115,128,0,126215:0:0:0:0:
64,192,126315,128,0,126415:0:0:0:0:
320,192,126515,128,0,126615:0:0:0:0:
192,192,126715,128,0,126815:0:0:0:90:SNARE2.wav
64,192,126715,1,0,0:0:0:0:
448,192,126915,128,0,127015:0:0:0:0:
64,192,127115,128,0,127215:0:0:0:0:
192,192,127315,128,0,127415:0:0:0:80:KICK.wav
448,192,127315,1,0,0:0:0:0:
320,192,127515,128,0,127615:0:0:0:0:
64,192,127715,128,0,127815:0:0:0:0:
448,192,127915,128,0,128015:0:0:0:90:SNARE2.wav
192,192,127915,1,0,0:0:0:0:
320,192,128115,128,0,128215:0:0:0:0:
64,192,128315,128,0,128415:0:0:0:0:
448,192,128515,128,0,128615:0:0:0:0:
192,192,128715,128,0,128815:0:0:0:0:
320,192,128915,128,0,129015:0:0:0:0:
64,192,129115,128,0,129215:0:0:0:90:SNARE2.wav
192,192,129115,1,0,0:0:0:0:
448,192,129415,128,0,129615:0:0:0:0:
64,192,129715,128,0,129865:0:0:0:0:
320,192,129865,128,0,130015:0:0:0:0:
192,192,130015,1,0,0:0:0:80:KICK.wav
448,192,130165,1,0,0:0:0:0:
320,192,130315,1,0,0:0:0:90:SNARE2.wav
64,192,130315,1,0,0:0:0:0:
64,192,130465,1,0,0:0:0:0:
448,192,130615,1,0,0:0:0:0:
448,192,130765,1,0,0:0:0:0:
192,192,130915,1,0,0:0:0:0:
192,192,131065,1,0,0:0:0:0:
448,192,131215,128,0,131315:0:0:0:30:HI-HAT.wav
64,192,131315,1,0,0:0:0:80:KICK.wav
192,192,131515,128,0,131915:0:0:0:90:SNARE2.wav
320,192,131515,128,0,131915:0:0:0:0:
448,192,131915,128,0,132115:0:0:0:80:KICK.wav
64,192,132115,128,0,132315:0:0:0:80:KICK.wav
192,192,132315,1,0,0:0:0:0:
64,192,132715,1,0,0:0:0:90:SNARE2.wav
320,192,132715,1,0,0:0:0:0:
320,192,132865,1,0,0:0:0:0:
192,192,133015,1,0,0:0:0:0:
192,192,133165,1,0,0:0:0:0:
448,192,133315,1,0,0:0:0:0:
448,192,133465,1,0,0:0:0:0:
64,192,133615,128,0,133715:0:0:0:30:HI-HAT.wav
320,192,133715,1,0,0:0:0:80:KICK.wav
448,192,133915,1,0,0:0:0:90:SNARE2.wav
192,192,133915,1,0,0:0:0:0:
320,192,134065,128,0,134365:0:0:0:0:
64,192,134365,128,0,134515:0:0:0:0:
448,192,134515,128,0,135115:0:0:0:80:KICK.wav
320,192,134515,128,0,135115:0:0:0:0:
64,192,135415,1,0,0:0:0:0:
64,192,135565,1,0,0:0:0:0:
448,192,135715,1,0,0:0:0:0:
448,192,135865,1,0,0:0:0:0:
192,192,136115,1,0,0:0:0:0:
320,192,136315,1,0,0:0:0:90:SNARE2.wav
448,192,136315,128,0,136915:0:0:0:0:
192,192,136915,1,0,0:0:0:80:KICK.wav
64,192,136915,128,0,137515:0:0:0:0:
320,192,137515,1,0,0:0:0:90:SNARE2.wav
448,192,137515,128,0,137965:0:0:0:0:
192,192,137965,1,0,0:0:0:35:SNARE2.wav
320,192,138115,1,0,0:0:0:80:KICK.wav
64,192,138115,128,0,138565:0:0:0:0:
448,192,138565,1,0,0:0:0:80:KICK.wav
192,192,138715,1,0,0:0:0:35:SNARE2.wav
64,192,138715,128,0,139015:0:0:0:0:
448,192,139015,1,0,0:0:0:0:
320,192,139090,1,0,0:0:0:0:
192,192,139165,1,0,0:0:0:0:
64,192,139240,1,0,0:0:0:0:
320,192,139315,128,0,139915:0:0:0:80:KICK.wav
448,192,139315,128,0,139915:0:0:0:0:
192,192,139915,128,0,140515:0:0:0:90:SNARE2.wav
64,192,140065,128,0,140515:0:0:0:0:
448,192,140415,128,0,140515:0:0:0:0:
192,192,140815,1,0,0:0:0:80:KICK.wav
448,192,140965,128,0,141115:0:0:0:0:
192,192,141115,1,0,0:0:0:90:SNARE2.wav
64,192,141115,1,0,0:0:0:0:
320,192,141265,1,0,0:0:0:20:HI-HAT.wav
64,192,141415,128,0,141565:0:0:0:80:KICK.wav
448,192,141565,1,0,0:0:0:20:HI-HAT.wav
64,192,141715,128,0,141865:0:0:0:80:KICK.wav
448,192,141865,1,0,0:0:0:20:HI-HAT.wav
320,192,141940,128,0,142165:0:0:0:0:
192,192,142165,128,0,142315:0:0:0:0:
320,192,142315,1,0,0:0:0:90:SNARE2.wav
448,192,142315,1,0,0:0:0:0:
64,192,142465,1,0,0:0:0:0:
320,192,142615,1,0,0:0:0:20:HI-HAT.wav
192,192,142765,1,0,0:0:0:80:KICK.wav
448,192,142915,128,0,143140:0:0:0:0:
64,192,143140,128,0,143365:0:0:0:80:KICK.wav
320,192,143365,128,0,143515:0:0:0:0:
64,192,143515,1,0,0:0:0:90:SNARE2.wav
192,192,143515,1,0,0:0:0:0:
320,192,143815,1,0,0:0:0:20:HI-HAT.wav
448,192,143965,128,0,144115:0:0:0:0:
64,192,144115,128,0,144515:0:0:0:80:KICK.wav
448,192,144515,128,0,144715:0:0:0:0:
192,192,144715,128,0,144915:0:0:0:90:SNARE2.wav
320,192,144715,1,0,0:0:0:0:
448,192,145015,128,0,145240:0:0:0:20:HI-HAT.wav
320,192,145240,128,0,145465:0:0:0:0:
192,192,145465,1,0,0:0:0:20:HI-HAT.wav
64,192,145540,128,0,145765:0:0:0:20:HI-HAT.wav
448,192,145765,128,0,145915:0:0:0:80:KICK.wav
64,192,145915,1,0,0:0:0:90:SNARE2.wav
192,192,145915,1,0,0:0:0:0:
320,192,146065,1,0,0:0:0:20:HI-HAT.wav
192,192,146215,1,0,0:0:0:20:HI-HAT.wav
64,192,146365,128,0,146515:0:0:0:0:
320,192,146740,128,0,146965:0:0:0:0:
448,192,146965,128,0,147115:0:0:0:0:
192,192,147115,128,0,147415:0:0:0:0:
64,192,147565,128,0,147715:0:0:0:0:
448,192,147715,1,0,0:0:0:80:KICK.wav
192,192,147865,1,0,0:0:0:0:
320,192,147965,128,0,148165:0:0:0:0:
192,192,148165,128,0,148315:0:0:0:0:
448,192,148465,1,0,0:0:0:0:
64,192,148565,1,0,0:0:0:0:
320,192,148765,1,0,0:0:0:0:
64,192,148915,128,0,149515:0:0:0:80:KICK.wav
192,192,148915,1,0,0:0:0:0:
320,192,149515,1,0,0:0:0:80:KICK.wav
448,192,149515,128,0,149965:0:0:0:0:
64,192,149965,128,0,150115:0:0:0:0:
320,192,150115,1,0,0:0:0:80:KICK.wav
448,192,150115,128,0,150565:0:0:0:0:
64,192,150565,1,0,0:0:0:80:KICK.wav
192,192,150565,1,0,0:0:0:0:
320,192,150715,1,0,0:0:0:80:KICK.wav
448,192,150715,128,0,151165:0:0:0:0:
192,192,151165,128,0,151315:0:0:0:0:
320,192,151315,1,0,0:0:0:80:KICK.wav
448,192,151315,128,0,151915:0:0:0:0:
192,192,151915,1,0,0:0:0:80:KICK.wav
64,192,151915,128,0,152365:0:0:0:0:
448,192,152365,128,0,152515:0:0:0:0:
192,192,152515,1,0,0:0:0:80:KICK.wav
64,192,152515,128,0,152965:0:0:0:0:
320,192,152965,1,0,0:0:0:80:KICK.wav
448,192,152965,1,0,0:0:0:0:
192,192,153115,1,0,0:0:0:80:KICK.wav
64,192,153115,128,0,153565:0:0:0:0:
320,192,153565,128,0,153715:0:0:0:0:
192,192,153715,1,0,0:0:0:80:KICK.wav
64,192,153715,128,0,154315:0:0:0:0:
320,192,154315,128,0,154915:0:0:0:80:KICK.wav
448,192,154315,1,0,0:0:0:0:
64,192,154915,1,0,0:0:0:80:KICK.wav
192,192,154915,128,0,155365:0:0:0:0:
320,192,155365,1,0,0:0:0:80:KICK.wav
448,192,155365,1,0,0:0:0:0:
64,192,155515,1,0,0:0:0:80:KICK.wav
192,192,155515,128,0,156115:0:0:0:0:
64,192,156115,1,0,0:0:0:80:KICK.wav
320,192,156115,128,0,158515:0:0:0:0:
64,192,158515,128,0,159115:0:0:0:80:KICK.wav
448,192,158515,128,0,159115:0:0:0:0:
448,192,166565,5,0,0:0:0:0:
64,192,167015,1,0,0:0:0:0:
448,192,167465,5,0,0:0:0:0:
64,192,167915,5,0,0:0:0:0:
448,192,168365,1,0,0:0:0:0:
64,192,168815,1,0,0:0:0:0:
448,192,169265,1,0,0:0:0:0:
64,192,169715,1,0,0:0:0:0:
448,192,170165,1,0,0:0:0:0:
64,192,170615,1,0,0:0:0:0:
448,192,171065,1,0,0:0:0:0:
64,192,171515,1,0,0:0:0:0:
448,192,171965,1,0,0:0:0:0:
64,192,172415,1,0,0:0:0:0:
448,192,172865,1,0,0:0:0:0:
64,192,173315,1,0,0:0:0:0:
448,192,173765,1,0,0:0:0:0:
64,192,174215,1,0,0:0:0:0:
448,192,174665,1,0,0:0:0:0:
64,192,175115,1,0,0:0:0:0:
448,192,175565,1,0,0:0:0:0:
64,192,176015,1,0,0:0:0:0:
320,192,176115,128,0,176515:0:0:0:0:
64,192,176515,128,0,176890:0:0:0:60:KICK.wav
448,192,176890,128,0,177115:0:0:0:0:
192,192,177115,128,0,177415:0:0:0:0:
320,192,177415,128,0,177565:0:0:0:0:
448,192,177565,1,0,0:0:0:0:
192,192,177715,1,0,0:0:0:8:HI-HAT.wav
64,192,177715,1,0,0:0:0:35:KICK.wav
448,192,178015,1,0,0:0:0:20:OPEN-HI-HAT-B2.wav
64,192,178015,128,0,178315:0:0:0:35:KICK.wav
320,192,178315,1,0,0:0:0:30:SNARE1-C.wav
320,192,178815,1,0,0:0:0:35:KICK.wav
192,192,178915,1,0,0:0:0:35:KICK.wav
448,192,179065,1,0,0:0:0:8:HI-HAT.wav
192,192,179215,1,0,0:0:0:20:OPEN-HI-HAT-B2.wav
64,192,179215,128,0,179515:0:0:0:35:KICK.wav
320,192,179515,128,0,180115:0:0:0:30:SNARE1-C.wav
192,192,180115,1,0,0:0:0:35:KICK.wav
448,192,180265,1,0,0:0:0:8:HI-HAT.wav
64,192,180415,1,0,0:0:0:20:OPEN-HI-HAT-B2.wav
320,192,180415,128,0,180715:0:0:0:35:KICK.wav
192,192,180715,1,0,0:0:0:30:SNARE1-C.wav
448,192,180865,1,0,0:0:0:35:KICK.wav
448,192,181215,1,0,0:0:0:35:KICK.wav
64,192,181315,128,0,181615:0:0:0:8:HI-HAT.wav
192,192,181615,1,0,0:0:0:20:OPEN-HI-HAT-B2.wav
448,192,181615,128,0,181915:0:0:0:35:KICK.wav
320,192,181915,1,0,0:0:0:30:SNARE1-C.wav
64,192,182065,1,0,0:0:0:8:HI-HAT.wav
320,192,182215,1,0,0:0:0:35:KICK.wav
192,192,182315,1,0,0:0:0:35:KICK.wav
320,192,182415,1,0,0:0:0:35:KICK.wav
192,192,182515,1,0,0:0:0:35:KICK.wav
192,192,182815,1,0,0:0:0:20:OPEN-HI-HAT-B2.wav
448,192,182815,128,0,183115:0:0:0:35:KICK.wav
64,192,183115,1,0,0:0:0:30:SNARE1-C.wav
320,192,183265,1,0,0:0:0:8:HI-HAT.wav
320,192,183415,1,0,0:0:0:8:HI-HAT.wav
448,192,183565,1,0,0:0:0:35:KICK.wav
64,192,183715,1,0,0:0:0:35:KICK.wav
320,192,183865,1,0,0:0:0:8:HI-HAT.wav
448,192,184015,128,0,184315:0:0:0:20:OPEN-HI-HAT-B2.wav
64,192,184015,1,0,0:0:0:35:KICK.wav
320,192,184165,1,0,0:0:0:8:HI-HAT.wav
192,192,184315,1,0,0:0:0:30:SNARE1-C.wav
320,192,184465,1,0,0:0:0:8:HI-HAT.wav
64,192,184615,128,0,184915:0:0:0:35:KICK.wav
320,192,184915,128,0,185215:0:0:0:25:KICK.wav
64,192,185215,1,0,0:0:0:20:OPEN-HI-HAT-B2.wav
192,192,185215,128,0,185515:0:0:0:25:KICK.wav
448,192,185515,1,0,0:0:0:30:SNARE1-C.wav
64,192,185665,1,0,0:0:0:35:KICK.wav
192,192,185815,1,0,0:0:0:8:HI-HAT.wav
448,192,185965,1,0,0:0:0:35:KICK.wav
64,192,186115,1,0,0:0:0:35:KICK.wav
448,192,186265,1,0,0:0:0:8:HI-HAT.wav
320,192,186415,1,0,0:0:0:20:OPEN-HI-HAT-B2.wav
192,192,186415,128,0,186715:0:0:0:35:KICK.wav
64,192,186715,1,0,0:0:0:30:SNARE1-C.wav
64,192,186865,1,0,0:0:0:30:SNARE1-C.wav
448,192,187015,1,0,0:0:0:30:SNARE1-C.wav
448,192,187165,1,0,0:0:0:30:SNARE1-C.wav
192,192,187315,1,0,0:0:0:20:SNARE1-C.wav
448,192,187615,1,0,0:0:0:18:OPEN-HI-HAT-B2.wav
320,192,187615,128,0,187915:0:0:0:25:KICK.wav
192,192,187915,1,0,0:0:0:20:SNARE1-C.wav
64,192,188215,1,0,0:0:0:20:HI-HAT.wav
448,192,188415,1,0,0:0:0:25:KICK.wav
192,192,188515,1,0,0:0:0:20:SNARE1-C.wav
64,192,188815,1,0,0:0:0:18:OPEN-HI-HAT-B2.wav
448,192,188815,128,0,189115:0:0:0:25:KICK.wav
192,192,189115,1,0,0:0:0:20:SNARE1-C.wav
64,192,189415,1,0,0:0:0:20:HI-HAT.wav
320,192,189715,1,0,0:0:0:18:OPEN-HI-HAT-B2.wav
448,192,189715,128,0,189865:0:0:0:30:KICK.wav
192,192,190015,1,0,0:0:0:18:OPEN-HI-HAT-B2.wav
64,192,190015,128,0,190165:0:0:0:30:KICK.wav
320,192,190315,1,0,0:0:0:0:
64,192,190465,1,0,0:0:0:25:KICK.wav
448,192,190615,1,0,0:0:0:20:HI-HAT.wav
192,192,190815,1,0,0:0:0:25:KICK.wav
320,192,190915,1,0,0:0:0:25:KICK.wav
192,192,191215,1,0,0:0:0:18:OPEN-HI-HAT-B2.wav
64,192,191215,128,0,191515:0:0:0:25:KICK.wav
448,192,191515,128,0,191815:0:0:0:30:SNARE1-C.wav
320,192,191815,1,0,0:0:0:0:
64,192,192115,128,0,195715:0:0:0:100:KICK.wav
448,192,192115,1,0,0:0:0:0:
192,192,192315,1,0,0:0:0:0:
448,192,192415,1,0,0:0:0:0:
448,192,192615,1,0,0:0:0:0:
192,192,192715,1,0,0:0:0:0:
320,192,193015,1,0,0:0:0:0:
448,192,193315,1,0,0:0:0:50:KICK.wav
192,192,193515,1,0,0:0:0:0:
448,192,193615,1,0,0:0:0:0:
448,192,193815,1,0,0:0:0:0:
192,192,193915,1,0,0:0:0:0:
320,192,194215,1,0,0:0:0:0:
448,192,194515,1,0,0:0:0:50:KICK.wav
192,192,194715,1,0,0:0:0:0:
448,192,194815,1,0,0:0:0:0:
448,192,195015,1,0,0:0:0:0:
192,192,195115,1,0,0:0:0:0:
320,192,195415,1,0,0:0:0:0:
192,192,195715,1,0,0:0:0:80:KICK.wav
448,192,195715,1,0,0:0:0:0:
320,192,195915,1,0,0:0:0:0:
192,192,196052,1,0,0:0:0:0:
192,192,196215,1,0,0:0:0:0:
320,192,196352,1,0,0:0:0:0:
448,192,196515,1,0,0:0:0:0:
64,192,196915,1,0,0:0:0:80:KICK.wav
320,192,196915,128,0,197215:0:0:0:0:
64,192,197315,128,0,197515:0:0:0:0:
320,192,197515,1,0,0:0:0:90:SNARE2.wav
192,192,197515,128,0,197815:0:0:0:0:
448,192,197815,1,0,0:0:0:20:HI-HAT.wav
320,192,198115,1,0,0:0:0:0:
64,192,198115,1,0,0:0:0:0:
320,192,198565,1,0,0:0:0:80:KICK.wav
320,192,198715,1,0,0:0:0:90:SNARE2.wav
64,192,198715,1,0,0:0:0:0:
192,192,199015,128,0,199127:0:0:0:20:HI-HAT.wav
448,192,199127,1,0,0:0:0:0:
64,192,199315,128,0,199540:0:0:0:80:KICK.wav
448,192,199540,1,0,0:0:0:20:HI-HAT.wav
192,192,199615,1,0,0:0:0:0:
320,192,199715,1,0,0:0:0:0:
64,192,199815,1,0,0:0:0:0:
320,192,199915,1,0,0:0:0:90:SNARE2.wav
448,192,199915,1,0,0:0:0:0:
192,192,200215,1,0,0:0:0:20:HI-HAT.wav
448,192,200365,1,0,0:0:0:80:KICK.wav
192,192,200515,128,0,200740:0:0:0:0:
448,192,200740,128,0,200965:0:0:0:80:KICK.wav
320,192,200965,128,0,201115:0:0:0:0:
192,192,201115,1,0,0:0:0:90:SNARE2.wav
64,192,201115,128,0,201265:0:0:0:0:
320,192,201415,128,0,201565:0:0:0:20:HI-HAT.wav
448,192,201565,1,0,0:0:0:20:HI-HAT.wav
64,192,201715,1,0,0:0:0:80:KICK.wav
192,192,201715,128,0,202115:0:0:0:0:
448,192,202115,128,0,202315:0:0:0:0:
64,192,202315,1,0,0:0:0:90:SNARE2.wav
320,192,202315,128,0,202615:0:0:0:0:
192,192,202615,1,0,0:0:0:0:
320,192,202765,1,0,0:0:0:20:HI-HAT.wav
64,192,202915,1,0,0:0:0:0:
320,192,203015,1,0,0:0:0:0:
192,192,203115,1,0,0:0:0:0:
448,192,203215,1,0,0:0:0:0:
64,192,203365,1,0,0:0:0:20:HI-HAT.wav
320,192,203515,1,0,0:0:0:90:SNARE2.wav
448,192,203515,1,0,0:0:0:0:
192,192,203815,128,0,203965:0:0:0:0:
448,192,203965,1,0,0:0:0:20:HI-HAT.wav
64,192,204115,128,0,204415:0:0:0:80:KICK.wav
192,192,204415,128,0,204715:0:0:0:0:
64,192,204715,1,0,0:0:0:90:SNARE2.wav
448,192,204715,1,0,0:0:0:0:
448,192,204865,1,0,0:0:0:0:
320,192,205015,128,0,205165:0:0:0:0:
192,192,205165,1,0,0:0:0:80:KICK.wav
64,192,205165,128,0,205315:0:0:0:0:
320,192,205465,128,0,205615:0:0:0:20:HI-HAT.wav
448,192,205690,128,0,205840:0:0:0:20:HI-HAT.wav
320,192,205915,128,0,206215:0:0:0:80:KICK.wav
64,192,205915,128,0,206215:0:0:0:0:
192,192,206365,1,0,0:0:0:90:SNARE2.wav
448,192,206365,1,0,0:0:0:0:
64,192,206515,128,0,206815:0:0:0:80:KICK.wav
448,192,206915,128,0,207115:0:0:0:0:
192,192,207115,1,0,0:0:0:90:SNARE2.wav
320,192,207115,128,0,207415:0:0:0:0:
64,192,207415,1,0,0:0:0:20:HI-HAT.wav
320,192,207565,1,0,0:0:0:20:HI-HAT.wav
192,192,207715,1,0,0:0:0:0:
448,192,207865,1,0,0:0:0:20:HI-HAT.wav
448,192,208015,1,0,0:0:0:20:HI-HAT.wav
64,192,208165,1,0,0:0:0:80:KICK.wav
64,192,208315,1,0,0:0:0:90:SNARE2.wav
448,192,208315,1,0,0:0:0:0:
192,192,208615,128,0,208915:0:0:0:80:KICK.wav
448,192,208765,1,0,0:0:0:20:HI-HAT.wav
320,192,208915,128,0,209140:0:0:0:80:KICK.wav
448,192,209140,1,0,0:0:0:20:HI-HAT.wav
192,192,209215,1,0,0:0:0:0:
320,192,209315,1,0,0:0:0:0:
64,192,209415,1,0,0:0:0:0:
320,192,209515,1,0,0:0:0:90:SNARE2.wav
448,192,209515,1,0,0:0:0:0:
192,192,209815,1,0,0:0:0:20:HI-HAT.wav
448,192,209965,1,0,0:0:0:80:KICK.wav
64,192,210115,128,0,210340:0:0:0:20:HI-HAT.wav
192,192,210340,128,0,210565:0:0:0:80:KICK.wav
448,192,210565,128,0,210715:0:0:0:0:
64,192,210715,1,0,0:0:0:90:SNARE2.wav
320,192,210715,128,0,211315:0:0:0:0:
64,192,211315,128,0,211915:0:0:0:80:KICK.wav
192,192,211315,128,0,211915:0:0:0:0:
448,192,211915,128,0,212065:0:0:0:90:SNARE2.wav
320,192,211915,1,0,0:0:0:0:
192,192,212215,1,0,0:0:0:20:HI-HAT.wav
320,192,212365,1,0,0:0:0:25:SNARE1-C.wav
448,192,212365,1,0,0:0:0:0:
448,192,212665,1,0,0:0:0:25:SNARE1-C.wav
64,192,212665,128,0,213115:0:0:0:0:
320,192,212965,1,0,0:0:0:80:KICK.wav
192,192,213115,1,0,0:0:0:90:SNARE2.wav
448,192,213265,1,0,0:0:0:0:
320,192,213415,1,0,0:0:0:20:HI-HAT.wav
320,192,213565,1,0,0:0:0:20:HI-HAT.wav
64,192,213715,1,0,0:0:0:80:KICK.wav
448,192,213940,1,0,0:0:0:80:KICK.wav
64,192,214165,1,0,0:0:0:80:KICK.wav
320,192,214315,1,0,0:0:0:20:HI-HAT.wav
448,192,214465,1,0,0:0:0:20:HI-HAT.wav
64,192,214615,1,0,0:0:0:80:KICK.wav
320,192,214765,1,0,0:0:0:90:SNARE2.wav
448,192,214765,1,0,0:0:0:0:
64,192,214915,128,0,215065:0:0:0:80:KICK.wav
192,192,215065,128,0,215215:0:0:0:0:
448,192,215215,128,0,215365:0:0:0:0:
320,192,215365,1,0,0:0:0:0:
64,192,215665,1,0,0:0:0:0:
320,192,215815,1,0,0:0:0:0:
192,192,215965,128,0,216115:0:0:0:0:
64,192,216115,128,0,216715:0:0:0:80:KICK.wav
448,192,216115,128,0,216715:0:0:0:0:
192,192,216715,128,0,217265:0:0:0:90:SNARE2.wav
320,192,216865,128,0,217265:0:0:0:0:
448,192,217115,128,0,217265:0:0:0:0:
64,192,217615,1,0,0:0:0:80:KICK.wav
320,192,217765,128,0,217915:0:0:0:0:
192,192,217915,1,0,0:0:0:90:SNARE2.wav
64,192,217915,1,0,0:0:0:0:
448,192,218065,1,0,0:0:0:20:HI-HAT.wav
192,192,218215,128,0,218365:0:0:0:80:KICK.wav
320,192,218365,1,0,0:0:0:20:HI-HAT.wav
192,192,218515,128,0,218665:0:0:0:80:KICK.wav
320,192,218665,1,0,0:0:0:20:HI-HAT.wav
448,192,218740,128,0,218965:0:0:0:0:
64,192,218965,128,0,219115:0:0:0:0:
192,192,219115,1,0,0:0:0:90:SNARE2.wav
320,192,219115,1,0,0:0:0:0:
448,192,219265,1,0,0:0:0:0:
320,192,219415,1,0,0:0:0:20:HI-HAT.wav
64,192,219565,1,0,0:0:0:80:KICK.wav
320,192,219715,128,0,219940:0:0:0:0:
448,192,219940,128,0,220165:0:0:0:80:KICK.wav
64,192,220165,128,0,220315:0:0:0:0:
320,192,220315,1,0,0:0:0:90:SNARE2.wav
448,192,220315,1,0,0:0:0:0:
192,192,220615,1,0,0:0:0:20:HI-HAT.wav
448,192,220765,128,0,220915:0:0:0:0:
64,192,220915,128,0,221315:0:0:0:80:KICK.wav
448,192,221315,128,0,221515:0:0:0:0:
320,192,221515,128,0,221715:0:0:0:90:SNARE2.wav
192,192,221515,1,0,0:0:0:0:
64,192,221815,128,0,222040:0:0:0:20:HI-HAT.wav
192,192,222040,128,0,222265:0:0:0:0:
320,192,222265,1,0,0:0:0:20:HI-HAT.wav
448,192,222340,128,0,222565:0:0:0:0:
64,192,222565,128,0,222715:0:0:0:80:KICK.wav
448,192,222715,1,0,0:0:0:90:SNARE2.wav
320,192,222715,1,0,0:0:0:0:
192,192,222865,1,0,0:0:0:20:HI-HAT.wav
320,192,223015,1,0,0:0:0:20:HI-HAT.wav
64,192,223165,128,0,223315:0:0:0:0:
320,192,223540,128,0,223765:0:0:0:0:
192,192,223765,128,0,223915:0:0:0:0:
448,192,223915,128,0,224215:0:0:0:0:
64,192,224365,128,0,224515:0:0:0:0:
448,192,224515,1,0,0:0:0:60:KICK.wav
192,192,224665,1,0,0:0:0:0:
320,192,224765,128,0,224965:0:0:0:0:
192,192,224965,128,0,225115:0:0:0:0:
320,192,225265,1,0,0:0:0:0:
448,192,225365,1,0,0:0:0:0:
320,192,225565,1,0,0:0:0:0:
192,192,225715,128,0,226115:0:0:0:80:KICK.wav
64,192,225715,128,0,226115:0:0:0:0:
320,192,226115,128,0,226315:0:0:0:0:
64,192,226315,128,0,226765:0:0:0:80:KICK.wav
192,192,226315,1,0,0:0:0:0:
448,192,226765,128,0,226915:0:0:0:0:
64,192,226915,128,0,227365:0:0:0:80:KICK.wav
192,192,226915,1,0,0:0:0:0:
448,192,227365,1,0,0:0:0:80:KICK.wav
320,192,227365,1,0,0:0:0:0:
64,192,227515,128,0,228115:0:0:0:80:KICK.wav
192,192,227515,1,0,0:0:0:0:
448,192,228115,128,0,228715:0:0:0:80:KICK.wav
320,192,228115,1,0,0:0:0:0:
64,192,228715,128,0,229315:0:0:0:80:KICK.wav
192,192,228715,1,0,0:0:0:0:
320,192,228940,1,0,0:0:0:0:
320,192,229165,1,0,0:0:0:0:
448,192,229315,1,0,0:0:0:80:KICK.wav
192,192,229315,1,0,0:0:0:0:
64,192,229515,1,0,0:0:0:30:HI-HAT.wav
448,192,229615,128,0,229765:0:0:0:80:KICK.wav
64,192,229765,1,0,0:0:0:30:HI-HAT.wav
448,192,229915,128,0,230215:0:0:0:90:SNARE2.wav
320,192,229915,1,0,0:0:0:0:
192,192,230215,1,0,0:0:0:20:HI-HAT.wav
320,192,230365,1,0,0:0:0:0:
64,192,230515,128,0,230815:0:0:0:80:KICK.wav
64,192,230965,128,0,231115:0:0:0:0:
448,192,231115,128,0,231265:0:0:0:90:SNARE2.wav
320,192,231115,1,0,0:0:0:0:
192,192,231265,128,0,231415:0:0:0:0:
320,192,231415,128,0,231565:0:0:0:0:
64,192,231565,1,0,0:0:0:20:HI-HAT.wav
448,192,231715,128,0,232015:0:0:0:0:
192,192,231865,1,0,0:0:0:20:HI-HAT.wav
448,192,232165,128,0,232315:0:0:0:80:KICK.wav
64,192,232315,1,0,0:0:0:90:SNARE2.wav
192,192,232315,1,0,0:0:0:0:
64,192,232540,1,0,0:0:0:0:
64,192,232765,1,0,0:0:0:20:HI-HAT.wav
320,192,232915,1,0,0:0:0:80:KICK.wav
64,192,232990,1,0,0:0:0:0:
448,192,233215,128,0,233515:0:0:0:0:
64,192,233515,1,0,0:0:0:90:SNARE2.wav
320,192,233515,1,0,0:0:0:0:
192,192,233665,128,0,234115:0:0:0:0:
320,192,234115,1,0,0:0:0:45:SNARE2.wav
448,192,234115,1,0,0:0:0:0:
64,192,234315,1,0,0:0:0:0:
320,192,234415,1,0,0:0:0:20:HI-HAT.wav
448,192,234615,1,0,0:0:0:0:
192,192,234715,1,0,0:0:0:60:KICK.wav
320,192,234915,1,0,0:0:0:0:
64,192,235165,5,0,0:0:0:90:SNARE2.wav
192,192,235165,1,0,0:0:0:0:
448,192,235315,128,0,239965:0:0:0:80:KICK.wav
320,192,235315,1,0,0:0:0:0:
