osu file format v14

[General]
AudioFilename: audio.mp3
AudioLeadIn: 0
PreviewTime: 69355
Countdown: 0
SampleSet: Normal
StackLeniency: 0.7
Mode: 0
LetterboxInBreaks: 0
WidescreenStoryboard: 0

[Editor]
Bookmarks: 2771,13933,23701,41840,47422,69747,80910,103236
DistanceSpacing: 0.4
BeatDivisor: 4
GridSize: 4
TimelineZoom: 1.8

[Metadata]
Title:Diablo (VIP)
TitleUnicode:Diablo (VIP)
Artist:Culprate
ArtistUnicode:Culprate
Creator:Yoges
Version:apple's Insane
Source:
Tags:dnb d&b drum n and & bass electronic instrumental edm idm inspected glados ep sheela appleeaterx
BeatmapID:1171239
BeatmapSetID:553119

[Difficulty]
HPDrainRate:6
CircleSize:4
OverallDifficulty:7.5
ApproachRate:9
SliderMultiplier:2
SliderTickRate:1

[Events]
//Background and Video events
0,0,"cropped-1366-768-567500.jpg",0,0
//Break Periods
2,25296,32148
2,36459,40520
//Storyboard Layer 0 (Background)
//Storyboard Layer 1 (Fail)
//Storyboard Layer 2 (Pass)
//Storyboard Layer 3 (Foreground)
//Storyboard Sound Samples

[TimingPoints]
2771,348.837209302326,4,1,2,50,1,0
2771,-160,4,1,2,50,0,0
13933,-150.375939849624,4,1,2,50,0,0
23614,-150.375939849624,4,1,1,50,0,0
23701,-114.285714285714,4,1,1,50,0,0
24747,-105.263157894737,4,1,1,50,0,0
41840,-114.285714285714,4,1,1,50,0,0
43933,-114.285714285714,4,1,1,30,0,0
44282,-114.285714285714,4,1,1,45,0,0
44631,-114.285714285714,4,1,1,55,0,0
46026,-100,4,1,1,55,0,0
47422,-100,4,1,1,50,0,0
53003,-100,4,1,1,50,0,0
68352,-80,4,1,1,50,0,0
68701,-100,4,1,1,50,0,0
71143,-80,4,1,1,50,0,0
71491,-100,4,1,1,50,0,0
74980,-80,4,1,1,50,0,0
75329,-100,4,1,1,50,0,0
76375,-80,4,1,1,50,0,0
76724,-100,4,1,1,50,0,0
79515,-133.333333333333,4,1,1,50,0,0
80561,-80,4,1,1,50,0,0
81084,-100,4,1,1,50,0,0
84747,-80,4,1,1,50,0,0
85096,-100,4,1,1,50,0,0
85794,-80,4,1,1,50,0,0
86491,-100,4,1,1,50,0,0
91201,-100,4,1,1,50,0,0
94864,-80,4,1,1,50,0,0
95212,-100,4,1,1,50,0,0
97131,-80,4,1,1,50,0,0
97654,-100,4,1,1,50,0,0
100096,-80,4,1,1,50,0,0
100794,-100,4,1,1,50,0,0
102538,-133.333333333333,4,1,1,50,0,0

[Colours]
Combo1 : 206,172,121
Combo2 : 103,143,101
Combo3 : 95,147,177
Combo4 : 172,94,115

[HitObjects]
60,132,2771,6,0,L|192:112,1,125,4|0,2:0|2:0,2:0:0:0:
156,36,3294,1,0,2:0:0:0:
252,164,3468,2,0,P|268:108|240:48,2,125,0|0|0,3:0|3:0|2:0,2:0:0:0:
52,304,4515,5,0,3:0:0:0:
132,288,4689,1,0,2:0:0:0:
52,304,4864,1,0,3:0:0:0:
428,316,5387,1,0,2:0:0:0:
348,332,5561,6,0,L|376:204,1,125,0|0,2:0|2:0,2:0:0:0:
488,116,6084,1,0,2:0:0:0:
400,100,6259,2,0,L|426:222,2,125,0|0|0,3:0|3:0|2:0,2:0:0:0:
208,16,7305,5,0,3:0:0:0:
129,38,7479,1,0,2:0:0:0:
208,16,7654,1,0,3:0:0:0:
36,248,8178,1,0,2:0:0:0:
115,226,8352,6,0,L|135:359,1,125,0|0,2:0|2:0,2:0:0:0:
134,349,8875,1,0,2:0:0:0:
276,292,9050,2,0,L|208:304,1,62.4999999999999,0|0,3:0|2:0,2:0:0:0:
356,328,9398,6,0,P|404:360|476:356,2,125,0|0|0,3:0|2:0|3:0,2:0:0:0:
508,280,10445,1,0,3:0:0:0:
260,176,10968,1,0,2:0:0:0:
292,100,11143,6,0,L|424:76,1,125,0|0,2:0|2:0,2:0:0:0:
472,140,11666,1,0,2:0:0:0:
336,12,11840,5,0,3:0:0:0:
256,192,11927,12,0,13584,2:0:0:0:
44,184,13933,6,0,P|80:148|164:148,1,132.999994520569,4|0,2:0|2:0,2:0:0:0:
158,145,14457,1,0,2:0:0:0:
132,284,14631,2,0,L|116:212,1,66.4999972602845,0|0,3:0|2:0,2:0:0:0:
220,292,14980,2,0,L|205:356,1,66.4999972602845,0|0,3:0|2:0,2:0:0:0:
244,204,15329,5,0,2:0:0:0:
244,204,15677,1,0,3:0:0:0:
324,244,15852,1,0,2:0:0:0:
424,144,16026,2,0,L|352:160,1,66.4999972602845,0|0,3:0|2:0,2:0:0:0:
404,60,16375,2,0,L|332:76,1,66.4999972602845,0|0,2:0|2:0,2:0:0:0:
172,120,16724,6,0,P|108:124|60:80,1,132.999994520569,0|0,2:0|2:0,2:0:0:0:
59,79,17247,1,0,2:0:0:0:
176,152,17422,2,0,L|160:228,1,66.4999972602845,0|0,3:0|2:0,2:0:0:0:
268,152,17771,6,0,L|244:12,2,132.999994520569,0|0|0,3:0|2:0|3:0,2:0:0:0:
284,228,18643,1,0,2:0:0:0:
436,196,18817,1,0,3:0:0:0:
416,276,18991,1,0,2:0:0:0:
452,208,19166,1,0,2:0:0:0:
432,288,19340,1,0,2:0:0:0:
412,372,19515,6,0,L|268:344,1,132.999994520569,0|0,2:0|2:0,2:0:0:0:
224,288,20038,1,0,2:0:0:0:
116,352,20212,2,0,L|36:364,1,66.4999972602845,0|0,3:0|2:0,2:0:0:0:
36,280,20561,2,0,L|116:268,1,66.4999972602845,0|0,3:0|2:0,2:0:0:0:
296,244,20910,6,0,P|252:208|164:228,1,132.999994520569,0|0,2:0|3:0,2:0:0:0:
179,215,21433,1,0,2:0:0:0:
152,88,21608,2,0,P|160:52|184:20,1,66.4999972602845,0|0,3:0|2:0,2:0:0:0:
104,164,21957,2,0,P|76:139|61:102,1,66.4999972602845,0|0,2:0|2:0,2:0:0:0:
248,88,22305,5,0,2:0:0:0:
248,88,22654,1,0,2:0:0:0:
332,56,22829,1,0,2:0:0:0:
460,136,23003,2,0,L|392:120,1,66.4999972602845,0|0,3:0|2:0,2:0:0:0:
309,245,23352,2,0,L|429:229,1,99.7499958904267,0|0,3:0|2:0,2:0:0:0:
421,217,23701,6,0,P|409:269|405:297,1,43.7500004172325,4|0,3:0|3:0,0:0:0:0:
384,89,23875,2,0,P|396:37|400:9,1,43.7500004172325,4|0,3:0|3:0,0:0:0:0:
460,136,24050,1,4,3:0:0:0:
309,245,24224,6,0,L|259:251,2,43.7500004172325,4|0|2,3:0|3:0|0:0,0:0:0:0:
246,162,24573,1,0,3:0:0:0:
200,363,24747,2,0,B|212:271|172:319|184:223,1,142.499996194839,0|0,0:0|2:0,0:0:0:0:
183,224,25096,5,8,0:0:0:0:
256,192,33468,12,0,35910,0:0:0:0:
256,192,36259,5,8,0:0:0:0:
52,128,41840,5,8,0:0:0:0:
120,48,42015,2,0,B|140:172|140:172|168:100,1,175.00000166893,0|0,0:0|0:0,0:0:0:0:
256,68,42538,2,0,L|212:60,1,43.7500004172325,8|0,0:0|0:0,0:0:0:0:
260,252,43061,2,0,L|304:244,1,43.7500004172325,0|0,0:0|0:0,0:0:0:0:
448,328,43236,1,8,0:0:0:0:
444,240,43410,6,0,B|348:252|404:316|296:328,1,175.00000166893,0|0,3:0|3:0,0:0:0:0:
172,244,43933,1,8,0:0:0:0:
172,244,44021,1,0,3:0:0:0:
172,244,44108,1,0,3:0:0:0:
172,244,44195,1,0,3:0:0:0:
172,244,44282,5,0,3:0:0:0:
114,269,44369,1,0,3:0:0:0:
66,230,44456,1,0,3:0:0:0:
78,169,44543,1,0,3:0:0:0:
138,151,44631,6,0,L|124:88,1,43.7500004172325,4|0,3:0|0:0,0:0:0:0:
296,68,44805,2,0,L|310:131,1,43.7500004172325,0|0,0:0|0:0,0:0:0:0:
228,156,44980,6,0,L|214:93,3,43.7500004172325,4|0|0|0,3:0|0:0|0:0|0:0,0:0:0:0:
312,200,45329,6,0,L|296:252,1,43.7500004172325,4|0,3:0|0:0,0:0:0:0:
448,364,45503,1,0,0:0:0:0:
455,337,45590,2,0,L|467:295,1,43.7500004172325,0|8,0:0|0:0,0:0:0:0:
388,252,45765,2,0,L|372:304,1,43.7500004172325,0|4,0:0|3:0,0:0:0:0:
308,360,45939,1,0,0:0:0:0:
308,360,46026,6,0,P|260:324|212:324,1,99.9999999999999,0|0,0:0|0:0,0:0:0:0:
112,336,46288,2,0,P|167:312|191:270,1,99.9999999999999,0|0,0:0|0:0,0:0:0:0:
312,200,46550,2,0,L|296:256,1,50,0|0,0:0|0:0,0:0:0:0:
208,76,46724,6,0,B|228:108|216:172|216:172|244:112|300:104,1,200,0|0,0:0|0:0,0:0:0:0:
488,144,47422,6,0,P|460:164|436:172,1,50,4|0,0:0|0:0,0:0:0:0:
292,16,47596,2,0,B|376:32|324:72|436:84,1,150,0|0,0:0|0:0,0:0:0:0:
421,82,47945,1,0,0:0:0:0:
283,250,48119,6,0,B|303:206|303:206|287:98,1,150,8|0,0:0|0:0,0:0:0:0:
212,192,48468,2,0,B|192:236|192:236|208:344,1,150,0|0,0:0|0:0,0:0:0:0:
288,328,48817,1,0,0:0:0:0:
40,280,48991,5,0,0:0:0:0:
40,280,49079,1,0,0:0:0:0:
40,280,49166,2,0,L|56:224,1,50,0|0,0:0|0:0,0:0:0:0:
160,200,49340,2,0,L|144:256,1,50,0|0,0:0|0:0,0:0:0:0:
80,128,49515,5,8,0:0:0:0:
80,128,50038,2,0,L|96:73,1,50,0|0,0:0|0:0,0:0:0:0:
297,9,50212,6,0,P|257:69|177:65,1,150,4|0,0:0|0:0,0:0:0:0:
185,70,50561,1,0,0:0:0:0:
284,152,50736,2,0,L|344:140,1,50,0|0,0:0|0:0,0:0:0:0:
476,52,50910,1,8,0:0:0:0:
496,240,51084,1,0,0:0:0:0:
336,232,51259,6,0,B|404:212|404:212|424:160|424:160|524:132,1,200,0|0,0:0|0:0,0:0:0:0:
392,320,51782,1,0,0:0:0:0:
344,332,51869,1,0,0:0:0:0:
295,323,51956,1,0,0:0:0:0:
256,292,52043,1,0,0:0:0:0:
236,248,52131,2,0,L|184:260,1,50,0|0,0:0|0:0,0:0:0:0:
8,300,52305,5,8,0:0:0:0:
72,112,52480,1,0,0:0:0:0:
64,363,52654,2,0,B|105:301|105:301|171:346,1,150,0|0,0:0|0:0,0:0:0:0:
167,343,53003,5,4,0:0:0:0:
24,208,53177,1,0,0:0:0:0:
24,208,53265,1,0,0:0:0:0:
24,208,53352,2,0,L|8:148,2,50,0|0|0,0:0|0:0|0:0,0:0:0:0:
209,120,53701,2,0,L|185:236,1,99.9999999999999,8|0,0:0|0:0,0:0:0:0:
212,12,54050,2,0,B|297:24|251:61|355:67,1,150,0|0,0:0|0:0,0:0:0:0:
347,66,54398,5,0,0:0:0:0:
448,136,54573,2,0,P|469:91|469:38,1,99.9999999999999,0|0,0:0|0:0,0:0:0:0:
470,42,54834,1,0,0:0:0:0:
470,42,54922,1,0,0:0:0:0:
352,168,55096,5,8,0:0:0:0:
352,168,55620,2,0,L|340:224,1,50,0|0,0:0|0:0,0:0:0:0:
176,348,55794,6,0,P|240:356|304:296,1,150,4|0,0:0|0:0,0:0:0:0:
301,303,56143,1,0,0:0:0:0:
108,216,56317,1,0,0:0:0:0:
108,216,56404,1,0,0:0:0:0:
108,216,56491,2,0,L|92:280,2,50,8|0|0,0:0|0:0|0:0,0:0:0:0:
232,28,56840,2,0,B|256:132|256:132|280:68,1,150,0|0,0:0|0:0,0:0:0:0:
271,91,57189,6,0,P|299:72|333:67,2,66.6666666666667
400,8,57538,6,0,P|420:68|420:76,1,50,0|0,0:0|0:0,0:0:0:0:
380,132,57712,2,0,P|360:192|360:200,1,50,0|0,0:0|0:0,0:0:0:0:
334,265,57887,2,0,P|389:270|438:235,1,100,0|0,0:0|0:0,0:0:0:0:
216,188,58236,2,0,P|140:184|84:228,1,150,0|0,0:0|0:0,0:0:0:0:
84,227,58584,6,0,L|68:296,5,66.6666666666667,0|0|0|0|0|0,0:0|0:0|0:0|0:0|0:0|0:0,0:0:0:0:
24,160,59282,6,0,P|12:132|12:92,1,50,12|0,0:0|0:0,0:0:0:0:
52,32,59457,1,0,0:3:0:0:
200,112,59631,2,0,B|228:80|228:80|92:112,1,150,4|0,2:0|0:0,0:0:0:0:
123,104,59980,6,0,L|104:208,1,100,4|0,0:0|0:0,0:0:0:0:
256,368,60329,2,0,L|268:304,1,50,4|0,2:0|0:0,0:0:0:0:
180,304,60503,2,0,L|168:368,1,50,0|0,0:0|0:0,0:0:0:0:
380,232,60677,5,12,0:0:0:0:
380,232,61201,2,0,L|392:168,1,50,0|0,0:0|0:0,0:0:0:0:
232,148,61375,6,0,P|288:96|364:104,1,150,4|0,0:0|0:0,0:0:0:0:
357,100,61724,2,0,P|369:44|353:-8,1,100,4|0,2:0|0:0,0:0:0:0:
140,108,62073,2,0,P|128:164|144:216,1,100,12|0,0:0|0:0,0:0:0:0:
208,240,62334,1,0,0:0:0:0:
208,240,62422,2,0,L|104:224,1,100,4|0,2:0|0:0,0:0:0:0:
184,356,62771,6,0,P|244:352|288:316,1,100,4|0,0:0|0:0,0:0:0:0:
424,160,63119,1,4,2:0:0:0:
414,209,63206,1,0,0:0:0:0:
404,258,63293,1,0,0:0:0:0:
395,307,63380,1,0,0:0:0:0:
385,356,63468,2,0,L|488:332,1,100,12|0,0:0|0:0,0:0:0:0:
344,96,63817,2,0,B|316:204|316:204|292:136,1,150,0|0,0:0|0:0,0:0:0:0:
303,167,64166,6,0,P|260:132|208:132,1,100,4|0,0:0|0:0,0:0:0:0:
20,216,64515,2,0,P|68:210|105:177,1,100,4|0,2:0|0:0,0:0:0:0:
196,52,64864,2,0,B|180:116|180:116|200:168|200:168|176:256,1,200,12|4,0:0|2:0,0:0:0:0:
105,177,65387,1,0,0:0:0:0:
152,356,65561,6,0,L|264:328,1,100,4|0,0:0|0:0,0:0:0:0:
328,372,65823,1,0,0:0:0:0:
328,372,65910,2,0,L|340:316,1,50,4|0,2:0|0:0,0:0:0:0:
464,344,66084,2,0,L|476:288,1,50,0|0,0:0|0:0,0:0:0:0:
313,118,66259,5,12,0:0:0:0:
313,118,66782,2,0,L|302:166,1,50,0|0,0:0|0:0,0:0:0:0:
156,276,66957,5,4,0:0:0:0:
144,176,67131,2,0,B|276:192|176:248|356:268,1,200,0|0,0:0|0:0,0:0:0:0:
144,76,67654,1,12,0:0:0:0:
97,91,67741,1,0,0:0:0:0:
62,127,67828,1,0,0:0:0:0:
46,174,67915,1,0,0:0:0:0:
53,223,68003,2,0,L|36:288,2,50,4|0|0,2:0|0:0|0:0,0:0:0:0:
224,8,68352,6,0,P|248:48|248:88,2,83.3333333333333
144,176,68701,6,0,L|208:152,1,50,0|0,0:0|0:0,0:0:0:0:
280,168,68875,2,0,L|216:192,1,50
176,260,69050,1,8,0:0:0:0:
384,364,69224,1,0,0:0:0:0:
384,364,69311,1,0,0:0:0:0:
384,364,69398,2,0,B|412:260|412:260|360:304,1,150,0|0,0:0|0:0,0:0:0:0:
379,287,69747,6,0,L|328:272,2,50,4|0|0,2:0|0:0|0:0,0:0:0:0:
448,168,70096,1,0,0:0:0:0:
261,208,70271,1,0,0:0:0:0:
231,247,70358,1,0,0:0:0:0:
233,296,70445,2,0,L|221:348,1,50,8|0,0:0|0:0,0:0:0:0:
319,321,70619,2,0,L|331:269,1,50,0|0,0:0|0:0,0:0:0:0:
261,112,70794,1,0,0:0:0:0:
384,48,70968,1,0,0:0:0:0:
384,48,71055,1,0,0:0:0:0:
384,48,71143,6,0,P|364:116|364:132,1,62.5,0|0,0:0|0:0,0:0:0:0:
448,168,71317,2,0,P|468:100|468:84,1,62.5,0|0,0:0|0:0,0:0:0:0:
360,204,71491,6,0,L|300:188,1,50,0|0,0:0|0:0,0:0:0:0:
380,304,71666,2,0,L|320:288,1,50,0|0,0:0|0:0,0:0:0:0:
160,376,71840,6,0,B|208:248|208:248|204:288|236:312,1,200,8|0,0:0|0:0,0:0:0:0:
204,148,72364,1,0,0:0:0:0:
80,248,72538,5,4,2:0:0:0:
80,248,72887,2,0,L|20:264,1,50,0|0,0:0|0:0,0:0:0:0:
104,156,73061,2,0,L|44:172,1,50,0|0,0:0|0:0,0:0:0:0:
132,60,73236,1,8,0:0:0:0:
172,88,73323,1,0,0:0:0:0:
196,131,73410,1,0,0:0:0:0:
197,181,73497,1,0,0:0:0:0:
176,226,73584,2,0,L|224:213,2,50,0|0|0,0:0|0:0|0:0,0:0:0:0:
331,157,73933,6,0,B|298:294|298:294|349:234,1,200,0|0,0:0|0:0,0:0:0:0:
504,229,74457,1,0,0:0:0:0:
504,229,74544,1,0,0:0:0:0:
504,229,74631,2,0,L|392:197,1,100,8|0,0:0|0:0,0:0:0:0:
310,62,74980,6,0,B|202:82|282:139|128:147,1,187.5,0|0,0:0|0:0,0:0:0:0:
150,145,75329,6,0,L|132:86,2,50,4|0|0,2:0|0:0|0:0,0:0:0:0:
225,229,75677,1,0,0:0:0:0:
181,252,75764,1,0,0:0:0:0:
131,254,75851,1,0,0:0:0:0:
86,233,75938,1,0,0:0:0:0:
55,195,76026,2,0,L|23:296,1,100,8|0,0:0|0:0,0:0:0:0:
64,368,76288,1,0,0:0:0:0:
64,368,76375,6,0,P|103:346|160:345,1,62.5,0|0,0:0|0:0,0:0:0:0:
214,376,76550,2,0,P|243:367|269:350,1,62.5,0|0,0:0|0:0,0:0:0:0:
225,229,76724,6,0,L|210:291,1,50,0|0,0:0|0:0,0:0:0:0:
319,211,76898,2,0,L|304:273,1,50,0|0,0:0|0:0,0:0:0:0:
417,200,77073,2,0,L|402:262,2,50,0|0|0,0:0|0:0|0:0,0:0:0:0:
410,24,77422,1,8,0:0:0:0:
452,110,77596,2,0,P|369:111|331:-17,1,200,0|0,0:0|0:0,0:0:0:0:
212,119,78119,5,4,2:0:0:0:
125,46,78294,2,0,L|233:23,1,100,0|0,0:0|0:0,0:0:0:0:
136,185,78643,1,0,0:0:0:0:
136,185,78730,1,0,0:0:0:0:
136,185,78817,2,0,L|28:208,1,100,8|0,0:0|0:0,0:0:0:0:
212,119,79166,1,0,0:0:0:0:
284,323,79340,2,0,L|272:384,1,50,0|0,0:0|0:0,0:0:0:0:
202,297,79515,6,0,B|159:302|131:345|131:345|135:277|211:219|292:234,1,300.000011444092,0|8,0:0|0:0,0:0:0:0:
451,217,80387,1,0,0:0:0:0:
373,343,80561,6,0,B|407:220|333:297|383:151,1,187.5,0|0,0:0|0:0,0:0:0:0:
379,161,80910,5,4,2:0:0:0:
339,13,81084,2,0,B|292:141|292:141|275:48,1,200,2|0,0:0|0:0,0:0:0:0:
85,33,81608,1,10,0:0:0:0:
183,53,81782,1,0,0:0:0:0:
68,50,81957,1,0,0:0:0:0:
165,71,82131,6,0,L|267:50,1,100,2|0,0:0|0:0,0:0:0:0:
98,137,82480,2,0,P|70:192|74:232,1,100,2|0,0:0|0:0,0:0:0:0:
153,200,82741,1,0,0:0:0:0:
153,200,82829,2,0,L|217:187,1,50,0|0,0:0|0:0,0:0:0:0:
379,161,83003,5,10,0:0:0:0:
379,161,83526,1,0,0:0:0:0:
315,233,83701,6,0,B|284:179|284:179|315:43,1,200,4|0,2:0|0:0,0:0:0:0:
314,44,84137,1,0,0:0:0:0:
314,44,84224,1,0,0:0:0:0:
476,182,84398,2,0,L|377:160,1,100,8|0,0:0|0:0,0:0:0:0:
153,299,84747,6,0,B|239:287|239:287|290:326|290:326|416:311,1,250,0|0,0:0|0:0,0:0:0:0:
388,314,85271,1,2,3:0:0:0:
327,184,85445,6,0,L|312:240,1,50,2|0,3:0|0:0,0:0:0:0:
250,142,85619,2,0,L|235:198,1,50,2|0,3:0|0:0,0:0:0:0:
327,92,85794,1,8,0:0:0:0:
241,55,85968,6,0,B|175:62|153:129|153:129|124:87|150:44,1,187.5,0|0,0:0|0:0,0:0:0:0:
139,67,86317,1,0,0:0:0:0:
29,197,86491,5,4,2:0:0:0:
115,227,86666,2,0,L|216:199,1,100,2|0,0:0|0:0,0:0:0:0:
211,200,86927,1,0,0:0:0:0:
211,200,87015,1,0,0:0:0:0:
356,321,87189,2,0,P|310:324|264:288,1,100,10|0,0:0|0:0,0:0:0:0:
313,161,87538,2,0,P|359:158|405:194,1,100,0|2,0:0|0:0,0:0:0:0:
451,276,87887,6,0,L|467:388,1,100,0|2,0:0|0:0,0:0:0:0:
401,188,88236,2,0,L|416:136,3,50,0|0|0|0,0:0|0:0|0:0|0:0,0:0:0:0:
440,104,88584,5,10,0:0:0:0:
440,104,89108,1,0,0:0:0:0:
350,27,89282,6,0,B|310:61|310:61|162:33,1,200,4|0,2:0|0:0,0:0:0:0:
165,33,89718,1,0,0:0:0:0:
165,33,89805,1,0,0:0:0:0:
73,88,89980,2,0,P|48:137|55:183,1,100,8|0,0:0|0:0,0:0:0:0:
120,227,90241,1,0,0:0:0:0:
120,227,90329,2,0,L|103:289,2,50,0|0|0,0:0|0:0|0:0,0:0:0:0:
40,347,90677,5,0,0:0:0:0:
86,364,90764,1,0,0:0:0:0:
135,358,90851,1,0,0:0:0:0:
177,331,90938,1,0,0:0:0:0:
201,288,91025,1,0,0:0:0:0:
332,229,91201,6,0,P|349:275|350:302,1,50,0|0,0:0|0:0,0:0:0:0:
235,195,91375,1,8,0:0:0:0:
310,136,91550,5,0,0:0:0:0:
310,136,91898,1,0,0:0:0:0:
310,136,92073,6,0,L|365:122,1,50,4|0,2:0|0:0,0:0:0:0:
294,59,92247,2,0,L|349:45,1,50,2|0,0:0|0:0,0:0:0:0:
421,67,92422,1,0,0:0:0:0:
195,137,92596,1,0,0:0:0:0:
195,137,92683,1,0,0:0:0:0:
195,137,92771,6,0,L|140:123,1,50,10|0,0:0|0:0,0:0:0:0:
211,60,92945,2,0,L|156:46,1,50,0|0,0:0|0:0,0:0:0:0:
84,68,93120,1,0,0:0:0:0:
10,163,93294,6,0,B|36:297|36:297|62:215,1,200,2|2,0:0|0:0,0:0:0:0:
218,181,93817,1,0,0:0:0:0:
218,181,93904,1,0,0:0:0:0:
218,181,93991,2,0,L|201:237,1,50,0|0,0:0|0:0,0:0:0:0:
123,175,94166,5,10,0:0:0:0:
123,175,94689,1,0,0:0:0:0:
190,97,94864,6,0,P|213:130|219:163,1,62.5,4|0,2:0|0:0,0:0:0:0:
282,214,95038,2,0,P|303:180|308:149,1,62.5,2|0,3:0|0:0,0:0:0:0:
260,38,95212,6,0,P|285:90|286:99,1,50,2|0,3:0|0:0,0:0:0:0:
371,97,95386,2,0,P|396:45|397:36,1,50,2|0,3:0|0:0,0:0:0:0:
395,191,95561,6,0,L|376:296,1,100,8|0,0:0|0:0,0:0:0:0:
469,295,95910,1,0,0:0:0:0:
289,258,96084,6,0,B|153:280|247:326|100:339,1,200,0|2,0:0|3:0,0:0:0:0:
140,195,96608,2,0,L|123:261,1,50,2|0,3:0|0:0,0:0:0:0:
66,147,96782,2,0,L|49:213,1,50,2|0,3:0|0:0,0:0:0:0:
148,108,96957,1,8,0:0:0:0:
307,81,97131,6,0,B|251:137|260:232|260:232|252:162|195:149,1,250,0|0,0:0|0:0,0:0:0:0:
356,181,97654,5,4,2:0:0:0:
356,181,97741,1,0,0:0:0:0:
356,181,97829,1,2,0:0:0:0:
492,291,98003,2,0,L|436:278,3,50,0|0|0|0,0:0|0:0|0:0|0:0,0:0:0:0:
432,244,98352,2,0,L|400:362,1,100,10|0,0:0|0:0,0:0:0:0:
450,142,98701,1,0,0:0:0:0:
356,181,98875,6,0,P|311:213|265:219,1,100,2|0,0:0|0:0,0:0:0:0:
77,184,99224,2,0,P|122:152|168:146,1,100,2|0,0:0|0:0,0:0:0:0:
188,221,99486,1,0,0:0:0:0:
188,221,99573,2,0,L|176:282,1,50,0|0,0:0|0:0,0:0:0:0:
91,73,99747,5,10,0:0:0:0:
91,73,100271,1,0,0:0:0:0:
210,3,100445,6,0,L|190:72,1,62.5,4|0,2:0|0:0,0:0:0:0:
283,43,100619,2,0,L|263:112,1,62.5,2|0,3:0|0:0,0:0:0:0:
372,107,100794,6,0,L|390:170,1,50,2|0,3:0|0:0,0:0:0:0:
448,86,100968,2,0,L|468:152,1,50,2|0,3:0|0:0,0:0:0:0:
301,187,101143,6,0,L|277:297,1,100,8|0,0:0|0:0,0:0:0:0:
88,369,101491,2,0,L|66:271,1,100,0|0,0:0|0:0,0:0:0:0:
59,238,101753,1,0,0:0:0:0:
59,238,101840,6,0,P|113:199|160:192,1,100,0|0,0:0|0:0,0:0:0:0:
130,86,102189,2,0,P|195:96|233:124,1,100,0|0,0:0|0:0,0:0:0:0:
279,20,102538,6,0,B|334:63|325:160|325:160|331:92|368:63,1,262.500010013581,8|0,0:0|2:0,0:0:0:0:
367,63,103236,5,0,0:0:0:0:
