osu file format v14

[General]
AudioFilename: audio.mp3
AudioLeadIn: 0
PreviewTime: 69355
Countdown: 0
SampleSet: Normal
StackLeniency: 0.7
Mode: 0
LetterboxInBreaks: 0
WidescreenStoryboard: 1

[Editor]
Bookmarks: 2771,13933,25096,47422,69747,80910,103236
DistanceSpacing: 0.9
BeatDivisor: 4
GridSize: 4
TimelineZoom: 1.5

[Metadata]
Title:Diablo (VIP)
TitleUnicode:Diablo (VIP)
Artist:Culprate
ArtistUnicode:Culprate
Creator:Yoges
Version:Normal
Source:
Tags:dnb d&b drum n and & bass electronic instrumental edm idm inspected glados ep sheela appleeaterx
BeatmapID:1371567
BeatmapSetID:553119

[Difficulty]
HPDrainRate:4
CircleSize:3.5
OverallDifficulty:5
ApproachRate:5
SliderMultiplier:1
SliderTickRate:1

[Events]
//Background and Video events
0,0,"cropped-1366-768-567500.jpg",0,0
//Break Periods
2,25296,32268
2,36459,40640
//Storyboard Layer 0 (Background)
//Storyboard Layer 1 (Fail)
//Storyboard Layer 2 (Pass)
//Storyboard Layer 3 (Foreground)
//Storyboard Sound Samples

[TimingPoints]
2771,348.837209302326,4,1,2,50,1,0
43236,-100,4,1,1,15,0,0
43933,-100,4,1,1,30,0,0
44631,-100,4,1,1,55,0,0
47422,-100,4,1,1,50,0,0
69747,-100,4,1,1,50,0,1
79515,-100,4,1,1,50,0,0

[Colours]
Combo1 : 206,172,121
Combo2 : 103,143,101
Combo3 : 95,147,177
Combo4 : 172,94,115

[HitObjects]
14,32,2771,5,4,2:0:0:0:
83,88,3119,2,0,L|89:147,1,50,0|0,2:0|2:0,2:0:0:0:
58,172,3468,2,0,P|113:159|171:164,1,100,0|0,3:0|3:0,2:0:0:0:
244,180,4166,1,0,2:0:0:0:
196,256,4515,2,0,L|202:315,1,50,0|0,3:0|2:0,2:0:0:0:
172,340,4864,2,0,B|263:325|238:365|319:349,1,150,0|0,3:0|2:0,2:0:0:0:
361,334,5561,5,0,2:0:0:0:
338,246,5910,2,0,L|343:196,1,50,0|0,2:0|2:0,2:0:0:0:
369,159,6259,2,0,P|321:164|264:124,2,100,0|0|0,3:0|3:0|2:0,2:0:0:0:
450,120,7305,2,0,L|444:70,1,50,0|0,3:0|2:0,2:0:0:0:
457,27,7654,2,0,L|474:175,1,150,0|0,3:0|2:0,2:0:0:0:
467,220,8352,5,0,2:0:0:0:
428,301,8701,2,0,L|378:295,1,50,0|0,2:0|2:0,2:0:0:0:
353,257,9050,2,8,P|342:300|295:339,1,100,0|0,3:0|3:0,2:0:0:0:
215,360,9747,1,0,2:0:0:0:
160,288,10096,2,0,P|127:280|93:278,1,50,0|0,3:0|2:0,2:0:0:0:
66,287,10445,2,0,B|82:192|34:230|49:141,1,150,0|0,3:0|2:0,2:0:0:0:
55,97,11143,5,0,2:0:0:0:
134,138,11491,2,0,P|158:136|183:132,1,50,0|0,2:0|2:0,2:0:0:0:
227,121,11840,2,0,P|217:169|235:223,2,100,0|0|0,3:0|3:0|2:0,2:0:0:0:
285,52,12887,2,0,L|354:54,1,50,0|0,3:0|2:0,2:0:0:0:
376,36,13236,2,0,L|226:31,1,150,0|0,3:0|2:0,2:0:0:0:
181,33,13933,5,4,2:0:0:0:
100,73,14282,2,0,L|104:134,1,50,0|0,2:0|2:0,2:0:0:0:
107,167,14631,2,0,L|46:171,2,50,0|0|0,3:0|2:0|3:0,2:0:0:0:
196,156,15329,5,0,2:0:0:0:
202,245,15677,2,0,L|206:306,1,50,0|0,3:0|2:0,2:0:0:0:
211,339,16026,2,0,L|150:343,2,50,0|0|0,3:0|2:0|2:0,2:0:0:0:
301,331,16724,5,0,2:0:0:0:
364,267,17073,2,0,L|413:263,1,50,0|0,2:0|2:0,2:0:0:0:
457,259,17422,2,0,L|460:308,2,50,0|0|0,3:0|2:0|3:0,2:0:0:0:
492,176,18119,5,0,2:0:0:0:
440,101,18468,2,0,L|390:104,1,50,0|0,3:0|2:0,2:0:0:0:
344,106,18817,2,0,L|340:56,2,50,0|0|0,3:0|2:0|2:0,2:0:0:0:
293,180,19515,5,0,2:0:0:0:
203,187,19864,2,0,L|153:190,1,50,0|0,2:0|2:0,2:0:0:0:
108,194,20212,2,0,L|58:197,2,50,0|0|0,3:0|2:0|3:0,2:0:0:0:
119,283,20910,5,0,2:0:0:0:
209,276,21259,2,0,L|259:273,1,50,0|0,3:0|2:0,2:0:0:0:
304,269,21608,2,0,L|354:266,2,50,0|0|0,3:0|2:0|2:0,2:0:0:0:
264,187,22305,5,0,2:0:0:0:
335,132,22654,2,0,L|332:82,1,50,0|0,2:0|2:0,2:0:0:0:
377,78,23003,2,0,L|427:75,2,50,0|0|0,3:0|2:0|3:0,2:0:0:0:
328,1,23701,6,0,L|278:4,1,50,4|4,3:0|3:0,0:0:0:0:
243,32,24050,2,0,L|193:35,1,50,4|4,3:0|3:0,0:0:0:0:
152,16,24398,1,2,0:0:0:0:
146,105,24747,1,0,0:0:0:0:
141,194,25096,1,8,0:0:0:0:
256,192,33468,12,8,36259,0:0:0:0:
232,167,41840,5,8,0:0:0:0:
333,315,42538,1,8,0:0:0:0:
481,214,43236,1,8,0:0:0:0:
380,66,43933,1,8,0:0:0:0:
232,167,44631,5,4,3:0:0:0:
282,241,44980,1,4,3:0:0:0:
356,191,45329,1,4,3:0:0:0:
306,117,45677,1,8,0:0:0:0:
232,167,46026,6,0,P|157:161|84:178,1,150,0|0,0:0|0:0,0:0:0:0:
40,168,46724,2,0,P|51:213|56:268,1,100,0|0,0:0|0:0,0:0:0:0:
50,356,47422,5,4,0:0:0:0:
129,314,47771,2,0,L|178:321,1,50,0|0,0:0|0:0,0:0:0:0:
223,324,48119,2,0,B|235:287|235:287|234:226,1,100,8|0,0:0|0:0,0:0:0:0:
233,135,48817,2,0,L|282:127,1,50,0|0,0:0|0:0,0:0:0:0:
324,143,49166,2,0,L|373:135,1,50,0|0,0:0|0:0,0:0:0:0:
409,108,49515,1,8,0:0:0:0:
244,36,50212,5,4,0:0:0:0:
161,73,50561,2,0,L|166:141,1,50,0|0,0:0|0:0,0:0:0:0:
185,162,50910,2,0,B|134:179|134:179|85:171,1,100,8|0,0:0|0:0,0:0:0:0:
9,218,51608,2,0,L|12:267,1,50,0|0,0:0|0:0,0:0:0:0:
6,312,51957,2,0,B|57:295|57:295|106:303,1,100,0|8,0:0|0:0,0:0:0:0:
180,256,52654,1,0,0:0:0:0:
237,325,53003,5,4,0:0:0:0:
290,253,53352,2,0,L|287:197,1,50,0|0,0:0|0:0,0:0:0:0:
258,168,53701,2,0,B|231:134|231:134|228:74,1,100,8|0,0:0|0:0,0:0:0:0:
318,75,54398,2,0,L|374:72,1,50,0|0,0:0|0:0,0:0:0:0:
383,31,54747,2,0,L|439:28,1,50,0|0,0:0|0:0,0:0:0:0:
465,60,55096,1,8,0:0:0:0:
363,211,55794,5,4,0:0:0:0:
286,258,56143,2,0,L|289:314,1,50,0|0,0:0|0:0,0:0:0:0:
297,352,56491,2,0,B|246:355|246:355|239:352|239:352|198:354,1,100,8|0,0:0|0:0,0:0:0:0:
107,358,57189,1,0,0:0:0:0:
153,280,57538,5,0,0:0:0:0:
86,219,57887,1,0,0:0:0:0:
132,141,58236,1,0,0:0:0:0:
205,192,58584,6,0,B|230:213|230:213|278:154|278:154|205:93,1,200,0|12,0:0|0:0,0:0:0:0:
137,40,59631,1,4,2:0:0:0:
59,85,59980,2,0,L|64:146,1,50,4|0,0:0|0:0,0:0:0:0:
101,159,60329,2,0,L|106:220,1,50,4|0,2:0|0:0,0:0:0:0:
78,245,60677,1,12,0:0:0:0:
194,382,61375,5,4,0:0:0:0:
263,325,61724,2,0,L|312:329,1,50,4|0,2:0|0:0,0:0:0:0:
351,352,62073,2,0,L|460:344,1,100,12|4,0:0|2:0,0:0:0:0:
418,260,62771,2,0,L|422:211,1,50,4|0,0:0|0:0,0:0:0:0:
453,178,63119,2,0,B|480:143|480:143|473:76,1,100,4|12,2:0|0:0,0:0:0:0:
410,23,63817,1,0,0:0:0:0:
334,73,64166,5,4,0:0:0:0:
256,26,64515,2,0,L|207:30,1,50,4|0,2:0|0:0,0:0:0:0:
161,34,64864,2,0,B|155:89|155:89|182:124,1,100,12|4,0:0|2:0,0:0:0:0:
240,193,65561,2,0,L|244:242,1,50,4|0,0:0|0:0,0:0:0:0:
217,279,65910,2,0,L|221:328,1,50,4|0,2:0|0:0,0:0:0:0:
259,352,66259,1,12,0:0:0:0:
423,278,66957,5,4,0:0:0:0:
379,199,67305,2,0,L|330:195,1,50,4|0,2:0|0:0,0:0:0:0:
310,236,67654,2,0,B|259:239|259:239|252:237|252:237|211:239,1,100,12|4,0:0|2:0,0:0:0:0:
158,166,68352,1,0,0:0:0:0:
106,239,68701,1,0,0:0:0:0:
62,160,69050,1,8,0:0:0:0:
10,233,69399,1,0,0:0:0:0:
47,314,69747,6,0,L|156:308,1,100,4|0,2:0|0:0,0:0:0:0:
189,228,70445,2,0,L|245:231,1,50,8|0,0:0|0:0,0:0:0:0:
268,264,70794,2,0,L|317:266,1,50,0|0,0:0|0:0,0:0:0:0:
353,239,71143,2,0,L|402:241,1,50,0|0,0:0|0:0,0:0:0:0:
447,247,71491,2,0,B|430:298|430:298|436:347,2,100,0|8|0,0:0|0:0|0:0,0:0:0:0:
510,183,72538,5,4,2:0:0:0:
447,118,72887,2,0,L|398:120,1,50,0|0,0:0|0:0,0:0:0:0:
369,155,73236,2,0,L|269:160,1,100,8|0,0:0|0:0,0:0:0:0:
245,73,73933,2,0,L|196:75,1,50,0|0,0:0|0:0,0:0:0:0:
163,107,74282,2,0,L|114:109,1,50,0|0,0:0|0:0,0:0:0:0:
78,80,74631,2,0,L|83:179,1,100,8|0,0:0|0:0,0:0:0:0:
91,269,75329,5,4,2:0:0:0:
180,270,75677,1,0,0:0:0:0:
177,180,76026,2,0,L|226:182,1,50,8|0,0:0|0:0,0:0:0:0:
263,208,76375,2,0,L|312:210,1,50,0|0,0:0|0:0,0:0:0:0:
353,189,76724,2,0,L|402:191,1,50,0|0,0:0|0:0,0:0:0:0:
447,197,77073,2,0,B|438:259|438:259|455:302,2,100,0|8|0,0:0|0:0|0:0,0:0:0:0:
465,108,78119,5,4,2:0:0:0:
375,97,78468,1,0,0:0:0:0:
285,88,78817,2,0,L|228:83,1,50,8|0,0:0|0:0,0:0:0:0:
190,78,79166,1,0,0:0:0:0:
135,149,79515,6,0,B|112:183|112:183|122:306|122:306|150:331,1,200,0|8,0:0|0:0,0:0:0:0:
223,379,80561,1,0,0:0:0:0:
245,291,80910,6,0,P|259:254|360:245,1,150,4|0,2:0|0:0,0:0:0:0:
385,277,81608,2,0,P|393:237|452:203,1,100,10|0,0:0|0:0,0:0:0:0:
483,194,82131,1,2,0:0:0:0:
460,106,82480,2,0,L|349:102,1,100,2|0,0:0|0:0,0:0:0:0:
314,101,83003,1,10,0:0:0:0:
146,34,83701,6,0,L|147:95,1,50,4|0,2:0|0:0,0:0:0:0:
185,108,84050,2,0,L|185:157,1,50,0|0,0:0|0:0,0:0:0:0:
156,192,84398,1,8,0:0:0:0:
94,257,84747,1,0,0:0:0:0:
156,321,85096,6,0,L|206:319,1,50,0|2,0:0|3:0,0:0:0:0:
221,277,85444,2,0,L|271:275,1,50,2|2,3:0|3:0,0:0:0:0:
311,295,85793,1,8,0:0:0:0:
431,163,86491,6,0,B|349:144|369:189|283:170,1,150,4|0,2:0|0:0,0:0:0:0:
240,158,87189,2,0,P|240:112|223:48,1,100,10|0,0:0|0:0,0:0:0:0:
197,26,87712,1,2,0:0:0:0:
114,62,88061,2,0,P|102:110|101:160,1,100,2|0,0:0|0:0,0:0:0:0:
113,203,88584,1,10,0:0:0:0:
237,332,89282,6,0,L|298:331,1,50,4|0,2:0|0:0,0:0:0:0:
311,293,89631,2,0,L|360:293,1,50,0|0,0:0|0:0,0:0:0:0:
395,322,89979,1,8,0:0:0:0:
460,384,90328,1,0,0:0:0:0:
506,306,90677,2,0,L|506:201,1,100,0|0,0:0|0:0,0:0:0:0:
444,140,91375,1,8,0:0:0:0:
384,207,91724,2,0,L|334:207,1,50,0|0,0:0|0:0,0:0:0:0:
296,181,92073,6,0,P|257:220|166:217,1,150,4|0,2:0|0:0,0:0:0:0:
130,190,92771,2,0,P|96:224|46:232,1,100,10|0,0:0|0:0,0:0:0:0:
2,222,93294,1,2,0:0:0:0:
58,151,93643,2,0,P|43:103|45:43,1,100,2|0,0:0|0:0,0:0:0:0:
53,9,94166,1,10,0:0:0:0:
170,145,94864,6,0,L|220:143,1,50,4|2,2:0|3:0,0:0:0:0:
235,101,95212,2,0,L|285:99,1,50,2|2,3:0|3:0,0:0:0:0:
325,119,95561,1,8,0:0:0:0:
373,43,95910,1,0,0:0:0:0:
442,100,96259,6,0,L|444:150,1,50,0|2,0:0|3:0,0:0:0:0:
486,165,96607,2,0,L|488:215,1,50,2|2,3:0|3:0,0:0:0:0:
468,255,96956,1,8,0:0:0:0:
305,333,97654,6,0,B|219:316|244:359|157:341,1,150,4|0,2:0|0:0,0:0:0:0:
116,324,98352,2,0,P|105:287|109:225,1,100,10|0,0:0|0:0,0:0:0:0:
122,183,98875,1,2,0:0:0:0:
201,224,99224,2,0,P|238:213|300:217,1,100,2|0,0:0|0:0,0:0:0:0:
343,224,99747,1,10,0:0:0:0:
403,54,100445,6,0,L|353:56,1,50,4|2,2:0|3:0,0:0:0:0:
338,98,100793,2,0,L|288:100,1,50,2|2,3:0|3:0,0:0:0:0:
248,80,101142,1,8,0:0:0:0:
158,84,101491,1,0,0:0:0:0:
74,50,101840,2,0,P|69:99|97:153,1,100,0|0,0:0|0:0,0:0:0:0:
162,196,102538,1,8,0:0:0:0:
