osu file format v14

[General]
AudioFilename: audio.mp3
AudioLeadIn: 0
PreviewTime: 69355
Countdown: 0
SampleSet: Soft
StackLeniency: 0.7
Mode: 0
LetterboxInBreaks: 0
WidescreenStoryboard: 0

[Editor]
Bookmarks: 2771,13933,25096,47422,69747,80910,103236
DistanceSpacing: 1
BeatDivisor: 4
GridSize: 4
TimelineZoom: 1

[Metadata]
Title:Diablo (VIP)
TitleUnicode:Diablo (VIP)
Artist:Culprate
ArtistUnicode:Culprate
Creator:Yoges
Version:Expert
Source:
Tags:dnb d&b drum n and & bass electronic instrumental edm idm inspected glados ep sheela appleeaterx
BeatmapID:1280280
BeatmapSetID:553119

[Difficulty]
HPDrainRate:6
CircleSize:4.2
OverallDifficulty:8
ApproachRate:9.5
SliderMultiplier:2
SliderTickRate:1

[Events]
//Background and Video events
0,0,"cropped-1366-768-567500.jpg",0,0
//Break Periods
2,25296,32943
2,36459,41315
//Storyboard Layer 0 (Background)
//Storyboard Layer 1 (Fail)
//Storyboard Layer 2 (Pass)
//Storyboard Layer 3 (Foreground)
//Storyboard Sound Samples

[TimingPoints]
2771,348.837209302326,4,1,2,50,1,0
2771,-133.333333333333,4,1,2,50,0,0
11143,-100,4,1,2,50,0,0
13933,-133.333333333333,4,1,2,50,0,0
14195,-133.333333333333,4,2,1,50,0,0
14282,-133.333333333333,4,2,2,50,0,0
15590,-133.333333333333,4,2,1,50,0,0
15677,-133.333333333333,4,2,2,50,0,0
16986,-133.333333333333,4,2,1,50,0,0
17073,-133.333333333333,4,2,2,50,0,0
18381,-133.333333333333,4,2,1,50,0,0
18468,-133.333333333333,4,2,2,50,0,0
19776,-133.333333333333,4,2,1,50,0,0
19864,-133.333333333333,4,2,2,50,0,0
20910,-100,4,2,2,50,0,0
21172,-100,4,2,1,50,0,0
21259,-100,4,2,2,50,0,0
22305,-80,4,2,2,50,0,0
22567,-80,4,2,1,50,0,0
22654,-80,4,2,2,50,0,0
23701,-50,4,1,1,50,0,0
24398,-66.6666666666667,4,1,1,50,0,0
43236,-133.333333333333,4,1,1,15,0,0
43584,-133.333333333333,4,1,1,20,0,0
43933,-133.333333333333,4,1,1,30,0,0
44282,-133.333333333333,4,1,1,45,0,0
44631,-100,4,1,1,55,0,0
46026,-50,4,1,1,55,0,0
46724,-66.6666666666667,4,1,1,55,0,0
47422,-83.3333333333333,4,1,1,50,0,0
47771,-50,4,1,1,50,0,0
48119,-133.333333333333,4,1,1,50,0,0
48468,-83.3333333333333,4,1,1,50,0,0
49515,-133.333333333333,4,1,1,50,0,0
50212,-83.3333333333333,4,1,1,50,0,0
50561,-50,4,1,1,50,0,0
51084,-83.3333333333333,4,1,1,50,0,0
52305,-133.333333333333,4,1,1,50,0,0
52654,-50,4,1,1,50,0,0
53003,-83.3333333333333,4,1,1,50,0,0
53352,-50,4,1,1,50,0,0
53701,-133.333333333333,4,1,1,50,0,0
54050,-83.3333333333333,4,1,1,50,0,0
55096,-133.333333333333,4,1,1,50,0,0
55794,-83.3333333333333,4,1,1,50,0,0
56143,-50,4,1,1,50,0,0
56666,-83.3333333333333,4,1,1,50,0,0
57538,-66.6666666666667,4,1,1,50,0,0
57887,-50,4,1,1,50,0,0
58584,-66.6666666666667,4,1,1,50,0,0
59282,-83.3333333333333,4,1,1,50,0,0
60329,-50,4,1,1,50,0,0
60677,-133.333333333333,4,1,1,50,0,0
61375,-83.3333333333333,4,1,1,50,0,0
61724,-50,4,1,1,50,0,0
62247,-83.3333333333333,4,1,1,50,0,0
63468,-133.333333333333,4,1,1,50,0,0
63817,-50,4,1,1,50,0,0
64166,-83.3333333333333,4,1,1,50,0,0
64515,-50,4,1,1,50,0,0
64864,-133.333333333333,4,1,1,50,0,0
65212,-83.3333333333333,4,1,1,50,0,0
66259,-133.333333333333,4,1,1,50,0,0
66957,-83.3333333333333,4,1,1,50,0,0
67305,-50,4,1,1,50,0,0
67829,-83.3333333333333,4,1,1,50,0,0
68701,-66.6666666666667,4,1,1,50,0,0
69050,-50,4,1,1,50,0,0
69398,-83.3333333333333,4,1,1,50,0,0
69747,-66.6666666666667,4,1,1,50,0,1
71143,-50,4,1,1,50,0,1
71840,-83.3333333333333,4,1,1,50,0,1
72189,-66.6666666666667,4,1,1,50,0,1
72887,-50,4,1,1,50,0,1
74631,-66.6666666666667,4,1,1,50,0,1
74980,-50,4,1,1,50,0,1
75329,-66.6666666666667,4,1,1,50,0,1
76724,-50,4,1,1,50,0,1
77422,-83.3333333333333,4,1,1,50,0,1
77771,-66.6666666666667,4,1,1,50,0,1
78119,-50,4,1,1,50,0,1
79166,-100,4,1,1,50,0,1
79515,-100,4,1,1,50,0,0
80561,-66.6666666666667,4,1,1,50,0,0
80910,-100,4,1,1,50,0,0
83701,-71.4285714285714,4,1,1,50,0,0
83875,-62.5,4,1,1,50,0,0
84050,-55.5555555555556,4,1,1,50,0,0
84224,-50,4,1,1,50,0,0
84398,-66.6666666666667,4,1,1,50,0,0
84747,-100,4,1,1,50,0,0
85271,-50,4,1,1,50,0,0
85794,-66.6666666666667,4,1,1,50,0,0
86491,-100,4,1,1,50,0,0
89282,-71.4285714285714,4,1,1,50,0,0
89457,-62.5,4,1,1,50,0,0
89631,-55.5555555555556,4,1,1,50,0,0
89805,-50,4,1,1,50,0,0
89980,-66.6666666666667,4,1,1,50,0,0
90329,-100,4,1,1,50,0,0
91026,-66.6666666666667,4,1,1,50,0,0
91375,-100,4,1,1,50,0,0
95038,-50,4,1,1,50,0,0
95561,-100,4,1,1,50,0,0
96433,-50,4,1,1,50,0,0
96957,-66.6666666666667,4,1,1,50,0,0
97654,-100,4,1,1,50,0,0
100619,-50,4,1,1,50,0,0
101143,-100,4,1,1,50,0,0

[Colours]
Combo1 : 206,172,121
Combo2 : 103,143,101
Combo3 : 95,147,177
Combo4 : 172,94,115

[HitObjects]
44,16,2771,6,0,P|18:95|70:142,1,150.000005722046,4|0,2:0|2:0,2:0:0:0:
138,157,3294,1,0,2:0:0:0:
275,98,3468,2,0,L|185:96,1,75.0000028610231,0|0,3:0|2:0,2:0:0:0:
363,34,3817,2,0,L|361:108,1,75.0000028610231,0|0,3:0|2:0,2:0:0:0:
497,264,4166,6,0,B|422:254|426:295|345:285,1,150.000005722046,0|0,2:0|3:0,2:0:0:0:
269,272,4689,1,0,2:0:0:0:
361,108,4864,2,0,P|411:184|319:176,1,225.000008583069,0|0,3:0|2:0,2:0:0:0:
186,153,5561,6,0,L|190:316,1,150.000005722046,0|0,2:0|2:0,2:0:0:0:
255,353,6084,1,0,2:0:0:0:
106,242,6259,2,0,L|31:243,1,75.0000028610231,0|0,3:0|2:0,2:0:0:0:
90,76,6608,2,0,L|91:150,1,75.0000028610231,0|0,3:0|2:0,2:0:0:0:
305,253,6957,6,0,P|353:256|414:172,1,150.000005722046,0|0,2:0|3:0,2:0:0:0:
424,101,7480,1,0,2:0:0:0:
508,319,7654,2,0,B|393:291|410:364|283:333,1,225.000008583069,0|0,3:0|2:0,2:0:0:0:
114,216,8352,6,0,P|185:235|210:306,1,150.000005722046,0|0,2:0|2:0,2:0:0:0:
197,384,8875,1,0,2:0:0:0:
367,249,9050,2,0,L|292:253,1,75.0000028610231,0|0,3:0|2:0,2:0:0:0:
338,90,9398,2,0,L|343:172,1,75.0000028610231,0|0,3:0|2:0,2:0:0:0:
110,176,9747,6,0,L|274:168,1,150.000005722046,0|0,2:0|3:0,2:0:0:0:
342,164,10271,1,0,2:0:0:0:
191,0,10445,2,0,P|113:46|198:76,1,225.000008583069,0|0,3:0|2:0,2:0:0:0:
439,40,11143,6,0,B|443:125|443:125|427:157|427:157|430:236,1,200,0|0,2:0|2:0,2:0:0:0:
368,293,11666,1,0,2:0:0:0:
206,285,11840,2,0,P|245:255|294:254,1,100,0|0,3:0|2:0,2:0:0:0:
67,339,12189,2,0,P|106:368|155:369,1,100,0|0,3:0|2:0,2:0:0:0:
46,143,12538,2,0,P|57:190|96:219,1,100,0|0,2:0|2:0,2:0:0:0:
199,110,12887,2,0,P|211:157|190:201,1,100,0|0,3:0|2:0,2:0:0:0:
134,61,13236,2,0,P|226:156|121:238,1,300,0|0,3:0|2:0,2:0:0:0:
414,160,13933,6,0,P|360:162|327:217,1,112.500004291535,4|0,2:0|2:0,2:0:0:0:
328,248,14282,1,0,2:0:0:0:
328,248,14457,1,0,2:0:0:0:
144,210,14631,1,0,3:0:0:0:
241,206,14805,1,0,2:0:0:0:
67,262,14980,1,0,3:0:0:0:
112,61,15329,6,0,P|130:108|138:189,1,112.500004291535,0|0,2:0|2:0,2:0:0:0:
144,210,15677,1,0,3:0:0:0:
144,210,15852,1,0,2:0:0:0:
255,243,16026,1,0,3:0:0:0:
67,262,16201,1,0,2:0:0:0:
181,299,16375,1,0,2:0:0:0:
228,145,16724,6,0,B|293:133|285:157|340:148,1,112.500004291535,0|0,2:0|2:0,2:0:0:0:
376,141,17073,1,0,2:0:0:0:
376,141,17247,1,0,2:0:0:0:
334,295,17422,1,0,3:0:0:0:
479,271,17596,1,0,2:0:0:0:
395,228,17771,1,0,3:0:0:0:
176,304,18119,6,0,L|62:299,1,112.500004291535,0|0,2:0|2:0,2:0:0:0:
29,299,18468,1,0,3:0:0:0:
29,299,18643,1,0,2:0:0:0:
260,309,18817,1,0,3:0:0:0:
176,304,18991,1,0,2:0:0:0:
344,315,19166,1,0,2:0:0:0:
437,73,19515,6,0,P|436:126|455:193,1,112.500004291535,0|0,2:0|2:0,2:0:0:0:
474,219,19864,1,0,2:0:0:0:
474,219,20038,1,0,2:0:0:0:
315,166,20212,1,0,3:0:0:0:
344,315,20387,1,0,2:0:0:0:
382,236,20561,1,0,3:0:0:0:
175,219,20910,6,0,P|175:146|229:97,1,150,0|0,2:0|2:0,2:0:0:0:
273,97,21259,1,0,3:0:0:0:
273,97,21433,1,0,2:3:0:0:
422,153,21608,1,0,3:0:0:0:
315,166,21782,1,0,0:0:0:0:
439,73,21957,1,0,0:0:0:0:
500,324,22305,6,0,B|414:327|414:327|386:342|386:342|316:345,1,187.5,0|0,2:0|2:0,2:0:0:0:
282,350,22654,1,0,2:0:0:0:
282,350,22829,1,0,2:0:0:0:
255,181,23003,1,0,3:0:0:0:
317,264,23177,1,0,2:0:0:0:
317,264,23352,1,0,3:0:0:0:
0,150,23701,6,0,L|99:148,1,100,4|0,3:0|3:0,3:0:0:0:
188,67,23875,2,0,L|189:166,1,100,4|0,3:0|3:0,3:0:0:0:
298,337,24050,2,0,P|319:292|310:243,1,100,4|0,3:0|3:0,3:0:0:0:
75,252,24224,2,0,P|66:300|87:345,1,100,4|0,3:0|3:0,3:0:0:0:
281,161,24398,6,0,B|358:149|352:190|435:178,1,150.000005722046,2|0,0:0|3:0,3:0:0:0:
188,67,24747,2,0,P|176:138|114:177,1,150.000005722046
318,66,25096,1,8,0:0:0:0:
256,192,33468,12,0,35910,0:0:0:0:
384,142,36259,5,8,0:0:0:0:
267,154,41840,5,8,0:0:0:0:
384,142,42538,5,8,0:0:0:0:
227,158,43236,5,8,0:0:0:0:
216,161,43323,1,0,3:0:0:0:
205,163,43410,1,0,3:0:0:0:
193,164,43497,1,0,3:0:0:0:
181,164,43584,1,0,3:0:0:0:
169,162,43672,1,0,3:0:0:0:
158,159,43759,1,0,3:0:0:0:
146,157,43846,1,0,3:0:0:0:
135,154,43933,5,8,0:0:0:0:
123,152,44021,1,0,3:0:0:0:
111,151,44108,1,0,3:0:0:0:
99,151,44195,1,0,3:0:0:0:
87,152,44282,1,0,3:0:0:0:
75,153,44369,1,0,3:0:0:0:
64,155,44457,1,0,3:0:0:0:
53,158,44544,1,0,3:0:0:0:
14,236,44631,6,0,L|21:296,3,50,4|0|0|0,3:0|0:0|0:0|0:0,0:0:0:0:
165,335,44980,6,0,P|188:334|214:329,3,50,4|0|0|0,3:0|0:0|0:0|0:0,0:0:0:0:
342,236,45329,6,0,P|365:236|391:242,3,50,4|0|0|0,3:0|0:0|0:0|0:0,0:0:0:0:
473,341,45677,5,8,0:0:0:0:
470,360,45765,1,0,0:0:0:0:
467,379,45852,1,4,3:0:0:0:
342,236,46026,6,0,B|314:163|260:208|198:245|258:296,1,200
383,109,46288,2,0,B|411:36|465:81|527:118|467:169,1,200
310,15,46550,6,0,L|208:22,1,100
108,145,46724,6,0,P|133:215|204:221,1,150.000005722046
287,110,47073,2,0,B|270:194|307:178|288:267,1,150.000005722046
95,57,47422,6,0,L|215:49,1,119.999996337891,4|0,0:0|0:0,0:0:0:0:
158,326,47771,6,0,L|58:320,1,100
125,142,47945,2,0,L|131:242,1,100
350,193,48119,6,0,L|424:189,1,75.0000028610231,8|0,0:0|0:0,0:0:0:0:
151,85,48468,6,0,L|159:221,1,119.999996337891
55,11,48817,2,0,L|191:3,1,119.999996337891
316,227,49166,5,0,0:0:0:0:
334,226,49253,1,0,0:0:0:0:
352,226,49340,1,0,0:0:0:0:
370,225,49427,1,0,0:0:0:0:
388,225,49515,2,0,L|462:222,1,75.0000028610231,8|0,0:0|0:0,0:0:0:0:
156,236,50212,6,0,B|142:303|177:291|166:362,1,119.999996337891,4|0,0:0|0:0,0:0:0:0:
12,69,50561,6,0,B|62:81|62:81|109:73,1,100
236,156,50736,2,0,B|186:144|186:144|138:151,1,100
320,29,50910,2,0,L|323:128,1,100,8|0,0:0|0:0,0:0:0:0:
167,353,51084,5,0,0:0:0:0:
166,334,51172,1,0,0:0:0:0:
166,317,51259,2,0,P|202:259|257:254,1,119.999996337891
393,343,51608,6,0,L|512:339,1,119.999996337891
208,85,51957,5,0,0:0:0:0:
191,87,52044,1,0,0:0:0:0:
173,87,52131,1,0,0:0:0:0:
155,88,52218,1,0,0:0:0:0:
136,89,52305,2,0,P|95:75|75:49,1,75.0000028610231,8|0,0:0|0:0,0:0:0:0:
110,326,52654,6,0,P|130:233|222:209,1,200
308,261,52916,1,0,0:0:0:0:
308,261,53003,6,0,B|372:271|369:243|438:256,1,119.999996337891,4|0,0:0|0:0,0:0:0:0:
314,67,53352,6,0,L|317:167,1,100
511,110,53526,2,0,L|411:107,1,100
206,192,53701,6,0,L|113:189,1,75.0000028610231,8|0,0:0|0:0,0:0:0:0:
12,94,54050,6,0,L|16:213,1,119.999996337891
170,356,54398,2,0,P|137:306|67:308,1,119.999996337891
360,282,54747,5,0,0:0:0:0:
378,281,54834,1,0,0:0:0:0:
396,280,54922,1,0,0:0:0:0:
413,279,55009,1,0,0:0:0:0:
428,278,55096,2,0,L|528:271,1,75.0000028610231,8|0,0:0|0:0,0:0:0:0:
268,83,55794,6,0,B|253:153|289:137|276:201,1,119.999996337891,4|0,0:0|0:0,0:0:0:0:
71,176,56143,6,0,L|183:172,1,100
365,247,56317,2,0,L|477:243,1,100
386,61,56491,2,0,L|390:173,1,100,8|0,0:0|0:0,0:0:0:0:
187,343,56666,5,0,0:0:0:0:
188,324,56753,1,0,0:0:0:0:
191,305,56840,2,0,P|228:251|284:249,1,119.999996337891
97,191,57189,6,0,L|15:195,2,79.9999975585938
226,254,57538,6,0,P|219:344|155:271,1,225.000008583069
257,175,57887,6,0,P|322:281|222:240,1,300
242,87,58236,5,0,0:0:0:0:
379,337,58584,6,0,B|425:371|472:338,5,100.000003814697
480,214,59282,6,0,P|407:199|364:217,1,119.999996337891,12|0,0:0|0:3,0:0:0:0:
137,54,59631,2,0,L|143:177,1,119.999996337891,4|0,2:0|0:0,0:0:0:0:
351,116,59980,2,0,L|228:110,1,119.999996337891,4|0,0:0|0:0,0:0:0:0:
65,348,60329,6,0,L|174:343,1,100,4|0,2:0|0:0,0:0:0:0:
254,235,60503,2,0,L|259:344,1,100
53,164,60677,6,0,L|50:89,1,75.0000028610231,12|0,0:0|0:0,0:0:0:0:
317,211,61375,6,0,B|381:223|374:194|436:208,1,119.999996337891,4|0,0:0|0:0,0:0:0:0:
183,128,61724,6,0,B|176:182|176:182|185:227,1,100,4|0,2:0|0:0,0:0:0:0:
308,336,61898,2,0,L|206:338,1,100
1,291,62073,2,0,L|100:289,1,100,12|0,0:0|0:0,0:0:0:0:
325,249,62247,5,0,0:0:0:0:
341,249,62334,1,0,0:0:0:0:
359,249,62422,2,0,P|415:225|441:166,1,119.999996337891,4|0,2:0|0:0,0:0:0:0:
248,356,62771,6,0,L|367:354,1,119.999996337891,4|0,0:0|0:0,0:0:0:0:
272,26,63119,5,4,2:0:0:0:
272,45,63207,1,0,0:0:0:0:
272,62,63294,1,0,0:0:0:0:
272,79,63381,1,0,0:0:0:0:
272,96,63468,2,0,L|271:181,1,75.0000028610231,12|0,0:0|0:0,0:0:0:0:
77,356,63817,6,0,P|82:285|205:239,1,200
273,319,64079,1,0,0:0:0:0:
273,319,64166,6,0,B|340:337|330:303|395:319,1,119.999996337891,4|0,0:0|0:0,0:0:0:0:
112,139,64515,6,0,L|116:239,1,100,4|0,2:0|0:0,0:0:0:0:
60,325,64689,2,0,L|160:321,1,100
353,348,64864,6,0,L|427:345,1,75.0000028610231,12|0,0:0|0:0,0:0:0:0:
401,163,65212,6,0,P|349:189|332:245,1,119.999996337891,4|0,2:0|0:0,0:0:0:0:
223,86,65561,2,0,L|342:81,1,119.999996337891,4|0,0:0|0:0,0:0:0:0:
181,323,65910,5,4,2:0:0:0:
163,324,65997,1,0,0:0:0:0:
145,324,66084,1,0,0:0:0:0:
126,325,66172,1,0,0:0:0:0:
108,326,66259,2,0,L|15:328,1,75.0000028610231,12|0,0:0|0:0,0:0:0:0:
73,117,66957,6,0,B|89:182|60:175|76:240,1,119.999996337891,4|0,0:0|0:0,0:0:0:0:
262,206,67305,6,0,L|157:203,1,100,4|0,2:0|0:0,0:0:0:0:
300,305,67480,2,0,L|399:307,1,100
347,40,67654,2,0,L|344:139,1,100,12|0,0:0|0:0,0:0:0:0:
61,121,67829,5,0,0:0:0:0:
79,119,67916,1,0,0:0:0:0:
96,120,68003,2,0,P|162:178|161:208,1,119.999996337891,4|0,2:0|0:0,0:0:0:0:
71,315,68352,6,0,P|124:295|159:299,2,79.9999975585938
308,287,68701,6,0,P|301:377|237:304,1,225.000008583069
339,208,69050,6,0,P|404:314|304:273,1,300,8|0,0:0|0:0,0:0:0:0:
267,109,69398,6,0,L|392:106,1,119.999996337891
162,47,69747,6,0,B|141:121|184:121|165:207,1,150.000005722046,4|0,2:0|0:0,0:0:0:0:
98,240,70009,1,0,0:0:0:0:
98,240,70096,2,0,P|120:262|234:244,1,150.000005722046
329,175,70445,2,0,L|239:171,1,75.0000028610231,8|0,0:0|0:0,0:0:0:0:
391,244,70619,1,0,0:0:0:0:
391,244,70707,1,0,0:0:0:0:
391,244,70794,2,0,P|414:215|424:179,1,75.0000028610231
487,93,70968,2,0,L|397:97,1,75.0000028610231
231,99,71143,6,0,L|237:208,1,100
184,17,71317,2,0,L|283:11,1,100
341,187,71491,5,0,0:0:0:0:
341,187,71579,1,0,0:0:0:0:
341,187,71666,1,0,0:0:0:0:
341,187,71753,1,0,0:0:0:0:
424,179,71840,6,0,P|340:189|341:270,1,179.999994506836,8|0,0:0|0:0,0:0:0:0:
474,319,72189,6,0,B|433:329|433:329|400:325,1,75.0000028610231
246,245,72364,2,0,B|205:235|205:235|147:241,1,75.0000028610231
89,323,72538,6,0,L|83:161,1,150.000005722046,4|0,2:0|0:0,0:0:0:0:
300,140,72887,6,0,P|331:146|305:136,1,100
459,45,73061,2,0,P|465:14|455:40,1,100
124,65,73236,6,0,L|127:164,1,100,8|0,0:0|0:0,0:0:0:0:
246,245,73410,5,0,0:0:0:0:
226,239,73497,1,0,0:0:0:0:
206,238,73584,2,0,B|153:230|160:252|107:245,1,100
270,321,73759,2,0,P|309:296|324:240,1,100
384,48,73933,5,0,0:0:0:0:
378,67,74021,1,0,0:0:0:0:
373,86,74108,2,0,B|426:94|419:72|472:79,1,100
368,164,74282,2,0,P|320:150|293:109,1,100
209,30,74457,2,0,L|206:129,1,100
266,218,74631,6,0,L|116:209,1,150.000005722046,8|0,0:0|0:0,0:0:0:0:
10,4,74980,6,0,B|-19:114|44:96|18:202,1,200
0,307,75241,1,0,0:0:0:0:
0,307,75329,6,0,L|74:303,1,75.0000028610231,4|0,2:0|0:0,0:0:0:0:
226,247,75503,2,0,L|151:243,1,75.0000028610231
301,384,75677,2,0,L|298:310,1,75.0000028610231
361,165,75852,2,0,L|357:239,1,75.0000028610231
250,85,76026,6,0,B|329:109|324:63|396:84,1,150.000005722046,8|0,0:0|0:0,0:0:0:0:
494,187,76288,1,0,0:0:0:0:
494,187,76375,2,0,P|480:152|479:114,1,75.0000028610231
512,0,76550,2,0,P|480:11|426:9,1,75.0000028610231
289,0,76724,6,0,L|287:99,1,100
248,216,76898,2,0,L|250:116,1,100
407,38,77073,5,0,0:0:0:0:
407,38,77160,1,0,0:0:0:0:
407,38,77247,1,0,0:0:0:0:
407,38,77334,1,0,0:0:0:0:
492,40,77422,6,0,P|407:39|398:120,1,179.999994506836,8|0,0:0|0:0,0:0:0:0:
512,190,77771,6,0,B|473:182|473:182|438:190,1,75.0000028610231
290,312,77945,2,0,B|251:320|251:320|210:310,1,75.0000028610231
45,186,78119,6,0,L|149:178,1,100,4|0,2:0|0:0,0:0:0:0:
223,91,78294,2,0,L|231:195,1,100
394,318,78468,6,0,P|422:339|404:308,1,100
379,54,78643,2,0,P|414:45|386:67,1,100
323,206,78817,6,0,L|224:214,1,100,8|0,0:0|0:0,0:0:0:0:
80,299,78991,5,0,0:0:0:0:
100,302,79079,1,0,0:0:0:0:
118,304,79166,2,0,L|217:312,1,100
371,291,79515,6,0,P|336:297|309:362,1,100
342,202,79864,2,0,B|418:186|404:226|489:208,1,150
244,113,80212,2,0,L|248:252,1,133.333333333333,8|0,0:0|0:0,0:0:0:0:
44,23,80561,6,0,L|198:28,1,150.000005722046
29,285,80910,5,4,2:0:0:0:
90,130,81084,2,0,B|72:236|133:227|118:331,1,200,2|0,0:0|0:0,0:0:0:0:
277,171,81608,2,0,L|178:168,1,100,10|0,0:0|0:0,0:0:0:0:
331,247,81957,1,0,0:0:0:0:
415,83,82131,2,0,P|417:135|395:187,1,100,2|0,0:0|0:0,0:0:0:0:
258,17,82480,2,0,L|357:14,1,100,2|0,0:0|0:0,0:0:0:0:
262,197,82829,1,0,0:0:0:0:
256,216,82916,1,0,0:0:0:0:
254,236,83003,2,0,B|249:288|273:280|267:335,1,100,10|0,0:0|0:0,0:0:0:0:
254,236,83701,6,0,L|328:233,1,69.9999978637696,4|0,2:0|0:0,0:0:0:0:
274,244,83875,6,0,L|360:240,1,80
304,252,84050,6,0,L|394:247,1,89.9999972534181
344,260,84224,6,0,L|474:254,1,100
269,153,84398,6,0,P|196:222|202:274,1,150.000005722046,8|0,0:0|0:0,0:0:0:0:
48,357,84747,6,0,L|147:361,1,100
308,246,85096,2,0,L|259:248,1,50
27,162,85271,6,0,L|30:261,1,100,2|0,3:0|0:0,0:0:0:0:
129,215,85445,2,0,L|228:212,1,100,2|0,3:0|0:0,0:0:0:0:
59,53,85619,2,0,L|62:152,1,100,2|0,3:0|0:0,0:0:0:0:
308,246,85794,6,0,P|384:247|406:110,2,225.000008583069,8|0|0,0:0|0:0|0:0,0:0:0:0:
373,32,86491,5,4,2:0:0:0:
221,111,86666,2,0,B|324:76|320:150|416:122,1,200,2|0,0:0|0:0,0:0:0:0:
124,80,87189,2,0,L|128:196,1,100,10|0,0:0|0:0,0:0:0:0:
184,0,87538,1,0,0:0:0:0:
96,284,87712,2,0,L|212:280,1,100,2|0,0:0|0:0,0:0:0:0:
8,232,88061,2,0,P|-3:305|13:344,1,100,2|0,0:0|0:0,0:0:0:0:
275,207,88410,1,0,0:0:0:0:
288,222,88497,1,0,0:0:0:0:
298,239,88584,2,0,P|307:287|294:335,1,100,10|0,0:0|0:0,0:0:0:0:
298,239,89282,6,0,L|372:236,1,69.9999978637696,4|0,2:0|0:0,0:0:0:0:
318,247,89457,6,0,L|404:243,1,80
348,255,89631,6,0,L|438:250,1,89.9999972534181
388,263,89805,6,0,L|518:257,1,100
381,153,89980,2,0,P|308:149|270:78,1,150.000005722046,8|0,0:0|0:0,0:0:0:0:
276,232,90241,1,0,0:0:0:0:
280,237,90329,6,0,L|285:337,1,100
23,281,90677,5,0,0:0:0:0:
43,280,90765,1,0,0:0:0:0:
62,278,90852,1,0,0:0:0:0:
81,278,90939,1,0,0:0:0:0:
101,276,91026,2,0,L|189:270,1,75.0000028610231
127,106,91201,2,0,L|131:180,1,75.0000028610231
296,266,91375,6,0,P|259:304|251:350,1,100,8|0,0:0|0:0,0:0:0:0:
286,176,91724,2,0,L|385:168,1,100
198,148,92073,5,4,2:0:0:0:
470,125,92247,2,0,B|493:233|428:221|449:319,1,200,2|0,0:0|0:0,0:0:0:0:
255,279,92771,2,0,L|354:271,1,100,10|0,0:0|0:0,0:0:0:0:
183,336,93119,1,0,0:0:0:0:
95,193,93294,2,0,L|103:292,1,100,2|0,0:0|0:0,0:0:0:0:
131,99,93643,2,0,L|32:107,1,100,2|0,0:0|0:0,0:0:0:0:
255,279,93991,1,0,0:0:0:0:
267,295,94079,1,0,0:0:0:0:
282,307,94166,2,0,P|346:325|386:312,1,100,10|0,0:0|0:0,0:0:0:0:
338,177,94864,6,0,L|333:226,1,50,4|0,2:0|0:0,0:0:0:0:
171,125,95038,6,0,L|270:117,1,100,2|0,3:0|0:0,0:0:0:0:
384,71,95212,2,0,L|376:170,1,100,2|0,3:0|0:0,0:0:0:0:
74,106,95387,2,0,L|173:98,1,100,2|0,3:0|0:0,0:0:0:0:
375,263,95561,6,0,P|415:257|461:204,1,100,8|0,0:0|0:0,0:0:0:0:
253,232,95910,2,0,P|252:284|267:330,1,100
186,116,96259,6,0,L|136:115,1,50
9,280,96433,6,0,L|5:172,1,100,2|0,3:0|0:0,0:0:0:0:
101,41,96608,2,0,L|97:140,1,100,2|0,3:0|0:0,0:0:0:0:
165,217,96782,2,0,L|265:219,1,100,2|0,3:0|0:0,0:0:0:0:
424,160,96957,6,0,P|327:185|320:308,2,225.000008583069,8|0|0,0:0|0:0|0:0,0:0:0:0:
303,62,97654,5,4,2:0:0:0:
205,195,97829,2,0,B|91:220|109:160|5:185,1,200,2|0,0:0|0:0,0:0:0:0:
298,164,98352,2,0,P|300:219|282:261,1,100,10|0,0:0|0:0,0:0:0:0:
226,97,98701,1,0,0:0:0:0:
314,347,98875,2,0,L|413:349,1,100,2|0,0:0|0:0,0:0:0:0:
512,249,99224,2,0,L|509:348,1,100,2|0,0:0|0:0,0:0:0:0:
443,47,99573,1,0,0:0:0:0:
442,67,99660,1,0,0:0:0:0:
442,87,99747,2,0,L|440:186,1,100,10|0,0:0|0:0,0:0:0:0:
306,157,100445,6,0,L|257:159,1,50,4|0,2:0|0:0,0:0:0:0:
79,165,100619,6,0,P|89:215|124:248,1,100,2|0,3:0|0:0,0:0:0:0:
210,88,100794,2,0,L|110:91,1,100,2|0,3:0|0:0,0:0:0:0:
144,328,100968,2,0,P|187:300|206:256,1,100,2|0,3:0|0:0,0:0:0:0:
353,254,101143,6,0,L|452:250,1,100,8|0,0:0|0:0,0:0:0:0:
370,72,101491,2,0,L|373:171,1,100
193,172,101840,2,0,B|245:160|245:160|297:166,1,100
115,48,102102,1,0,0:0:0:0:
115,48,102189,2,0,L|118:147,1,100
182,0,102538,1,8,0:0:0:0:
