osu file format v14

[General]
AudioFilename: audio.mp3
AudioLeadIn: 0
PreviewTime: 69355
Countdown: 0
SampleSet: Normal
StackLeniency: 0.7
Mode: 0
LetterboxInBreaks: 0
WidescreenStoryboard: 1

[Editor]
Bookmarks: 2771,13933,25096,47422,69747,80910,103236
DistanceSpacing: 1.2
BeatDivisor: 4
GridSize: 4
TimelineZoom: 1

[Metadata]
Title:Diablo (VIP)
TitleUnicode:Diablo (VIP)
Artist:Culprate
ArtistUnicode:Culprate
Creator:Yoges
Version:Easy
Source:
Tags:dnb d&b drum n and & bass electronic instrumental edm idm inspected glados ep sheela appleeaterx
BeatmapID:1370560
BeatmapSetID:553119

[Difficulty]
HPDrainRate:3.5
CircleSize:3
OverallDifficulty:3.8
ApproachRate:3.5
SliderMultiplier:0.8
SliderTickRate:1

[Events]
//Background and Video events
0,0,"cropped-1366-768-567500.jpg",0,0
//Break Periods
2,25296,32064
2,36459,40436
//Storyboard Layer 0 (Background)
//Storyboard Layer 1 (Fail)
//Storyboard Layer 2 (Pass)
//Storyboard Layer 3 (Foreground)
//Storyboard Sound Samples

[TimingPoints]
2771,348.837209302326,4,1,2,50,1,0
43236,-100,4,1,1,15,0,0
43584,-100,4,1,1,20,0,0
43933,-100,4,1,1,30,0,0
44282,-100,4,1,1,45,0,0
44631,-100,4,1,1,55,0,0
47422,-100,4,1,1,50,0,0
69747,-100,4,1,1,50,0,1
79515,-100,4,1,1,50,0,0

[Colours]
Combo1 : 206,172,121
Combo2 : 103,143,101
Combo3 : 95,147,177
Combo4 : 172,94,115

[HitObjects]
252,62,2771,6,0,L|338:56,1,80,4|0,2:0|2:0,2:0:0:0:
409,0,3468,2,0,L|415:86,1,80,0|0,3:0|3:0,2:0:0:0:
395,174,4166,2,0,P|479:151|510:91,2,160,0|0|0,2:0|3:0|2:0,2:0:0:0:
305,140,5910,1,0,2:0:0:0:
219,183,6259,2,0,L|225:269,1,80,0|0,3:0|3:0,2:0:0:0:
195,354,6957,2,0,B|284:361|260:326|351:335,2,160,0|0|0,2:0|3:0|2:0,2:0:0:0:
100,335,8701,5,0,2:0:0:0:
89,239,9050,2,0,L|83:159,1,80,0|0,3:0|3:0,2:0:0:0:
137,79,9747,2,0,P|60:64|0:112,2,160,0|0|0,2:0|3:0|2:0,2:0:0:0:
204,146,11491,1,0,2:0:0:0:
285,94,11840,2,0,P|296:141|292:182,1,80,0|0,3:0|3:0,2:0:0:0:
271,265,12538,2,0,B|322:260|322:260|376:272|376:272|440:265,2,160,0|0|4,2:0|3:0|2:0,2:0:0:0:
188,314,14282,5,0,2:0:0:0:
96,284,14631,2,0,P|94:322|85:368,2,80,0|0|0,3:0|3:0|2:0,2:0:0:0:
86,188,15677,1,0,3:0:0:0:
55,96,16026,2,0,B|149:119|130:65|226:91,1,160,0|0,3:0|2:0,2:0:0:0:
304,113,17073,5,0,2:0:0:0:
393,79,17422,2,0,P|390:42|396:-10,2,80,0|0|0,3:0|3:0|2:0,2:0:0:0:
422,170,18468,1,0,3:0:0:0:
485,242,18817,2,0,P|469:322|400:343,1,160,0|0,3:0|2:0,2:0:0:0:
307,321,19864,5,0,2:0:0:0:
256,239,20212,2,0,L|254:153,2,80,0|0|0,3:0|3:0|2:0,2:0:0:0:
190,309,21259,1,0,3:0:0:0:
117,246,21608,2,0,L|111:81,1,160,0|0,3:0|2:0,2:0:0:0:
182,21,22654,5,0,2:0:0:0:
253,85,23003,2,0,L|332:83,1,80,0|0,3:0|3:0,2:0:0:0:
412,137,23701,2,0,P|427:92|419:48,2,80,4|4|2,3:0|3:0|0:0,0:0:0:0:
354,213,24747,1,0,0:0:0:0:
294,138,25096,1,8,0:0:0:0:
256,192,33468,12,8,36259,0:0:0:0:
48,88,41840,6,0,P|10:162|37:244,2,160,8|8|8,0:0|0:0|0:0,0:0:0:0:
134,45,43584,1,0,3:0:0:0:
210,103,43933,2,0,L|306:103,1,80,8|0,0:0|3:0,0:0:0:0:
381,133,44631,2,0,L|381:53,2,80,4|4|4,3:0|3:0|3:0,0:0:0:0:
418,221,45677,1,8,0:0:0:0:
367,302,46026,2,0,P|317:281|243:286,1,120,0|0,0:0|0:0,0:0:0:0:
208,302,46724,2,0,P|162:313|106:304,1,80,0|0,0:0|0:0,0:0:0:0:
49,257,47422,6,0,L|49:177,1,80,4|0,0:0|0:0,0:0:0:0:
40,81,48119,2,0,P|92:86|122:82,1,80,8|0,0:0|0:0,0:0:0:0:
204,127,48817,2,0,B|286:101|291:144|368:120,1,160,0|8,0:0|0:0,0:0:0:0:
492,262,50212,6,0,P|493:333|474:362,1,80,4|0,0:0|0:0,0:0:0:0:
399,372,50910,2,0,L|310:369,1,80,8|0,0:0|0:0,0:0:0:0:
222,366,51608,2,0,P|209:290|137:265,1,160,0|8,0:0|0:0,0:0:0:0:
52,309,52654,1,0,0:0:0:0:
2,226,53003,6,0,L|-1:137,1,80,4|0,0:0|0:0,0:0:0:0:
93,165,53701,2,0,P|133:169|181:161,1,80,8|0,0:0|0:0,0:0:0:0:
263,133,54398,2,0,B|281:226|235:204|255:293,1,160,0|8,0:0|0:0,0:0:0:0:
446,274,55794,6,0,L|364:271,1,80,4|0,0:0|0:0,0:0:0:0:
340,178,56491,2,0,P|335:144|339:89,1,80,8|0,0:0|0:0,0:0:0:0:
245,69,57189,2,0,P|205:63|165:66,2,80,0|0|0,0:0|0:0|0:0,0:0:0:0:
337,98,58236,1,0,0:0:0:0:
429,74,58584,6,0,P|444:134|438:236,1,160,0|12,0:0|0:0,0:0:0:0:
410,323,59631,1,4,2:0:0:0:
327,273,59980,2,0,P|277:272|242:280,1,80,4|4,0:0|2:0,0:0:0:0:
166,329,60677,1,12,0:0:0:0:
126,141,61375,6,0,P|145:181|248:186,1,160,4|12,0:0|0:0,0:0:0:0:
308,110,62422,1,4,2:0:0:0:
265,24,62771,2,0,L|176:26,1,80,4|4,0:0|2:0,0:0:0:0:
104,78,63468,2,0,L|15:80,1,80,12|0,0:0|0:0,0:0:0:0:
46,173,64166,6,0,B|60:255|16:242|26:330,1,160,4|12,0:0|0:0,0:0:0:0:
109,376,65212,1,4,2:0:0:0:
182,314,65561,2,0,L|278:312,1,80,4|4,0:0|2:0,0:0:0:0:
340,369,66259,1,12,0:0:0:0:
435,202,66957,6,0,P|385:202|317:121,1,160,4|12,0:0|0:0,0:0:0:0:
412,108,68003,1,4,2:0:0:0:
351,33,68352,2,0,L|265:35,2,80,0|0|8,0:0|0:0|0:0,0:0:0:0:
317,123,69398,1,0,0:0:0:0:
225,150,69747,6,0,B|180:159|180:159|145:151,1,80,4|0,2:0|0:0,0:0:0:0:
55,121,70445,1,8,0:0:0:0:
46,216,70794,2,0,B|39:321|39:321|85:292,1,160
175,259,71840,2,0,B|219:249|219:249|254:257,1,80,8|0,0:0|0:0,0:0:0:0:
318,336,72538,1,4,2:0:0:0:
318,336,72887,6,0,B|351:343|351:343|396:334,1,80,0|8,0:0|0:0,0:0:0:0:
477,282,73584,2,0,L|475:198,1,80
424,126,74282,1,0,0:0:0:0:
360,53,74631,1,8,0:0:0:0:
316,138,74980,6,0,B|271:147|271:147|236:139,1,80
154,93,75677,1,0,0:0:0:0:
90,165,76026,2,0,B|97:226|97:226|68:269|68:269|74:316,1,160,8|0,0:0|0:0,0:0:0:0:
165,345,77073,2,0,B|198:352|198:352|243:343,1,80,0|8,0:0|0:0,0:0:0:0:
314,280,77771,1,0,0:0:0:0:
235,226,78119,6,0,L|229:144,2,80,4|0|8,2:0|0:0|0:0,0:0:0:0:
314,280,79166,1,0,0:0:0:0:
337,187,79515,6,0,L|419:181,1,80
502,138,80212,2,0,L|422:143,1,80,8|0,0:0|0:0,0:0:0:0:
352,76,80910,5,4,2:0:0:0:
165,122,81608,2,0,B|99:135|108:106|47:117,1,120,10|2,0:0|0:0,0:0:0:0:
18,208,82480,2,0,L|28:331,1,120,2|10,0:0|0:0,0:0:0:0:
212,274,83701,6,0,P|172:270|133:279,2,80,4|0|8,2:0|0:0|0:0,0:0:0:0:
299,313,84747,1,0,0:0:0:0:
324,220,85096,2,0,P|294:141|215:131,1,160,0|8,0:0|0:0,0:0:0:0:
416,95,86491,5,4,2:0:0:0:
454,284,87189,2,0,B|400:261|400:261|333:273,1,120,10|2,0:0|0:0,0:0:0:0:
258,324,88061,2,0,B|196:334|196:334|143:311,1,120,2|10,0:0|0:0,0:0:0:0:
195,126,89282,6,0,L|292:124,2,80,4|0|8,2:0|0:0|0:0,0:0:0:0:
141,46,90329,1,0,0:0:0:0:
70,104,90677,2,0,L|71:183,1,80,0|0,0:0|0:0,0:0:0:0:
130,260,91375,2,0,L|131:339,1,80,8|0,0:0|0:0,0:0:0:0:
45,383,92073,5,4,2:0:0:0:
221,307,92771,2,0,B|285:298|280:326|339:316,1,120,10|2,0:0|0:0,0:0:0:0:
432,291,93643,2,0,P|428:232|463:184,1,120,2|10,0:0|0:0,0:0:0:0:
332,91,94864,6,0,B|309:106|309:106|241:107|241:107|228:114|228:114|178:114,1,160,4|8,2:0|0:0,0:0:0:0:
87,82,95910,1,0,0:0:0:0:
53,171,96259,2,0,P|119:179|149:264,1,160,0|8,0:0|0:0,0:0:0:0:
334,202,97654,5,4,2:0:0:0:
462,345,98352,2,0,B|427:323|427:323|350:337,1,120,10|2,0:0|0:0,0:0:0:0:
273,279,99224,2,0,B|196:293|196:293|161:271,1,120,2|10,0:0|0:0,0:0:0:0:
217,87,100445,6,0,L|137:85,2,80,4|2|8,2:0|3:0|0:0,0:0:0:0:
296,32,101491,1,0,0:0:0:0:
366,97,101840,2,0,L|364:176,1,80,0|0,0:0|0:0,0:0:0:0:
313,258,102538,1,8,0:0:0:0:
