osu file format v14

[General]
AudioFilename: audio.mp3
AudioLeadIn: 0
PreviewTime: 84767
Countdown: 0
SampleSet: None
StackLeniency: 0
Mode: 0
LetterboxInBreaks: 0
WidescreenStoryboard: 0

[Editor]
Bookmarks: 28238,62120,87532,107297,135532,158120,180709,203314,225891
DistanceSpacing: 0.2
BeatDivisor: 4
GridSize: 32
TimelineZoom: 3.200005

[Metadata]
Title:Acid Rain
TitleUnicode:Acid Rain
Artist:Culprate
ArtistUnicode:Culprate
Creator:jas
Version:Aspire
Source:
Tags:aspire craezy awkward lampoon
BeatmapID:2104523
BeatmapSetID:1005556

[Difficulty]
HPDrainRate:4.08
CircleSize:4.02
OverallDifficulty:7.98
ApproachRate:9.45
SliderMultiplier:2.2
SliderTickRate:0.5

[Events]
//Background and Video events
0,0,"image-46832688-creepy-anime-wallpaper.jpg",0,0
//Break Periods
2,54706,56470
2,60057,62116
2,83291,84703
2,86115,87173
2,105879,107290
2,118585,119643
2,129526,135173
2,145409,146819
//Storyboard Layer 0 (Background)
//Storyboard Layer 1 (Fail)
//Storyboard Layer 2 (Pass)
//Storyboard Layer 3 (Foreground)
//Storyboard Sound Samples

[TimingPoints]
1415,352.941176470588,4,2,1,100,1,0
1415,-1,4,2,1,100,0,0
28238,-400,4,2,1,50,0,0
40591,-200,4,2,1,50,0,0
44473,-400,4,2,1,50,0,0
46238,-200,4,2,1,50,0,0
50120,-133.333333333333,4,2,1,50,0,0
50142,-133.333333333333,4,2,2,49,0,0
50164,-133.333333333333,4,2,1,48,0,0
50187,-133.333333333333,4,2,2,47,0,0
50209,-133.333333333333,4,2,1,46,0,0
50231,-133.333333333333,4,2,2,45,0,0
50253,-133.333333333333,4,2,1,44,0,0
50275,-133.333333333333,4,2,2,43,0,0
50297,-133.333333333333,4,2,1,42,0,0
50319,-133.333333333333,4,2,2,41,0,0
50341,-133.333333333333,4,2,1,40,0,0
50363,-133.333333333333,4,2,2,39,0,0
50385,-133.333333333333,4,2,1,38,0,0
50407,-133.333333333333,4,2,2,37,0,0
50429,-133.333333333333,4,2,1,36,0,0
50451,-133.333333333333,4,2,2,35,0,0
50473,-133.333333333333,4,2,1,34,0,0
50495,-133.333333333333,4,2,2,33,0,0
50517,-133.333333333333,4,2,1,32,0,0
50539,-133.333333333333,4,2,2,31,0,0
50562,-133.333333333333,4,2,1,30,0,0
50584,-133.333333333333,4,2,2,29,0,0
50606,-133.333333333333,4,2,1,28,0,0
50628,-133.333333333333,4,2,2,27,0,0
50650,-133.333333333333,4,2,1,26,0,0
50672,-133.333333333333,4,2,2,25,0,0
50694,-133.333333333333,4,2,1,24,0,0
50716,-133.333333333333,4,2,2,23,0,0
50738,-133.333333333333,4,2,1,22,0,0
50760,-133.333333333333,4,2,2,20,0,0
50782,-133.333333333333,4,2,1,18,0,0
50804,-133.333333333333,4,2,2,15,0,0
50826,-133.333333333333,4,2,1,50,0,0
51532,-25,4,2,1,50,0,0
51885,-200,4,2,1,50,0,0
52238,705.882352941176,4,2,1,50,1,0
52238,-200,4,2,1,50,0,0
52590,-149.253731343284,4,2,1,50,0,0
52943,352.941176470588,4,2,1,50,1,0
52943,-200,4,2,1,50,0,0
53295,-100,4,2,1,50,0,0
53648,705.882352941176,4,2,1,60,1,0
53648,-200,4,2,1,60,0,0
55059,176.470588235294,4,2,1,60,1,0
55059,-400,4,2,1,60,0,0
56470,1E-298,4,2,1,60,1,0
57881,352.941176470588,4,2,1,60,1,0
57940,-200,4,2,1,60,0,0
58587,-133.333333333333,4,2,1,60,0,0
59293,-100,4,2,1,60,0,0
59352,-200,4,2,1,60,0,0
61939,1E-298,4,2,1,60,1,0
62116,352.941176470588,4,2,1,60,1,0
62117,-133.333333333333,4,2,1,60,0,0
63528,705.882352941176,4,2,1,60,1,0
63528,-133.333333333333,4,2,1,60,0,0
64939,1E-298,4,2,1,60,1,0
65116,352.941176470588,4,2,1,60,1,0
65116,-133.333333333333,4,2,1,60,0,0
65292,352.941176470588,4,2,1,60,1,0
65644,-133.333333333333,4,2,1,60,0,0
65997,-133.333333333333,4,2,0,60,0,0
66351,352.941176470588,4,2,1,60,1,0
66351,-133.333333333333,4,2,1,60,0,0
69881,-25,4,2,1,60,0,0
70587,-133.333333333333,4,2,1,60,0,0
71292,-25,4,2,1,60,0,0
71822,-133.333333333333,4,2,1,60,0,0
74469,-25,4,2,1,60,0,0
74822,705.882352941176,4,2,1,60,1,0
74822,-133.333333333333,4,2,1,60,0,0
76233,1E-298,4,2,1,60,1,0
76409,352.941176470588,4,2,1,60,1,0
76585,352.941176470588,4,2,1,60,1,0
76937,-133.333333333333,4,2,1,60,0,0
77643,352.941176470588,4,2,1,60,1,0
77643,-133.333333333333,4,2,1,60,0,0
83291,1E-298,4,2,1,60,1,0
84703,1000000,4,2,1,5,1,0
85763,352.941176470588,4,2,1,60,1,0
86115,352.941176470588,4,2,1,40,1,0
87173,-1,4,2,1,60,0,0
87526,-66.6666666666667,4,2,2,80,0,1
87703,-100,4,2,1,80,0,1
87879,-66.6666666666667,4,2,1,80,0,1
88056,-100,4,2,1,80,0,1
88232,-66.6666666666667,4,2,1,80,0,1
88585,-100,4,2,1,80,0,1
89026,-66.6666666666667,4,2,1,80,0,1
89997,-100,4,2,1,80,0,1
90350,-66.6666666666667,4,2,1,80,0,1
90526,-100,4,2,1,80,0,1
90703,-66.6666666666667,4,2,1,80,0,1
90879,-100,4,2,1,80,0,1
91056,-66.6666666666667,4,2,1,80,0,1
91232,-100,4,2,1,80,0,1
91409,-50,4,2,1,80,0,1
91585,-100,4,2,1,80,0,1
93967,-66.6666666666667,4,2,1,80,0,1
94409,-100,4,2,1,80,0,1
94938,-66.6666666666667,4,2,1,80,0,1
95291,-400,4,2,1,80,0,0
95997,-400,4,2,2,80,0,1
96173,-100,4,2,1,80,0,1
96791,-66.6666666666667,4,2,1,80,0,1
97585,-100,4,2,1,80,0,1
97762,-66.6666666666667,4,2,1,80,0,1
97938,-100,4,2,1,80,0,1
98115,-66.6666666666667,4,2,1,80,0,1
98291,-100,4,2,1,80,0,1
98467,-66.6666666666667,4,2,1,80,0,1
98644,-100,4,2,1,80,0,1
98820,-66.6666666666667,4,2,1,80,0,1
98997,-100,4,2,1,80,0,1
99173,-66.6666666666667,4,2,1,80,0,1
99350,-100,4,2,1,80,0,1
100320,-66.6666666666667,4,2,1,80,0,1
100938,-100,4,2,1,80,0,1
101114,-66.6666666666667,4,2,1,80,0,1
101291,-100,4,2,1,80,0,1
101644,-66.6666666666667,4,2,1,80,0,1
102173,-100,4,2,1,80,0,1
102350,-66.6666666666667,4,2,1,80,0,1
102526,-100,4,2,1,80,0,1
102703,-50,4,2,1,80,0,1
102879,-66.6666666666667,4,2,1,80,0,1
104114,-100,4,2,1,80,0,1
104467,-100,4,2,1,80,0,0
104820,-100,4,2,1,40,0,0
104909,-100,4,2,1,80,0,0
105526,-100,4,2,1,40,0,0
105614,-100,4,2,1,80,0,0
105879,-1000,4,2,1,80,0,0
106144,-50,4,2,1,80,0,1
106409,-1000,4,2,1,80,0,0
106673,-50,4,2,1,80,0,1
106938,-100,4,2,1,80,0,0
107291,-50,4,2,1,80,0,1
107732,-50,4,2,1,80,0,0
107820,-50,4,2,1,80,0,1
108262,-50,4,2,1,80,0,0
108350,-50,4,2,1,80,0,1
108703,-100,4,2,1,80,0,1
109585,-66.6666666666667,4,2,1,80,0,1
110026,-66.6666666666667,4,2,1,80,0,0
110114,-50,4,2,1,80,0,1
110556,-50,4,2,1,60,0,1
110644,-50,4,2,1,40,0,1
110732,-50,4,2,1,20,0,0
110820,-50,4,2,1,80,0,1
111526,-66.6666666666667,4,2,1,80,0,1
111703,-50,4,2,1,80,0,1
111879,-100,4,2,1,80,0,0
112938,-100,4,2,1,80,0,1
113114,-66.6666666666667,4,2,1,80,0,1
113909,-133.333333333333,4,2,1,80,0,0
114085,-133.333333333333,4,2,1,80,0,1
114350,-66.6666666666667,4,2,1,80,0,1
114526,-50,4,2,1,80,0,1
115320,-50,4,2,1,80,0,0
115762,-133.333333333333,4,2,1,80,0,0
116114,-133.333333333333,4,2,0,80,0,0
116203,-133.333333333333,4,2,1,80,0,0
116467,-66.6666666666667,4,2,1,80,0,1
116997,-50,4,2,1,80,0,1
117173,-50,4,2,0,80,0,0
117350,-133.333333333333,4,2,1,80,0,0
118585,-50,4,2,1,80,0,0
118586,-50,4,2,2,20,0,0
118673,-50,4,2,1,25,0,0
118762,-50,4,2,2,30,0,0
118850,-50,4,2,1,35,0,0
118938,-50,4,2,2,40,0,0
119026,-50,4,2,1,45,0,0
119114,-50,4,2,2,80,0,1
119644,-100,4,2,1,80,0,0
121409,-50,4,2,1,80,0,1
122026,-50,4,2,1,80,0,0
122114,-50,4,2,1,80,0,1
123173,-100,4,2,1,80,0,1
125820,-66.6666666666667,4,2,1,80,0,0
125997,-50,4,2,1,80,0,0
126526,-50,4,2,1,80,0,1
126703,-100,4,2,1,80,0,0
127409,-100,4,2,1,80,0,1
128467,-100,4,2,1,80,0,1
128644,-66.6666666666667,4,2,1,80,0,1
129614,-66.6666666666667,4,2,1,5,0,0
135526,-66.6666666666667,4,2,2,80,0,1
135703,-66.6666666666667,4,2,1,80,0,1
136409,-100,4,2,1,80,0,1
136585,-66.6666666666667,4,2,1,80,0,1
136762,-100,4,2,1,80,0,1
137291,-66.6666666666667,4,2,1,80,0,1
137467,-100,4,2,1,80,0,1
137644,-66.6666666666667,4,2,1,80,0,1
137820,-100,4,2,1,80,0,1
137997,-66.6666666666667,4,2,1,80,0,1
138173,-100,4,2,1,80,0,1
138526,-50,4,2,1,80,0,1
138703,-66.6666666666667,4,2,1,80,0,1
138879,-100,4,2,1,80,0,1
139850,-66.6666666666667,4,2,1,80,0,1
140467,-100,4,2,1,80,0,1
140644,-66.6666666666667,4,2,1,80,0,1
140820,-100,4,2,1,80,0,1
141350,-50,4,2,1,80,0,1
141526,-66.6666666666667,4,2,1,80,0,1
141703,-100,4,2,1,80,0,1
141879,-66.6666666666667,4,2,1,80,0,1
142056,-100,4,2,1,80,0,1
142232,-50,4,2,1,80,0,1
142409,-66.6666666666667,4,2,1,80,0,1
142938,-100,4,2,1,80,0,1
143291,-50,4,2,1,80,0,1
143467,-66.6666666666667,4,2,1,80,0,1
143644,-100,4,2,1,80,0,1
143820,-133.333333333333,4,2,1,80,0,1
143997,-200,4,2,1,80,0,1
144173,-100,4,2,1,80,0,1
144614,-66.6666666666667,4,2,1,80,0,1
144791,-50,4,2,1,80,0,1
145232,-100,4,2,1,80,0,1
146732,-100,4,2,1,80,0,0
146820,-66.6666666666667,4,2,2,80,0,1
146997,-66.6666666666667,4,2,1,80,0,1
148056,-100,4,2,1,80,0,1
148585,-66.6666666666667,4,2,1,80,0,1
148762,-100,4,2,1,80,0,1
148938,-66.6666666666667,4,2,1,80,0,1
149114,-100,4,2,1,80,0,1
149291,-66.6666666666667,4,2,1,80,0,1
149467,-100,4,2,1,80,0,1
149820,-50,4,2,1,80,0,1
149997,-66.6666666666667,4,2,1,80,0,1
150173,-100,4,2,1,80,0,1
151144,-66.6666666666667,4,2,1,80,0,1
151762,-100,4,2,1,80,0,1
151938,-66.6666666666667,4,2,1,80,0,1
152114,-100,4,2,1,80,0,1
152644,-50,4,2,1,80,0,1
152820,-66.6666666666667,4,2,1,80,0,1
152997,-100,4,2,1,80,0,1
153173,-66.6666666666667,4,2,1,80,0,1
153350,-100,4,2,1,80,0,1
153526,-50,4,2,1,80,0,1
153703,-66.6666666666667,4,2,1,80,0,1
154232,-100,4,2,1,80,0,1
154585,-50,4,2,1,80,0,1
154762,-66.6666666666667,4,2,1,80,0,1
154938,-100,4,2,1,80,0,1
155114,-133.333333333333,4,2,1,80,0,1
155291,-200,4,2,1,80,0,1
155467,-100,4,2,1,80,0,1
155909,-66.6666666666667,4,2,1,80,0,1
156085,-50,4,2,1,80,0,1
156526,-100,4,2,1,80,0,1
157056,-66.6666666666667,4,2,1,80,0,1
157409,-133.333333333333,4,2,1,80,0,1
158114,-133.333333333333,4,2,1,60,0,0
159526,705.882352941176,4,2,1,60,1,0
159526,-133.333333333333,4,2,1,60,0,0
160937,1E-298,4,2,1,60,1,0
161113,352.941176470588,4,2,1,60,1,0
161113,-50,4,2,1,60,0,0
161289,352.941176470588,4,2,1,60,1,0
161641,-133.333333333333,4,2,1,60,0,0
162348,352.941176470588,4,2,1,60,1,0
162877,-66.6666666666667,4,2,1,60,0,0
163230,-50,4,2,1,60,0,0
163759,-133.333333333333,4,2,1,60,0,0
164112,-66.6666666666667,4,2,1,60,0,0
164465,-133.333333333333,4,2,1,60,0,0
164818,-66.6666666666667,4,2,1,60,0,0
164995,-133.333333333333,4,2,1,60,0,0
165877,-100,4,2,1,60,0,0
166230,-133.333333333333,4,2,1,60,0,0
167289,-100,4,2,1,60,0,0
168965,-25,4,2,1,60,0,0
169406,-100,4,2,1,60,0,0
169583,-50,4,2,1,60,0,0
170465,-100,4,2,1,60,0,0
170995,-66.6666666666667,4,2,1,60,0,0
171700,-100,4,2,1,60,0,0
171877,-50,4,2,1,60,0,0
172583,-66.6666666666667,4,2,1,60,0,0
172936,-100,4,2,1,60,0,0
173465,-40,4,2,1,60,0,0
173730,-100,4,2,1,60,0,0
174171,-66.6666666666667,4,2,1,60,0,0
174524,-50,4,2,1,60,0,0
175053,-100,4,2,1,60,0,0
176112,-50,4,2,1,60,0,0
176289,-133.333333333333,4,2,1,60,0,0
178495,-50,4,2,1,60,0,0
178671,-66.6666666666667,4,2,1,60,0,0
178936,-100,4,2,1,60,0,0
179465,-66.6666666666667,4,2,1,60,0,0
180348,-76.9230769230769,4,2,1,60,0,0
181439,352.941176470588,4,2,1,60,1,0
182056,-100,4,2,1,5,0,0
182145,352.941176470588,4,2,1,50,1,0
182145,-133.333333333333,4,2,1,50,0,0
183556,1411.76470588235,4,2,1,50,1,0
183556,-33.3333333333333,4,2,1,50,0,0
186539,352.941176470588,4,2,1,50,1,0
186891,-133.333333333333,4,2,1,50,0,0
187612,352.941176470588,4,2,1,50,1,0
188214,352.941176470588,4,2,1,50,1,0
188214,-133.333333333333,4,2,1,50,0,0
188851,352.941176470588,4,2,1,50,1,0
189203,352.941176470588,4,2,1,50,1,0
189379,-133.333333333333,4,2,1,50,0,0
190438,-54.054054054054,4,2,1,50,0,0
190786,352.941176470588,4,2,1,50,1,0
191315,-133.333333333333,4,2,1,50,0,0
192021,705.882352941176,4,2,1,50,1,0
192021,-66.6666666666667,4,2,1,50,0,0
193432,352.941176470588,4,2,1,50,1,0
193432,-133.333333333333,4,2,1,50,0,0
194843,705.882352941176,4,2,1,50,1,0
194843,-66.6666666666667,4,2,1,50,0,0
196254,352.941176470588,4,2,1,50,1,0
196606,-133.333333333333,4,2,1,50,0,0
197829,352.941176470588,4,2,1,50,1,0
199064,352.941176470588,4,2,1,50,1,0
199064,-133.333333333333,4,2,1,50,0,0
200122,-100,4,2,1,50,0,0
200299,-66.6666666666667,4,2,1,50,0,0
200667,352.941176470588,4,2,1,50,1,0
200667,-133.333333333333,4,2,1,50,0,0
203314,352.941176470588,4,2,1,50,1,0
203314,-400,4,2,1,40,0,0
204019,705.882352941176,4,2,1,40,1,0
204019,-200,4,2,1,40,0,0
205431,352.941176470588,4,2,1,40,1,0
206137,352.941176470588,4,2,1,40,1,0
206313,1411.76470588235,4,2,1,40,1,0
208247,352.941176470588,4,2,1,40,1,0
208247,-400,4,2,1,40,0,0
208952,352.941176470588,4,2,1,40,1,0
208952,-400,4,2,1,40,0,0
209657,705.882352941176,4,2,1,40,1,0
209657,-200,4,2,1,40,0,0
211069,352.941176470588,4,2,1,40,1,0
211069,-400,4,2,1,40,0,0
211774,352.941176470588,4,2,1,40,1,0
211950,1411.76470588235,4,2,1,40,1,0
213891,352.941176470588,4,2,1,40,1,0
213891,-400,4,2,1,40,0,0
214596,352.941176470588,4,2,1,40,1,0
214596,-400,4,2,1,40,0,0
215654,1411.76470588235,4,2,1,40,1,0
215654,-50,4,2,1,40,0,0
217418,-100,4,2,1,40,0,0
219536,352.941176470588,4,2,1,40,1,0
219536,-400,4,2,1,40,0,0
220241,352.941176470588,4,2,1,40,1,0
220241,-400,4,2,1,40,0,0
220942,352.941176470588,4,2,1,40,1,0
220942,-400,4,2,1,40,0,0
221304,352.941176470588,4,2,1,40,1,0
221304,-200,4,2,1,40,0,0
221656,352.941176470588,4,2,1,40,1,0
221656,-200,4,2,1,40,0,0
223067,-400,4,2,1,40,0,0
225935,-400,4,2,1,5,0,0

[Colours]
Combo1 : 255,135,15
Combo2 : 245,41,41
Combo3 : 36,255,41
Combo4 : 232,142,142
Combo5 : 159,240,162
Combo6 : 60,72,230
Combo7 : 169,60,210
Combo8 : 255,250,43

[HitObjects]
31,152,28238,70,0,P|49:168|111:178,1,82.5,2|0,0:0|0:0,0:0:0:0:
254,116,28944,2,0,B|252:77|234:56|207:50|207:50|166:83|157:144|196:175|213:185,1,247.5,2|0,0:0|0:0,0:0:0:0:
319,198,30709,2,0,P|302:190|284:186,1,27.5,2|0,0:0|0:0,0:0:0:0:
63,316,31062,6,0,B|100:359|187:382|250:312|252:260|252:260|256:294|277:314,1,302.5,2|0,0:0|0:0,0:0:0:0:
369,253,33179,2,0,P|355:250|342:254,1,27.5,2|0,0:0|0:0,0:0:0:0:
353,334,33532,2,0,P|367:337|380:333,1,27.5,2|0,0:0|0:0,0:0:0:0:
449,283,33885,102,0,P|463:259|509:225,1,82.5,2|0,0:0|0:0,0:0:0:0:
421,31,34591,22,0,B|359:38|359:38|359:98|431:151|503:136,1,247.5,2|0,0:0|0:0,0:0:0:0:
373,229,36356,86,0,P|371:210|367:196,1,27.5,2|0,0:0|0:0,0:0:0:0:
163,149,36709,5,2,0:0:0:0:
168,153,36767,1,2,0:0:0:0:
172,157,36826,2,0,B|240:121|314:185|262:292|262:292|260:259|238:238,1,284.166666666667,2|0,0:0|0:0,0:0:0:0:
151,298,38826,102,0,P|167:298|177:295,1,27.5,2|0,0:0|0:0,0:0:0:0:
75,277,39179,2,0,P|59:277|49:280,1,27.5,2|0,0:0|0:0,0:0:0:0:
26,173,39532,6,0,P|-2:194|-23:242,1,82.5,2|0,0:0|0:0,0:0:0:0:
114,164,40238,1,2,0:0:0:0:
118,168,40297,2,0,P|112:138|104:119,1,45.8333333333333,2|0,0:0|0:0,0:0:0:0:
106,123,40591,38,0,B|135:116|135:116|173:124,1,55,2|0,0:1|0:0,0:0:0:0:
254,75,40944,22,0,P|262:131|240:192,1,110,2|0,0:0|0:0,0:0:0:0:
342,134,41473,2,0,P|289:112|247:63,1,110,2|0,0:0|0:0,0:0:0:0:
246,181,42003,2,0,P|290:146|354:134,1,110,2|0,0:0|0:0,0:0:0:0:
341,134,42356,5,2,0:0:0:0:
457,328,42532,2,0,B|397:347|348:307|348:307|304:300|296:253|320:201|395:212|412:262|391:309|349:307|349:307|294:330|236:308|271:286|186:268|144:303,1,550,2|0,0:0|0:0,0:0:0:0:
76,228,44473,6,0,P|79:246|78:256,1,27.5,2|0,0:0|0:0,0:0:0:0:
3,259,44826,2,0,P|0:240|0:230,1,27.5,2|0,0:0|0:0,0:0:0:0:
35,162,45179,6,0,P|53:153|91:152,1,55,2|2,0:0|0:0,0:0:0:0:
87,151,45532,1,0,0:0:0:0:
318,44,45885,102,0,P|290:44|265:33,1,55,2|0,0:0|0:0,0:0:0:0:
265,33,46238,54,0,B|271:60|271:60|268:87,1,55,2|0,0:1|0:0,0:0:0:0:
144,196,46591,22,0,P|187:179|258:175,1,110,2|0,0:0|0:0,0:0:0:0:
87,130,47120,2,0,P|115:93|175:54,1,110,2|0,0:0|0:0,0:0:0:0:
1,126,47650,1,2,0:0:0:0:
38,48,47826,1,2,0:0:0:0:
40,204,48003,6,0,P|34:266|15:314,1,110,2|0,0:0|0:0,0:0:0:0:
158,248,48532,2,0,P|150:233|146:178,1,55,2|0,0:0|0:0,0:0:0:0:
243,237,48885,2,0,P|243:220|267:171,1,55,2|0,0:0|0:0,0:0:0:0:
324,268,49238,2,0,P|332:254|377:223,1,55,2|0,0:0|0:0,0:0:0:0:
158,248,49591,5,2,0:0:0:0:
243,237,49767,1,2,0:0:0:0:
324,268,49944,1,2,0:0:0:0:
351,349,50120,6,2,B|393:342|442:361|442:361|433:356|430:356|430:356|452:364|463:372|463:372|443:361|443:361|465:371|489:392|489:392|473:378|473:378|486:388|486:388|477:381|477:381|491:394|491:394|487:387|482:386|482:386|486:389|486:389|494:395|494:395|503:408|511:421,1,330.000012588501,2|0,0:0|0:0,0:1:0:0:
502,407,50826,101,2,0:0:0:0:
466,101,51532,2,6,L|467:101,2,1.375
256,192,51536,12,0,51536,0:0:0:0:
407,177,51885,6,0,P|435:202|456:210,1,55,2|0,0:0|0:0,0:0:0:0:
466,101,52238,102,0,P|328:121|309:199,1,220,2|0,0:0|0:0,0:0:0:0:
226,22,52590,2,0,P|246:161|324:180,1,221.099989541474,2|0,0:0|0:0,0:0:0:0:
148,263,52943,2,0,P|286:243|305:165,1,220,2|0,0:0|0:0,0:0:0:0:
387,340,53295,2,0,P|367:202|289:183,1,220,2|0,0:0|0:0,0:0:0:0:
305,181,53648,6,0,B|259:157|179:154|211:196|147:205|75:174,1,220,6|0,0:0|0:0,0:0:0:0:
256,192,54706,12,0,56471,0:0:0:0:
92,180,56470,22,2,B|357:-91|678:115|678:115|47867:-40710|679:113|679:113|728:300|728:300|524:421|524:421|354:261|153:402|153:402|216:236|216:236|92:180,1,64185
387,77,57881,38,0,P|385:85|386:98,2,18.3333333333333,2|0|0,0:0|0:0|0:0,0:0:0:0:
387,77,57940,2,0,P|385:99|513:190,1,201.666666666667
510,190,58587,6,0,P|467:196|403:208,1,82.5000031471254,2|0,0:0|0:0,0:0:0:0:
229,312,58940,2,0,P|188:305|91:299,1,123.750004720688,2|0,0:0|0:0,0:0:0:0:
31,352,59293,102,0,L|26:330,2,18.3333333333333,2|0|0,0:0|0:0|0:0,0:0:0:0:
31,352,59352,2,0,B|-1:232|-1:232|18:185|18:185|-1:118|27:45|90:26,1,366.666666666667
88,26,60529,5,0,0:0:0:0:
125,187,60705,2,0,P|108:154|101:120,1,55,2|0,0:0|0:0,0:0:0:0:
196,67,61058,53,2,0:1:0:0:
265,94,61234,1,2,0:0:0:0:
332,61,61411,1,2,0:0:0:0:
260,11,61587,101,2,0:1:0:0:
269,175,61764,1,2,0:0:0:0:
259,0,61939,2,2,B|207:132|521:295|521:295|132:163|41:283|41:283|-180048:58915|40:283|40:283|51:140|-96:10|-96:10|152:76|259:0,1,190960
256,192,62116,12,0,62116,0:0:0:0:
271,187,62117,54,0,P|267:223|258:354,1,165.000006294251,4|0,0:0|0:0,0:0:0:0:
258,351,62470,2,0,L|202:348,1,41.2500015735627,4|0,0:3|0:0,0:0:0:0:
92,343,62646,1,2,0:3:0:0:
349,268,62822,2,0,L|445:265,1,82.5000031471254,8|8,0:3|0:3,0:3:0:0:
491,126,63175,2,0,B|395:142|422:105|328:121,1,165.000006294251,4|0,0:3|0:0,0:0:0:0:
327,121,63528,6,0,L|0:161,1,330.000012588501,2|0,0:0|0:0,0:0:0:0:
187,63,63880,2,0,B|165:141|165:141|-7:161,1,247.500009441376,2|0,0:0|0:0,0:0:0:0:
124,221,64233,2,0,B|82:151|82:151|-5:160,1,165.000006294251,2|0,0:0|0:0,0:0:0:0:
22,81,64586,2,0,L|0:160,1,82.5000031471254,2|0,0:0|0:0,0:0:0:0:
0,160,64940,102,4,B|-16:239|-16:239|32:279|183:249|49:171|93:123|193:121|193:121|169:361|396:310|396:310|137383:-41842|96:-1|96:-1|0:160,1,144320,6|4,0:0|0:0,0:0:0:0:
204,359,65116,2,0,L|159:284,1,82.5,2|0,0:0|0:0,0:0:0:0:
15,246,65469,5,2,0:0:0:0:
287,337,65645,2,0,L|285:249,1,82.5,2|0,0:0|0:0,0:0:0:0:
33,330,65998,101,10,0:0:0:0:
370,360,66175,2,0,L|412:283,1,82.5,2|0,0:0|0:0,0:0:0:0:
409,287,66351,6,0,L|376:122,1,165.000006294251,4|0,0:3|0:0,0:0:0:0:
376,125,66704,2,0,L|349:167,1,41.2500015735627,2|0,0:3|0:0,0:0:0:0:
285,254,66881,1,8,0:3:0:0:
267,169,67057,1,2,0:3:0:0:
221,312,67234,5,2,0:0:0:0:
367,281,67410,1,2,0:0:0:0:
267,169,67587,1,2,0:0:0:0:
221,312,67763,86,0,P|171:288|62:318,1,165.000006294251,4|0,0:3|0:0,0:0:0:0:
68,313,68116,2,0,B|51:276|51:276|64:305,2,41.2500015735627,8|8|8,0:0|0:0|0:0,0:0:0:0:
267,169,68469,6,0,B|340:151|409:173|364:212|432:225|500:207,1,247.500009441376,2|0,0:1|0:1,0:1:0:0:
446,128,68645,1,2,0:0:0:0:
322,251,68822,1,4,0:3:0:0:
500,206,68998,102,0,P|434:253|444:348,1,165.000006294251,2|0,0:1|0:0,0:0:0:0:
432,330,69351,6,0,P|350:336|312:423,1,165.000006294251,2|0,0:1|0:0,0:0:0:0:
322,251,69528,1,6,0:3:0:0:
311,403,69704,101,2,0:0:0:0:
198,318,69881,2,14,L|198:319,2,1.375,14|14|14,0:3|0:3|0:3,0:3:0:0:
73,374,70057,5,2,0:0:0:0:
96,212,70234,1,10,0:0:0:0:
71,383,70410,1,2,0:0:0:0:
100,203,70587,102,0,P|84:124|3:92,1,165.000006294251,8|0,0:0|0:0,0:0:0:0:
15,179,70763,1,4,0:3:0:0:
12,91,70940,1,2,0:3:0:0:
18,264,71116,1,4,0:3:0:0:
10,4,71292,6,14,L|10:3,2,1.375,14|14|14,0:3|0:3|0:3,0:3:0:0:
15,179,71469,1,4,0:3:0:0:
12,91,71645,1,2,0:3:0:0:
18,264,71822,2,0,P|57:302|87:310,1,82.5000031471254,6|0,0:3|0:0,0:0:0:0:
169,304,72175,101,4,0:3:0:0:
129,154,72351,2,0,P|115:206|123:236,1,82.5000031471254,12|0,0:3|0:0,0:0:0:0:
280,193,72704,2,0,P|240:201|209:227,1,82.5000031471254,12|0,0:3|0:0,0:0:0:0:
169,304,73057,5,2,0:0:0:0:
218,376,73234,1,2,0:0:0:0:
421,289,73410,102,0,B|324:272|357:315|259:300,1,165.000006294251,2|0,0:0|0:0,0:0:0:0:
209,227,73940,1,8,0:3:0:0:
471,218,74116,2,0,P|504:308|439:371,1,165.000006294251,2|0,0:0|0:0,0:0:0:0:
469,359,74469,6,14,L|470:359,2,1.375,14|14|14,0:3|0:3|0:3,0:3:0:0:
421,289,74645,1,8,0:0:0:0:
371,218,74822,102,0,P|290:211|131:379,1,330.000012588501,2|0,0:0|0:0,0:0:0:0:
185,154,75174,2,0,P|119:256|131:377,1,247.500009441376,2|0,0:0|0:0,0:0:0:0:
53,237,75527,2,0,P|75:316|131:377,1,165.000006294251,2|0,0:0|0:0,0:0:0:0:
52,352,75880,2,0,P|89:369|130:377,1,82.5000031471254,2|0,0:0|0:0,0:0:0:0:
132,384,76233,6,2,B|24:254|-110:314|-110:314|-73308:-83841|288:-221|288:-221|-390:-9|-390:-9|4:209|4:209|-115:144|-220:185|-220:185|-110:311|-110:311|242:0|242:0|273:-104|371:-109|371:-109|418:-69|482:-46|482:-46|473:-119|585:-141|582:-15|582:-15|517:98|350:-7|350:-7|387:209|828:87|828:87|500:79|290:297|290:297|471:570|471:570|84:520|84:520|131:383,1,116531.254445315
281,354,76409,1,2,0:0:0:0:
295,368,76586,1,8,0:3:0:0:
371,218,76762,1,2,0:0:0:0:
336,296,76938,102,0,P|391:301|456:223,1,165.000006294251,2|0,0:0|0:0,0:0:0:0:
456,222,77291,1,2,0:0:0:0:
371,218,77467,1,8,0:3:0:0:
417,144,77644,6,0,P|471:134|509:152,1,82.5000031471254,10|0,0:0|0:0,0:0:0:0:
215,60,77997,2,0,P|294:69|331:140,1,165.000006294251,10|0,0:3|0:0,0:0:0:0:
331,139,78350,1,2,0:0:0:0:
177,182,78527,102,0,P|205:153|245:142,1,82.5000031471254,2|0,0:0|0:0,0:0:0:0:
331,139,78880,1,2,0:0:0:0:
206,265,79056,6,0,P|127:255|90:185,1,165.000006294251,2|0,0:0|0:0,0:0:0:0:
90,185,79409,2,0,L|84:293,1,82.5000031471254
37,384,79762,2,0,P|109:352|176:394,1,165.000006294251,8|0,0:3|0:0,0:0:0:0:
176,394,80115,1,2,0:3:0:0:
345,275,80291,102,0,P|272:306|205:264,1,165.000006294251,2|0,0:0|0:0,0:0:0:0:
280,220,80468,1,8,0:0:0:0:
205,264,80644,2,0,P|194:216|208:172,1,82.5000031471254,2|0,0:0|0:0,0:0:0:0:
280,220,80997,1,2,0:0:0:0:
127,140,81174,6,0,P|163:106|208:96,1,82.5000031471254,2|0,0:0|0:0,0:0:0:0:
264,137,81527,1,2,0:0:0:0:
329,93,81703,1,2,0:0:0:0:
444,236,81880,102,0,L|257:217,1,165.000006294251,8|0,0:3|0:0,0:0:0:0:
279,219,82233,2,0,L|287:279,1,41.2500015735627,6|0,0:3|0:0,0:0:0:0:
292,346,82409,1,8,0:0:0:0:
9,287,82585,6,0,P|59:263|152:325,1,165.000006294251,8|0,0:0|0:0,0:0:0:0:
69,350,82762,1,2,0:3:0:0:
147,312,82937,2,0,L|139:252,1,41.2500015735627,2|0,0:0|0:0,0:0:0:0:
130,185,83115,2,0,L|122:125,1,41.2500015735627,2|0,0:0|0:0,0:0:0:0:
256,192,83291,22,2,B|253:189|253:189|253:179|253:179|257:189|257:189|256:192|256:192|257:188|257:188|267:185|267:185|259:192|259:192|256:192|256:192|259:192|259:192|265:200|265:200|256:195|256:195|256:192|256:192|256:195|256:195|250:203|250:203|252:193|252:193|256:192|256:192|252:193|252:193|243:190|243:190|253:189|253:189|256:192,1,137.5
256,192,83379,102,2,B|250:187|250:187|253:166|253:166|260:186|260:186|256:192|256:192|258:185|258:185|279:181|279:181|262:194|262:194|256:192|256:192|262:192|262:192|272:211|272:211|255:199|255:199|256:192|256:192|257:198|257:198|242:213|242:213|249:194|249:194|256:192|256:192|249:195|249:195|231:186|231:186|251:186|251:186|256:192,1,275
256,192,83467,6,2,B|248:184|248:184|256:154|256:154|262:184|262:184|256:192|256:192|261:182|261:182|291:180|291:180|265:196|265:196|256:192|256:192|266:194|266:194|278:222|278:222|254:202|254:202|256:192|256:192|256:202|256:202|233:222|233:222|245:194|245:194|256:192|256:192|245:196|245:196|219:180|219:180|250:182|250:182|256:192,1,412.5
256,192,83555,102,2,B|247:180|247:180|260:142|260:142|266:182|266:182|256:192|256:192|263:180|263:180|304:180|304:180|268:198|268:198|256:192|256:192|269:196|269:196|281:235|281:235|253:205|253:205|256:192|256:192|256:205|256:205|222:230|222:230|241:193|241:193|256:192|256:192|242:196|242:196|209:172|209:172|249:178|249:178|256:192,1,550
256,192,83643,102,2,B|246:177|246:177|266:130|266:130|269:181|269:181|256:192|256:192|267:178|267:178|318:182|318:182|270:201|270:201|256:192|256:192|272:198|272:198|283:248|283:248|250:208|250:208|256:192|256:192|254:209|254:209|210:235|210:235|237:192|237:192|256:192|256:192|238:195|238:195|200:162|200:162|249:175|249:175|256:192,1,687.5
256,192,83731,102,2,B|246:173|246:173|275:119|275:119|273:180|273:180|256:192|256:192|270:176|270:176|331:187|331:187|272:205|272:205|256:192|256:192|274:201|274:201|282:262|282:262|248:211|248:211|256:192|256:192|252:212|252:212|196:239|196:239|234:190|234:190|256:192|256:192|234:194|234:194|192:150|192:150|250:171|250:171|256:192,1,825
256,192,83819,6,2,B|246:169|246:169|286:109|286:109|277:180|277:180|256:192|256:192|274:175|274:175|344:194|344:194|273:208|273:208|256:192|256:192|276:204|276:204|280:277|280:277|244:213|244:213|256:192|256:192|249:215|249:215|182:241|182:241|230:188|230:188|256:192|256:192|230:193|230:193|186:137|186:137|251:167|251:167|256:192,1,962.5
256,192,83908,102,2,B|247:165|247:165|298:101|298:101|281:180|281:180|256:192|256:192|278:175|278:175|355:203|355:203|274:212|274:212|256:192|256:192|278:208|278:208|274:290|274:290|241:215|241:215|256:192|256:192|246:218|246:218|167:240|167:240|227:185|227:185|256:192|256:192|227:190|227:190|182:122|182:122|253:163|253:163|256:192,1,1100
256,192,83996,102,2,B|249:160|249:160|312:94|312:94|285:181|285:181|256:192|256:192|283:175|283:175|367:214|367:214|274:217|274:217|256:192|256:192|279:213|279:213|267:305|267:305|237:217|237:217|256:192|256:192|242:220|242:220|151:238|151:238|225:181|225:181|256:192|256:192|223:187|223:187|179:106|179:106|255:159|255:159|256:192,1,1237.5
256,192,84084,102,2,B|251:156|251:156|327:89|327:89|289:183|289:183|256:192|256:192|287:176|287:176|376:228|376:228|273:221|273:221|256:192|256:192|279:217|279:217|257:318|257:318|232:217|232:217|256:192|256:192|238:222|238:222|135:232|135:232|222:177|222:177|256:192|256:192|220:184|220:184|179:90|179:90|258:156|258:156|256:192,1,1375
256,192,84172,6,2,B|254:153|254:153|344:86|344:86|294:186|294:186|256:192|256:192|292:177|292:177|384:243|384:243|272:226|272:226|256:192|256:192|279:222|279:222|245:330|245:330|227:218|227:218|256:192|256:192|234:223|234:223|120:225|120:225|221:173|221:173|256:192|256:192|217:180|217:180|182:73|182:73|262:152|262:152|256:192,1,1512.5
256,192,84261,102,2,B|258:149|258:149|362:85|362:85|297:189|297:189|256:192|256:192|296:180|296:180|390:259|390:259|270:230|270:230|256:192|256:192|278:227|278:227|231:341|231:341|222:217|222:217|256:192|256:192|229:224|229:224|105:215|105:215|219:168|219:168|256:192|256:192|215:175|215:175|187:56|187:56|266:150|266:150|256:192,1,1650
256,192,84349,102,2,B|262:146|262:146|380:87|380:87|301:193|301:193|256:192|256:192|301:183|301:183|394:277|394:277|268:235|268:235|256:192|256:192|277:231|277:231|215:350|215:350|218:216|218:216|256:192|256:192|224:223|224:223|92:202|92:202|219:163|219:163|256:192|256:192|214:170|214:170|194:39|194:39|271:148|271:148|256:192,1,1787.5
256,192,84437,102,2,B|266:143|266:143|399:91|399:91|304:197|304:197|256:192|256:192|305:186|305:186|397:297|397:297|265:239|265:239|256:192|256:192|274:236|274:236|197:358|197:358|212:214|212:214|256:192|256:192|218:223|218:223|78:188|78:188|219:157|219:157|256:192|256:192|213:164|213:164|204:22|204:22|276:146|276:146|256:192,1,1925
256,192,84525,6,2,B|272:141|272:141|418:98|418:98|307:202|307:202|256:192|256:192|309:190|309:190|396:317|396:317|261:243|261:243|256:192|256:192|272:241|272:241|178:364|178:364|207:212|207:212|256:192|256:192|213:221|213:221|67:171|67:171|220:151|220:151|256:192|256:192|212:159|212:159|217:6|217:6|282:145|282:145|256:192,1,2062.5
256,192,84614,102,2,B|277:139|277:139|438:107|438:107|309:207|309:207|256:192|256:192|312:195|312:195|394:338|394:338|257:247|257:247|256:192|256:192|268:246|268:246|157:368|157:368|202:209|202:209|256:192|256:192|207:219|207:219|56:152|56:152|221:145|221:145|256:192|256:192|212:152|212:152|231:-9|231:-9|288:144|288:144|256:192,1,2200
256,192,84703,102,0,L|255:191,1,0.233,2|2,0:0|0:0,0:0:0:0:
255,191,85763,54,2,P|211:119|258:1,1,220,0|0,0:0|0:0,0:1:0:0:
256,1,86115,6,2,L|258:17,1,13.75,2|0,0:1|0:1,0:1:0:0:
176,114,86467,2,2,L|178:101,1,13.75,2|0,0:1|0:1,0:1:0:0:
358,195,86820,2,2,L|359:210,1,13.75,2|0,0:1|0:1,0:1:0:0:
191,340,87173,86,0,L|193:327,128,13.75,2|0|0|0|0|0|0|0|0|0|0|0|0|0|0|0|0|0|0|0|0|0|0|0|0|0|0|0|0|0|0|0|0|0|0|0|0|0|0|0|0|0|0|0|0|0|0|0|0|0|0|0|0|0|0|0|0|0|0|0|0|0|0|0|0|0|0|0|0|0|0|0|0|0|0|0|0|0|0|0|0|0|0|0|0|0|0|0|0|0|0|0|0|0|0|0|0|0|0|0|0|0|0|0|0|0|0|0|0|0|0|0|0|0|0|0|0|0|0|0|0|0|0|0|0|0|0|0|0,0:0|0:0|0:0|0:0|0:0|0:0|0:0|0:0|0:0|0:0|0:0|0:0|0:0|0:0|0:0|0:0|0:0|0:0|0:0|0:0|0:0|0:0|0:0|0:0|0:0|0:0|0:0|0:0|0:0|0:0|0:0|0:0|0:0|0:0|0:0|0:0|0:0|0:0|0:0|0:0|0:0|0:0|0:0|0:0|0:0|0:0|0:0|0:0|0:0|0:0|0:0|0:0|0:0|0:0|0:0|0:0|0:0|0:0|0:0|0:0|0:0|0:0|0:0|0:0|0:0|0:0|0:0|0:0|0:0|0:0|0:0|0:0|0:0|0:0|0:0|0:0|0:0|0:0|0:0|0:0|0:0|0:0|0:0|0:0|0:0|0:0|0:0|0:0|0:0|0:0|0:0|0:0|0:0|0:0|0:0|0:0|0:0|0:0|0:0|0:0|0:0|0:0|0:0|0:0|0:0|0:0|0:0|0:0|0:0|0:0|0:0|0:0|0:0|0:0|0:0|0:0|0:0|0:0|0:0|0:0|0:0|0:0|0:0|0:0|0:0|0:0|0:0|0:0|0:0,0:0:0:0:
256,192,87526,12,0,87526,0:0:0:0:
426,294,87526,70,0,B|338:352|236:283|317:269|215:192|131:252,1,330.000012588501,10|0,0:0|0:0,0:0:0:0:
368,154,87703,2,0,P|359:211|367:246,1,55,2|0,0:0|0:0,0:0:0:0:
131,251,87879,6,0,B|112:257|112:257|118:274|136:279|165:272|165:236|150:216|117:218|106:242|112:257|112:257|130:250,1,165.000006294251,8|0,0:0|0:0,0:0:0:0:
488,147,88056,2,0,P|451:191|441:226,1,55,2|0,0:0|0:0,0:0:0:0:
23,110,88232,102,0,P|142:146|277:0,1,330.000012588501,8|0,0:0|0:0,0:0:0:0:
418,27,88409,1,2,0:0:0:0:
346,21,88497,1,2,0:0:0:0:
275,14,88585,2,0,L|209:5,1,55,8|0,0:0|0:0,0:0:0:0:
131,251,88762,5,2,0:0:0:0:
215,270,88850,1,2,0:0:0:0:
287,222,88938,101,10,0:0:0:0:
219,286,89026,2,0,P|240:338|281:363,1,82.5000031471254,2|0,0:0|0:0,0:0:0:0:
458,233,89203,5,2,0:0:0:0:
367,254,89291,2,0,P|359:309|382:351,1,82.5000031471254,10|0,0:0|0:0,0:0:0:0:
507,305,89467,102,2,B|547:279|561:232|558:172|492:131|429:150|429:150|481:147|501:94,1,330.000012588501,2|0,0:0|0:0,0:1:0:0:
359,121,89644,1,8,0:0:0:0:
429,150,89732,1,2,0:0:0:0:
492,111,89820,6,0,B|508:70|567:39|614:54|614:54|574:87|460:81|374:59|474:3|301:-21|272:21,1,495.000018882752,2|0,0:0|0:0,0:0:0:0:
367,254,89997,2,0,P|342:266|316:272,1,55,8|0,0:0|0:0,0:0:0:0:
260,0,90173,101,2,0:0:0:0:
271,5,90262,1,2,0:0:0:0:
285,10,90350,2,0,B|223:22|196:84|200:134|200:134|179:87|122:46|66:58,1,330.000012588501,8|0,0:0|0:0,0:0:0:0:
248,326,90526,2,0,P|220:323|194:316,1,55,2|0,0:0|0:0,0:0:0:0:
66,57,90703,6,0,B|47:63|47:63|53:80|71:85|101:83|100:42|83:23|56:24|41:48|47:63|47:63|65:56,1,165.000006294251,8|0,0:0|0:0,0:0:0:0:
109,331,90879,2,0,P|86:315|67:295,1,55,2|0,0:0|0:0,0:0:0:0:
302,107,91056,102,0,B|360:143|351:219|351:219|215:193|215:193|200:133,1,330.000012588501,8|0,0:0|0:0,0:0:0:0:
32,167,91232,2,0,L|94:180,1,55,2|0,0:0|0:0,0:0:0:0:
200,133,91409,6,2,B|215:192|215:192|181:284|181:284|196:359,1,220,8|0,0:0|0:0,0:1:0:0:
193,344,91585,102,0,B|181:284|181:284|346:314,1,220,2|0,0:1|0:0,0:0:0:0:
200,133,91762,1,8,0:0:0:0:
337,312,91938,6,0,B|181:284|181:284|193:344,1,220,2|0,0:1|0:0,0:0:0:0:
200,133,92115,2,0,L|127:118,1,55,8|0,0:0|0:0,0:0:0:0:
193,344,92291,102,0,B|181:284|181:284|446:332,1,330,2|0,0:1|0:0,0:0:0:0:
441,179,92467,5,8,0:0:0:0:
442,217,92556,1,2,0:0:0:0:
443,255,92644,1,2,0:0:0:0:
445,292,92732,1,2,0:0:0:0:
445,331,92820,2,0,L|449:407,1,55,10|0,0:0|0:0,0:0:0:0:
340,225,92997,2,0,L|336:149,1,55,2|0,0:0|0:0,0:0:0:0:
193,344,93173,102,0,B|172:232|172:232|216:138|216:138|198:17,1,330,8|0,0:0|0:0,0:0:0:0:
27,207,93350,1,2,0:0:0:0:
31,225,93438,1,2,0:0:0:0:
35,243,93526,1,10,0:0:0:0:
199,26,93703,5,2,0:0:0:0:
112,10,93791,2,0,P|77:14|34:29,1,55,2|8,0:0|0:0,0:0:0:0:
337,170,93967,102,2,B|393:176|430:121|420:65|384:42|384:42|402:81|376:132,1,247.500009441376,2|0,0:0|0:0,0:1:0:0:
387,104,94232,5,8,0:0:0:0:
325,256,94409,2,0,P|358:267|393:266,1,55,2|0,0:1|0:0,0:0:0:0:
256,204,94585,101,10,0:0:0:0:
238,208,94673,1,2,0:0:0:0:
223,220,94762,1,2,0:0:0:0:
213,235,94850,1,2,0:0:0:0:
223,343,94938,6,2,B|250:374|250:374|361:359|361:359|338:359|322:356|322:356|180:375,1,330.000012588501,10|0,0:0|0:0,0:0:0:0:
185,374,95291,86,2,L|176:433,1,55,10|0,0:0|0:0,0:0:0:0:
176,428,95644,37,2,0:0:0:0:
178,414,95732,1,2,0:0:0:0:
181,401,95820,1,2,0:0:0:0:
183,387,95908,1,2,0:0:0:0:
185,374,95996,1,8,0:0:0:0:
256,192,95997,12,12,95997,0:0:0:0:
327,10,96173,70,0,L|337:65,1,55,2|0,0:0|0:0,0:0:0:0:
450,193,96350,1,10,0:0:0:0:
405,156,96438,1,0,0:0:0:0:
351,150,96526,1,2,0:0:0:0:
301,173,96614,1,2,0:0:0:0:
271,217,96702,37,10,0:0:0:0:
340,268,96791,2,2,B|252:262|252:262|184:292|184:292|91:288,1,247.500009441376,2|8,0:0|0:0,0:1:0:0:
31,119,97144,69,2,0:0:0:0:
61,111,97232,1,2,0:0:0:0:
52,141,97320,1,2,0:0:0:0:
47,124,97409,37,8,0:0:0:0:
47,124,97497,1,2,0:0:0:0:
47,124,97585,2,0,P|83:134|121:151,1,55,2|0,0:0|0:0,0:0:0:0:
220,56,97762,70,0,B|261:23|251:-42|164:-69|106:21|158:78|235:81|184:189,1,330.000012588501,8|0,0:0|0:0,0:0:0:0:
387,92,97938,2,0,P|348:95|316:107,1,55,2|0,0:0|0:0,0:0:0:0:
185,184,98115,38,0,B|156:252|75:251|75:251|104:250|127:243|127:243|187:261|174:305|267:285,1,330.000012588501,8|0,0:0|0:0,0:0:0:0:
458,197,98291,2,0,P|422:180|389:174,1,55,2|0,0:0|0:0,0:0:0:0:
254,287,98467,70,0,B|296:324|336:359|336:359|316:344|298:337|298:337|250:254|307:168,1,330.000012588501,8|0,0:0|0:0,0:0:0:0:
479,326,98644,2,0,P|456:293|430:272,1,55,2|0,0:0|0:0,0:0:0:0:
306,170,98820,38,0,B|322:147|326:120|326:120|278:197|185:184|185:184|155:115|68:112,1,330.000012588501,8|0,0:0|0:0,0:0:0:0:
512,93,98997,2,0,P|476:109|443:115,1,55,2|0,0:0|0:0,0:0:0:0:
103,116,99173,70,0,B|102:96|102:96|118:95|136:117|130:145|104:153|69:142|73:112|84:96|102:96|102:96|101:116,1,165,8|0,0:0|0:0,0:0:0:0:
264,22,99350,2,0,P|255:48|241:71,1,55,2|0,0:0|0:0,0:0:0:0:
19,225,99526,38,0,P|45:218|72:218,1,55,10|0,0:0|0:0,0:0:0:0:
139,339,99703,1,2,0:0:0:0:
127,343,99791,1,2,0:0:0:0:
115,346,99879,2,0,P|122:320|135:296,1,55,8|0,0:0|0:0,0:0:0:0:
365,384,100056,69,2,0:0:0:0:
289,344,100144,1,2,0:0:0:0:
317,263,100232,37,10,0:0:0:0:
272,353,100320,2,0,P|237:305|232:264,1,82.5000031471254,2|0,0:0|0:0,0:0:0:0:
421,218,100497,69,2,0:0:0:0:
476,303,100585,2,0,P|417:309|379:293,1,82.5000031471254,10|0,0:0|0:0,0:0:0:0:
313,116,100762,38,2,B|225:104|170:179|170:179|151:93|63:61,1,330.000012588501,2|0,0:0|0:0,0:1:0:0:
272,353,100938,2,0,P|237:305|232:280,1,55,10|0,0:0|0:0,0:0:0:0:
65,61,101114,70,0,B|152:94|170:180|170:180|111:270|-1:282|-72:199|4:105|80:168,1,495.000018882752
323,287,101291,2,0,P|360:294|408:283,1,55,8|0,0:0|0:0,0:0:0:0:
385,207,101467,2,0,P|348:200|300:211,1,55,2|0,0:0|0:0,0:0:0:0:
67,159,101644,38,0,B|107:201|169:180|169:180|225:104|313:116|313:116|279:125|259:152,1,330.000012588501,8|0,0:0|0:0,0:0:0:0:
258,117,101820,1,2,0:0:0:0:
263,129,101909,1,2,0:0:0:0:
267,142,101997,70,0,B|289:121|313:116|313:116|302:45|302:45|449:77|449:77|473:194,1,330.000012588501,8|0,0:0|0:0,0:0:0:0:
508,264,102173,2,0,L|454:260,1,55,2|0,0:0|0:0,0:0:0:0:
459,130,102350,38,0,B|462:149|462:149|445:154|426:132|429:103|454:93|490:100|489:130|479:147|462:149|462:149|460:129,1,165.000006294251,8|0,0:0|0:0,0:0:0:0:
502,349,102526,2,0,L|448:345,1,55,2|0,0:0|0:0,0:0:0:0:
366,262,102703,70,2,L|100:281,1,220,8|0,0:0|0:0,0:1:0:0:
146,278,102879,38,0,B|145:227|197:190|267:208|287:263|228:278|244:324|318:349|367:316|366:259,1,330.000012588501,2|0,0:1|0:0,0:0:0:0:
440,271,103056,1,8,0:0:0:0:
366,262,103232,70,0,P|430:198|445:345,1,330.000012588501,2|0,0:1|0:0,0:0:0:0:
491,120,103409,1,8,0:0:0:0:
448,344,103585,38,0,B|405:350|378:325|360:294|365:262|365:262|368:197|297:170|243:205|226:272|273:261|289:305|250:353|192:356|149:327|147:278,1,495.000018882752,2|0,0:1|0:0,0:0:0:0:
405,115,103762,1,8,0:0:0:0:
8,323,103938,69,2,0:0:0:0:
85,325,104026,1,2,0:0:0:0:
146,277,104114,2,0,P|131:243|99:216,1,55,10|0,0:0|0:0,0:0:0:0:
0,269,104291,2,0,P|0:296|8:323,1,55,2|0,0:0|0:0,0:0:0:0:
41,194,104467,5,8,0:0:0:0:
218,118,104644,101,2,0:0:0:0:
150,92,104732,1,2,0:0:0:0:
126,24,104820,1,8,0:1:0:0:
79,79,104909,1,2,0:0:0:0:
9,91,104997,1,2,0:0:0:0:
471,194,105173,5,8,0:0:0:0:
293,118,105350,101,2,0:0:0:0:
361,92,105438,1,2,0:0:0:0:
385,24,105526,1,8,0:1:0:0:
432,79,105615,1,2,0:0:0:0:
502,91,105703,1,2,0:0:0:0:
161,345,105879,6,0,L|178:348,1,16.5,8|0,0:0|0:0,0:0:0:0:
177,347,106144,38,2,B|167:198|167:198|122:273,1,220,0|0,0:0|0:0,0:1:0:0:
351,345,106409,70,0,L|334:348,1,16.5,8|0,0:0|0:0,0:0:0:0:
334,347,106674,38,2,B|345:198|345:198|390:273,1,220,0|0,0:0|0:0,0:1:0:0:
256,192,106938,70,0,B|258:223|249:243|249:243|256:301|256:301|264:244|264:244|256:223|257:191,1,220,8|0,0:0|0:0,0:0:0:0:
256,192,107291,12,0,107291,0:0:0:0:
256,192,107291,38,2,B|260:144|260:144|211:19|211:19|230:92|230:92|358:99|358:99|387:24|387:24|287:20,1,550,8|0,0:0|0:0,0:1:0:0:
3,83,107820,2,2,B|-45:106|-45:106|48:84|48:84|136:90|136:90|122:39|122:39|90:143|90:143|94:248|94:248|132:188,1,550,8|0,0:0|0:0,0:1:0:0:
256,192,107822,12,0,107822,0:0:0:0:
256,192,108350,12,0,108350,0:0:0:0:
180,156,108350,5,8,0:3:0:0:
22,360,108526,101,2,0:0:0:0:
92,354,108614,1,2,0:0:0:0:
162,346,108703,2,0,L|244:360,1,55,10|0,0:0|0:0,0:0:0:0:
355,332,108879,2,0,L|273:318,1,55,2|0,0:0|0:0,0:0:0:0:
36,191,109056,5,10,0:0:0:0:
116,207,109144,1,2,0:0:0:0:
180,156,109232,1,2,0:0:0:0:
259,176,109320,1,2,0:0:0:0:
316,117,109409,101,8,0:3:0:0:
237,98,109497,1,8,0:3:0:0:
336,145,109585,2,0,B|381:162|381:162|499:123,1,165.000006294251,12|0,0:3|0:0,0:0:0:0:
350,12,109850,5,2,0:0:0:0:
325,35,109938,1,2,0:0:0:0:
355,44,110026,1,2,0:0:0:0:
256,192,110114,12,0,110114,0:0:0:0:
343,30,110114,102,2,B|293:32|293:32|254:17|254:17|256:2|256:2|151:45|151:45|149:30|149:30|97:21|97:21|18:33,1,330,8|0,0:0|0:0,0:1:0:0:
48,251,110467,37,2,0:0:0:0:
75,181,110556,1,2,0:0:0:0:
107,161,110644,1,2,0:0:0:0:
132,157,110732,1,2,0:0:0:0:
256,192,110820,12,2,110820,0:1:0:0:
145,157,110820,69,0,0:0:0:0:
218,190,110909,2,0,B|210:243|210:243|158:302,1,110,2|0,0:1|0:0,0:0:0:0:
58,348,111085,2,0,B|164:316|164:316|238:413,1,220,2|0,0:1|0:0,0:0:0:0:
297,230,111350,1,8,0:3:0:0:
267,313,111438,1,8,0:3:0:0:
320,381,111526,6,0,B|364:388|364:388|427:360,1,82.5000031471254,8|0,0:3|0:0,0:0:0:0:
344,143,111703,2,0,B|406:233|406:233|512:205,1,220,2|0,0:1|0:0,0:0:0:0:
512,205,111879,6,0,P|524:145|562:84,1,110,8|0,0:3|0:0,0:0:0:0:
291,217,112144,1,0,0:0:0:0:
297,230,112232,2,0,P|351:225|406:232,1,110,10|0,0:3|0:0,0:0:0:0:
197,15,112497,1,4,0:3:0:0:
146,82,112585,2,0,B|185:122|193:179|193:179|191:161,2,110,10|0|0,0:3|0:0|0:0,0:0:0:0:
256,192,112938,12,0,112938,0:0:0:0:
146,82,112938,101,8,0:3:0:0:
61,65,113026,1,8,0:3:0:0:
10,134,113114,2,0,B|-12:168|-12:168|-8:223,1,82.5000031471254,8|0,0:3|0:0,0:0:0:0:
135,244,113291,2,0,B|94:241|94:241|48:272,1,82.5000031471254,8|0,0:3|0:0,0:0:0:0:
112,406,113467,2,0,B|93:370|93:370|56:352,1,82.5000031471254,8|0,0:3|0:0,0:0:0:0:
192,178,113644,101,8,0:0:0:0:
279,187,113732,1,8,0:0:0:0:
333,254,113820,1,8,0:0:0:0:
318,262,113909,38,2,P|337:306|329:345,1,82.5000031471254,2|0,0:0|0:0,0:0:0:0:
331,338,114086,69,8,0:0:0:0:
254,379,114173,1,8,0:0:0:0:
173,349,114262,1,8,0:0:0:0:
136,270,114350,2,0,B|178:261|178:261|221:276,1,82.5000031471254,8|0,0:0|0:0,0:0:0:0:
487,151,114526,6,0,B|451:212|327:154|392:27,1,220,2|0,0:1|0:0,0:0:0:0:
383,46,114703,102,2,P|358:65|336:109,1,55
283,40,114791,2,2,P|271:68|274:117,1,55
193,86,114879,2,2,P|197:116|224:157,1,55
139,171,114967,2,2,P|158:195|202:217,1,55
136,270,115056,5,8,0:0:0:0:
173,349,115144,1,8,0:0:0:0:
254,379,115232,1,8,0:3:0:0:
331,338,115320,6,0,B|364:320|443:221|349:126|241:189|247:300|366:327|426:319|426:319|404:319|404:319|392:316|392:316|401:319|401:319|397:318|397:318|412:320|412:320|409:319|409:319|420:319|420:319|416:320|416:320|434:318|434:318|429:319|429:319|440:316|440:316|437:317|437:317|448:313|448:313|444:315|444:315|451:312|451:312|449:314|449:314|453:312|453:312|452:313|452:313|458:310|458:310|454:311|454:311|462:305|462:305|458:309|458:309|462:305|462:305|461:307|461:307|466:303|466:303|463:306|463:306|446:314,1,550,4|0,0:3|0:0,0:0:0:0:
460,306,115762,6,0,L|467:259,1,41.2500015735627,8|0,0:0|0:0,0:0:0:0:
448,135,115938,2,0,L|441:182,1,41.2500015735627,2|0,0:0|0:0,0:0:0:0:
379,82,116114,101,8,0:0:0:0:
367,82,116203,1,2,0:0:0:0:
355,83,116291,1,2,0:0:0:0:
341,84,116379,1,2,0:0:0:0:
272,137,116467,102,0,P|198:154|126:82,1,165.000006294251,2|0,0:3|0:0,0:0:0:0:
7,219,116732,1,8,0:0:0:0:
16,231,116820,2,0,P|90:214|128:246,1,82.5000031471254,8|0,0:3|0:0,0:0:0:0:
170,342,116997,102,0,B|165:399|165:399|155:404|155:404|181:253,1,220,2|0,0:1|0:0,0:0:0:0:
180,254,117174,53,8,0:0:0:0:
272,294,117350,1,8,0:0:0:0:
92,214,117526,2,0,P|55:231|34:266,1,82.5000031471254,6|0,0:3|0:0,0:0:0:0:
180,254,117879,53,2,0:3:0:0:
171,161,117967,1,2,0:3:0:0:
83,122,118056,1,2,0:3:0:0:
4,174,118144,1,2,0:3:0:0:
184,153,118232,21,8,0:0:0:0:
196,139,118320,1,8,0:0:0:0:
204,123,118409,1,8,0:0:0:0:
204,107,118497,1,8,0:0:0:0:
203,94,118585,86,2,B|195:92|195:92|199:93|199:93|191:91|191:91|195:92|195:92|187:90|187:90|195:92|195:92|183:89|183:89|187:90|187:90|179:88|179:88|187:90|187:90|175:87|175:87|179:88|179:88|171:86|171:86|175:87|175:87|167:85|167:85|175:87|175:87|164:85|164:85|167:85|167:85|160:84|160:84|164:85|164:85|156:83|156:83|156:83|156:83|160:84|160:84|152:82|152:82|148:81|148:81|152:82|152:82|144:80|144:80|148:81|148:81|140:79|140:79|144:80|144:80|136:78|136:78|140:79|140:79|132:77|132:77|140:79|140:79|128:76|128:76|136:78|136:78|125:76|125:76|128:76|128:76|121:75|121:75|125:76|125:76|117:74|117:74|121:75|121:75|113:73|113:73|121:75|121:75|109:72|109:72|113:73|113:73|105:71|105:71|113:73|113:73|101:70|101:70|109:72|109:72|97:69|97:69|105:71|105:71|93:68|93:68|97:69|97:69|93:68|93:68|97:69|97:69|82:66|82:66|86:67|86:67|78:65|78:65|82:66|82:66|74:64|74:64|78:65|78:65|70:63|70:63|74:64|74:64|66:62|66:62|70:63|70:63|62:61|62:61|66:62|66:62|58:60|58:60|54:59|54:59|62:61|62:61|70:63|70:63|62:61|62:61|54:59|54:59|47:58|47:58|50:58|50:58|43:57|43:57|47:58|47:58|39:56|39:56|43:57|43:57|39:56|39:56|35:55|35:55|31:54|31:54|39:56|39:56|27:53|27:53|35:55|35:55|23:52|23:52|8:49|8:49|19:51|19:51|12:49|12:49|15:50|15:50|15:50|15:50|12:49|12:49|4:48|4:48|11:98|2:145|2:145|4:173|4:173|38:167|71:177|58:201|96:219|119:198|138:201|138:201|240:210|300:334|149:384|87:297|132:159|331:259,1,1320,8|0,0:0|0:0,0:1:0:0:
287,240,119644,22,0,P|296:285|232:381,1,165,2|0,0:0|0:0,0:0:0:0:
469,204,119997,2,0,P|415:213|364:194,1,110,2|0,0:0|0:0,0:0:0:0:
475,114,120262,2,0,P|424:94|370:104,1,110,2|0,0:0|0:0,0:0:0:0:
293,146,120526,2,0,L|230:140,1,55,2|0,0:0|0:0,0:0:0:0:
166,0,120703,21,4,0:3:0:0:
187,6,120791,1,4,0:3:0:0:
187,29,120879,1,4,0:3:0:0:
166,35,120967,1,4,0:3:0:0:
154,17,121056,1,4,0:3:0:0:
171,19,121232,38,0,L|163:93,1,55,8|0,0:0|0:0,0:0:0:0:
256,192,121409,12,0,121409,0:0:0:0:
194,321,121409,6,2,B|224:307|233:274|233:274|231:281|231:281|240:257|236:233|236:233|237:237|237:237|234:226|234:226|235:229|235:229|232:219|232:219|233:222|233:222|229:213|229:213|230:216|230:216|225:206|225:206|227:210|227:210|217:195|217:195|222:202|222:202|216:193|216:193|219:199|219:199|207:185|207:185|212:191|212:191|201:182|201:182|209:189|209:189|204:183|204:183|203:183|203:183|191:176|191:176|194:178|194:178|187:175|187:175|196:179|196:179|183:174|183:174|178:173|178:173|168:172|168:172|174:172|174:172|163:172|163:172|169:172|169:172|160:171|160:171|163:172|163:172|150:172|150:172|153:172|153:172|148:172|148:172|153:172|153:172|148:172|148:172|153:171|153:171|147:172|147:172|155:172|155:172|147:171|147:171|157:279|106:205|113:337|113:337|23:353|-18:290|-15:185|92:174,1,880,0|0,0:0|0:0,0:0:0:0:
256,192,122114,12,0,122114,0:0:0:0:
69,178,122114,6,2,B|44:166|44:166|-1:168,1,55
101,108,122203,2,2,B|85:84|85:84|45:63,1,55
180,84,122291,2,2,B|178:56|178:56|154:18,1,55
266,89,122379,2,2,B|278:63|278:63|276:18,1,55
337,146,122467,2,2,B|360:130|360:130|381:90,1,55
362,238,122556,2,2,B|389:236|389:236|427:212,1,55
326,332,122644,2,2,B|351:344|351:344|396:342,1,55
234,381,122732,2,2,B|249:404|249:404|289:425,1,55
132,345,122820,101,8,0:0:0:0:
130,333,122909,1,8,0:0:0:0:
127,319,122997,2,0,L|126:308,32,6.875,8|0|0|0|0|0|0|0|0|0|0|0|0|0|0|0|0|0|0|0|0|0|0|0|0|0|0|0|0|0|0|0|0,0:0|0:0|0:0|0:0|0:0|0:0|0:0|0:0|0:0|0:0|0:0|0:0|0:0|0:0|0:0|0:0|0:0|0:0|0:0|0:0|0:0|0:0|0:0|0:0|0:0|0:0|0:0|0:0|0:0|0:0|0:0|0:0|0:0,0:0:0:0:
127,319,123173,6,0,L|118:248,1,55
86,10,123350,2,0,L|77:81,1,55
21,218,123526,101,8,0:0:0:0:
23,230,123615,1,8,0:0:0:0:
25,243,123703,1,2,0:3:0:0:
253,139,123879,1,2,0:3:0:0:
0,30,124056,1,2,0:3:0:0:
256,192,124232,12,0,124232,0:0:0:0:
257,354,124232,5,12,0:0:0:0:
251,127,124409,2,0,L|246:233,1,55,2|0,0:0|0:0,0:0:0:0:
261,367,124585,101,10,0:0:0:0:
332,360,124673,1,2,0:0:0:0:
403,352,124762,1,2,0:0:0:0:
435,288,124850,1,2,0:0:0:0:
469,225,124938,5,8,0:0:0:0:
476,210,125026,1,8,0:0:0:0:
484,196,125114,2,0,L|477:126,1,55,2|0,0:3|0:0,0:0:0:0:
347,86,125291,2,0,L|397:110,1,55,10|0,0:0|0:0,0:0:0:0:
510,24,125467,2,0,L|465:56,1,55,2|0,0:0|0:0,0:0:0:0:
331,169,125644,101,8,0:0:0:0:
305,5,125820,2,0,B|342:-7|342:-7|404:9,1,82.5000031471254,2|0,0:0|0:0,0:0:0:0:
328,182,125997,6,0,B|303:200|265:198|263:197|263:197|270:198|270:198|237:195|217:185|217:185|221:187|221:187|208:181|198:175|198:175|202:177|202:177|189:170|181:163|181:163|182:164|182:164|177:160|177:160|178:161|178:161|165:152|165:152|174:158|174:158|163:150|163:150|170:154|170:154|162:150|162:150|159:148|159:148|161:149|161:149|153:145|153:145|160:148|160:148|150:143|150:143|156:146|156:146|139:138|139:138|141:139|141:139|147:142|147:142|144:140|144:140|135:137|135:137|139:138|139:138|128:134|128:134|131:135|131:135|120:132|120:132|124:133|124:133|111:131|111:131|114:131|114:131|100:129|86:130|86:130|93:129|93:129|44:129|-15:161|-8:230|24:265|102:273|116:179,1,660,8|0,0:0|0:0,0:0:0:0:
174,273,126438,101,8,0:0:0:0:
99,222,126526,2,0,B|84:276|84:276|104:338,1,110,10|0,0:0|0:0,0:0:0:0:
248,317,126703,6,0,L|307:310,1,55,2|0,0:0|0:0,0:0:0:0:
512,287,126879,2,0,L|453:294,1,55,2|0,0:0|0:0,0:0:0:0:
380,303,127056,101,8,0:0:0:0:
350,36,127232,2,0,L|357:95,1,55,2|0,0:0|0:0,0:0:0:0:
380,303,127409,5,10,0:0:0:0:
302,310,127497,1,2,0:0:0:0:
227,251,127585,101,2,0:0:0:0:
220,173,127673,1,2,0:0:0:0:
278,97,127762,5,10,0:0:0:0:
317,94,127850,1,10,0:0:0:0:
356,90,127938,2,0,B|362:144|362:144|359:116,2,55,10|0|0,0:0|0:0|0:0,0:0:0:0:
143,113,128203,2,0,B|149:59|149:59|146:92,2,55,2|0|0,0:0|0:0|0:0,0:0:0:0:
82,184,128467,101,8,0:0:0:0:
6,19,128644,2,0,B|42:0|42:0|84:0,1,82.5000031471254,2|0,0:0|0:0,0:0:0:0:
366,162,128820,5,10,0:0:0:0:
361,175,128909,2,0,P|397:195|454:186,1,82.5000031471254,2|0,0:0|0:0,0:0:0:0:
153,215,129085,101,2,0:0:0:0:
158,202,129174,2,0,P|122:182|65:191,1,82.5000031471254,10|0,0:0|0:0,0:0:0:0:
233,23,129350,6,0,L|243:106,1,82.5000031471254,10|0,0:0|0:0,0:0:0:0:
256,192,129526,101,6,0:0:0:0:
256,192,129614,12,0,130563,0:0:0:0:
256,192,130563,12,0,130695,0:0:0:0:
256,192,130784,12,0,130916,0:0:0:0:
256,192,130982,12,0,131048,0:0:0:0:
256,192,131114,12,0,131137,0:0:0:0:
256,192,131159,12,0,131182,0:0:0:0:
256,192,131203,12,0,131226,0:0:0:0:
256,192,131247,12,0,131270,0:0:0:0:
256,192,131291,12,0,131314,0:0:0:0:
256,192,131313,12,0,131336,0:0:0:0:
256,192,131335,12,0,131358,0:0:0:0:
256,192,131357,12,0,131380,0:0:0:0:
256,192,131379,12,0,131402,0:0:0:0:
256,192,131401,12,0,131424,0:0:0:0:
256,192,131423,12,0,131446,0:0:0:0:
256,192,131445,12,0,131468,0:0:0:0:
256,192,131467,12,0,131490,0:0:0:0:
256,192,131489,12,0,131512,0:0:0:0:
256,192,131512,12,0,131535,0:0:0:0:
256,192,131534,12,0,131557,0:0:0:0:
256,192,131556,12,0,131579,0:0:0:0:
256,192,131578,12,0,131601,0:0:0:0:
256,192,131600,12,0,131623,0:0:0:0:
256,192,131622,12,0,131645,0:0:0:0:
256,192,131644,12,0,131667,0:0:0:0:
256,192,131666,12,0,131689,0:0:0:0:
256,192,131688,12,0,131711,0:0:0:0:
256,192,131710,12,0,131733,0:0:0:0:
256,192,131732,12,0,131755,0:0:0:0:
256,192,131754,12,0,131777,0:0:0:0:
256,192,131776,12,0,131799,0:0:0:0:
256,192,131798,12,0,131821,0:0:0:0:
256,192,131820,12,0,131843,0:0:0:0:
256,192,131842,12,0,131865,0:0:0:0:
256,192,131864,12,0,131887,0:0:0:0:
256,192,131887,12,0,131910,0:0:0:0:
256,192,131909,12,0,131932,0:0:0:0:
256,192,131931,12,0,131954,0:0:0:0:
256,192,131953,12,0,131976,0:0:0:0:
256,192,131975,12,0,131998,0:0:0:0:
256,192,131997,12,0,132020,0:0:0:0:
256,192,132019,12,0,132042,0:0:0:0:
256,192,132041,12,0,132064,0:0:0:0:
256,192,132063,12,0,132086,0:0:0:0:
256,192,132085,12,0,132108,0:0:0:0:
256,192,132107,12,0,132130,0:0:0:0:
256,192,132129,12,0,132152,0:0:0:0:
256,192,132151,12,0,132174,0:0:0:0:
256,192,132173,12,0,132196,0:0:0:0:
256,192,132195,12,0,132218,0:0:0:0:
256,192,132217,12,0,132240,0:0:0:0:
256,192,132239,12,0,132262,0:0:0:0:
256,192,132262,12,0,132285,0:0:0:0:
256,192,132284,12,0,132307,0:0:0:0:
256,192,132306,12,0,132329,0:0:0:0:
256,192,132328,12,0,132351,0:0:0:0:
256,192,132350,12,0,132373,0:0:0:0:
256,192,132372,12,0,132395,0:0:0:0:
256,192,132394,12,0,132417,0:0:0:0:
256,192,132416,12,0,132439,0:0:0:0:
256,192,132438,12,0,132461,0:0:0:0:
256,192,132460,12,0,132483,0:0:0:0:
256,192,132482,12,0,132505,0:0:0:0:
256,192,132504,12,0,132527,0:0:0:0:
256,192,132526,12,0,132549,0:0:0:0:
256,192,132548,12,0,132571,0:0:0:0:
256,192,132570,12,0,132593,0:0:0:0:
256,192,132592,12,0,132615,0:0:0:0:
256,192,132614,12,0,132637,0:0:0:0:
256,192,132637,12,0,132660,0:0:0:0:
256,192,132659,12,0,132682,0:0:0:0:
256,192,132681,12,0,132704,0:0:0:0:
256,192,132703,12,0,132726,0:0:0:0:
256,192,132747,12,0,132770,0:0:0:0:
256,192,132769,12,0,132792,0:0:0:0:
256,192,132791,12,0,132814,0:0:0:0:
256,192,132813,12,0,132836,0:0:0:0:
256,192,132835,12,0,132858,0:0:0:0:
256,192,132857,12,0,132880,0:0:0:0:
256,192,132879,12,0,132902,0:0:0:0:
256,192,132901,12,0,132924,0:0:0:0:
256,192,132923,12,0,132946,0:0:0:0:
256,192,132945,12,0,132968,0:0:0:0:
256,192,132967,12,0,132990,0:0:0:0:
256,192,132989,12,0,133012,0:0:0:0:
256,192,133012,12,0,133035,0:0:0:0:
256,192,133034,12,0,133078,0:0:0:0:
256,192,133122,12,0,133188,0:0:0:0:
256,192,133210,12,0,133276,0:0:0:0:
256,192,133298,12,0,133387,0:0:0:0:
256,192,133453,12,0,133563,0:0:0:0:
256,192,133607,12,0,133762,0:0:0:0:
256,192,133850,12,0,134070,0:0:0:0:
256,192,134159,12,0,134445,0:0:0:0:
256,192,134556,12,0,134688,0:0:0:0:
256,192,134732,12,0,135438,0:0:0:0:
256,192,135526,12,0,135526,0:0:0:0:
74,163,135526,102,0,B|109:141|117:87|117:87|107:161|107:161|39:227|75:336,1,330.000012588501,10|0,0:0|0:0,0:0:0:0:
133,0,135703,1,2,0:0:0:0:
68,313,135879,102,0,B|141:343|213:300|231:243|222:184|222:184|223:238|298:275,1,330.000012588501,8|0,0:0|0:0,0:0:0:0:
314,154,136056,1,2,0:0:0:0:
309,180,136144,1,2,0:0:0:0:
262,253,136232,6,0,B|305:276|365:263|382:219|382:219|362:272|376:281|376:281|419:249|488:248|526:302,1,330.000012588501,8|0,0:0|0:0,0:0:0:0:
394,83,136409,2,0,P|394:94|423:167,1,55,2|0,0:0|0:0,0:0:0:0:
494,272,136585,101,8,0:0:0:0:
263,40,136762,2,0,P|257:49|246:127,1,55,2|0,0:0|0:0,0:0:0:0:
260,338,136938,5,10,0:0:0:0:
273,341,137026,1,2,0:0:0:0:
287,346,137114,2,0,L|203:359,1,55,2|0,0:0|0:0,0:0:0:0:
72,374,137291,102,0,B|63:301|63:301|65:286|65:286|59:210|59:210|141:199|141:199|155:194|155:194|227:184,1,330.000012588501,8|0,0:0|0:0,0:0:0:0:
99,46,137467,2,0,L|107:126,1,55,2|0,0:0|0:0,0:0:0:0:
221,184,137644,6,0,B|331:167|331:167|322:172|322:172|403:161|403:161|466:214|424:321,1,330.000012588501,8|0,0:0|0:0,0:0:0:0:
185,37,137820,2,0,L|193:117,1,55,2|0,0:0|0:0,0:0:0:0:
437,276,137997,102,0,B|353:296|353:296|345:371|345:371|510:338,1,330.000012588501,8|0,0:0|0:0,0:0:0:0:
271,28,138173,2,0,L|279:108,1,55,2|0,0:0|0:0,0:0:0:0:
509,338,138350,6,0,L|516:279,1,55,10|0,0:0|0:0,0:0:0:0:
471,52,138526,2,2,B|434:49|399:38|399:38|349:91|349:91|307:75|232:86,1,220,2|0,0:0|0:0,0:1:0:0:
276,81,138703,102,0,B|256:83|256:83|259:101|276:109|306:112|311:71|298:50|271:46|252:68|256:83|256:83|275:79,1,165.000006294251,10|0,0:0|0:0,0:0:0:0:
493,165,138879,2,0,P|455:152|417:153,1,55,2|0,0:0|0:0,0:0:0:0:
175,42,139056,2,0,P|135:49|103:69,1,55,10|0,0:0|0:0,0:0:0:0:
308,226,139232,5,2,0:0:0:0:
307,215,139320,1,2,0:0:0:0:
306,203,139409,1,10,0:0:0:0:
305,192,139497,1,2,0:0:0:0:
237,278,139585,101,2,0:0:0:0:
317,311,139673,1,2,0:0:0:0:
386,258,139762,5,10,0:0:0:0:
320,325,139850,2,0,P|367:350|430:343,1,82.5000031471254,2|0,0:0|0:0,0:0:0:0:
182,201,140026,101,2,0:0:0:0:
158,292,140114,2,0,P|211:290|262:252,1,82.5000031471254,10|0,0:0|0:0,0:0:0:0:
219,113,140291,6,0,B|160:94|109:138|109:138|112:123|112:123|39:166|36:252|36:252|91:275,1,330.000012588501,2|0,0:0|0:0,0:0:0:0:
10,0,140467,2,0,P|1:26|0:53,1,55,10|0,0:0|0:0,0:0:0:0:
72,267,140644,102,0,B|36:252|36:252|42:346|101:381|101:381|264:401,1,330.000012588501,2|0,0:0|0:0,0:0:0:0:
259,39,140820,2,0,P|232:30|205:28,1,55,10|0,0:0|0:0,0:0:0:0:
239,398,140997,2,0,B|243:343,1,55,2|2,0:0|0:0,0:0:0:0:
219,113,141173,5,8,0:0:0:0:
453,267,141350,2,2,B|337:280|337:280|303:226|235:238,1,220,2|0,0:0|0:0,0:1:0:0:
249,236,141526,102,0,B|229:238|229:238|232:256|249:264|279:267|284:226|271:205|244:201|225:223|229:238|229:238|248:234,1,165.000006294251,10|0,0:0|0:0,0:0:0:0:
441,176,141703,2,0,P|415:183|374:183,1,55,2|0,0:0|0:0,0:0:0:0:
219,113,141879,6,0,B|135:136|111:219|140:262|140:262|136:245|138:226|138:226|120:174|37:169,1,330.000012588501,10|0,0:0|0:0,0:0:0:0:
427,91,142056,2,0,P|399:92|373:99,1,55,2|0,0:0|0:0,0:0:0:0:
61,171,142232,102,0,P|60:293|143:374,1,220,10|0,0:0|0:0,0:0:0:0:
121,363,142409,6,0,B|185:372|217:328|217:328|233:341|229:345|229:345|321:340|293:368|380:360|380:360|344:356|323:319,1,330.000012588501,2|2,0:0|0:0,0:0:0:0:
348,314,142585,1,10,0:0:0:0:
343,327,142673,1,2,0:0:0:0:
338,339,142762,102,0,B|304:304|302:238|339:195|339:195|449:217|412:163|507:176,1,330.000012588501
399,60,142938,2,0,P|389:86|388:114,1,55,10|0,0:0|0:0,0:0:0:0:
507,176,143114,2,0,P|516:201|518:229,1,55,2|0,0:0|0:0,0:0:0:0:
7,278,143291,6,0,B|-23:286|-48:344|12:390|91:357|69:263|7:278,1,220,2|0,0:1|0:1,0:0:0:0:
74,120,143467,2,0,B|50:113|32:70|78:35|137:59|121:130|74:120,1,165.000006294251,2|0,0:1|0:1,0:0:0:0:
168,253,143644,2,0,B|152:257|140:286|170:309|210:292|199:245|168:253,1,110,2|0,0:1|0:1,0:0:0:0:
214,139,143820,2,0,B|202:135|193:114|216:97|245:109|237:144|214:139,1,82.5000031471254,2|0,0:1|0:1,0:0:0:0:
263,216,143997,102,0,B|353:198|325:265|417:252,1,165,2|0,0:1|0:0,0:0:0:0:
405,115,144173,6,0,P|397:141|398:169,1,55,2|0,0:0|0:0,0:0:0:0:
292,352,144350,2,0,P|293:325|285:299,1,55,10|0,0:0|0:0,0:0:0:0:
417,251,144526,101,2,0:0:0:0:
400,338,144614,2,0,P|439:337|490:300,1,82.5000031471254,2|0,0:0|0:0,0:0:0:0:
473,56,144791,6,2,B|427:14|370:32|370:32|341:23|341:23|276:118|174:78,1,330,2|0,0:0|0:0,0:1:0:0:
178,79,145056,101,10,0:0:0:0:
193,162,145144,1,2,0:0:0:0:
208,245,145232,2,0,L|138:238,1,55,2|0,0:0|0:0,0:0:0:0:
15,125,145409,5,8,0:0:0:0:
25,124,145497,1,2,0:0:0:0:
35,123,145585,1,2,0:0:0:0:
45,122,145673,1,2,0:0:0:0:
89,235,145762,101,8,0:0:0:0:
111,236,145850,1,2,0:0:0:0:
132,238,145938,1,2,0:0:0:0:
153,239,146026,1,2,0:0:0:0:
178,79,146114,5,8,0:0:0:0:
211,77,146203,1,2,0:0:0:0:
243,75,146291,1,2,0:0:0:0:
275,73,146379,1,2,0:0:0:0:
303,290,146467,101,8,0:0:0:0:
347,293,146556,1,2,0:0:0:0:
390,296,146644,1,2,0:0:0:0:
433,299,146732,1,2,0:0:0:0:
256,192,146818,12,0,146818,0:0:0:0:
466,69,146820,86,0,B|405:77|405:77|380:135|411:179|411:179|315:166|351:205|255:194,1,330.000012588501,12|10,0:0|0:0,0:0:0:0:
244,163,146997,1,2,0:0:0:0:
249,178,147085,1,2,0:0:0:0:
254,193,147173,70,0,B|211:182|169:201|169:201|171:139|171:139|167:111|167:111|170:53|170:53|62:63,1,330.000012588501
65,90,147350,1,2,0:0:0:0:
70,75,147438,1,2,0:0:0:0:
75,61,147526,38,0,B|-12:70|-12:70|-14:110|-29:142|-29:142|-28:176|-28:176|-44:211|-41:254|-41:254|44:245,1,330.000012588501,8|0,0:0|0:0,0:0:0:0:
82,47,147614,1,2,0:0:0:0:
86,34,147703,1,2,0:0:0:0:
12,248,147879,69,8,0:0:0:0:
316,61,148056,2,0,P|282:58|222:73,1,55,2|0,0:0|0:0,0:0:0:0:
167,335,148232,37,10,0:0:0:0:
162,345,148320,1,2,0:0:0:0:
157,355,148409,2,0,L|259:346,1,55,2|0,0:0|0:0,0:0:0:0:
365,290,148585,70,0,B|495:299|495:299|490:258|502:216|502:216|498:183|498:183|511:145|507:92,1,330.000012588501,8|0,0:0|0:0,0:0:0:0:
143,254,148762,2,0,L|245:245,1,55,2|0,0:0|0:0,0:0:0:0:
507,101,148938,38,0,B|536:90|553:70|553:70|524:88|460:92|407:81|449:41|362:5|282:57,1,330.000012588501,8|0,0:0|0:0,0:0:0:0:
129,153,149114,2,0,L|231:144,1,55,2|0,0:0|0:0,0:0:0:0:
294,49,149291,70,0,B|360:65|392:144|354:205|354:205|303:218|273:265|286:322,1,330.000012588501,8|0,0:0|0:0,0:0:0:0:
118,51,149467,2,0,L|220:42,1,55,2|0,0:0|0:0,0:0:0:0:
283,306,149644,38,0,L|294:394,1,55,10|0,0:0|0:0,0:0:0:0:
107,343,149820,2,2,B|89:297|102:250|102:250|135:241|135:241|149:192|125:144,1,220,2|0,0:0|0:0,0:1:0:0:
128,152,149997,70,0,B|126:132|126:132|109:134|99:151|98:181|134:188|159:178|162:149|143:127|126:132|126:132|129:151,1,165.000006294251,10|0,0:0|0:0,0:0:0:0:
219,192,150173,2,0,P|225:165|225:124,1,55,2|0,0:0|0:0,0:0:0:0:
38,111,150350,2,0,P|32:138|32:179,1,55,10|0,0:0|0:0,0:0:0:0:
303,236,150526,37,2,0:0:0:0:
313,236,150614,1,2,0:0:0:0:
324,237,150703,1,10,0:0:0:0:
334,238,150791,1,2,0:0:0:0:
219,192,150879,69,2,0:0:0:0:
227,279,150967,1,2,0:0:0:0:
302,323,151056,37,10,0:0:0:0:
216,288,151144,2,0,P|184:315|171:368,1,82.5000031471254,2|0,0:0|0:0,0:0:0:0:
509,381,151320,69,2,0:0:0:0:
495,287,151408,2,0,P|455:272|403:288,1,82.5000031471254,10|0,0:0|0:0,0:0:0:0:
219,192,151585,38,0,B|133:168|65:230|65:230|151:176|131:60,1,330.000012588501,2|0,0:0|0:0,0:0:0:0:
397,188,151762,2,0,P|361:163|323:159,1,55,10|0,0:0|0:0,0:0:0:0:
134,91,151938,70,0,B|127:30|73:3|18:0|18:0|-22:87|14:173,1,330.000012588501
418,77,152114,2,0,P|374:73|339:88,1,55,10|0,0:0|0:0,0:0:0:0:
10,163,152291,2,0,P|-17:200|-23:241,1,55,2|0,0:0|0:0,0:0:0:0:
473,144,152467,37,8,0:0:0:0:
66,230,152644,2,2,B|176:240|176:240|236:276|212:352,1,220,2|0,0:0|0:0,0:1:0:0:
216,333,152820,70,0,B|214:353|214:353|196:350|188:333|185:303|226:298|247:311|251:338|229:357|214:353|214:353|218:334,1,165.000006294251,10|0,0:0|0:0,0:0:0:0:
125,371,152997,2,0,P|119:345|120:317,1,55,2|0,0:0|0:0,0:0:0:0:
103,150,153173,38,0,B|260:165|260:165|313:98|313:98|202:87,1,330.000012588501,8|0,0:0|0:0,0:0:0:0:
305,373,153350,2,0,P|313:346|314:319,1,55,2|0,0:0|0:0,0:0:0:0:
226,89,153526,70,2,B|214:79|214:79|425:99,1,220,2|0,0:0|0:0,0:1:0:0:
416,98,153703,38,0,B|373:158|373:158|418:138|462:160|493:209|458:273|427:217|415:333|469:360,1,330.000012588501,2|0,0:0|0:0,0:0:0:0:
472,335,153879,1,10,0:0:0:0:
460,338,153967,1,2,0:0:0:0:
448,340,154056,70,0,B|411:301|331:314|304:373|304:373|281:354|266:335|266:335|226:371|166:358,1,330.000012588501,2|0,0:0|0:0,0:0:0:0:
259,187,154232,2,0,P|251:218|260:278,1,55,10|0,0:0|0:0,0:0:0:0:
169,358,154409,2,0,P|168:330|160:304,1,55,2|0,0:0|0:0,0:0:0:0:
71,72,154585,38,0,B|41:18|41:18|194:57,1,220,2|0,0:1|0:0,0:0:0:0:
381,107,154762,2,0,B|403:66|403:66|288:96,1,165.000006294251,2|0,0:1|0:0,0:0:0:0:
111,169,154938,2,0,B|91:145|91:145|170:151,1,110,2|0,0:1|0:0,0:0:0:0:
303,200,155114,2,0,B|317:181|317:181|258:186,1,82.5000031471254,2|0,0:1|0:0,0:0:0:0:
185,236,155291,70,0,B|176:288|176:288|183:346|183:346|173:402,1,165,2|0,0:1|0:0,0:0:0:0:
318,283,155467,38,0,L|264:291,1,55,2|0,0:0|0:0,0:0:0:0:
40,336,155644,2,0,L|95:344,1,55,10|0,0:0|0:0,0:0:0:0:
173,398,155820,69,2,0:0:0:0:
260,373,155909,2,0,P|314:378|352:404,1,82.5000031471254,2|0,0:0|0:0,0:0:0:0:
512,285,156085,38,2,B|482:339|406:323|406:323|421:267|418:206|371:221|359:162|398:103,1,330,2|0,0:0|0:0,0:1:0:0:
386,123,156350,69,10,0:0:0:0:
301,138,156438,1,2,0:0:0:0:
216,152,156526,2,0,L|199:62,1,55,2|0,0:0|0:0,0:0:0:0:
241,0,156703,37,2,0:0:0:0:
261,7,156791,1,2,0:0:0:0:
253,28,156879,1,2,0:0:0:0:
233,20,156967,1,2,0:0:0:0:
348,48,157056,70,0,B|369:56|369:56|382:144,1,82.5000031471254,2|0,0:1|0:0,0:0:0:0:
164,336,157232,2,0,B|143:328|143:328|130:240,1,82.5000031471254,2|0,0:1|0:0,0:0:0:0:
242,131,157409,22,0,L|272:266,1,123.750004720688,2|0,0:1|0:0,0:0:0:0:
271,384,157762,5,2,0:0:0:0:
259,356,157850,1,2,0:0:0:0:
279,364,157938,1,2,0:0:0:0:
251,377,158026,1,2,0:0:0:0:
256,192,158114,12,0,158114,0:0:0:0:
268,251,158114,6,0,B|221:220|144:237|115:289|167:320|132:373|46:393|-2:346,1,330.000012588501,8|0,0:0|0:0,0:0:0:0:
56,281,158644,37,8,0:0:0:0:
4,349,158820,2,0,P|-25:312|-24:249,1,82.5000031471254,2|0,0:3|0:0,0:0:0:0:
71,87,159173,70,0,B|95:72|95:72|73:192,1,123.750004720688,8|0,0:0|0:0,0:0:0:0:
414,95,159526,38,0,B|249:12|182:183|306:247|361:161,1,330.000012588501,2|0,0:0|0:0,0:0:0:0:
276,56,159878,2,0,B|231:86|211:167|253:223|328:214|351:172,1,247.500009441376,2|0,0:0|0:0,0:0:0:0:
485,242,160231,70,0,B|450:182|395:156|332:181,1,165.000006294251,2|0,0:3|0:0,0:0:0:0:
241,211,160408,38,0,B|281:223|331:217|348:176,1,123.750004720688,2|0,0:0|0:0,0:0:0:0:
333,214,160761,2,0,B|349:186|352:167|345:138,1,41.2500015735627,2|0,0:0|0:0,0:0:0:0:
347,175,160937,70,2,B|332:84|393:26|393:26|353:-29|353:-29|340:-100|340:-100|334:-109|334:-109|337:-105|337:-105|334:-138|334:-138|335:-147|335:-147|328:-147|328:-147|-30533:-85541|-30533:-85541|162:-155|162:-155|187:-119|187:-119|175:-79|175:-79|203:114|203:114|183:66|116:18|116:18|176:42|266:-5|266:-5|212:56|202:112|202:112|208:135|198:176|198:176|273:135|347:175,1,182820
166,339,161113,38,0,B|217:332|217:332|241:334|241:334|309:322|309:322|331:325|331:325|396:317,1,220,2|0,0:1|0:0,0:0:0:0:
383,318,161289,70,0,B|302:319|302:319|231:340|231:340|167:339,1,220,2|0,0:0|0:0,0:0:0:0:
160,317,161465,1,8,0:0:0:0:
163,328,161553,1,8,0:0:0:0:
166,339,161641,38,0,L|178:79,1,247.500009441376,2|0,0:3|0:0,0:0:0:0:
177,91,162171,70,0,L|181:122,1,20.6250007867813,2|0,0:0|0:0,0:0:0:0:
99,98,162259,2,0,L|102:133,1,20.6250007867813,2|0,0:0|0:0,0:0:0:0:
21,104,162348,37,2,0:0:0:0:
25,108,162436,2,0,L|36:237,1,110,2|0,0:0|0:0,0:0:0:0:
30,221,162700,2,0,L|139:210,1,110,2|0,0:0|0:0,0:0:0:0:
139,209,162877,70,0,B|301:245|301:245|467:174,1,330.000012588501,2|0,0:1|0:0,0:0:0:0:
300,245,163053,1,2,0:3:0:0:
451,180,163230,38,0,B|461:153|441:129|413:122|377:135|357:153|348:193|360:270|404:301|483:293|532:270|544:226|551:178|553:126|534:61|434:12|332:62|313:162,1,660,8|0,0:0|0:0,0:0:0:0:
314,155,163759,70,0,P|320:237|381:305,1,165.000006294251,8|0,0:0|0:0,0:0:0:0:
371,299,164112,38,0,B|387:313|387:313|337:333|337:333|248:320|248:320|158:346|158:346|103:335|103:335|118:321,1,330.000012588501,2|0,0:1|0:0,0:0:0:0:
113,324,164465,70,0,P|154:259|144:145,1,165.000006294251,2|0,0:3|0:0,0:0:0:0:
154,173,164818,38,0,B|148:157|148:157|23:186|23:186|26:166,1,165.000006294251,2|0,0:1|0:0,0:0:0:0:
25,167,164995,70,0,P|45:236|44:276,1,82.5000031471254,2|0,0:0|0:0,0:0:0:0:
97,59,165348,2,0,P|27:41|-6:20,1,82.5000031471254,2|0,0:0|0:0,0:0:0:0:
154,173,165700,2,0,P|204:121|239:102,1,82.5000031471254,2|0,0:0|0:0,0:0:0:0:
212,116,165877,38,0,L|279:122,1,55,2|0,0:0|0:0,0:0:0:0:
479,140,166053,2,0,L|424:135,1,55,2|0,0:0|0:0,0:0:0:0:
348,131,166230,70,0,P|352:167|391:208,1,82.5000031471254,2|0,0:0|0:0,0:0:0:0:
348,131,166406,2,0,P|344:95|305:54,1,82.5000031471254,2|0,0:0|0:0,0:0:0:0:
348,131,166583,38,0,P|350:160|359:179,1,41.2500015735627,2|0,0:0|0:0,0:0:0:0:
493,251,166759,2,0,P|466:238|445:236,1,41.2500015735627,2|0,0:0|0:0,0:0:0:0:
316,316,166936,2,0,P|340:299|352:282,1,41.2500015735627,2|0,0:0|0:0,0:0:0:0:
262,224,167112,69,8,0:0:0:0:
268,237,167200,1,8,0:0:0:0:
274,226,167289,38,0,B|189:220|189:220|177:219|177:219|185:219|185:219|173:218|173:218|181:219|181:219|166:218|166:218|177:219|177:219|166:218|166:218|173:218|173:218|162:218|162:218|169:218|169:218|158:217|158:217|166:218|166:218|154:217|154:217|162:218|162:218|150:217|150:217|147:217,1,220,6|0,0:3|0:0,0:0:0:0:
154,217,167642,70,0,L|90:227,1,55,8|0,0:0|0:0,0:0:0:0:
0,236,167818,1,4,0:3:0:0:
181,0,167995,37,8,0:0:0:0:
181,0,168083,1,8,0:0:0:0:
181,0,168171,2,0,P|210:29|236:44,1,55,8|0,0:0|0:0,0:0:0:0:
204,121,168348,2,0,P|164:131|138:146,1,55,8|0,0:0|0:0,0:0:0:0:
85,86,168524,2,0,P|95:46|95:16,1,55,8|0,0:0|0:0,0:0:0:0:
288,91,168700,70,0,B|392:106|358:83|458:95,1,165,2|0,0:0|0:0,0:0:0:0:
452,94,168965,38,0,L|450:81,16,13.75
341,283,169230,69,8,0:0:0:0:
348,293,169318,1,8,0:0:0:0:
356,303,169406,2,0,L|274:296,1,55,8|0,0:0|0:0,0:0:0:0:
308,304,169583,38,0,L|79:320,1,220,2|0,0:0|0:0,0:0:0:0:
88,319,169760,69,8,0:0:0:0:
92,305,169848,1,8,0:0:0:0:
107,308,169936,1,8,0:0:0:0:
104,322,170024,1,8,0:0:0:0:
98,315,170112,38,0,B|97:316|97:316|98:308|98:308|97:316|97:316|98:304|98:304|97:312|97:312|98:301|98:301|98:308|98:308|98:297|98:297|98:304|98:304|99:293|99:293|98:304|98:304|99:289|99:289|98:297|98:297|99:285|99:285|99:293|99:293|100:281|100:281|100:278|100:278|99:284|99:284|100:270|100:270|100:275|100:275|101:270|101:270|100:272|100:272|101:269|101:269|100:274|100:274|115:7,1,440,6|0,0:3|0:0,0:0:0:0:
113,29,170465,70,0,L|121:90,1,55,10|0,0:0|0:0,0:0:0:0:
138,183,170642,1,2,0:0:0:0:
450,40,170818,37,2,0:0:0:0:
466,43,170906,1,2,0:0:0:0:
482,47,170995,2,0,L|311:57,1,165.000006294251,2|0,0:0|0:0,0:0:0:0:
317,56,171171,2,0,P|335:92|336:147,1,82.5000031471254,2|0,0:0|0:0,0:0:0:0:
294,251,171348,69,8,0:0:0:0:
285,250,171436,1,8,0:0:0:0:
276,249,171524,1,8,0:0:0:0:
267,248,171612,1,8,0:0:0:0:
257,248,171700,2,0,L|179:242,1,55,8|0,0:0|0:0,0:0:0:0:
459,160,171877,38,0,B|461:170|461:170|461:164|461:164|463:181|463:181|462:175|462:175|463:192|463:192|463:185|463:185|463:206|463:206|462:195|462:195|462:210|462:210|463:201|463:201|459:230|459:230|462:215|462:215|461:224|461:224|461:219|461:219|458:233|458:233|456:242|456:242|458:234|458:234|456:239|456:239|455:245|455:245|454:247|454:247|436:301|363:370|258:342,1,440,8|0,0:0|0:0,0:0:0:0:
280,346,172230,69,2,0:0:0:0:
29,163,172406,38,0,B|35:121|35:121|47:262|47:262|31:209,1,220,2|0,0:0|0:0,0:0:0:0:
37,228,172583,70,0,L|260:248,1,165.000006294251,2|0,0:0|0:0,0:0:0:0:
376,28,172848,37,2,0:0:0:0:
369,17,172936,2,0,B|331:-44|186:4|265:174,1,275,2|0,0:0|0:0,0:0:0:0:
369,17,173465,70,0,B|331:-44|186:4|265:174,1,275,2|0,0:1|0:0,0:0:0:0:
260,163,173642,37,2,0:0:0:0:
270,172,173730,2,0,L|387:181,1,110,2|0,0:0|0:0,0:0:0:0:
389,173,173995,2,0,L|407:318,1,110,10|0,0:0|0:0,0:0:0:0:
402,282,174171,70,0,B|236:271|236:271|83:367,1,330.000012588501,2|0,0:1|0:0,0:0:0:0:
236,272,174348,1,2,0:3:0:0:
97,359,174524,38,8,P|106:331|104:304,1,55
95,349,174612,2,8,P|90:316|96:278,1,55
91,336,174700,2,8,P|96:292|77:252,1,55
86,319,174789,2,8,P|79:285|88:246,1,55
80,296,174877,2,8,P|84:266|77:230,1,55
73,268,174965,2,8,P|71:242|78:197,1,55
59,222,175053,70,0,B|54:94|100:135|96:4,1,220,2|0,0:0|0:0,0:0:0:0:
96,7,175406,2,0,P|92:53|105:97,1,55,2|0,0:0|0:0,0:0:0:0:
173,188,175583,37,8,0:0:0:0:
183,190,175671,1,8,0:0:0:0:
193,192,175759,1,8,0:0:0:0:
203,194,175848,1,8,0:0:0:0:
214,196,175936,2,0,L|282:189,1,55,8|0,0:0|0:0,0:0:0:0:
395,12,176112,70,0,L|416:257,1,220,2|0,0:1|0:0,0:0:0:0:
413,231,176289,38,0,P|451:213|513:217,1,82.5000031471254,2|0,0:0|0:0,0:0:0:0:
372,127,176642,2,0,P|337:103|310:48,1,82.5000031471254,2|0,0:0|0:0,0:0:0:0:
302,215,176995,2,0,P|299:256|264:308,1,82.5000031471254,2|0,0:0|0:0,0:0:0:0:
193,345,177348,69,10,0:3:0:0:
150,10,177524,1,10,0:3:0:0:
162,100,177700,1,8,0:0:0:0:
148,0,177877,38,0,L|135:267,1,247.500009441376,8|0,0:0|0:0,0:0:0:0:
130,257,178495,70,0,L|362:246,1,220,2|0,0:1|0:0,0:0:0:0:
349,246,178671,38,0,B|318:237|294:221|294:221|190:282|190:282|159:263|130:257,1,247.500009441376,2|0,0:0|0:0,0:0:0:0:
129,256,178936,70,0,B|135:310|135:310|132:273,2,55,2|0|0,0:0|0:0|0:0,0:0:0:0:
478,16,179377,37,2,0:0:0:0:
487,23,179465,2,0,L|349:21,1,82.5000031471254,2|0,0:0|0:0,0:0:0:0:
293,17,179642,70,0,P|281:90|320:165,1,82.5000031471254,2|0,0:0|0:0,0:0:0:0:
145,47,179818,2,0,P|171:116|242:161,1,82.5000031471254,2|0,0:0|0:0,0:0:0:0:
388,257,179995,38,0,P|305:190|185:255,1,247.500009441376,2|0,0:0|0:0,0:0:0:0:
284,23,180348,70,0,P|272:96|299:144,1,71.4999967269899,2|0,0:0|0:0,0:0:0:0:
162,48,180524,2,0,P|188:117|234:149,1,71.4999967269899,2|0,0:0|0:0,0:0:0:0:
256,192,180700,37,6,0:0:0:0:
256,192,180789,12,0,182056,0:0:0:0:
174,122,182145,22,0,B|140:97|140:97|73:193|146:297,1,247.500009441376,2|0,0:0|0:0,0:0:0:0:
294,321,182828,2,0,P|258:322|225:336,1,72.1875027537347,2|0,0:0|0:0,0:0:0:0:
30,384,183159,2,0,P|66:387|100:377,1,72.1875027537347,2|0,0:0|0:0,0:0:0:0:
329,135,183556,6,0,B|289:190|309:291|425:323|535:263|520:126|439:103|416:98|416:98|393:93|359:89|294:117|345:163|230:207|147:187|130:134|121:47|226:10|258:92,1,825.000031471254,2|0,0:0|0:0,0:0:0:0:
396,178,185497,1,2,0:0:0:0:
178,347,185673,102,0,L|182:239,1,82.5000031471254,2|0,0:0|0:0,0:0:0:0:
265,268,186026,2,0,L|261:376,1,82.5000031471254,2|0,0:0|0:0,0:0:0:0:
37,335,186379,5,2,0:0:0:0:
10,252,186539,1,2,0:0:0:0:
43,172,186715,1,2,0:0:0:0:
180,262,186891,102,0,L|79:256,1,82.5000031471254,2|0,0:0|0:0,0:0:0:0:
196,79,187244,2,0,P|159:163|118:173,1,123.750004720688,2|0,0:0|0:0,0:0:0:0:
95,41,187612,6,0,P|111:66|115:102,1,55,2|0,0:0|0:0,0:0:0:0:
9,85,187788,2,0,P|21:87|36:95,6,27.5,2|2|2|2|2|2|2,0:0|0:0|0:0|0:0|0:0|0:0|0:0,0:0:0:0:
95,41,188214,102,0,P|141:86|198:78,1,123.750004720688,2|0,0:0|0:0,0:0:0:0:
196,79,188478,2,0,P|247:69|275:81,1,82.5000031471254,2|0,0:0|0:0,0:0:0:0:
356,151,188743,5,2,0:0:0:0:
362,142,188851,2,0,L|348:263,1,110,2|0,0:0|0:0,0:0:0:0:
137,329,189203,101,2,0:0:0:0:
222,350,189379,2,0,P|168:352|132:337,1,82.5000031471254,2|0,0:0|0:0,0:0:0:0:
119,228,189732,5,2,0:0:0:0:
203,203,189908,2,0,P|157:231|118:236,1,82.5000031471254,2|0,0:0|0:0,0:0:0:0:
47,138,190261,101,2,0:0:0:0:
114,71,190438,2,0,B|114:69|114:69|102:122|57:143|57:143|64:141,3,101.749999611855,2|2|2|2,0:0|0:0|0:0|0:0,0:0:0:0:
18,54,190786,5,2,0:0:0:0:
207,41,190962,1,2,0:0:0:0:
7,54,191138,1,2,0:0:0:0:
218,40,191315,102,0,P|234:92|228:134,1,82.5000031471254,2|0,0:0|0:0,0:0:0:0:
146,132,191668,2,0,P|130:80|136:38,1,82.5000031471254,2|0,0:0|0:0,0:0:0:0:
202,201,192021,6,0,B|221:288|155:348|73:319|73:319|104:283|111:242|111:242|156:357|288:356|336:292,1,577.500022029878,2|0,0:0|0:0,0:0:0:0:
301,129,193432,102,0,P|337:201|376:97,1,247.500009441376,2|0,0:0|0:0,0:0:0:0:
512,0,194137,2,0,P|492:40|492:80,1,82.5000031471254,2|0,0:0|0:0,0:0:0:0:
505,166,194490,5,2,0:0:0:0:
484,253,194667,1,2,0:0:0:0:
508,357,194843,102,0,B|452:375|383:333|379:268|379:268|347:405|249:388|169:359|167:218|236:199|309:227|287:295,1,577.500022029878,2|0,0:0|0:0,0:0:0:0:
293,286,196254,1,2,0:0:0:0:
0,178,196607,6,0,B|201:216|119:97|317:131,1,330.000012588501,2|0,0:0|0:0,0:0:0:0:
413,16,197665,101,2,0:0:0:0:
395,99,197829,1,2,0:0:0:0:
457,159,198005,1,2,0:0:0:0:
315,130,198181,1,2,0:0:0:0:
470,163,198358,6,0,P|480:230|389:271,1,165,2|0,0:0|0:0,0:0:0:0:
413,284,198711,2,0,P|351:290|317:382,1,165,2|0,0:0|0:0,0:0:0:0:
327,381,199064,102,0,B|429:389|429:389|409:388,2,103.125003933907,2|2|2,0:0|0:0|0:0,0:0:0:0:
269,237,199769,6,0,B|173:224|209:279|109:264,1,165.000006294251,2|0,0:0|0:0,0:0:0:0:
111,264,200122,102,0,P|144:218|144:152,1,110,2|0,0:0|0:0,0:0:0:0:
147,165,200299,2,0,P|107:102|20:91,1,165.000006294251,2|0,0:0|0:0,0:0:0:0:
22,90,200476,5,2,0:0:0:0:
262,28,200667,2,0,P|250:70|250:117,1,82.5000031471254,2|0,0:0|0:0,0:0:0:0:
156,19,201019,101,2,0:0:0:0:
403,77,201196,2,0,P|371:107|348:148,1,82.5000031471254,2|0,0:0|0:0,0:0:0:0:
351,6,201549,5,2,0:0:0:0:
504,185,201725,2,0,P|461:195|420:219,1,82.5000031471254,2|0,0:0|0:0,0:0:0:0:
493,91,202078,101,2,0:0:0:0:
506,197,202255,1,2,0:0:0:0:
491,79,202431,1,2,0:0:0:0:
511,333,202608,6,0,P|469:321|422:321,1,82.5000031471254,2|0,0:0|0:0,0:0:0:0:
421,405,202961,2,0,P|461:414|502:413,1,82.5000031471254,2|0,0:0|0:0,0:0:0:0:
427,213,203314,6,0,P|376:225|353:242,1,82.5,2|0,0:0|0:0,0:0:0:0:
268,219,204019,2,0,P|202:258|96:227,1,192.5,2|0,0:0|0:0,0:0:0:0:
220,139,205430,2,0,P|199:165|172:178,1,55,2|0,0:0|0:0,0:0:0:0:
91,0,206136,5,2,0:0:0:0:
33,98,206313,2,0,B|30:71|18:48|18:48|50:97|127:99|163:48|163:48|149:71|144:101,1,275,2|0,0:0|0:0,0:0:0:0:
263,106,208247,102,0,P|249:103|234:104,1,27.5,2|0,0:0|0:0,0:0:0:0:
231,182,208599,2,0,P|245:185|260:184,1,27.5,2|0,0:0|0:0,0:0:0:0:
328,149,208952,6,0,P|363:141|406:120,1,82.5,2|0,0:0|0:0,0:0:0:0:
449,307,209657,2,0,P|442:239|369:290,1,192.5,2|0,0:0|0:0,0:0:0:0:
302,343,211069,102,0,P|280:342|270:345,1,27.5,2|0,0:0|0:0,0:0:0:0:
192,366,211421,2,0,P|178:368|164:366,1,27.5,2|0,0:0|0:0,0:0:0:0:
120,227,211774,5,2,0:0:0:0:
124,231,211862,1,2,0:0:0:0:
129,235,211950,2,0,B|136:279|97:300|97:300|43:288|28:198|83:162|125:159,1,275,2|0,0:0|0:0,0:0:0:0:
230,194,213891,102,0,P|216:193|203:190,1,27.5,2|0,0:0|0:0,0:0:0:0:
187,104,214243,2,0,P|200:105|214:108,1,27.5,2|0,0:0|0:0,0:0:0:0:
296,137,214596,6,0,P|329:178|356:190,1,82.5,2|0,0:0|0:0,0:0:0:0:
380,77,215301,2,0,L|377:108,1,27.5,2|0,0:0|0:0,0:0:0:0:
509,380,215654,102,0,P|257:283|6:379,1,550,2|0,0:0|0:0,0:0:0:0:
412,281,216007,2,0,P|106:305|6:379,1,440,2|0,0:0|0:0,0:0:0:0:
291,231,216360,2,0,P|133:276|5:378,1,330,2|0,0:0|0:0,0:0:0:0:
163,228,216713,2,0,P|73:292|5:377,1,220,2|0,0:0|0:0,0:0:0:0:
46,276,217066,2,0,P|21:325|4:377,1,110,2|0,0:0|0:0,0:0:0:0:
6,379,217419,6,0,B|73:273|37:136|37:136|32:162|36:201,1,302.5,2|0,0:0|0:0,0:0:0:0:
171,81,219536,102,0,P|151:77|116:64,1,55,2|2,0:0|0:0,0:0:0:0:
240,167,220241,2,0,P|261:171|295:184,1,55,2|0,0:0|0:0,0:0:0:0:
493,16,220942,6,0,P|480:21|462:26,1,27.5,2|0,0:0|0:0,0:0:0:0:
479,282,221304,102,0,P|436:261|417:258,1,55,2|0,0:0|0:0,0:0:0:0:
272,336,221656,2,0,B|177:345|207:306|98:320,2,165,2|2|2,0:0|0:0|0:0,0:0:0:0:
324,267,222891,1,2,0:0:0:0:
292,182,223067,6,0,P|260:204|247:221,1,55,2|0,0:0|0:0,0:0:0:0:
180,161,223597,2,0,P|163:196|160:217,2,55,2|2|2,0:0|0:0|0:0,0:0:0:0:
255,43,224656,101,2,0:0:0:0:
267,55,224832,1,2,0:0:0:0:
248,60,225008,1,2,0:0:0:0:
338,171,225185,6,0,P|340:193|340:201,1,27.5,2|0,0:0|0:0,0:0:0:0:
171,198,225538,2,0,P|172:184|174:171,1,27.5,2|0,0:0|0:0,0:0:0:0:
256,192,225891,5,6,0:0:0:0:
256,192,225935,12,0,230126,0:0:0:0:
